osu file format v14

[General]
AudioFilename: audio.mp3
AudioLeadIn: 0
PreviewTime: -1
Countdown: 1
SampleSet: Soft
StackLeniency: 0.7
Mode: 0
LetterboxInBreaks: 0
WidescreenStoryboard: 0

[Editor]
DistanceSpacing: 6
BeatDivisor: 4
GridSize: 32
TimelineZoom: 1.2

[Metadata]
Title:SmK---Climax
TitleUnicode:SmK---Climax
Artist:SmK
ArtistUnicode:SmK
Creator:pardroid
Version:Climax
Source:SmK
Tags:SmK Climax
BeatmapID:1357731
BeatmapSetID:640246

[Difficulty]
HPDrainRate:5
CircleSize:4
OverallDifficulty:8
ApproachRate:10
SliderMultiplier:2
SliderTickRate:2

[Events]
//Background and Video events
0,0,"smk climax 배경.jpg",0,0
//Break Periods
//Storyboard Layer 0 (Background)
//Storyboard Layer 1 (Fail)
//Storyboard Layer 2 (Pass)
//Storyboard Layer 3 (Foreground)
//Storyboard Sound Samples

[TimingPoints]
0,352.941176470588,4,2,0,100,1,0
167999,-50,4,2,0,100,0,0
175852,-66.6666666666667,4,2,0,100,0,0
191617,-133.333333333333,4,2,0,100,0,0

[HitObjects]
256,192,0,6,0,P|256:128|96:192,1,300
192,256,705,1,0,0:0:0:0:
192,256,882,1,0,0:0:0:0:
192,256,1058,1,0,0:0:0:0:
192,256,1235,2,0,L|288:352,1,100
384,256,1588,5,0,0:0:0:0:
64,96,1941,1,0,0:0:0:0:
192,128,2294,1,0,0:0:0:0:
192,128,2470,1,0,0:0:0:0:
192,128,2647,1,0,0:0:0:0:
192,128,2823,2,0,L|288:64,1,100
352,128,3352,5,0,0:0:0:0:
96,288,3529,1,0,0:0:0:0:
256,224,3705,1,0,0:0:0:0:
96,160,3882,1,0,0:0:0:0:
256,96,4058,2,0,L|352:160,1,100
448,64,4411,5,0,0:0:0:0:
288,32,4588,1,0,0:0:0:0:
128,96,4764,1,0,0:0:0:0:
64,256,4941,1,0,0:0:0:0:
192,352,5117,2,0,L|288:288,1,100
320,224,5470,1,0,0:0:0:0:
384,288,5647,5,4,0:0:0:0:
96,64,7058,1,4,0:0:0:0:
352,128,8117,2,4,L|448:64,2,100
480,128,9176,5,0,0:0:0:0:
352,192,9352,1,0,0:0:0:0:
288,320,9529,1,0,0:0:0:0:
128,288,9705,1,0,0:0:0:0:
160,128,9882,2,0,L|224:64,2,50
256,192,11294,5,0,0:0:0:0:
416,96,11470,1,0,0:0:0:0:
96,96,11647,1,0,0:0:0:0:
256,352,11823,1,0,0:0:0:0:
384,256,11999,1,0,0:0:0:0:
96,64,12176,1,0,0:0:0:0:
256,96,12352,1,0,0:0:0:0:
192,288,12529,1,0,0:0:0:0:
320,160,12705,1,0,0:0:0:0:
448,192,12882,2,0,P|352:288|288:256,1,200
256,128,13411,5,0,0:0:0:0:
128,224,13588,1,0,0:0:0:0:
256,288,13764,1,0,0:0:0:0:
192,128,13941,1,0,0:0:0:0:
416,160,14117,1,0,0:0:0:0:
256,64,14294,2,0,P|256:160|192:128,1,200
160,96,14823,5,0,0:0:0:0:
352,288,14999,1,0,0:0:0:0:
416,96,15176,1,0,0:0:0:0:
96,160,15352,1,0,0:0:0:0:
320,288,15529,2,0,P|320:256|320:224,2,50
160,320,15882,5,0,0:0:0:0:
352,64,16058,1,0,0:0:0:0:
224,320,16235,1,0,0:0:0:0:
288,64,16411,1,0,0:0:0:0:
256,320,16588,1,0,0:0:0:0:
256,64,16764,1,0,0:0:0:0:
256,192,16941,6,0,B|352:288|96:320|96:96|320:32|352:224,1,400
96,64,17999,1,0,0:0:0:0:
128,78,18088,1,0,0:0:0:0:
160,96,18176,1,0,0:0:0:0:
384,320,18352,1,0,0:0:0:0:
320,160,18529,1,0,0:0:0:0:
96,64,18705,5,0,0:0:0:0:
128,78,18794,1,0,0:0:0:0:
160,96,18882,1,0,0:0:0:0:
192,256,19058,5,0,0:0:0:0:
320,128,19235,1,0,0:0:0:0:
96,320,19411,1,0,0:0:0:0:
128,338,19499,1,0,0:0:0:0:
160,352,19588,1,0,0:0:0:0:
416,64,19764,1,0,0:0:0:0:
384,192,19941,1,0,0:0:0:0:
371,207,20029,1,0,0:0:0:0:
352,224,20117,1,0,0:0:0:0:
256,192,20294,6,0,B|160:320|128:32|352:32|320:224|320:224,1,300
96,320,21176,1,0,0:0:0:0:
112,274,21264,1,0,0:0:0:0:
148,230,21352,1,0,0:0:0:0:
192,207,21441,1,0,0:0:0:0:
238,221,21529,1,0,0:0:0:0:
279,256,21617,1,0,0:0:0:0:
329,245,21705,1,0,0:0:0:0:
375,219,21794,1,0,0:0:0:0:
392,181,21882,1,0,0:0:0:0:
288,128,22058,5,0,0:0:0:0:
128,224,22235,1,0,0:0:0:0:
352,192,22411,1,0,0:0:0:0:
192,288,22588,1,0,0:0:0:0:
288,128,22676,2,0,L|320:64,1,50
352,64,22941,5,0,0:0:0:0:
96,96,23294,1,0,0:0:0:0:
107,139,23382,1,0,0:0:0:0:
138,166,23470,1,0,0:0:0:0:
179,174,23558,1,0,0:0:0:0:
224,160,23647,1,0,0:0:0:0:
384,256,23823,2,0,L|448:128,1,100
128,64,24176,2,0,L|160:128,2,50
384,96,24529,1,0,0:0:0:0:
160,288,24705,5,0,0:0:0:0:
256,64,24882,1,0,0:0:0:0:
352,288,25058,1,0,0:0:0:0:
352,256,25147,2,0,L|352:192,1,50
128,192,25411,2,0,B|256:352|384:192,1,300
384,128,26470,5,0,0:0:0:0:
64,192,26823,1,0,0:0:0:0:
87,233,26911,1,0,0:0:0:0:
118,269,26999,1,0,0:0:0:0:
162,292,27088,1,0,0:0:0:0:
214,303,27176,1,0,0:0:0:0:
264,298,27264,1,0,0:0:0:0:
311,268,27352,1,0,0:0:0:0:
334,225,27441,1,0,0:0:0:0:
335,178,27529,1,0,0:0:0:0:
192,128,27705,5,0,0:0:0:0:
320,256,27882,1,0,0:0:0:0:
256,192,28058,1,0,0:0:0:0:
384,64,28235,5,0,0:0:0:0:
128,320,28411,1,0,0:0:0:0:
416,96,28588,1,0,0:0:0:0:
96,288,28764,1,0,0:0:0:0:
448,128,28941,1,0,0:0:0:0:
64,256,29117,1,0,0:0:0:0:
480,160,29294,1,0,0:0:0:0:
32,224,29470,1,0,0:0:0:0:
256,192,29647,5,0,0:0:0:0:
288,160,29735,2,0,L|352:96,1,50
384,64,29999,1,0,0:0:0:0:
128,320,30176,1,0,0:0:0:0:
416,96,30352,1,0,0:0:0:0:
96,288,30529,1,0,0:0:0:0:
352,32,30705,1,0,0:0:0:0:
160,352,30882,1,0,0:0:0:0:
384,96,31058,5,0,0:0:0:0:
381,136,31146,1,0,0:0:0:0:
352,160,31234,1,0,0:0:0:0:
306,179,31322,1,0,0:0:0:0:
264,162,31411,1,0,0:0:0:0:
225,182,31499,1,0,0:0:0:0:
188,223,31587,1,0,0:0:0:0:
177,270,31675,1,0,0:0:0:0:
192,320,31764,1,0,0:0:0:0:
384,96,31941,1,0,0:0:0:0:
128,192,32117,5,0,0:0:0:0:
384,192,32294,1,0,0:0:0:0:
256,32,32470,1,0,0:0:0:0:
256,352,32647,1,0,0:0:0:0:
256,192,32823,2,0,L|256:128,1,50
256,96,32999,1,0,0:0:0:0:
96,288,33176,1,0,0:0:0:0:
128,256,33264,6,0,L|192:192,1,50
384,288,33529,1,0,0:0:0:0:
256,192,33705,1,0,0:0:0:0:
256,192,33882,12,0,36352,0:0:0:0:
256,192,36705,5,0,0:0:0:0:
352,160,36882,1,0,0:0:0:0:
369,127,36970,1,0,0:0:0:0:
384,96,37058,1,0,0:0:0:0:
256,64,37235,2,0,L|224:128,1,50
160,160,37499,2,0,L|128:224,1,50
192,288,37764,5,0,0:0:0:0:
384,192,37941,1,0,0:0:0:0:
96,64,38117,1,0,0:0:0:0:
192,96,38294,2,0,L|224:160,1,50
288,192,38558,2,0,L|320:256,1,50
384,288,38823,5,0,0:0:0:0:
128,96,38999,1,0,0:0:0:0:
448,320,39176,1,0,0:0:0:0:
96,64,39352,1,0,0:0:0:0:
224,96,39529,2,0,L|320:128,1,100
352,160,39882,5,0,0:0:0:0:
256,320,40058,1,0,0:0:0:0:
96,224,40235,1,0,0:0:0:0:
192,64,40411,1,0,0:0:0:0:
237,89,40499,1,0,0:0:0:0:
273,131,40588,1,0,0:0:0:0:
281,185,40676,1,0,0:0:0:0:
256,227,40764,1,0,0:0:0:0:
230,264,40852,1,0,0:0:0:0:
250,310,40941,1,0,0:0:0:0:
320,192,41117,5,0,0:0:0:0:
192,128,41294,1,0,0:0:0:0:
288,224,41470,1,0,0:0:0:0:
224,96,41647,1,0,0:0:0:0:
64,320,41911,1,0,0:0:0:0:
448,64,42176,1,0,0:0:0:0:
256,192,42352,1,0,0:0:0:0:
256,160,42529,5,0,0:0:0:0:
96,64,42705,1,0,0:0:0:0:
256,160,42882,1,0,0:0:0:0:
416,64,43058,1,0,0:0:0:0:
256,320,43235,1,0,0:0:0:0:
96,64,43411,1,0,0:0:0:0:
256,192,43588,1,0,0:0:0:0:
352,128,43764,5,0,0:0:0:0:
64,320,43941,1,0,0:0:0:0:
256,32,44117,1,0,0:0:0:0:
448,320,44294,1,0,0:0:0:0:
352,192,44470,5,0,0:0:0:0:
160,192,44647,1,0,0:0:0:0:
448,256,44823,1,0,0:0:0:0:
64,128,44999,1,0,0:0:0:0:
256,64,45176,1,0,0:0:0:0:
256,320,45352,1,0,0:0:0:0:
256,192,45529,5,0,0:0:0:0:
320,128,45705,1,0,0:0:0:0:
192,256,45882,1,0,0:0:0:0:
224,64,46058,1,0,0:0:0:0:
288,320,46235,1,0,0:0:0:0:
256,192,46411,1,0,0:0:0:0:
320,224,46588,5,0,0:0:0:0:
367,191,46676,1,0,0:0:0:0:
388,144,46764,1,0,0:0:0:0:
368,94,46853,1,0,0:0:0:0:
324,59,46941,1,0,0:0:0:0:
270,39,47029,1,0,0:0:0:0:
214,34,47117,1,0,0:0:0:0:
165,61,47206,1,0,0:0:0:0:
130,96,47294,1,0,0:0:0:0:
117,137,47382,1,0,0:0:0:0:
160,192,47470,2,0,L|224:256,1,50
224,320,47647,1,4,0:0:0:0:
256,352,47999,5,0,0:0:0:0:
256,32,48176,1,0,0:0:0:0:
352,96,48352,2,0,L|288:192,1,100
64,320,48705,1,0,0:0:0:0:
448,64,48882,1,0,0:0:0:0:
384,160,49058,5,0,0:0:0:0:
128,224,49235,1,0,0:0:0:0:
256,64,49411,2,0,L|256:192,1,100
256,32,49764,1,0,0:0:0:0:
448,352,49941,1,0,0:0:0:0:
256,192,50117,5,0,0:0:0:0:
448,64,50294,1,0,0:0:0:0:
64,320,50470,2,0,L|128:192,1,100
448,352,50823,1,0,0:0:0:0:
352,160,50999,1,0,0:0:0:0:
160,224,51176,5,0,0:0:0:0:
64,32,51352,1,0,0:0:0:0:
192,96,51529,1,0,0:0:0:0:
249,72,51617,1,0,0:0:0:0:
305,88,51705,1,0,0:0:0:0:
336,130,51794,1,0,0:0:0:0:
338,174,51882,1,0,0:0:0:0:
302,214,51970,1,0,0:0:0:0:
256,224,52058,5,0,0:0:0:0:
64,32,52235,1,0,0:0:0:0:
160,96,52411,2,0,L|192:160,1,50
128,224,52676,2,0,L|160:288,1,50
416,320,52941,1,0,0:0:0:0:
256,192,53117,1,0,0:0:0:0:
320,128,53294,5,0,0:0:0:0:
192,256,53470,1,0,0:0:0:0:
320,128,53647,2,0,L|448:192,1,100
352,256,53999,1,0,0:0:0:0:
224,320,54176,1,0,0:0:0:0:
384,64,54352,5,0,0:0:0:0:
224,32,54529,1,0,0:0:0:0:
96,96,54705,1,0,0:0:0:0:
64,256,54882,1,0,0:0:0:0:
448,192,55058,5,0,0:0:0:0:
64,288,55235,1,0,0:0:0:0:
448,96,55411,1,0,0:0:0:0:
160,352,55588,1,0,0:0:0:0:
256,32,55764,1,0,0:0:0:0:
384,96,55941,2,0,L|320:224,1,100
224,256,56294,5,0,0:0:0:0:
320,64,56470,1,0,0:0:0:0:
384,160,56647,1,0,0:0:0:0:
368,205,56735,1,0,0:0:0:0:
338,241,56823,1,0,0:0:0:0:
293,248,56911,1,0,0:0:0:0:
249,227,56999,1,0,0:0:0:0:
206,239,57088,1,0,0:0:0:0:
165,268,57176,1,0,0:0:0:0:
121,258,57264,1,0,0:0:0:0:
101,215,57352,1,0,0:0:0:0:
112,169,57441,1,0,0:0:0:0:
145,138,57529,1,0,0:0:0:0:
180,121,57617,1,0,0:0:0:0:
224,128,57705,1,0,0:0:0:0:
416,64,57882,1,0,0:0:0:0:
96,320,58058,5,0,0:0:0:0:
128,128,58147,1,0,0:0:0:0:
160,96,58235,1,0,0:0:0:0:
192,118,58323,1,0,0:0:0:0:
235,97,58411,1,0,0:0:0:0:
276,111,58500,1,0,0:0:0:0:
309,139,58588,1,0,0:0:0:0:
351,122,58676,1,0,0:0:0:0:
383,137,58764,1,0,0:0:0:0:
414,122,58853,1,0,0:0:0:0:
444,155,58941,1,0,0:0:0:0:
436,209,59029,1,0,0:0:0:0:
392,240,59117,1,0,0:0:0:0:
288,320,59294,5,0,0:0:0:0:
224,32,59470,2,0,L|160:128,1,100
96,352,59823,1,0,0:0:0:0:
384,288,59999,2,0,L|288:192,1,100
480,352,60352,1,0,0:0:0:0:
64,64,60529,2,0,L|160:128,1,100
64,64,60882,5,0,0:0:0:0:
192,160,61058,1,0,0:0:0:0:
192,160,61147,1,0,0:0:0:0:
192,160,61235,1,0,0:0:0:0:
288,288,61411,2,0,L|256:160,1,100
416,64,61764,5,0,0:0:0:0:
96,320,61941,1,0,0:0:0:0:
32,32,62117,2,0,L|160:96,1,100
480,352,62470,2,0,L|352:288,1,100
32,352,62823,2,0,L|96:256,1,100
480,32,63176,2,0,L|416:128,1,100
96,288,63529,5,0,0:0:0:0:
416,96,63705,2,0,L|384:224,1,100
96,128,64058,2,0,L|128:224,1,100
448,320,64411,2,0,L|384:224,1,100
64,128,64764,2,0,L|32:32,1,100
256,192,65117,1,0,0:0:0:0:
416,64,65294,5,0,0:0:0:0:
352,352,65470,1,0,0:0:0:0:
288,64,65647,1,0,0:0:0:0:
64,352,65823,2,0,L|160:256,1,100
64,64,66176,1,0,0:0:0:0:
256,192,66352,5,0,0:0:0:0:
320,256,66529,1,0,0:0:0:0:
192,192,66705,1,0,0:0:0:0:
320,128,66882,1,0,0:0:0:0:
416,352,67058,1,0,0:0:0:0:
64,192,67235,1,0,0:0:0:0:
416,32,67411,1,0,0:0:0:0:
256,192,67588,1,0,0:0:0:0:
96,64,67764,6,0,L|128:192,1,100
416,64,68117,2,0,L|384:192,1,100
96,64,68470,2,0,L|128:192,1,100
416,64,68823,2,0,L|384:192,1,100
96,192,69176,5,0,0:0:0:0:
416,192,69352,1,0,0:0:0:0:
128,128,69529,1,0,0:0:0:0:
384,256,69705,1,0,0:0:0:0:
192,96,69882,1,0,0:0:0:0:
320,288,70058,1,0,0:0:0:0:
192,224,70235,2,0,L|96:320,1,100
256,96,70588,5,0,0:0:0:0:
160,160,70764,1,0,0:0:0:0:
192,256,70941,1,0,0:0:0:0:
320,256,71117,1,0,0:0:0:0:
352,128,71294,2,0,L|256:96,1,100
64,32,71647,2,0,L|128:128,1,100
160,192,71999,5,0,0:0:0:0:
96,320,72176,1,0,0:0:0:0:
224,32,72352,1,0,0:0:0:0:
448,320,72529,2,0,L|352:224,1,100
128,192,72882,2,0,P|160:128|192:160,1,100
448,64,73235,1,0,0:0:0:0:
416,160,73411,6,0,P|384:192|320:160,1,100
96,96,73764,2,0,P|64:128|96:192,1,100
416,320,74117,2,0,P|384:352|320:352,1,100
320,32,74470,2,0,P|288:64|320:128,1,100
96,96,74823,5,0,0:0:0:0:
79,148,74911,1,0,0:0:0:0:
110,190,74999,1,0,0:0:0:0:
163,194,75088,1,0,0:0:0:0:
211,210,75176,1,0,0:0:0:0:
229,266,75264,1,0,0:0:0:0:
206,307,75352,1,0,0:0:0:0:
237,340,75441,1,0,0:0:0:0:
288,352,75529,1,0,0:0:0:0:
416,192,75705,5,0,0:0:0:0:
160,96,75882,2,0,B|64:96|96:192|96:192,1,100
224,352,76235,2,0,B|320:352|288:256|288:256,1,100
448,64,76588,1,0,0:0:0:0:
64,320,76764,1,0,0:0:0:0:
352,288,76941,2,0,P|288:256|320:224,1,100
384,320,77294,5,0,0:0:0:0:
128,64,77470,2,0,L|160:160,1,100
384,320,77823,2,0,L|352:224,1,100
256,64,78176,1,0,0:0:0:0:
128,192,78352,1,0,0:0:0:0:
448,128,78529,1,0,0:0:0:0:
256,64,78705,2,0,P|224:128|256:160,1,100
384,256,79058,5,0,0:0:0:0:
96,192,79235,2,0,L|192:256,1,100
416,64,79588,2,0,P|352:96|352:160,1,100
320,320,79941,1,0,0:0:0:0:
128,64,80117,2,0,P|96:128|128:160,1,100
160,192,80470,5,0,0:0:0:0:
187,149,80558,1,0,0:0:0:0:
225,122,80647,1,0,0:0:0:0:
272,101,80735,1,0,0:0:0:0:
327,115,80823,1,0,0:0:0:0:
370,151,80911,1,0,0:0:0:0:
399,206,80999,1,0,0:0:0:0:
386,258,81088,1,0,0:0:0:0:
346,296,81176,1,0,0:0:0:0:
296,318,81264,1,0,0:0:0:0:
245,298,81352,1,0,0:0:0:0:
192,288,81441,1,0,0:0:0:0:
145,312,81529,1,0,0:0:0:0:
96,326,81617,1,0,0:0:0:0:
64,288,81705,2,0,L|128:224,2,50
192,160,82058,5,0,0:0:0:0:
384,64,82411,1,0,0:0:0:0:
128,320,82588,1,0,0:0:0:0:
256,192,82764,1,0,0:0:0:0:
96,256,82941,1,0,0:0:0:0:
288,256,83117,1,0,0:0:0:0:
384,96,83294,5,0,0:0:0:0:
96,128,83470,2,0,P|160:160|160:224,1,100
256,320,83823,1,0,0:0:0:0:
384,64,83999,1,0,0:0:0:0:
160,128,84176,1,0,0:0:0:0:
256,96,84352,1,0,0:0:0:0:
64,160,84529,1,0,0:0:0:0:
448,256,84705,1,0,0:0:0:0:
384,96,84882,5,0,0:0:0:0:
64,224,85058,1,0,0:0:0:0:
416,320,85235,2,0,P|416:256|384:224,1,100
64,64,85588,1,0,0:0:0:0:
288,192,85764,1,0,0:0:0:0:
320,320,85941,1,0,0:0:0:0:
256,64,86117,1,0,0:0:0:0:
64,320,86294,1,0,0:0:0:0:
160,96,86470,6,0,P|192:160|160:192,1,100
480,32,86823,1,0,0:0:0:0:
192,256,86999,1,0,0:0:0:0:
352,128,87176,1,0,0:0:0:0:
64,352,87352,2,0,P|32:288|64:256,1,100
96,192,87705,5,0,0:0:0:0:
192,64,87882,1,0,0:0:0:0:
288,192,88058,1,0,0:0:0:0:
32,64,88235,1,0,0:0:0:0:
128,192,88411,2,0,L|224:224,1,100
320,288,88764,2,0,L|192:320,1,100
160,192,89117,6,0,L|224:96,1,100
288,64,89470,1,0,0:0:0:0:
384,96,89647,1,0,0:0:0:0:
448,160,89823,2,0,L|352:224,1,100
288,256,90176,1,0,0:0:0:0:
192,288,90352,1,0,0:0:0:0:
128,64,90529,6,0,L|192:192,1,100
448,64,90882,1,0,0:0:0:0:
416,352,91058,2,0,P|352:256|288:320,1,200
128,192,91588,5,0,0:0:0:0:
320,64,91764,1,0,0:0:0:0:
416,96,91941,1,0,0:0:0:0:
384,192,92118,1,0,0:0:0:0:
288,224,92294,1,0,0:0:0:0:
224,288,92471,1,0,0:0:0:0:
128,256,92647,1,0,0:0:0:0:
160,160,92823,2,0,P|128:96|64:96,1,100
256,128,93176,5,0,0:0:0:0:
256,256,93529,1,0,0:0:0:0:
256,32,93882,1,0,0:0:0:0:
256,192,94058,1,0,0:0:0:0:
256,352,94235,1,0,0:0:0:0:
416,96,94411,2,0,P|384:64|320:96,1,100
96,160,94764,1,0,0:0:0:0:
192,224,94941,5,0,0:0:0:0:
32,256,95117,1,0,0:0:0:0:
160,320,95294,1,0,0:0:0:0:
256,224,95470,2,0,L|320:160,1,50
256,128,95647,2,0,L|320:64,1,50
416,64,95823,2,0,L|352:128,1,50
320,224,95999,1,0,0:0:0:0:
416,288,96176,6,0,P|352:256|320:288,1,100
256,128,96529,2,0,P|320:96|352:128,1,100
64,192,96882,1,0,0:0:0:0:
160,96,97058,1,0,0:0:0:0:
194,84,97147,1,0,0:0:0:0:
227,73,97235,1,0,0:0:0:0:
352,64,97411,6,0,P|320:128|288:128,1,100
128,192,97764,2,0,P|128:256|160:288,1,100
416,192,98117,2,0,P|384:256|352:256,1,100
64,96,98470,2,0,P|128:64|160:96,1,100
416,96,98823,5,0,0:0:0:0:
96,96,99176,1,0,0:0:0:0:
256,320,99529,1,0,0:0:0:0:
256,32,99705,1,0,0:0:0:0:
224,160,99882,1,0,0:0:0:0:
256,192,99970,1,0,0:0:0:0:
288,224,100058,1,0,0:0:0:0:
384,96,100235,6,0,P|448:128|416:160,1,100
96,256,100588,2,0,P|128:320|160:320,1,100
384,64,100941,1,0,0:0:0:0:
224,288,101294,1,0,0:0:0:0:
352,256,101647,5,0,0:0:0:0:
160,128,101999,1,0,0:0:0:0:
384,64,102352,1,0,0:0:0:0:
448,128,102529,1,0,0:0:0:0:
320,160,102705,1,0,0:0:0:0:
352,177,102794,1,0,0:0:0:0:
384,192,102882,1,0,0:0:0:0:
192,224,103058,5,0,0:0:0:0:
256,288,103235,1,0,0:0:0:0:
224,304,103323,1,0,0:0:0:0:
192,320,103411,1,0,0:0:0:0:
320,64,103588,1,0,0:0:0:0:
288,192,103764,2,0,L|288:256,2,50
352,224,104117,2,0,L|352:288,2,50
160,320,104470,5,0,0:0:0:0:
352,64,104823,2,0,P|256:96|288:192,2,200
224,224,105705,1,0,0:0:0:0:
384,32,105882,1,0,0:0:0:0:
416,128,106058,6,0,L|416:192,2,50
352,192,106411,2,0,L|352:256,2,50
160,32,106764,1,0,0:0:0:0:
64,192,106941,1,0,0:0:0:0:
160,352,107117,1,0,0:0:0:0:
256,192,107294,1,0,0:0:0:0:
448,320,107647,5,0,0:0:0:0:
160,128,107999,2,0,P|224:96|256:192,2,200
128,288,108882,1,0,0:0:0:0:
192,224,109058,2,0,L|192:160,3,50
288,320,109588,1,0,0:0:0:0:
352,160,109764,2,0,L|352:224,2,50
128,128,110117,5,0,0:0:0:0:
384,128,110470,1,0,0:0:0:0:
128,256,110823,1,0,0:0:0:0:
384,256,111176,1,0,0:0:0:0:
256,64,111529,1,0,0:0:0:0:
256,320,111882,1,0,0:0:0:0:
64,192,112235,1,0,0:0:0:0:
448,192,112588,1,0,0:0:0:0:
128,96,112941,5,0,0:0:0:0:
256,128,113117,1,0,0:0:0:0:
64,160,113294,1,0,0:0:0:0:
320,192,113470,1,0,0:0:0:0:
96,224,113647,1,0,0:0:0:0:
224,256,113823,1,0,0:0:0:0:
288,64,113999,1,0,0:0:0:0:
352,288,114176,1,0,0:0:0:0:
160,96,114352,5,0,0:0:0:0:
256,192,114529,1,0,0:0:0:0:
352,288,114705,1,0,0:0:0:0:
416,128,114882,1,0,0:0:0:0:
256,64,115058,1,0,0:0:0:0:
320,288,115235,1,0,0:0:0:0:
160,128,115411,1,0,0:0:0:0:
224,352,115588,1,0,0:0:0:0:
352,192,115764,5,0,0:0:0:0:
320,128,115941,1,0,0:0:0:0:
256,96,116117,1,0,0:0:0:0:
192,128,116294,1,0,0:0:0:0:
160,192,116470,1,0,0:0:0:0:
192,256,116647,1,0,0:0:0:0:
256,288,116823,1,0,0:0:0:0:
320,256,116999,1,0,0:0:0:0:
352,192,117176,5,0,0:0:0:0:
320,128,117352,1,0,0:0:0:0:
256,96,117529,1,0,0:0:0:0:
96,128,117705,1,0,0:0:0:0:
288,160,117882,1,0,0:0:0:0:
64,192,118058,1,0,0:0:0:0:
128,256,118235,2,0,L|128:320,2,50
256,320,118588,5,0,0:0:0:0:
293,307,118676,1,0,0:0:0:0:
324,283,118764,1,0,0:0:0:0:
334,242,118852,1,0,0:0:0:0:
360,213,118941,1,0,0:0:0:0:
384,192,119029,1,0,0:0:0:0:
394,181,119117,1,0,0:0:0:0:
406,171,119205,1,0,0:0:0:0:
421,158,119294,1,0,0:0:0:0:
434,142,119382,1,0,0:0:0:0:
448,128,119470,5,0,0:0:0:0:
448,96,119558,1,0,0:0:0:0:
424,68,119647,1,0,0:0:0:0:
380,49,119735,1,0,0:0:0:0:
342,38,119823,1,0,0:0:0:0:
298,53,119911,1,0,0:0:0:0:
265,88,119999,1,0,0:0:0:0:
225,113,120088,1,0,0:0:0:0:
180,108,120176,1,0,0:0:0:0:
144,84,120264,1,0,0:0:0:0:
96,96,120352,6,0,L|96:160,2,50
54,128,120617,1,0,0:0:0:0:
37,178,120705,1,0,0:0:0:0:
72,222,120794,1,0,0:0:0:0:
118,252,120882,1,0,0:0:0:0:
143,298,120970,1,0,0:0:0:0:
192,320,121058,6,0,L|224:256,2,50
264,310,121323,1,0,0:0:0:0:
314,287,121411,1,0,0:0:0:0:
361,297,121499,1,0,0:0:0:0:
406,292,121588,1,0,0:0:0:0:
440,264,121676,1,0,0:0:0:0:
480,224,121764,2,0,L|416:192,2,50
460,165,122029,1,0,0:0:0:0:
440,122,122117,1,0,0:0:0:0:
400,97,122205,1,0,0:0:0:0:
348,108,122294,1,0,0:0:0:0:
301,80,122382,1,0,0:0:0:0:
256,64,122470,6,0,L|256:0,2,50
204,88,122735,1,0,0:0:0:0:
157,65,122823,1,0,0:0:0:0:
102,78,122911,1,0,0:0:0:0:
71,109,122999,1,0,0:0:0:0:
64,160,123087,1,0,0:0:0:0:
96,192,123176,2,0,L|160:224,2,50
320,256,123529,5,0,0:0:0:0:
448,320,123882,2,0,L|416:256,2,50
128,64,124235,1,0,0:0:0:0:
224,320,124411,1,0,0:0:0:0:
480,224,124588,1,0,0:0:0:0:
96,64,124764,2,0,P|192:64|224:96,1,100
320,160,125117,1,0,0:0:0:0:
160,320,125294,1,0,0:0:0:0:
416,64,125470,6,0,L|480:32,2,50
32,192,125823,1,0,0:0:0:0:
480,192,125999,1,0,0:0:0:0:
256,256,126176,2,0,L|256:128,2,100
192,64,126705,1,0,0:0:0:0:
320,320,126882,1,0,0:0:0:0:
448,64,127058,6,0,L|352:96,1,100
64,128,127411,2,0,L|192:160,1,100
448,192,127764,2,0,L|320:224,1,100
192,320,128117,2,0,L|64:288,1,100
256,64,128470,5,0,0:0:0:0:
352,128,128647,2,0,L|288:224,1,100
448,64,128999,1,0,0:0:0:0:
416,160,129176,1,0,0:0:0:0:
320,192,129352,1,0,0:0:0:0:
256,288,129529,2,0,P|320:256|352:288,2,100
448,320,130058,5,0,0:0:0:0:
64,64,130235,2,0,P|160:96|128:160,1,200
224,64,130764,1,0,0:0:0:0:
384,192,130941,2,0,P|352:256|384:288,1,100
96,288,131294,1,0,0:0:0:0:
256,192,131470,5,0,0:0:0:0:
128,128,131647,1,0,0:0:0:0:
384,192,131823,1,0,0:0:0:0:
192,320,131999,1,0,0:0:0:0:
288,128,132176,2,0,P|352:96|384:128,2,100
448,64,132705,5,0,0:0:0:0:
64,128,132882,1,0,0:0:0:0:
352,320,133058,2,0,P|288:288|288:256,1,100
448,128,133411,2,0,P|384:96|416:64,1,100
32,32,133764,1,0,0:0:0:0:
224,352,133941,1,0,0:0:0:0:
352,320,134117,5,0,0:0:0:0:
393,276,134205,1,0,0:0:0:0:
420,218,134294,1,0,0:0:0:0:
410,158,134382,1,0,0:0:0:0:
374,114,134470,1,0,0:0:0:0:
318,97,134558,1,0,0:0:0:0:
270,58,134647,1,0,0:0:0:0:
220,30,134735,1,0,0:0:0:0:
171,47,134823,1,0,0:0:0:0:
131,86,134911,1,0,0:0:0:0:
142,140,134999,1,0,0:0:0:0:
168,188,135088,1,0,0:0:0:0:
138,231,135176,1,0,0:0:0:0:
113,279,135264,1,0,0:0:0:0:
149,320,135352,1,0,0:0:0:0:
96,128,135529,5,0,0:0:0:0:
352,256,135705,2,0,L|352:192,2,50
160,64,136058,2,0,P|96:64|96:96,1,100
448,320,136411,1,0,0:0:0:0:
32,192,136588,2,0,P|96:160|128:192,1,100
256,64,136941,5,0,0:0:0:0:
64,320,137117,1,0,0:0:0:0:
480,64,137294,2,0,P|416:64|416:96,1,100
192,288,137647,2,0,L|128:320,2,50
96,160,137999,2,0,L|32:192,2,50
416,192,138352,5,0,0:0:0:0:
64,96,138529,1,0,0:0:0:0:
416,256,138705,1,0,0:0:0:0:
64,32,138882,1,0,0:0:0:0:
160,320,139058,5,0,0:0:0:0:
352,256,139235,1,0,0:0:0:0:
64,192,139411,1,0,0:0:0:0:
416,128,139588,1,0,0:0:0:0:
128,64,139764,6,0,L|160:160,1,100
384,96,140117,2,0,L|352:192,1,100
96,192,140470,2,0,L|128:320,1,100
416,320,140823,2,0,L|448:224,1,100
384,128,141176,5,0,0:0:0:0:
352,96,141264,1,0,0:0:0:0:
320,64,141352,1,0,0:0:0:0:
160,32,141529,5,0,0:0:0:0:
128,64,141617,1,0,0:0:0:0:
96,96,141705,1,0,0:0:0:0:
64,256,141882,5,0,0:0:0:0:
96,288,141970,1,0,0:0:0:0:
128,320,142058,1,0,0:0:0:0:
352,352,142235,5,0,0:0:0:0:
384,320,142323,1,0,0:0:0:0:
416,288,142411,1,0,0:0:0:0:
448,160,142588,6,0,P|384:96|448:32,1,200
256,64,143117,1,0,0:0:0:0:
64,64,143294,5,0,0:0:0:0:
78,113,143382,1,0,0:0:0:0:
111,157,143470,1,0,0:0:0:0:
162,183,143558,1,0,0:0:0:0:
215,180,143647,1,0,0:0:0:0:
244,222,143735,1,0,0:0:0:0:
233,266,143823,1,0,0:0:0:0:
279,293,143911,1,0,0:0:0:0:
320,256,143999,6,0,L|416:160,1,100
224,96,144352,2,0,L|128:192,1,100
480,96,144705,5,0,0:0:0:0:
128,224,144882,1,0,0:0:0:0:
384,160,145058,1,0,0:0:0:0:
32,288,145235,1,0,0:0:0:0:
352,64,145411,2,0,P|320:128|352:128,1,100
352,288,145764,2,0,P|288:288|288:256,1,100
32,32,146117,1,0,0:0:0:0:
128,64,146294,5,0,0:0:0:0:
182,52,146382,1,0,0:0:0:0:
239,74,146470,1,0,0:0:0:0:
275,125,146558,1,0,0:0:0:0:
270,182,146647,1,0,0:0:0:0:
312,222,146735,1,0,0:0:0:0:
352,256,146823,2,0,P|416:320|480:256,1,200
32,224,147352,1,0,0:0:0:0:
160,64,147529,5,0,0:0:0:0:
352,160,147705,1,0,0:0:0:0:
160,224,147882,1,0,0:0:0:0:
352,320,148058,1,0,0:0:0:0:
256,192,148235,5,0,0:0:0:0:
224,160,148323,1,0,0:0:0:0:
192,128,148411,1,0,0:0:0:0:
96,160,148588,2,0,L|96:96,2,50
192,128,148941,1,0,0:0:0:0:
224,96,149029,1,0,0:0:0:0:
256,64,149117,1,0,0:0:0:0:
352,256,149294,2,0,L|352:320,2,50
96,288,149647,5,0,0:0:0:0:
118,254,149735,1,0,0:0:0:0:
140,222,149823,1,0,0:0:0:0:
160,192,149911,1,0,0:0:0:0:
224,224,149999,5,0,0:0:0:0:
246,190,150087,1,0,0:0:0:0:
268,158,150175,1,0,0:0:0:0:
288,128,150263,1,0,0:0:0:0:
352,192,150352,5,0,0:0:0:0:
374,158,150440,1,0,0:0:0:0:
396,126,150528,1,0,0:0:0:0:
416,96,150617,2,0,L|352:32,1,50
224,288,150882,5,0,0:0:0:0:
96,64,151058,2,0,P|160:96|160:128,1,100
448,320,151411,2,0,P|448:256|480:256,1,100
96,64,151764,1,0,0:0:0:0:
352,224,151941,1,0,0:0:0:0:
64,32,152117,1,0,0:0:0:0:
128,192,152294,6,0,L|160:256,1,50
224,288,152470,1,0,0:0:0:0:
416,192,152647,1,0,0:0:0:0:
96,128,152823,2,0,L|32:192,2,50
416,64,153176,1,0,0:0:0:0:
160,352,153352,1,0,0:0:0:0:
256,64,153529,2,0,L|320:0,2,50
416,96,153882,5,0,0:0:0:0:
384,160,153970,1,0,0:0:0:0:
352,224,154058,1,0,0:0:0:0:
384,288,154147,1,0,0:0:0:0:
352,352,154235,1,0,0:0:0:0:
288,320,154323,1,0,0:0:0:0:
224,288,154411,1,0,0:0:0:0:
160,320,154499,1,0,0:0:0:0:
96,288,154588,1,0,0:0:0:0:
64,224,154676,1,0,0:0:0:0:
96,160,154764,2,0,P|160:128|160:96,1,100
352,64,155117,1,0,0:0:0:0:
416,128,155294,5,0,0:0:0:0:
96,32,155470,1,0,0:0:0:0:
416,352,155647,1,0,0:0:0:0:
160,96,155823,1,0,0:0:0:0:
480,256,155999,1,0,0:0:0:0:
32,96,156176,1,0,0:0:0:0:
480,32,156352,1,0,0:0:0:0:
128,96,156529,1,0,0:0:0:0:
320,160,156705,5,0,0:0:0:0:
64,288,156882,1,0,0:0:0:0:
160,64,157058,2,0,L|192:128,2,50
384,320,157411,1,0,0:0:0:0:
448,256,157588,5,0,0:0:0:0:
409,197,157676,1,0,0:0:0:0:
352,161,157764,1,0,0:0:0:0:
372,101,157852,1,0,0:0:0:0:
329,47,157941,1,0,0:0:0:0:
260,28,158029,1,0,0:0:0:0:
191,49,158117,1,0,0:0:0:0:
96,160,158294,2,0,L|128:224,2,50
320,192,158647,5,0,0:0:0:0:
64,128,158823,1,0,0:0:0:0:
512,256,158999,1,0,0:0:0:0:
320,128,159176,2,0,L|288:192,1,50
224,192,159352,2,0,L|192:256,1,50
224,288,159529,1,0,0:0:0:0:
352,192,159705,6,0,L|384:128,2,50
32,352,160058,1,0,0:0:0:0:
256,128,160235,1,0,0:0:0:0:
160,224,160411,1,0,0:0:0:0:
352,32,160588,1,0,0:0:0:0:
96,352,160764,1,0,0:0:0:0:
256,256,160941,2,0,L|192:224,2,50
320,224,161294,6,0,L|288:160,2,50
384,256,161647,6,0,L|416:192,2,50
352,64,161999,6,0,L|320:128,2,50
96,96,162352,1,0,0:0:0:0:
288,288,162529,1,0,0:0:0:0:
128,128,162705,1,0,0:0:0:0:
320,320,162882,1,0,0:0:0:0:
384,192,163058,6,0,L|416:128,1,50
448,96,163235,2,0,L|416:32,1,50
352,96,163411,1,0,0:0:0:0:
256,192,163588,5,0,0:0:0:0:
128,320,163764,1,0,0:0:0:0:
192,160,163941,2,0,P|256:128|288:160,2,100
384,64,164470,1,0,0:0:0:0:
160,288,164647,1,0,0:0:0:0:
224,32,164823,2,0,P|256:96|288:96,1,100
384,96,165176,5,0,0:0:0:0:
480,352,165352,1,0,0:0:0:0:
160,288,165529,1,0,0:0:0:0:
448,352,165705,1,0,0:0:0:0:
288,32,165882,1,0,0:0:0:0:
160,96,166058,2,0,P|96:64|128:32,1,100
416,192,166411,1,0,0:0:0:0:
96,288,166588,5,0,0:0:0:0:
192,160,166764,2,0,P|160:224|192:256,1,100
256,192,167117,2,0,P|256:128|224:128,1,100
256,288,167470,2,0,P|192:288|192:256,1,100
448,64,167823,1,0,0:0:0:0:
320,96,167999,2,0,P|256:160|288:256,1,200
448,96,168352,5,0,0:0:0:0:
64,288,168529,1,0,0:0:0:0:
224,224,168705,2,0,P|224:96|352:96,1,200
352,32,169058,1,0,0:0:0:0:
384,128,169235,5,0,0:0:0:0:
384,160,169323,1,0,0:0:0:0:
384,192,169411,1,0,0:0:0:0:
384,256,169588,2,0,B|288:224|288:224|192:320,2,200
128,288,170117,1,0,0:0:0:0:
384,160,170294,1,0,0:0:0:0:
192,96,170470,2,0,B|128:128|128:128|128:192|128:192|64:224,2,200
32,128,170999,5,0,0:0:0:0:
416,224,171176,2,0,P|352:352|416:352,1,200
64,32,171529,1,0,0:0:0:0:
352,64,171705,1,0,0:0:0:0:
224,160,171882,2,0,L|96:352,1,200
288,64,172235,5,0,0:0:0:0:
352,128,172411,1,0,0:0:0:0:
396,154,172499,1,0,0:0:0:0:
409,197,172588,1,0,0:0:0:0:
386,233,172676,1,0,0:0:0:0:
362,273,172764,1,0,0:0:0:0:
384,320,172852,1,0,0:0:0:0:
352,352,172941,1,0,0:0:0:0:
288,288,173117,6,0,B|192:256|192:256|288:224,1,200
288,160,173470,2,0,B|384:128|384:128|288:96|288:96,1,200
352,320,173823,1,0,0:0:0:0:
32,32,173999,2,0,L|96:128,2,100
448,64,174352,1,0,0:0:0:0:
64,288,174529,2,0,P|160:256|160:288,2,100
256,320,174882,1,0,0:0:0:0:
448,192,175058,1,0,0:0:0:0:
320,64,175235,6,0,P|224:96|288:160,1,200
448,64,175588,1,0,0:0:0:0:
352,352,175764,1,0,0:0:0:0:
128,96,175941,2,0,P|192:64|256:128,1,150.000005722046
32,32,176294,1,0,0:0:0:0:
288,160,176470,6,0,L|320:256,2,75.0000028610231
416,256,176823,2,0,L|384:352,2,75.0000028610231
256,352,177176,5,0,0:0:0:0:
189,337,177264,1,0,0:0:0:0:
138,300,177352,1,0,0:0:0:0:
99,248,177441,1,0,0:0:0:0:
74,185,177529,1,0,0:0:0:0:
111,129,177617,1,0,0:0:0:0:
170,154,177705,1,0,0:0:0:0:
222,129,177794,1,0,0:0:0:0:
256,96,177882,2,0,P|320:64|320:32,2,75.0000028610231
384,96,178235,5,0,0:0:0:0:
64,256,178411,1,0,0:0:0:0:
448,96,178588,2,0,P|416:160|384:128,2,75.0000028610231
192,352,178941,1,0,0:0:0:0:
64,64,179117,1,0,0:0:0:0:
384,32,179294,6,0,L|480:64,2,75.0000028610231
128,96,179647,2,0,L|32:128,2,75.0000028610231
384,192,179999,6,0,L|480:224,2,75.0000028610231
160,288,180352,2,0,L|64:320,2,75.0000028610231
32,352,180705,5,0,0:0:0:0:
480,32,180882,1,0,0:0:0:0:
96,96,181235,1,0,0:0:0:0:
416,288,181588,2,0,P|416:224|384:224,2,75.0000028610231
384,96,181941,5,0,0:0:0:0:
64,320,182117,2,0,P|224:96|416:160,1,450.000017166138
64,192,183176,1,0,0:0:0:0:
256,64,183529,5,0,0:0:0:0:
128,320,183705,1,0,0:0:0:0:
416,160,183882,1,0,0:0:0:0:
96,160,184058,1,0,0:0:0:0:
352,320,184235,1,0,0:0:0:0:
96,64,184411,6,0,L|160:128,2,75.0000028610231
288,160,184764,2,0,L|224:96,2,75.0000028610231
64,192,185117,1,0,0:0:0:0:
448,256,185294,1,0,0:0:0:0:
256,224,185470,6,0,B|288:160|288:160|192:128,2,150.000005722046
96,128,185999,1,0,0:0:0:0:
288,256,186176,1,0,0:0:0:0:
480,192,186352,5,0,0:0:0:0:
64,64,186705,1,0,0:0:0:0:
352,320,187058,2,0,P|384:256|320:224,1,150.000005722046
192,96,187411,2,0,L|160:192,2,75.0000028610231
448,64,187764,5,0,0:0:0:0:
32,192,187941,1,0,0:0:0:0:
448,320,188117,1,0,0:0:0:0:
160,128,188294,2,0,P|224:64|256:96,1,150.000005722046
320,224,188647,2,0,L|384:160,2,75.0000028610231
160,96,188999,5,0,0:0:0:0:
256,320,189176,1,0,0:0:0:0:
352,96,189352,1,0,0:0:0:0:
128,320,189529,1,0,0:0:0:0:
448,64,189705,2,0,P|384:64|384:96,2,75.0000028610231
256,64,190058,5,0,0:0:0:0:
128,128,190235,1,0,0:0:0:0:
64,256,190411,1,0,0:0:0:0:
192,320,190588,1,0,0:0:0:0:
416,256,190764,2,0,P|320:160|320:128,1,150.000005722046
256,64,191117,5,0,0:0:0:0:
224,96,191205,1,0,0:0:0:0:
192,128,191294,1,0,0:0:0:0:
384,64,191470,1,0,0:0:0:0:
320,160,191647,1,0,0:0:0:0:
288,192,191735,1,0,0:0:0:0:
256,224,191823,1,0,0:0:0:0:
160,192,191999,6,0,B|96:224|96:224|64:320,1,150.000005722046
448,64,192529,1,0,0:0:0:0:
64,96,193058,1,0,0:0:0:0:
480,192,193235,1,0,0:0:0:0:
64,288,193411,1,0,0:0:0:0:
448,64,193588,1,0,0:0:0:0:
160,128,193764,2,0,P|128:160|160:192,1,75.0000028610231
64,64,194117,5,0,0:0:0:0:
448,320,194470,1,0,0:0:0:0:
64,128,194823,2,0,B|224:32|96:256|256:160,1,225.000008583069
352,96,195882,1,0,0:0:0:0:
416,160,196235,5,0,0:0:0:0:
358,190,196323,1,0,0:0:0:0:
361,252,196411,1,0,0:0:0:0:
320,288,196500,1,0,0:0:0:0:
261,266,196588,1,0,0:0:0:0:
199,279,196676,1,0,0:0:0:0:
155,232,196764,1,0,0:0:0:0:
107,187,196852,1,0,0:0:0:0:
128,128,196941,1,0,0:0:0:0:
224,64,197117,6,0,L|256:160,1,75.0000028610231
384,192,197470,1,0,0:0:0:0:
288,32,197647,5,0,0:0:0:0:
224,352,197823,1,0,0:0:0:0:
352,64,197999,1,0,0:0:0:0:
160,320,198176,1,0,0:0:0:0:
416,96,198352,1,0,0:0:0:0:
96,288,198529,1,0,0:0:0:0:
448,160,198705,1,0,0:0:0:0:
64,224,198882,1,0,0:0:0:0:
256,192,199058,6,0,L|288:128,2,37.5000014305115
448,224,199411,1,0,0:0:0:0:
64,160,199588,1,0,0:0:0:0:
416,288,199764,1,0,0:0:0:0:
96,96,199941,1,0,0:0:0:0:
352,320,200117,1,0,0:0:0:0:
160,64,200294,1,0,0:0:0:0:
256,192,200470,5,0,0:0:0:0:
314,174,200558,1,0,0:0:0:0:
352,136,200647,1,0,0:0:0:0:
370,76,200735,1,0,0:0:0:0:
326,28,200823,1,0,0:0:0:0:
268,51,200911,1,0,0:0:0:0:
215,38,200999,1,0,0:0:0:0:
169,74,201088,1,0,0:0:0:0:
113,89,201176,1,0,0:0:0:0:
78,133,201264,1,0,0:0:0:0:
94,197,201352,1,0,0:0:0:0:
64,256,201529,6,0,L|128:288,2,37.5000014305115
192,256,201793,1,0,0:0:0:0:
256,243,201882,1,0,0:0:0:0:
298,205,201971,1,0,0:0:0:0:
355,191,202059,1,0,0:0:0:0:
409,218,202147,1,0,0:0:0:0:
384,64,202235,6,0,L|320:96,2,37.5000014305115
160,128,202500,1,0,0:0:0:0:
128,192,202588,1,0,0:0:0:0:
164,254,202676,1,0,0:0:0:0:
236,240,202764,1,0,0:0:0:0:
288,192,202853,6,6,L|320:128,2,37.5000014305115
