osu file format v14

[General]
AudioFilename: audio.mp3
AudioLeadIn: 0
PreviewTime: -1
Countdown: 1
SampleSet: Normal
StackLeniency: 0.7
Mode: 0
LetterboxInBreaks: 0
WidescreenStoryboard: 0

[Editor]
Bookmarks: 13913
DistanceSpacing: 0.5
BeatDivisor: 4
GridSize: 16
TimelineZoom: 1

[Metadata]
Title:Through The Night (feat. Hatsune Miku)
TitleUnicode:Through The Night (feat. Hatsune Miku 初音ミク )
Artist:Slushii
ArtistUnicode:Slushii
Creator:Zuisho
Version:The Night
Source:
Tags:
BeatmapID:2123591
BeatmapSetID:1014700

[Difficulty]
HPDrainRate:4
CircleSize:4
OverallDifficulty:8
ApproachRate:9
SliderMultiplier:2
SliderTickRate:1

[Events]
//Background and Video events
0,0,"maxresdefault (7).jpg",0,0
//Break Periods
//Storyboard Layer 0 (Background)
//Storyboard Layer 1 (Fail)
//Storyboard Layer 2 (Pass)
//Storyboard Layer 3 (Foreground)
//Storyboard Sound Samples

[TimingPoints]
0,434.782608695652,4,1,0,100,1,0
13804,-100,4,1,0,5,0,0
13913,-100,4,1,0,100,0,0

[HitObjects]
418,65,0,5,2,0:0:0:0:
317,143,652,1,0,0:0:0:0:
331,162,760,1,0,0:0:0:0:
345,182,869,1,2,0:0:0:0:
452,260,1521,1,0,0:0:0:0:
433,277,1630,1,0,0:0:0:0:
415,294,1738,1,2,0:0:0:0:
364,219,2391,5,0,0:0:0:0:
374,196,2499,1,0,0:0:0:0:
384,173,2608,1,2,0:0:0:0:
285,53,3260,1,0,0:0:0:0:
278,77,3369,1,0,0:0:0:0:
271,101,3478,1,2,0:0:0:0:
135,118,4130,1,0,0:0:0:0:
149,138,4239,1,0,0:0:0:0:
163,158,4347,1,2,0:0:0:0:
265,281,4999,6,0,L|343:269,2,50,0|0|2,0:0|0:0|0:0,0:0:0:0:
248,176,5869,2,0,L|178:187,2,50,0|0|2,0:0|0:0|0:0,0:0:0:0:
329,134,6739,1,0,0:0:0:0:
344,114,6847,1,0,0:0:0:0:
360,95,6956,1,2,0:0:0:0:
349,72,7065,5,0,0:0:0:0:
325,63,7174,1,0,0:0:0:0:
300,66,7282,1,0,0:0:0:0:
276,75,7391,1,0,0:0:0:0:
262,95,7499,1,0,0:0:0:0:
254,118,7608,1,0,0:0:0:0:
252,143,7717,1,0,0:0:0:0:
244,166,7826,1,2,0:0:0:0:
230,186,7934,1,0,0:0:0:0:
213,204,8043,1,0,0:0:0:0:
193,219,8152,1,0,0:0:0:0:
169,227,8260,1,0,0:0:0:0:
144,232,8369,1,0,0:0:0:0:
123,224,8478,6,0,L|74:190,2,50,0|0|2,0:0|0:0|0:0,0:0:0:0:
145,178,8804,1,0,0:0:0:0:
156,134,8913,2,0,L|210:121,2,50
140,86,9239,1,0,0:0:0:0:
127,40,9347,2,0,L|77:21,2,50,0|0|2,0:0|0:0|0:0,0:0:0:0:
151,46,9673,1,0,0:0:0:0:
185,52,9782,1,0,0:0:0:0:
224,51,9891,1,0,0:0:0:0:
248,46,9999,1,0,0:0:0:0:
272,40,10108,1,0,0:0:0:0:
296,36,10217,1,0,0:0:0:0:
321,36,10326,1,0,0:0:0:0:
345,40,10434,1,2,0:0:0:0:
367,50,10543,1,0,0:0:0:0:
382,69,10652,1,0,0:0:0:0:
392,91,10760,1,0,0:0:0:0:
397,115,10869,1,0,0:0:0:0:
393,139,10978,1,0,0:0:0:0:
390,163,11086,6,0,L|382:233,2,50,0|0|2,0:0|0:0|0:0,0:0:0:0:
342,159,11413,1,0,0:0:0:0:
299,158,11521,2,0,L|281:107,2,50
252,181,11847,1,0,0:0:0:0:
212,208,11956,2,0,L|199:260,2,50,0|0|2,0:0|0:0|0:0,0:0:0:0:
256,192,12391,12,0,13804,0:0:0:0:
