osu file format v14

[General]
AudioFilename: audio.mp3
AudioLeadIn: 0
PreviewTime: 13505
Countdown: 0
SampleSet: Soft
StackLeniency: 1
Mode: 0
LetterboxInBreaks: 0
EpilepsyWarning: 1
WidescreenStoryboard: 1

[Editor]
Bookmarks: 342,13403,26464,39525,52586,78709,91770,104831,117893,130954,144015
DistanceSpacing: 2
BeatDivisor: 4
GridSize: 16
TimelineZoom: 1.9

[Metadata]
Title:LUV U NEED U
TitleUnicode:LUV U NEED U
Artist:Slushii
ArtistUnicode:Slushii
Creator:M a r v o l l o
Version:U HAVE AN INCOMING LUV MESSAGE
Source:
Tags:shmiklak marvollo m_a_r_v_o_l_l_o daycore electronic edm electropop english mappers' guild mg mpg fa featured artist monstercat rocket league vol.1 love
BeatmapID:3939704
BeatmapSetID:1910029

[Difficulty]
HPDrainRate:6
CircleSize:3.8
OverallDifficulty:9
ApproachRate:9.3
SliderMultiplier:3.59999990463257
SliderTickRate:1

[Events]
//Background and Video events
0,0,"me.jpg",0,0
//Break Periods
2,65950,78155
//Storyboard Layer 0 (Background)
//Storyboard Layer 1 (Fail)
//Storyboard Layer 2 (Pass)
//Storyboard Layer 3 (Foreground)
Sprite,Foreground,Centre,"sb\etc\pl.png",147,241 C,0,78709,,17,254,176 F,2,78709,78909,1,0 S,2,78709,78909,10,2 P,0,78709,78909,A
Sprite,Foreground,Centre,"sb\etc\pl.png",141,224 C,0,78913,,17,254,176 F,2,78913,79113,1,0 S,2,78913,79113,10,2 P,0,78913,79113,A
Sprite,Foreground,Centre,"sb\etc\pl.png",229,309 C,0,79117,,173,255,95 F,2,79117,79317,1,0 S,2,79117,79317,10,2 P,0,79117,79317,A
Sprite,Foreground,Centre,"sb\etc\pl.png",243,264 C,0,79321,,173,255,95 F,2,79321,79521,1,0 S,2,79321,79521,10,2 P,0,79321,79521,A
Sprite,Foreground,Centre,"sb\etc\pl.png",318,376 C,0,79525,,255,88,100 F,2,79525,79725,1,0 S,2,79525,79725,10,2 P,0,79525,79725,A
Sprite,Foreground,Centre,"sb\etc\pl.png",0,0 C,0,79729,,255,88,100 M,0,79729,79780,402,294,396.4714,318.1246 F,2,79729,80031,1,0 S,2,79729,80031,10,2 P,0,79729,80031,A M,0,79780,79831,396.4714,318.1246,391,342
Sprite,Foreground,Centre,"sb\etc\pl.png",448,402 C,0,79933,,255,94,55 F,2,79933,80133,1,0 S,2,79933,80133,10,2 P,0,79933,80133,A
Sprite,Foreground,Centre,"sb\etc\pl.png",386,216 C,0,80137,,255,94,55 F,2,80137,80337,1,0 S,2,80137,80337,10,2 P,0,80137,80337,A
Sprite,Foreground,Centre,"sb\etc\pl.png",386,216 C,0,80546,,17,254,176 F,2,80546,80746,1,0 S,2,80546,80746,10,2 P,0,80546,80746,A
Sprite,Foreground,Centre,"sb\etc\pl.png",382,211 C,0,80648,,17,254,176 F,2,80648,80848,1,0 S,2,80648,80848,10,2 P,0,80648,80848,A
Sprite,Foreground,Centre,"sb\etc\pl.png",379,204 C,0,80750,,17,254,176 F,2,80750,80950,1,0 S,2,80750,80950,10,2 P,0,80750,80950,A
Sprite,Foreground,Centre,"sb\etc\pl.png",378,195 C,0,80852,,17,254,176 F,2,80852,81052,1,0 S,2,80852,81052,10,2 P,0,80852,81052,A
Sprite,Foreground,Centre,"sb\etc\pl.png",382,186 C,0,80954,,17,254,176 F,2,80954,81154,1,0 S,2,80954,81154,10,2 P,0,80954,81154,A
Sprite,Foreground,Centre,"sb\etc\pl.png",391,178 C,0,81056,,17,254,176 F,2,81056,81256,1,0 S,2,81056,81256,10,2 P,0,81056,81256,A
Sprite,Foreground,Centre,"sb\etc\pl.png",319,256 C,0,81158,,173,255,95 F,2,81158,81358,1,0 S,2,81158,81358,10,2 P,0,81158,81358,A
Sprite,Foreground,Centre,"sb\etc\pl.png",324,271 C,0,81260,,173,255,95 F,2,81260,81460,1,0 S,2,81260,81460,10,2 P,0,81260,81460,A
Sprite,Foreground,Centre,"sb\etc\pl.png",337,285 C,0,81362,,173,255,95 F,2,81362,81562,1,0 S,2,81362,81562,10,2 P,0,81362,81562,A
Sprite,Foreground,Centre,"sb\etc\pl.png",357,294 C,0,81464,,173,255,95 F,2,81464,81664,1,0 S,2,81464,81664,10,2 P,0,81464,81664,A
Sprite,Foreground,Centre,"sb\etc\pl.png",383,296 C,0,81566,,173,255,95 F,2,81566,81766,1,0 S,2,81566,81766,10,2 P,0,81566,81766,A
Sprite,Foreground,Centre,"sb\etc\pl.png",412,288 C,0,81668,,173,255,95 F,2,81668,81868,1,0 S,2,81668,81868,10,2 P,0,81668,81868,A
Sprite,Foreground,Centre,"sb\etc\pl.png",440,268 C,0,81770,,173,255,95 F,2,81770,81970,1,0 S,2,81770,81970,10,2 P,0,81770,81970,A
Sprite,Foreground,Centre,"sb\etc\pl.png",462,233 C,0,81873,,173,255,95 F,2,81873,82073,1,0 S,2,81873,82073,10,2 P,0,81873,82073,A
Sprite,Foreground,Centre,"sb\etc\pl.png",469,186 C,0,81975,,173,255,95 F,2,81975,82175,1,0 S,2,81975,82175,10,2 P,0,81975,82175,A
Sprite,Foreground,Centre,"sb\etc\pl.png",321,84 C,0,82178,,255,88,100 F,2,82178,82378,1,0 S,2,82178,82378,10,2 P,0,82178,82378,A
Sprite,Foreground,Centre,"sb\etc\pl.png",382,216 C,0,82382,,255,88,100 F,2,82382,82582,1,0 S,2,82382,82582,10,2 P,0,82382,82582,A
Sprite,Foreground,Centre,"sb\etc\pl.png",249,171 C,0,82586,,255,88,100 F,2,82586,82786,1,0 S,2,82586,82786,10,2 P,0,82586,82786,A
Sprite,Foreground,Centre,"sb\etc\pl.png",439,97 C,0,82790,,255,88,100 F,2,82790,82990,1,0 S,2,82790,82990,10,2 P,0,82790,82990,A
Sprite,Foreground,Centre,"sb\etc\pl.png",0,0 C,0,82995,,255,88,100 M,0,82995,83046,371,285,373.4227,309.6311 F,2,82995,83297,1,0 S,2,82995,83297,10,2 P,0,82995,83297,A M,0,83046,83097,373.4227,309.6311,375.8455,334.2623
Sprite,Foreground,Centre,"sb\etc\pl.png",434,386 C,0,83199,,255,88,100 F,2,83199,83399,1,0 S,2,83199,83399,10,2 P,0,83199,83399,A
Sprite,Foreground,Centre,"sb\etc\pl.png",263,260 C,0,83403,,255,88,100 F,2,83403,83603,1,0 S,2,83403,83603,10,2 P,0,83403,83603,A
Sprite,Foreground,Centre,"sb\etc\pl.png",263,260 C,0,83811,,255,94,55 F,2,83811,84011,1,0 S,2,83811,84011,10,2 P,0,83811,84011,A
Sprite,Foreground,Centre,"sb\etc\pl.png",371,167 C,0,84015,,255,94,55 F,2,84015,84215,1,0 S,2,84015,84215,10,2 P,0,84015,84215,A
Sprite,Foreground,Centre,"sb\etc\pl.png",0,0 C,0,84219,,255,94,55 M,0,84219,84270,489,285,493.1359,260.598 F,2,84219,84521,1,0 S,2,84219,84521,10,2 P,0,84219,84521,A M,0,84270,84321,493.1359,260.598,497.2719,236.196
Sprite,Foreground,Centre,"sb\etc\pl.png",549,177 C,0,84423,,255,94,55 F,2,84423,84623,1,0 S,2,84423,84623,10,2 P,0,84423,84623,A
Sprite,Foreground,Centre,"sb\etc\pl.png",376,250 C,0,84627,,255,94,55 F,2,84627,84827,1,0 S,2,84627,84827,10,2 P,0,84627,84827,A
Sprite,Foreground,Centre,"sb\etc\pl.png",404,91 C,0,84831,,255,94,55 F,2,84831,85031,1,0 S,2,84831,85031,10,2 P,0,84831,85031,A
Sprite,Foreground,Centre,"sb\etc\pl.png",489,224 C,0,85035,,255,94,55 F,2,85035,85235,1,0 S,2,85035,85235,10,2 P,0,85035,85235,A
Sprite,Foreground,Centre,"sb\etc\pl.png",484,226 C,0,85444,,17,254,176 F,2,85444,85644,1,0 S,2,85444,85644,10,2 P,0,85444,85644,A
Sprite,Foreground,Centre,"sb\etc\pl.png",576,179 C,0,85648,,17,254,176 F,2,85648,85848,1,0 S,2,85648,85848,10,2 P,0,85648,85848,A
Sprite,Foreground,Centre,"sb\etc\pl.png",393,277 C,0,85852,,17,254,176 F,2,85852,86052,1,0 S,2,85852,86052,10,2 P,0,85852,86052,A
Sprite,Foreground,Centre,"sb\etc\pl.png",501,390 C,0,86056,,173,255,95 F,2,86056,86256,1,0 S,2,86056,86256,10,2 P,0,86056,86256,A
Sprite,Foreground,Centre,"sb\etc\pl.png",0,0 C,0,86260,,173,255,95 M,0,86260,86311,393,277,398.5286,301.1246 F,2,86260,86562,1,0 S,2,86260,86562,10,2 P,0,86260,86562,A M,0,86311,86362,398.5286,301.1246,404,325
Sprite,Foreground,Centre,"sb\etc\pl.png",369,434 C,0,86464,,255,88,100 F,2,86464,86664,1,0 S,2,86464,86664,10,2 P,0,86464,86664,A
Sprite,Foreground,Centre,"sb\etc\pl.png",451,135 C,0,86668,,255,88,100 F,2,86668,86868,1,0 S,2,86668,86868,10,2 P,0,86668,86868,A
Sprite,Foreground,Centre,"sb\etc\pl.png",445,138 C,0,87076,,255,94,55 F,2,87076,87276,1,0 S,2,87076,87276,10,2 P,0,87076,87276,A
Sprite,Foreground,Centre,"sb\etc\pl.png",439,139 C,0,87178,,255,94,55 F,2,87178,87378,1,0 S,2,87178,87378,10,2 P,0,87178,87378,A
Sprite,Foreground,Centre,"sb\etc\pl.png",431,139 C,0,87280,,255,94,55 F,2,87280,87480,1,0 S,2,87280,87480,10,2 P,0,87280,87480,A
Sprite,Foreground,Centre,"sb\etc\pl.png",422,140 C,0,87382,,255,94,55 F,2,87382,87582,1,0 S,2,87382,87582,10,2 P,0,87382,87582,A
Sprite,Foreground,Centre,"sb\etc\pl.png",412,141 C,0,87484,,255,94,55 F,2,87484,87684,1,0 S,2,87484,87684,10,2 P,0,87484,87684,A
Sprite,Foreground,Centre,"sb\etc\pl.png",400,142 C,0,87586,,255,94,55 F,2,87586,87786,1,0 S,2,87586,87786,10,2 P,0,87586,87786,A
Sprite,Foreground,Centre,"sb\etc\pl.png",269,77 C,0,87688,,17,254,176 F,2,87688,87888,1,0 S,2,87688,87888,10,2 P,0,87688,87888,A
Sprite,Foreground,Centre,"sb\etc\pl.png",270,93 C,0,87790,,17,254,176 F,2,87790,87990,1,0 S,2,87790,87990,10,2 P,0,87790,87990,A
Sprite,Foreground,Centre,"sb\etc\pl.png",272,112 C,0,87892,,17,254,176 F,2,87892,88092,1,0 S,2,87892,88092,10,2 P,0,87892,88092,A
Sprite,Foreground,Centre,"sb\etc\pl.png",274,134 C,0,87994,,17,254,176 F,2,87994,88194,1,0 S,2,87994,88194,10,2 P,0,87994,88194,A
Sprite,Foreground,Centre,"sb\etc\pl.png",277,160 C,0,88096,,17,254,176 F,2,88096,88296,1,0 S,2,88096,88296,10,2 P,0,88096,88296,A
Sprite,Foreground,Centre,"sb\etc\pl.png",280,190 C,0,88198,,17,254,176 F,2,88198,88398,1,0 S,2,88198,88398,10,2 P,0,88198,88398,A
Sprite,Foreground,Centre,"sb\etc\pl.png",283,225 C,0,88300,,17,254,176 F,2,88300,88500,1,0 S,2,88300,88500,10,2 P,0,88300,88500,A
Sprite,Foreground,Centre,"sb\etc\pl.png",287,266 C,0,88403,,17,254,176 F,2,88403,88603,1,0 S,2,88403,88603,10,2 P,0,88403,88603,A
Sprite,Foreground,Centre,"sb\etc\pl.png",291,314 C,0,88505,,17,254,176 F,2,88505,88705,1,0 S,2,88505,88705,10,2 P,0,88505,88705,A
Sprite,Foreground,Centre,"sb\etc\pl.png",390,181 C,0,88709,,173,255,95 F,2,88709,88909,1,0 S,2,88709,88909,10,2 P,0,88709,88909,A
Sprite,Foreground,Centre,"sb\etc\pl.png",181,254 C,0,88913,,173,255,95 F,2,88913,89113,1,0 S,2,88913,89113,10,2 P,0,88913,89113,A
Sprite,Foreground,Centre,"sb\etc\pl.png",398,175 C,0,89117,,173,255,95 F,2,89117,89317,1,0 S,2,89117,89317,10,2 P,0,89117,89317,A
Sprite,Foreground,Centre,"sb\etc\pl.png",176,132 C,0,89321,,173,255,95 F,2,89321,89521,1,0 S,2,89321,89521,10,2 P,0,89321,89521,A
Sprite,Foreground,Centre,"sb\etc\pl.png",0,0 C,0,89525,,173,255,95 M,0,89525,89576,294,378,296.4627,353.3728 F,2,89525,89827,1,0 S,2,89525,89827,10,2 P,0,89525,89827,A M,0,89576,89627,296.4627,353.3728,298.9254,328.7457
Sprite,Foreground,Centre,"sb\etc\pl.png",312,256 C,0,89729,,173,255,95 F,2,89729,89929,1,0 S,2,89729,89929,10,2 P,0,89729,89929,A
Sprite,Foreground,Centre,"sb\etc\pl.png",341,79 C,0,89934,,173,255,95 F,2,89934,90134,1,0 S,2,89934,90134,10,2 P,0,89934,90134,A
Sprite,Foreground,Centre,"sb\etc\pl.png",0,0 C,0,90341,,255,88,100 M,0,90341,90392,350,85,394.8615,81.47157 F,2,90341,90643,1,0 S,2,90341,90643,10,2 P,0,90341,90643,A M,0,90392,90443,394.8615,81.47157,439,78
Sprite,Foreground,Centre,"sb\etc\pl.png",524,70 C,0,90546,,255,88,100 F,2,90546,90746,1,0 S,2,90546,90746,10,2 P,0,90546,90746,A
Sprite,Foreground,Centre,"sb\etc\pl.png",386,188 C,0,90750,,255,94,55 F,2,90750,90950,1,0 S,2,90750,90950,10,2 P,0,90750,90950,A
Sprite,Foreground,Centre,"sb\etc\pl.png",0,0 C,0,90853,,255,94,55 M,0,90853,90904,301,180,256.1385,176.4716 F,2,90853,91155,1,0 S,2,90853,91155,10,2 P,0,90853,91155,A M,0,90904,90955,256.1385,176.4716,212,173
Sprite,Foreground,Centre,"sb\etc\pl.png",0,0 C,0,91158,,17,254,176 M,0,91158,91209,74,289,118.8615,285.4716 F,2,91158,91460,1,0 S,2,91158,91460,10,2 P,0,91158,91460,A M,0,91209,91260,118.8615,285.4716,163,282
Sprite,Foreground,Centre,"sb\etc\pl.png",248,274 C,0,91363,,17,254,176 F,2,91363,91563,1,0 S,2,91363,91563,10,2 P,0,91363,91563,A
Sprite,Foreground,Centre,"sb\etc\pl.png",0,0 C,0,91566,,173,255,95 M,0,91566,91617,360,383,404.8615,386.5284 F,2,91566,91868,1,0 S,2,91566,91868,10,2 P,0,91566,91868,A M,0,91617,91668,404.8615,386.5284,449,390
Sprite,Foreground,Centre,"sb\etc\pl.png",0,0 C,0,116260,,255,88,100 M,0,116260,116311,325,196,351.6129,153.4783 F,2,116260,116562,1,0 S,2,116260,116562,10,2 P,0,116260,116562,A M,0,116311,116362,351.6129,153.4783,306.4432,173.1867
Sprite,Foreground,Centre,"sb\etc\pl.png",0,0 C,0,116464,,255,94,55 M,0,116464,116515,325,196,351.6129,153.4783 F,2,116464,116766,1,0 S,2,116464,116766,10,2 P,0,116464,116766,A M,0,116515,116566,351.6129,153.4783,306.4432,173.1867
Sprite,Foreground,Centre,"sb\etc\pl.png",0,0 C,0,116668,,17,254,176 M,0,116668,116719,325,196,351.6129,153.4783 F,2,116668,116970,1,0 S,2,116668,116970,10,2 P,0,116668,116970,A M,0,116719,116770,351.6129,153.4783,306.4432,173.1867
Sprite,Foreground,Centre,"sb\etc\pl.png",0,0 C,0,116872,,173,255,95 M,0,116872,116923,325,196,351.6129,153.4783 F,2,116872,117174,1,0 S,2,116872,117174,10,2 P,0,116872,117174,A M,0,116923,116974,351.6129,153.4783,306.4432,173.1867
Sprite,Foreground,Centre,"sb\etc\pl.png",0,0 C,0,117076,,255,88,100 M,0,117076,117127,325,196,351.6129,153.4783 F,2,117076,117378,1,0 S,2,117076,117378,10,2 P,0,117076,117378,A M,0,117127,117178,351.6129,153.4783,306.4432,173.1867
Sprite,Foreground,Centre,"sb\etc\pl.png",0,0 C,0,117280,,255,94,55 M,0,117280,117331,325,196,351.6129,153.4783 F,2,117280,117582,1,0 S,2,117280,117582,10,2 P,0,117280,117582,A M,0,117331,117382,351.6129,153.4783,306.4432,173.1867
Sprite,Foreground,Centre,"sb\etc\pl.png",0,0 C,0,117484,,17,254,176 M,0,117484,117535,325,196,381.8987,171.385 F,2,117484,117888,1,0 S,2,117484,117888,10,2 P,0,117484,117888,A M,0,117535,117586,381.8987,171.385,368.1945,111.2504 M,0,117586,117637,368.1945,111.2504,306.7759,113.7202 M,0,117637,117688,306.7759,113.7202,297.4539,174.7877
Sprite,Foreground,Centre,"sb\etc\pl.png",0,0 C,0,117893,,173,255,95 M,0,117893,117944,329,377,243.3692,349.5994 F,2,117893,118399,1,0 S,2,117893,118399,10,2 P,0,117893,118399,A M,0,117944,117995,243.3692,349.5994,154.2074,339.0377 M,0,117995,118046,154.2074,339.0377,68.86761,362.2047 M,0,118046,118097,68.86761,362.2047,102.7072,419.5034 M,0,118097,118148,102.7072,419.5034,185.6838,391.8614 M,0,118148,118199,185.6838,391.8614,214.9568,310.4788
Sprite,Foreground,Centre,"sb\etc\pl.png",0,0 C,0,118301,,255,88,100 M,0,118301,118352,84,197,147.8338,175.0571 F,2,118301,118909,1,0 S,2,118301,118909,10,2 P,0,118301,118909,A M,0,118352,118403,147.8338,175.0571,190.598,197.8501 M,0,118403,118454,190.598,197.8501,176.5354,254.2171 M,0,118454,118505,176.5354,254.2171,214.107,310.2941 M,0,118505,118556,214.107,310.2941,176.5355,254.2171 M,0,118556,118607,176.5355,254.2171,190.598,197.8501 M,0,118607,118658,190.598,197.8501,147.8339,175.0571 M,0,118658,118709,147.8339,175.0571,84,197
Sprite,Foreground,Centre,"sb\etc\pl.png",0,0 C,0,118913,,255,94,55 M,0,118913,118964,372,110,379.2738,142.7468 F,2,118913,119215,1,0 S,2,118913,119215,10,2 P,0,118913,119215,A M,0,118964,119015,379.2738,142.7468,396.0467,171.7921
Sprite,Foreground,Centre,"sb\etc\pl.png",0,0 C,0,119117,,255,94,55 M,0,119117,119168,329,377,339.779,310.3662 F,2,119117,119521,1,0 S,2,119117,119521,10,2 P,0,119117,119521,A M,0,119168,119219,339.779,310.3662,350.558,243.7324 M,0,119219,119270,350.558,243.7324,361.337,177.0986 M,0,119270,119321,361.337,177.0986,372.116,110.4648
Sprite,Foreground,Centre,"sb\etc\pl.png",0,0 C,0,119525,,17,254,176 M,0,119525,119576,477,362,399.1749,344.6743 F,2,119525,120031,1,0 S,2,119525,120031,10,2 P,0,119525,120031,A M,0,119576,119627,399.1749,344.6743,326.8936,378.4617 M,0,119627,119678,326.8936,378.4617,252.9459,407.5042 M,0,119678,119729,252.9459,407.5042,180.7638,376.6137 M,0,119729,119780,180.7638,376.6137,189.388,305.9837 M,0,119780,119831,189.388,305.9837,260.7589,319.1595
Sprite,Foreground,Centre,"sb\etc\pl.png",0,0 C,0,119933,,173,255,95 M,0,119933,119984,476,234,416.9998,252.1176 F,2,119933,120541,1,0 S,2,119933,120541,10,2 P,0,119933,120541,A M,0,119984,120035,416.9998,252.1176,356.1555,239.0681 M,0,120035,120086,356.1555,239.0681,314.7292,285.762 M,0,120086,120137,314.7292,285.762,260.132,317.1967 M,0,120137,120188,260.132,317.1967,314.7292,285.762 M,0,120188,120239,314.7292,285.762,356.1555,239.0681 M,0,120239,120290,356.1555,239.0681,416.9999,252.1176 M,0,120290,120341,416.9999,252.1176,476,234
Sprite,Foreground,Centre,"sb\etc\pl.png",0,0 C,0,120546,,255,88,100 M,0,120546,120597,284,98,316.7468,90.72617 F,2,120546,120848,1,0 S,2,120546,120848,10,2 P,0,120546,120848,A M,0,120597,120648,316.7468,90.72617,345.7921,73.95334
Sprite,Foreground,Centre,"sb\etc\pl.png",0,0 C,0,120750,,255,88,100 M,0,120750,120801,551,141,484.3662,130.221 F,2,120750,121154,1,0 S,2,120750,121154,10,2 P,0,120750,121154,A M,0,120801,120852,484.3662,130.221,417.7324,119.442 M,0,120852,120903,417.7324,119.442,351.0986,108.663 M,0,120903,120954,351.0986,108.663,284.4648,97.88401
Sprite,Foreground,Centre,"sb\etc\pl.png",0,0 C,0,121158,,255,94,55 M,0,121158,121209,90,237,161.7577,223.9297 F,2,121158,121664,1,0 S,2,121158,121664,10,2 P,0,121158,121664,A M,0,121209,121260,161.7577,223.9297,208.405,282.7922 M,0,121260,121311,208.405,282.7922,262.7224,333.6675 M,0,121311,121362,262.7224,333.6675,331.6152,312.0933 M,0,121362,121413,331.6152,312.0933,309.1957,252.3512 M,0,121413,121464,309.1957,252.3512,239.9382,273.9278
Sprite,Foreground,Centre,"sb\etc\pl.png",0,0 C,0,121566,,17,254,176 M,0,121566,121617,263,425,251.4574,349.3758 F,2,121566,121868,1,0 S,2,121566,121868,10,2 P,0,121566,121868,A M,0,121617,121668,251.4574,349.3758,239.9147,273.7516
Sprite,Foreground,Centre,"sb\etc\pl.png",0,0 C,0,121974,,173,255,95 M,0,121974,122025,263,425,251.4574,349.3758 F,2,121974,122276,1,0 S,2,121974,122276,10,2 P,0,121974,122276,A M,0,122025,122076,251.4574,349.3758,239.9147,273.7516
Sprite,Foreground,Centre,"sb\etc\pl.png",212,108 C,0,122178,,255,88,100 F,2,122178,122378,1,0 S,2,122178,122378,10,2 P,0,122178,122378,A
Sprite,Foreground,Centre,"sb\etc\pl.png",0,0 C,0,122382,,255,88,100 M,0,122382,122433,396,312,321.3362,295.3395 F,2,122382,122786,1,0 S,2,122382,122786,10,2 P,0,122382,122786,A M,0,122433,122484,321.3362,295.3395,254.8998,264.0623 M,0,122484,122535,254.8998,264.0623,181.2972,247.1974 M,0,122535,122586,181.2972,247.1974,106.0559,233.3776
Sprite,Foreground,Centre,"sb\etc\pl.png",0,0 C,0,122790,,255,94,55 M,0,122790,122841,364,127,430.586,84.5474 F,2,122790,123041,1,0 S,2,122790,123041,10,2 P,0,122790,123041,A
Sprite,Foreground,Centre,"sb\etc\pl.png",0,0 C,0,122893,,17,254,176 M,0,122893,122944,355,141,433.7713,137.0995 F,2,122893,123144,1,0 S,2,122893,123144,10,2 P,0,122893,123144,A
Sprite,Foreground,Centre,"sb\etc\pl.png",0,0 C,0,122995,,173,255,95 M,0,122995,123046,343,148,413,184 F,2,122995,123246,1,0 S,2,122995,123246,10,2 P,0,122995,123246,A
Sprite,Foreground,Centre,"sb\etc\pl.png",0,0 C,0,123098,,255,88,100 M,0,123098,123149,326,147,368.4526,213.586 F,2,123098,123349,1,0 S,2,123098,123349,10,2 P,0,123098,123349,A
Sprite,Foreground,Centre,"sb\etc\pl.png",0,0 C,0,123199,,255,94,55 M,0,123199,123250,159,206,261.6598,192.8385 F,2,123199,123603,1,0 S,2,123199,123603,10,2 P,0,123199,123603,A M,0,123250,123301,261.6598,192.8385,359.7451,206.6631 M,0,123301,123352,359.7451,206.6631,462.4744,194.0554 M,0,123352,123403,462.4744,194.0554,565.2036,181.4477
Sprite,Foreground,Centre,"sb\etc\pl.png",457,283 C,0,123505,,255,94,55 F,2,123505,123705,1,0 S,2,123505,123705,10,2 P,0,123505,123705,A
Sprite,Foreground,Centre,"sb\etc\pl.png",0,0 C,0,123607,,255,94,55 M,0,123607,123658,459,263,468.9402,191.6895 F,2,123607,123909,1,0 S,2,123607,123909,10,2 P,0,123607,123909,A M,0,123658,123709,468.9402,191.6895,478.8805,120.379
Sprite,Foreground,Centre,"sb\etc\pl.png",303,263 C,0,123811,,255,94,55 F,2,123811,124011,1,0 S,2,123811,124011,10,2 P,0,123811,124011,A
Sprite,Foreground,Centre,"sb\etc\pl.png",0,0 C,0,123913,,255,94,55 M,0,123913,123964,305,283,314.9402,354.3105 F,2,123913,124215,1,0 S,2,123913,124215,10,2 P,0,123913,124215,A M,0,123964,124015,314.9402,354.3105,324.8805,425.621
Sprite,Foreground,Centre,"sb\etc\pl.png",155,157 C,0,124219,,17,254,176 F,2,124219,124419,1,0 S,2,124219,124419,10,2 P,0,124219,124419,A
Sprite,Foreground,Centre,"sb\etc\pl.png",0,0 C,0,124423,,173,255,95 M,0,124423,124474,64,203,108.556,199.6178 F,2,124423,124725,1,0 S,2,124423,124725,10,2 P,0,124423,124725,A M,0,124474,124525,108.556,199.6178,148.8347,180.302
Sprite,Foreground,Centre,"sb\etc\pl.png",0,0 C,0,124627,,173,255,95 M,0,124627,124678,113,289,116.3822,244.444 F,2,124627,124929,1,0 S,2,124627,124929,10,2 P,0,124627,124929,A M,0,124678,124729,116.3822,244.444,135.698,204.1653
Sprite,Foreground,Centre,"sb\etc\pl.png",0,0 C,0,124831,,255,88,100 M,0,124831,124882,205,83,230.6244,91.41295 F,2,124831,125133,1,0 S,2,124831,125133,10,2 P,0,124831,125133,A M,0,124882,124933,230.6244,91.41295,257.1762,96.09955
Sprite,Foreground,Centre,"sb\etc\pl.png",388,91 C,0,125035,,255,94,55 F,2,125035,125235,1,0 S,2,125035,125235,10,2 P,0,125035,125235,A
Sprite,Foreground,Centre,"sb\etc\pl.png",425,116 C,0,125137,,255,94,55 F,2,125137,125337,1,0 S,2,125137,125337,10,2 P,0,125137,125337,A
Sprite,Foreground,Centre,"sb\etc\pl.png",449,154 C,0,125239,,255,94,55 F,2,125239,125439,1,0 S,2,125239,125439,10,2 P,0,125239,125439,A
Sprite,Foreground,Centre,"sb\etc\pl.png",456,198 C,0,125341,,255,94,55 F,2,125341,125541,1,0 S,2,125341,125541,10,2 P,0,125341,125541,A
Sprite,Foreground,Centre,"sb\etc\pl.png",0,0 C,0,125444,,17,254,176 M,0,125444,125495,445,241,400.4523,234.636 F,2,125444,125746,1,0 S,2,125444,125746,10,2 P,0,125444,125746,A M,0,125495,125546,400.4523,234.636,355.9045,228.2721
Sprite,Foreground,Centre,"sb\etc\pl.png",0,0 C,0,125648,,17,254,176 M,0,125648,125699,487,311,531.5477,304.636 F,2,125648,125950,1,0 S,2,125648,125950,10,2 P,0,125648,125950,A M,0,125699,125750,531.5477,304.636,576.0955,298.2721
Sprite,Foreground,Centre,"sb\etc\pl.png",0,0 C,0,125852,,17,254,176 M,0,125852,125903,430,383,385.4523,376.636 F,2,125852,126154,1,0 S,2,125852,126154,10,2 P,0,125852,126154,A M,0,125903,125954,385.4523,376.636,340.9045,370.2721
Sprite,Foreground,Centre,"sb\etc\pl.png",114,417 C,0,126056,,173,255,95 F,2,126056,126256,1,0 S,2,126056,126256,10,2 P,0,126056,126256,A
Sprite,Foreground,Centre,"sb\etc\pl.png",146,374 C,0,126158,,173,255,95 F,2,126158,126358,1,0 S,2,126158,126358,10,2 P,0,126158,126358,A
Sprite,Foreground,Centre,"sb\etc\pl.png",0,0 C,0,126260,,173,255,95 M,0,126260,126311,151,321,146.6296,294.3787 F,2,126260,126562,1,0 S,2,126260,126562,10,2 P,0,126260,126562,A M,0,126311,126362,146.6296,294.3787,139.0152,268.5039
Sprite,Foreground,Centre,"sb\etc\pl.png",66,140 C,0,126464,,255,88,100 F,2,126464,126664,1,0 S,2,126464,126664,10,2 P,0,126464,126664,A
Sprite,Foreground,Centre,"sb\etc\pl.png",110,143 C,0,126566,,255,88,100 F,2,126566,126766,1,0 S,2,126566,126766,10,2 P,0,126566,126766,A
Sprite,Foreground,Centre,"sb\etc\pl.png",155,147 C,0,126668,,255,88,100 F,2,126668,126868,1,0 S,2,126668,126868,10,2 P,0,126668,126868,A
Sprite,Foreground,Centre,"sb\etc\pl.png",200,151 C,0,126770,,255,88,100 F,2,126770,126970,1,0 S,2,126770,126970,10,2 P,0,126770,126970,A
Sprite,Foreground,Centre,"sb\etc\pl.png",268,222 C,0,126872,,255,94,55 F,2,126872,127072,1,0 S,2,126872,127072,10,2 P,0,126872,127072,A
Sprite,Foreground,Centre,"sb\etc\pl.png",312,219 C,0,126974,,255,94,55 F,2,126974,127174,1,0 S,2,126974,127174,10,2 P,0,126974,127174,A
Sprite,Foreground,Centre,"sb\etc\pl.png",357,215 C,0,127076,,255,94,55 F,2,127076,127276,1,0 S,2,127076,127276,10,2 P,0,127076,127276,A
Sprite,Foreground,Centre,"sb\etc\pl.png",402,211 C,0,127178,,255,94,55 F,2,127178,127378,1,0 S,2,127178,127378,10,2 P,0,127178,127378,A
Sprite,Foreground,Centre,"sb\etc\pl.png",0,0 C,0,127280,,17,254,176 M,0,127280,127331,542,152,517.6417,189.8218 F,2,127280,127684,1,0 S,2,127280,127684,10,2 P,0,127280,127684,A M,0,127331,127382,517.6417,189.8218,496.2196,229.3802 M,0,127382,127433,496.2196,229.3802,477.9871,270.5059 M,0,127433,127484,477.9871,270.5059,462.9395,312.9001
Sprite,Foreground,Centre,"sb\etc\pl.png",429,417 C,0,127586,,173,255,95 F,2,127586,127786,1,0 S,2,127586,127786,10,2 P,0,127586,127786,A
Sprite,Foreground,Centre,"sb\etc\pl.png",0,0 C,0,127688,,173,255,95 M,0,127688,127739,422,394,407.5275,328.0698 F,2,127688,127990,1,0 S,2,127688,127990,10,2 P,0,127688,127990,A M,0,127739,127790,407.5275,328.0698,393.055,262.1395
Sprite,Foreground,Centre,"sb\etc\pl.png",0,0 C,0,127893,,173,255,95 M,0,127893,127944,174,164,238.4274,184.1336 F,2,127893,128195,1,0 S,2,127893,128195,10,2 P,0,127893,128195,A M,0,127944,127995,238.4274,184.1336,302.8548,204.2671
Sprite,Foreground,Centre,"sb\etc\pl.png",0,0 C,0,128097,,173,255,95 M,0,128097,128148,497,74,446.9274,119.2657 F,2,128097,128399,1,0 S,2,128097,128399,10,2 P,0,128097,128399,A M,0,128148,128199,446.9274,119.2657,396.8547,164.5313
Sprite,Foreground,Centre,"sb\etc\pl.png",211,304 C,0,128301,,255,88,100 F,2,128301,128501,1,0 S,2,128301,128501,10,2 P,0,128301,128501,A
Sprite,Foreground,Centre,"sb\etc\pl.png",200,282 C,0,128403,,255,88,100 F,2,128403,128603,1,0 S,2,128403,128603,10,2 P,0,128403,128603,A
Sprite,Foreground,Centre,"sb\etc\pl.png",0,0 C,0,128505,,255,88,100 M,0,128505,128556,109,416,166.1646,381.6028 F,2,128505,128807,1,0 S,2,128505,128807,10,2 P,0,128505,128807,A M,0,128556,128607,166.1646,381.6028,232.8288,380.2035
Sprite,Foreground,Centre,"sb\etc\pl.png",402,399 C,0,128709,,255,94,55 F,2,128709,128909,1,0 S,2,128709,128909,10,2 P,0,128709,128909,A
Sprite,Foreground,Centre,"sb\etc\pl.png",391,421 C,0,128811,,255,94,55 F,2,128811,129011,1,0 S,2,128811,129011,10,2 P,0,128811,129011,A
Sprite,Foreground,Centre,"sb\etc\pl.png",0,0 C,0,128913,,255,94,55 M,0,128913,128964,300,287,357.1646,321.3972 F,2,128913,129215,1,0 S,2,128913,129215,10,2 P,0,128913,129215,A M,0,128964,129015,357.1646,321.3972,423.8288,322.7965
Sprite,Foreground,Centre,"sb\etc\pl.png",543,220 C,0,129117,,17,254,176 F,2,129117,129317,1,0 S,2,129117,129317,10,2 P,0,129117,129317,A
Sprite,Foreground,Centre,"sb\etc\pl.png",574,137 C,0,129219,,17,254,176 F,2,129219,129419,1,0 S,2,129219,129419,10,2 P,0,129219,129419,A
Sprite,Foreground,Centre,"sb\etc\pl.png",494,150 C,0,129321,,17,254,176 F,2,129321,129521,1,0 S,2,129321,129521,10,2 P,0,129321,129521,A
Sprite,Foreground,Centre,"sb\etc\pl.png",0,0 C,0,129729,,173,255,95 M,0,129729,129780,324,222,325.6636,211.958 F,2,129729,130337,1,0 S,2,129729,130337,10,2 P,0,129729,130337,A M,0,129780,129831,325.6636,211.958,324,222 M,0,129831,129882,324,222,325.6636,211.958 M,0,129882,129933,325.6636,211.958,324,222 M,0,129933,129984,324,222,325.6636,211.958 M,0,129984,130035,325.6636,211.958,324,222 M,0,130035,130086,324,222,325.6636,211.958 M,0,130086,130137,325.6636,211.958,324,222
Sprite,Foreground,Centre,"sb\etc\pl.png",314,305 C,0,130341,,255,88,100 F,2,130341,130541,1,0 S,2,130341,130541,10,2 P,0,130341,130541,A
Sprite,Foreground,Centre,"sb\etc\pl.png",326,213 C,0,130443,,255,88,100 F,2,130443,130643,1,0 S,2,130443,130643,10,2 P,0,130443,130643,A
Sprite,Foreground,Centre,"sb\etc\pl.png",337,122 C,0,130545,,255,88,100 F,2,130545,130745,1,0 S,2,130545,130745,10,2 P,0,130545,130745,A
Sprite,Foreground,Centre,"sb\etc\pl.png",337,122 C,0,130750,,255,94,55 F,2,130750,130950,1,0 S,2,130750,130950,10,2 P,0,130750,130950,A
Sprite,Foreground,Centre,"sb\etc\pl.png",0,0 C,0,130954,,17,254,176 M,0,130954,131005,106,261,192.7894,237.1755 F,2,130954,131460,1,0 S,2,130954,131460,10,2 P,0,130954,131460,A M,0,131005,131056,192.7894,237.1755,278.2446,225.5591 M,0,131056,131107,278.2446,225.5591,340.1848,250.4268 M,0,131107,131158,340.1848,250.4268,373.2605,334.1286 M,0,131158,131209,373.2605,334.1286,447.9007,308.894 M,0,131209,131260,447.9007,308.894,415.7583,224.8294
Sprite,Foreground,Centre,"sb\etc\pl.png",0,0 C,0,131362,,17,254,176 M,0,131362,131413,478,167,502.3412,234.7607 F,2,131362,131868,1,0 S,2,131362,131868,10,2 P,0,131362,131868,A M,0,131413,131464,502.3412,234.7607,526.6824,302.5213 M,0,131464,131515,526.6824,302.5213,551.0236,370.282 M,0,131515,131566,551.0236,370.282,485.0409,390.1151 M,0,131566,131617,485.0409,390.1151,415.2836,407.9455 M,0,131617,131668,415.2836,407.9455,345.5263,425.7758
Sprite,Foreground,Centre,"sb\etc\pl.png",0,0 C,0,131770,,173,255,95 M,0,131770,131821,212,399,272.4242,381.1699 F,2,131770,132072,1,0 S,2,131770,132072,10,2 P,0,131770,132072,A M,0,131821,131872,272.4242,381.1699,246,374
Sprite,Foreground,Centre,"sb\etc\pl.png",71,399 C,0,131974,,173,255,95 F,2,131974,132174,1,0 S,2,131974,132174,10,2 P,0,131974,132174,A
Sprite,Foreground,Centre,"sb\etc\pl.png",0,0 C,0,132076,,173,255,95 M,0,132076,132127,94,253,105.5468,191.0672 F,2,132076,132480,1,0 S,2,132076,132480,10,2 P,0,132076,132480,A M,0,132127,132178,105.5468,191.0672,121.9129,135.799 M,0,132178,132229,121.9129,135.799,184.3455,144.2359 M,0,132229,132280,184.3455,144.2359,177.4045,200.8924
Sprite,Foreground,Centre,"sb\etc\pl.png",0,0 C,0,132382,,173,255,95 M,0,132382,132433,251,251,188.2977,244.8827 F,2,132382,132684,1,0 S,2,132382,132684,10,2 P,0,132382,132684,A M,0,132433,132484,188.2977,244.8827,177.2358,200.174
Sprite,Foreground,Centre,"sb\etc\pl.png",0,0 C,0,132586,,255,88,100 M,0,132586,132637,386,104,362.0758,186.0846 F,2,132586,133092,1,0 S,2,132586,133092,10,2 P,0,132586,133092,A M,0,132637,132688,362.0758,186.0846,338.1517,268.1693 M,0,132688,132739,338.1517,268.1693,375.1718,317.0511 M,0,132739,132790,375.1718,317.0511,432.1114,295.7845 M,0,132790,132841,432.1114,295.7845,455.7075,213.605 M,0,132841,132892,455.7075,213.605,479.3036,131.4255
Sprite,Foreground,Centre,"sb\etc\pl.png",0,0 C,0,132995,,255,88,100 M,0,132995,133046,397,409,328.3614,387.2573 F,2,132995,133501,1,0 S,2,132995,133501,10,2 P,0,132995,133501,A M,0,133046,133097,328.3614,387.2573,259.7228,365.5147 M,0,133097,133148,259.7228,365.5147,248.3969,312.5447 M,0,133148,133199,248.3969,312.5447,267.3413,243.0818 M,0,133199,133250,267.3413,243.0818,286.2858,173.6188 M,0,133250,133301,286.2858,173.6188,305.2302,104.1558
Sprite,Foreground,Centre,"sb\etc\pl.png",0,0 C,0,133403,,255,94,55 M,0,133403,133454,95,170,163.8996,165.6477 F,2,133403,133705,1,0 S,2,133403,133705,10,2 P,0,133403,133705,A M,0,133454,133505,163.8996,165.6477,139.6908,193.6493
Sprite,Foreground,Centre,"sb\etc\pl.png",127,92 C,0,133607,,255,94,55 F,2,133607,133807,1,0 S,2,133607,133807,10,2 P,0,133607,133807,A
Sprite,Foreground,Centre,"sb\etc\pl.png",0,0 C,0,133709,,255,94,55 M,0,133709,133760,153,343,146.5173,280.3344 F,2,133709,134113,1,0 S,2,133709,134113,10,2 P,0,133709,134113,A M,0,133760,133811,146.5173,280.3344,140.0347,217.6688 M,0,133811,133862,140.0347,217.6688,133.5521,155.0033 M,0,133862,133913,133.5521,155.0033,127.0694,92.33768
Sprite,Foreground,Centre,"sb\etc\pl.png",0,0 C,0,134015,,255,94,55 M,0,134015,134066,265,153,320.7498,182.342 F,2,134015,134317,1,0 S,2,134015,134317,10,2 P,0,134015,134317,A M,0,134066,134117,320.7498,182.342,375.6577,152.7703
Sprite,Foreground,Centre,"sb\etc\pl.png",536,72 C,0,134219,,17,254,176 F,2,134219,134419,1,0 S,2,134219,134419,10,2 P,0,134219,134419,A
Sprite,Foreground,Centre,"sb\etc\pl.png",536,72 C,0,134627,,173,255,95 F,2,134627,134827,1,0 S,2,134627,134827,10,2 P,0,134627,134827,A
Sprite,Foreground,Centre,"sb\etc\pl.png",0,0 C,0,135035,,255,88,100 M,0,135035,135086,536,72,526.1743,134.2291 F,2,135035,135337,1,0 S,2,135035,135337,10,2 P,0,135035,135337,A M,0,135086,135137,526.1743,134.2291,516.3488,196.4581
Sprite,Foreground,Centre,"sb\etc\pl.png",488,355 C,0,135239,,255,88,100 F,2,135239,135439,1,0 S,2,135239,135439,10,2 P,0,135239,135439,A
Sprite,Foreground,Centre,"sb\etc\pl.png",0,0 C,0,135341,,255,88,100 M,0,135341,135392,572,286,496.7541,272.2049 F,2,135341,135745,1,0 S,2,135341,135745,10,2 P,0,135341,135745,A M,0,135392,135443,496.7541,272.2049,426.2833,279.2231 M,0,135443,135494,426.2833,279.2231,351.4019,263.5699 M,0,135494,135545,351.4019,263.5699,276.5204,247.9167
Sprite,Foreground,Centre,"sb\etc\pl.png",0,0 C,0,135648,,255,88,100 M,0,135648,135699,147,378,208.7594,365.5593 F,2,135648,135950,1,0 S,2,135648,135950,10,2 P,0,135648,135950,A M,0,135699,135750,208.7594,365.5593,270.5189,353.1185
Sprite,Foreground,Centre,"sb\etc\pl.png",78,245 C,0,135852,,255,94,55 F,2,135852,136052,1,0 S,2,135852,136052,10,2 P,0,135852,136052,A
Sprite,Foreground,Centre,"sb\etc\pl.png",0,0 C,0,135954,,255,94,55 M,0,135954,136005,90,229,78.33566,167.0892 F,2,135954,136205,1,0 S,2,135954,136205,10,2 P,0,135954,136205,A
Sprite,Foreground,Centre,"sb\etc\pl.png",0,0 C,0,136056,,255,94,55 M,0,136056,136107,174,272,182.5818,209.5872 F,2,136056,136358,1,0 S,2,136056,136358,10,2 P,0,136056,136358,A M,0,136107,136158,182.5818,209.5872,191.1635,147.1745
Sprite,Foreground,Centre,"sb\etc\pl.png",309,68 C,0,136260,,255,94,55 F,2,136260,136460,1,0 S,2,136260,136460,10,2 P,0,136260,136460,A
Sprite,Foreground,Centre,"sb\etc\pl.png",0,0 C,0,136362,,255,94,55 M,0,136362,136413,295,91,303.5571,153.4162 F,2,136362,136664,1,0 S,2,136362,136664,10,2 P,0,136362,136664,A M,0,136413,136464,303.5571,153.4162,312,215
Sprite,Foreground,Centre,"sb\etc\pl.png",447,297 C,0,136566,,255,94,55 F,2,136566,136766,1,0 S,2,136566,136766,10,2 P,0,136566,136766,A
Sprite,Foreground,Centre,"sb\etc\pl.png",0,0 C,0,136668,,255,94,55 M,0,136668,136719,433,274,441.4898,211.5747 F,2,136668,136970,1,0 S,2,136668,136970,10,2 P,0,136668,136970,A M,0,136719,136770,441.4898,211.5747,449.9797,149.1493
Sprite,Foreground,Centre,"sb\etc\pl.png",499,370 C,0,136872,,17,254,176 F,2,136872,137072,1,0 S,2,136872,137072,10,2 P,0,136872,137072,A
Sprite,Foreground,Centre,"sb\etc\pl.png",431,409 C,0,136974,,17,254,176 F,2,136974,137174,1,0 S,2,136974,137174,10,2 P,0,136974,137174,A
Sprite,Foreground,Centre,"sb\etc\pl.png",0,0 C,0,137076,,17,254,176 M,0,137076,137127,351,400,316.8997,388.4896 F,2,137076,137378,1,0 S,2,137076,137378,10,2 P,0,137076,137378,A M,0,137127,137178,316.8997,388.4896,282.0787,379.3961
Sprite,Foreground,Centre,"sb\etc\pl.png",0,0 C,0,137280,,17,254,176 M,0,137280,137331,117,423,150.995,411.1927 F,2,137280,137582,1,0 S,2,137280,137582,10,2 P,0,137280,137582,A M,0,137331,137382,150.995,411.1927,185.8423,402.2176
Sprite,Foreground,Centre,"sb\etc\pl.png",0,0 C,0,137484,,173,255,95 M,0,137484,137535,431,409,405.9748,322.5492 F,2,137484,137990,1,0 S,2,137484,137990,10,2 P,0,137484,137990,A M,0,137535,137586,405.9748,322.5492,407.9863,251.2503 M,0,137586,137637,407.9863,251.2503,471.5714,271.163 M,0,137637,137688,471.5714,271.163,538.7261,280.5276 M,0,137688,137739,538.7261,280.5276,533.2749,206.8246 M,0,137739,137790,533.2749,206.8246,504.8144,121.4431
Sprite,Foreground,Centre,"sb\etc\pl.png",0,0 C,0,137893,,173,255,95 M,0,137893,137944,247,214,316.1323,193.8821 F,2,137893,138399,1,0 S,2,137893,138399,10,2 P,0,137893,138399,A M,0,137944,137995,316.1323,193.8821,385.2645,173.7643 M,0,137995,138046,385.2645,173.7643,429.8086,140.868 M,0,138046,138097,429.8086,140.868,403.6799,78.29906 M,0,138097,138148,403.6799,78.29906,334.7296,99.03234 M,0,138148,138199,334.7296,99.03234,265.7794,119.7656
Sprite,Foreground,Centre,"sb\etc\pl.png",0,0 C,0,138301,,255,88,100 M,0,138301,138352,96,268,153.0272,255.0241 F,2,138301,138603,1,0 S,2,138301,138603,10,2 P,0,138301,138603,A M,0,138352,138403,153.0272,255.0241,196,293
Sprite,Foreground,Centre,"sb\etc\pl.png",266,408 C,0,138505,,255,88,100 F,2,138505,138705,1,0 S,2,138505,138705,10,2 P,0,138505,138705,A
Sprite,Foreground,Centre,"sb\etc\pl.png",0,0 C,0,138607,,255,88,100 M,0,138607,138658,135,348,196.8936,336.245 F,2,138607,139011,1,0 S,2,138607,139011,10,2 P,0,138607,139011,A M,0,138658,138709,196.8936,336.245,258.7872,324.49 M,0,138709,138760,258.7872,324.49,320.6808,312.735 M,0,138760,138811,320.6808,312.735,382.5745,300.98
Sprite,Foreground,Centre,"sb\etc\pl.png",0,0 C,0,138913,,255,88,100 M,0,138913,138964,521,293,459.174,305.1058 F,2,138913,139215,1,0 S,2,138913,139215,10,2 P,0,138913,139215,A M,0,138964,139015,459.174,305.1058,397.3481,317.2116
Sprite,Foreground,Centre,"sb\etc\pl.png",0,0 C,0,139117,,255,94,55 M,0,139117,139168,170,192,263.4011,177.6306 F,2,139117,139623,1,0 S,2,139117,139623,10,2 P,0,139117,139623,A M,0,139168,139219,263.4011,177.6306,335.9687,148.2452 M,0,139219,139270,335.9687,148.2452,296.0947,88.94434 M,0,139270,139321,296.0947,88.94434,255.4036,143.2804 M,0,139321,139372,255.4036,143.2804,268.3557,236.8886 M,0,139372,139423,268.3557,236.8886,274.2235,328.7258
Sprite,Foreground,Centre,"sb\etc\pl.png",419,341 C,0,139525,,17,254,176 F,2,139525,139725,1,0 S,2,139525,139725,10,2 P,0,139525,139725,A
Sprite,Foreground,Centre,"sb\etc\pl.png",363,410 C,0,139729,,173,255,95 F,2,139729,139929,1,0 S,2,139729,139929,10,2 P,0,139729,139929,A
Sprite,Foreground,Centre,"sb\etc\pl.png",419,353 C,0,139831,,173,255,95 F,2,139831,140031,1,0 S,2,139831,140031,10,2 P,0,139831,140031,A
Sprite,Foreground,Centre,"sb\etc\pl.png",496,373 C,0,139933,,173,255,95 F,2,139933,140133,1,0 S,2,139933,140133,10,2 P,0,139933,140133,A
Sprite,Foreground,Centre,"sb\etc\pl.png",487,144 C,0,140137,,255,88,100 F,2,140137,140337,1,0 S,2,140137,140337,10,2 P,0,140137,140337,A
Sprite,Foreground,Centre,"sb\etc\pl.png",412,116 C,0,140239,,255,88,100 F,2,140239,140439,1,0 S,2,140239,140439,10,2 P,0,140239,140439,A
Sprite,Foreground,Centre,"sb\etc\pl.png",0,0 C,0,140341,,255,88,100 M,0,140341,140392,343,157,356.5797,227.7078 F,2,140341,140643,1,0 S,2,140341,140643,10,2 P,0,140341,140643,A M,0,140392,140443,356.5797,227.7078,370.1593,298.4156
Sprite,Foreground,Centre,"sb\etc\pl.png",0,0 C,0,140546,,255,88,100 M,0,140546,140597,249,186,259.9966,133.1315 F,2,140546,140848,1,0 S,2,140546,140848,10,2 P,0,140546,140848,A M,0,140597,140648,259.9966,133.1315,270.9933,80.26309
Sprite,Foreground,Centre,"sb\etc\pl.png",179,346 C,0,140750,,255,94,55 F,2,140750,140950,1,0 S,2,140750,140950,10,2 P,0,140750,140950,A
Sprite,Foreground,Centre,"sb\etc\pl.png",179,346 C,0,141158,,17,254,176 F,2,141158,141358,1,0 S,2,141158,141358,10,2 P,0,141158,141358,A
Sprite,Foreground,Centre,"sb\etc\pl.png",0,0 C,0,141566,,173,255,95 M,0,141566,141617,179,346,169.1744,283.7709 F,2,141566,141868,1,0 S,2,141566,141868,10,2 P,0,141566,141868,A M,0,141617,141668,169.1744,283.7709,159.3487,221.5419
Sprite,Foreground,Centre,"sb\etc\pl.png",272,321 C,0,141770,,173,255,95 F,2,141770,141970,1,0 S,2,141770,141970,10,2 P,0,141770,141970,A
Sprite,Foreground,Centre,"sb\etc\pl.png",0,0 C,0,141872,,173,255,95 M,0,141872,141923,373,175,297.7541,188.7951 F,2,141872,142276,1,0 S,2,141872,142276,10,2 P,0,141872,142276,A M,0,141923,141974,297.7541,188.7951,227.2833,181.7769 M,0,141974,142025,227.2833,181.7769,152.4019,197.4301 M,0,142025,142076,152.4019,197.4301,77.52043,213.0833
Sprite,Foreground,Centre,"sb\etc\pl.png",0,0 C,0,142179,,173,255,95 M,0,142179,142230,255,57,242.9348,118.8339 F,2,142179,142481,1,0 S,2,142179,142481,10,2 P,0,142179,142481,A M,0,142230,142281,242.9348,118.8339,231,180
Sprite,Foreground,Centre,"sb\etc\pl.png",288,365 C,0,142382,,255,88,100 F,2,142382,142582,1,0 S,2,142382,142582,10,2 P,0,142382,142582,A
Sprite,Foreground,Centre,"sb\etc\pl.png",288,365 C,0,142484,,255,88,100 F,2,142484,142684,1,0 S,2,142484,142684,10,2 P,0,142484,142684,A
Sprite,Foreground,Centre,"sb\etc\pl.png",288,365 C,0,142586,,255,88,100 F,2,142586,142786,1,0 S,2,142586,142786,10,2 P,0,142586,142786,A
Sprite,Foreground,Centre,"sb\etc\pl.png",396,256 C,0,142790,,255,94,55 F,2,142790,142990,1,0 S,2,142790,142990,10,2 P,0,142790,142990,A
Sprite,Foreground,Centre,"sb\etc\pl.png",396,256 C,0,142893,,255,94,55 F,2,142893,143093,1,0 S,2,142893,143093,10,2 P,0,142893,143093,A
Sprite,Foreground,Centre,"sb\etc\pl.png",536,272 C,0,143097,,17,254,176 F,2,143097,143297,1,0 S,2,143097,143297,10,2 P,0,143097,143297,A
Sprite,Foreground,Centre,"sb\etc\pl.png",468,310 C,0,143200,,17,254,176 F,2,143200,143400,1,0 S,2,143200,143400,10,2 P,0,143200,143400,A
Sprite,Foreground,Centre,"sb\etc\pl.png",421,113 C,0,143403,,173,255,95 F,2,143403,143603,1,0 S,2,143403,143603,10,2 P,0,143403,143603,A
Sprite,Foreground,Centre,"sb\etc\pl.png",498,144 C,0,143506,,173,255,95 F,2,143506,143706,1,0 S,2,143506,143706,10,2 P,0,143506,143706,A
Sprite,Foreground,Centre,"sb\etc\pl.png",498,144 C,0,143607,,173,255,95 F,2,143607,143807,1,0 S,2,143607,143807,10,2 P,0,143607,143807,A
Sprite,Foreground,Centre,"sb\etc\pl.png",0,0 C,0,143811,,255,88,100 M,0,143811,143862,151,279,213.1428,268.6429 F,2,143811,144215,1,0 S,2,143811,144215,10,2 P,0,143811,144215,A M,0,143862,143913,213.1428,268.6429,272.2771,276.5413 M,0,143913,143964,272.2771,276.5413,333.8739,266.9008 M,0,143964,144015,333.8739,266.9008,395.7834,255.2294
Sprite,Foreground,Centre,"sb\etc\pl.png",0,0 C,0,37893,,173,255,95 M,0,37893,37944,331,429,364.4232,424.3145 F,2,37893,38195,1,0 S,2,37893,38195,10,2 P,0,37893,38195,A M,0,37944,37995,364.4232,424.3145,397.8463,419.629
Sprite,Foreground,Centre,"sb\etc\pl.png",0,0 C,0,38097,,255,88,100 M,0,38097,38148,331,429,364.4232,424.3145 F,2,38097,38399,1,0 S,2,38097,38399,10,2 P,0,38097,38399,A M,0,38148,38199,364.4232,424.3145,397.8463,419.629
Sprite,Foreground,Centre,"sb\etc\pl.png",0,0 C,0,38301,,255,94,55 M,0,38301,38352,331,429,364.4232,424.3145 F,2,38301,38603,1,0 S,2,38301,38603,10,2 P,0,38301,38603,A M,0,38352,38403,364.4232,424.3145,397.8463,419.629
Sprite,Foreground,Centre,"sb\etc\pl.png",0,0 C,0,38505,,17,254,176 M,0,38505,38556,331,429,363.1834,418.8368 F,2,38505,38756,1,0 S,2,38505,38756,10,2 P,0,38505,38756,A
Sprite,Foreground,Centre,"sb\etc\pl.png",0,0 C,0,38607,,17,254,176 M,0,38607,38658,356,340,387.9605,329.1563 F,2,38607,38858,1,0 S,2,38607,38858,10,2 P,0,38607,38858,A
Sprite,Foreground,Centre,"sb\etc\pl.png",0,0 C,0,38709,,173,255,95 M,0,38709,38760,479,424,477.0866,390.9071 F,2,38709,39317,1,0 S,2,38709,39317,10,2 P,0,38709,39317,A M,0,38760,38811,477.0866,390.9071,494.7487,362.9541 M,0,38811,38862,494.7487,362.9541,525.3174,350.534 M,0,38862,38913,525.3174,350.534,557.3469,358.2196 M,0,38913,38964,557.3469,358.2196,525.3174,350.534 M,0,38964,39015,525.3174,350.534,494.7488,362.9541 M,0,39015,39066,494.7488,362.9541,477.0866,390.907 M,0,39066,39117,477.0866,390.907,479,424
Sprite,Foreground,Centre,"sb\etc\pl.png",0,0 C,0,39525,,255,88,100 M,0,39525,39576,455,193,501.5872,143.05 F,2,39525,40031,1,0 S,2,39525,40031,10,2 P,0,39525,40031,A M,0,39576,39627,501.5872,143.05,469.8673,83.31416 M,0,39627,39678,469.8673,83.31416,402.2603,89.70165 M,0,39678,39729,402.2603,89.70165,385.4489,154.9255 M,0,39729,39780,385.4489,154.9255,421.3643,216.6722 M,0,39780,39831,421.3643,216.6722,413.6182,286.7632
Sprite,Foreground,Centre,"sb\etc\pl.png",0,0 C,0,39933,,255,88,100 M,0,39933,39984,306,380,267.8922,358.9488 F,2,39933,40439,1,0 S,2,39933,40439,10,2 P,0,39933,40439,A M,0,39984,40035,267.8922,358.9488,252.5499,317.3726 M,0,40035,40086,252.5499,317.3726,263.7755,274.5666 M,0,40086,40137,263.7755,274.5666,298.3364,246.9176 M,0,40137,40188,298.3364,246.9176,340.1371,244.3787 M,0,40188,40239,340.1371,244.3787,329.0619,287.2673
Sprite,Foreground,Centre,"sb\etc\pl.png",0,0 C,0,40341,,255,94,55 M,0,40341,40392,506,361,527.4973,316.9068 F,2,40341,40745,1,0 S,2,40341,40745,10,2 P,0,40341,40745,A M,0,40392,40443,527.4973,316.9068,444.8119,281.3665 M,0,40443,40494,444.8119,281.3665,424.7035,339.804 M,0,40494,40545,424.7035,339.804,442.5831,428.0101
Sprite,Foreground,Centre,"sb\etc\pl.png",0,0 C,0,40648,,17,254,176 M,0,40648,40699,514,371,438.1426,380.8944 F,2,40648,41052,1,0 S,2,40648,41052,10,2 P,0,40648,41052,A M,0,40699,40750,438.1426,380.8944,362.2851,390.7889 M,0,40750,40801,362.2851,390.7889,292.1428,407.9989 M,0,40801,40852,292.1428,407.9989,216.1709,416.972
Sprite,Foreground,Centre,"sb\etc\pl.png",0,0 C,0,40954,,173,255,95 M,0,40954,41005,99,355,132.1832,333.7122 F,2,40954,41256,1,0 S,2,40954,41256,10,2 P,0,40954,41256,A M,0,41005,41056,132.1832,333.7122,55.5415,359.6799
Sprite,Foreground,Centre,"sb\etc\pl.png",0,0 C,0,41158,,255,88,100 M,0,41158,41209,218,195,285.7126,219.4744 F,2,41158,41664,1,0 S,2,41158,41664,10,2 P,0,41158,41664,A M,0,41209,41260,285.7126,219.4744,311.0305,177.0684 M,0,41260,41311,311.0305,177.0684,290.6001,108.0278 M,0,41311,41362,290.6001,108.0278,225.8425,106.0007 M,0,41362,41413,225.8425,106.0007,156.7738,126.3356 M,0,41413,41464,156.7738,126.3356,87.70503,146.6706
Sprite,Foreground,Centre,"sb\etc\pl.png",0,0 C,0,41566,,255,94,55 M,0,41566,41617,103,57,109.5998,146.7577 F,2,41566,41868,1,0 S,2,41566,41868,10,2 P,0,41566,41868,A M,0,41617,41668,109.5998,146.7577,137.6627,228.9941
Sprite,Foreground,Centre,"sb\etc\pl.png",0,0 C,0,41770,,17,254,176 M,0,41770,41821,201,322,256,301 F,2,41770,42021,1,0 S,2,41770,42021,10,2 P,0,41770,42021,A
Sprite,Foreground,Centre,"sb\etc\pl.png",0,0 C,0,41872,,17,254,176 M,0,41872,41923,262,315,206,335 F,2,41872,42123,1,0 S,2,41872,42123,10,2 P,0,41872,42123,A
Sprite,Foreground,Centre,"sb\etc\pl.png",0,0 C,0,41974,,173,255,95 M,0,41974,42025,216,416,179.4644,353.9585 F,2,41974,42378,1,0 S,2,41974,42378,10,2 P,0,41974,42378,A M,0,42025,42076,179.4644,353.9585,199.9168,338.2384 M,0,42076,42127,199.9168,338.2384,270.8122,350.8022 M,0,42127,42178,270.8122,350.8022,341.7076,363.3659
Sprite,Foreground,Centre,"sb\etc\pl.png",0,0 C,0,42280,,173,255,95 M,0,42280,42331,225,425,293.0923,401.6026 F,2,42280,42684,1,0 S,2,42280,42684,10,2 P,0,42280,42684,A M,0,42331,42382,293.0923,401.6026,361.1846,378.2053 M,0,42382,42433,361.1846,378.2053,429.2769,354.8079 M,0,42433,42484,429.2769,354.8079,450.6115,300.6443
Sprite,Foreground,Centre,"sb\etc\pl.png",0,0 C,0,42586,,173,255,95 M,0,42586,42637,546,167,604.6559,125.2449 F,2,42586,42888,1,0 S,2,42586,42888,10,2 P,0,42586,42888,A M,0,42637,42688,604.6559,125.2449,539.4911,153.8434
Sprite,Foreground,Centre,"sb\etc\pl.png",0,0 C,0,42790,,255,88,100 M,0,42790,42841,538,262,583.2416,215.8254 F,2,42790,43296,1,0 S,2,42790,43296,10,2 P,0,42790,43296,A M,0,42841,42892,583.2416,215.8254,556.9532,151.7805 M,0,42892,42943,556.9532,151.7805,489.537,132.6911 M,0,42943,42994,489.537,132.6911,424.2741,160.6139 M,0,42994,43045,424.2741,160.6139,382.8963,218.5447 M,0,43045,43096,382.8963,218.5447,372.2754,289.2613
Sprite,Foreground,Centre,"sb\etc\pl.png",0,0 C,0,43199,,255,88,100 M,0,43199,43250,281,195,232.2953,148.3855 F,2,43199,43705,1,0 S,2,43199,43705,10,2 P,0,43199,43705,A M,0,43250,43301,232.2953,148.3855,194.7862,89.99011 M,0,43301,43352,194.7862,89.99011,242.9183,104.177 M,0,43352,43403,242.9183,104.177,311.2691,126.8082 M,0,43403,43454,311.2691,126.8082,379.6199,149.4393 M,0,43454,43505,379.6199,149.4393,447.9706,172.0705
Sprite,Foreground,Centre,"sb\etc\pl.png",0,0 C,0,43607,,255,94,55 M,0,43607,43658,400,68,330.4892,51.21428 F,2,43607,44011,1,0 S,2,43607,44011,10,2 P,0,43607,44011,A M,0,43658,43709,330.4892,51.21428,259.8318,61.99301 M,0,43709,43760,259.8318,61.99301,198.6047,98.87096 M,0,43760,43811,198.6047,98.87096,156.0375,156.2897
Sprite,Foreground,Centre,"sb\etc\pl.png",0,0 C,0,43913,,17,254,176 M,0,43913,43964,109,220,125.1242,249.6198 F,2,43913,44317,1,0 S,2,43913,44317,10,2 P,0,43913,44317,A M,0,43964,44015,125.1242,249.6198,137.2697,281.0781 M,0,44015,44066,137.2697,281.0781,145.2318,313.8436 M,0,44066,44117,145.2318,313.8436,148.8769,347.3628
Sprite,Foreground,Centre,"sb\etc\pl.png",0,0 C,0,44219,,17,254,176 M,0,44219,44270,72,332,78.23131,313.065 F,2,44219,44521,1,0 S,2,44219,44521,10,2 P,0,44219,44521,A M,0,44270,44321,78.23131,313.065,91.95921,298.7857
Sprite,Foreground,Centre,"sb\etc\pl.png",0,0 C,0,44423,,173,255,95 M,0,44423,44474,406,415,401.8591,332.4663 F,2,44423,44776,1,0 S,2,44423,44776,10,2 P,0,44423,44776,A M,0,44474,44525,401.8591,332.4663,380.318,245.0822 M,0,44525,44576,380.318,245.0822,337.2218,177.9122
Sprite,Foreground,Centre,"sb\etc\pl.png",0,0 C,0,44627,,173,255,95 M,0,44627,44678,366,217,386.742,304.5772 F,2,44627,44929,1,0 S,2,44627,44929,10,2 P,0,44627,44929,A M,0,44678,44729,386.742,304.5772,407.4839,392.1544
Sprite,Foreground,Centre,"sb\etc\pl.png",447,172 C,0,44831,,255,88,100 F,2,44831,45031,1,0 S,2,44831,45031,10,2 P,0,44831,45031,A
Sprite,Foreground,Centre,"sb\etc\pl.png",0,0 C,0,45035,,255,94,55 M,0,45035,45086,196,429,130.4136,427.9524 F,2,45035,45337,1,0 S,2,45035,45337,10,2 P,0,45035,45337,A M,0,45086,45137,130.4136,427.9524,63.27042,421.0215
Sprite,Foreground,Centre,"sb\etc\pl.png",0,0 C,0,45239,,255,94,55 M,0,45239,45290,149,347,214.5391,330.8482 F,2,45239,45541,1,0 S,2,45239,45541,10,2 P,0,45239,45541,A M,0,45290,45341,214.5391,330.8482,280.0781,314.6964
Sprite,Foreground,Centre,"sb\etc\pl.png",360,224 C,0,45444,,255,94,55 F,2,45444,45644,1,0 S,2,45444,45644,10,2 P,0,45444,45644,A
Sprite,Foreground,Centre,"sb\etc\pl.png",0,0 C,0,45546,,255,94,55 M,0,45546,45597,240,178,273.2269,130.8445 F,2,45546,45950,1,0 S,2,45546,45950,10,2 P,0,45546,45950,A M,0,45597,45648,273.2269,130.8445,217.6478,110.1515 M,0,45648,45699,217.6478,110.1515,201.6708,169.98 M,0,45699,45750,201.6708,169.98,228.3807,231.9504
Sprite,Foreground,Centre,"sb\etc\pl.png",0,0 C,0,45852,,255,94,55 M,0,45852,45903,343,356,353.8284,290.7031 F,2,45852,46154,1,0 S,2,45852,46154,10,2 P,0,45852,46154,A M,0,45903,45954,353.8284,290.7031,359.4965,223.4415
Sprite,Foreground,Centre,"sb\etc\pl.png",0,0 C,0,46056,,17,254,176 M,0,46056,46107,545,353,477.893,360.2734 F,2,46056,46562,1,0 S,2,46056,46562,10,2 P,0,46056,46562,A M,0,46107,46158,477.893,360.2734,410.7952,367.6315 M,0,46158,46209,410.7952,367.6315,343.7121,375.1215 M,0,46209,46260,343.7121,375.1215,276.6576,382.8634 M,0,46260,46311,276.6576,382.8634,211.2875,396.6885 M,0,46311,46362,211.2875,396.6885,152.2285,425.9154
Sprite,Foreground,Centre,"sb\etc\pl.png",0,0 C,0,46464,,17,254,176 M,0,46464,46515,119,279,131.8873,323.2342 F,2,46464,46970,1,0 S,2,46464,46970,10,2 P,0,46464,46970,A M,0,46515,46566,131.8873,323.2342,136.1826,311.169 M,0,46566,46617,136.1826,311.169,115.8262,246.8476 M,0,46617,46668,115.8262,246.8476,119.1756,180.8223 M,0,46668,46719,119.1756,180.8223,149.6872,149.1539 M,0,46719,46770,149.6872,149.1539,140.0025,215.4159
Sprite,Foreground,Centre,"sb\etc\pl.png",0,0 C,0,46872,,173,255,95 M,0,46872,46923,295,151,340.5063,177.6833 F,2,46872,47276,1,0 S,2,46872,47276,10,2 P,0,46872,47276,A M,0,46923,46974,340.5063,177.6833,285.0352,181.7211 M,0,46974,47025,285.0352,181.7211,266.2805,119.1378 M,0,47025,47076,266.2805,119.1378,300.59,63.51997
Sprite,Foreground,Centre,"sb\etc\pl.png",0,0 C,0,47178,,173,255,95 M,0,47178,47229,303,165,360.0711,129.471 F,2,47178,47480,1,0 S,2,47178,47480,10,2 P,0,47178,47480,A M,0,47229,47280,360.0711,129.471,425.1181,112.5667
Sprite,Foreground,Centre,"sb\etc\pl.png",0,0 C,0,47484,,255,88,100 M,0,47484,47535,342,392,313.5567,357.0494 F,2,47484,47786,1,0 S,2,47484,47786,10,2 P,0,47484,47786,A M,0,47535,47586,313.5567,357.0494,380.3327,356.1286
Sprite,Foreground,Centre,"sb\etc\pl.png",0,0 C,0,47688,,255,94,55 M,0,47688,47739,413,427,425.4771,360.6845 F,2,47688,48194,1,0 S,2,47688,48194,10,2 P,0,47688,48194,A M,0,47739,47790,425.4771,360.6845,442.9825,295.5072 M,0,47790,47841,442.9825,295.5072,464.3882,231.4999 M,0,47841,47892,464.3882,231.4999,488.8877,168.6089 M,0,47892,47943,488.8877,168.6089,515.8938,106.7509 M,0,47943,47994,515.8938,106.7509,562.9247,60.62129
Sprite,Foreground,Centre,"sb\etc\pl.png",0,0 C,0,48097,,255,94,55 M,0,48097,48148,501,264,553.7302,293.1606 F,2,48097,48603,1,0 S,2,48097,48603,10,2 P,0,48097,48603,A M,0,48148,48199,553.7302,293.1606,521.2747,343.6265 M,0,48199,48250,521.2747,343.6265,456.9925,330.7984 M,0,48250,48301,456.9925,330.7984,422.9099,274.9493 M,0,48301,48352,422.9099,274.9493,433.6161,208.8441 M,0,48352,48403,433.6161,208.8441,400.2082,160.9509
Sprite,Foreground,Centre,"sb\etc\pl.png",0,0 C,0,48505,,17,254,176 M,0,48505,48556,146,182,208.0004,170.9546 F,2,48505,48807,1,0 S,2,48505,48807,10,2 P,0,48505,48807,A M,0,48556,48607,208.0004,170.9546,217.3325,108.9803
Sprite,Foreground,Centre,"sb\etc\pl.png",0,0 C,0,48709,,173,255,95 M,0,48709,48760,177,375,167.3312,331.051 F,2,48709,48960,1,0 S,2,48709,48960,10,2 P,0,48709,48960,A
Sprite,Foreground,Centre,"sb\etc\pl.png",0,0 C,0,48811,,173,255,95 M,0,48811,48862,226,272,216.3312,228.051 F,2,48811,49062,1,0 S,2,48811,49062,10,2 P,0,48811,49062,A
Sprite,Foreground,Centre,"sb\etc\pl.png",0,0 C,0,48913,,255,88,100 M,0,48913,48964,91,362,158.4343,364.5123 F,2,48913,49266,1,0 S,2,48913,49266,10,2 P,0,48913,49266,A M,0,48964,49015,158.4343,364.5123,225.0225,375.046 M,0,49015,49066,225.0225,375.046,282.7238,406.5118
Sprite,Foreground,Centre,"sb\etc\pl.png",0,0 C,0,49117,,255,88,100 M,0,49117,49168,282,406,334.6282,379.721 F,2,49117,49419,1,0 S,2,49117,49419,10,2 P,0,49117,49419,A M,0,49168,49219,334.6282,379.721,299.731,333.0273
Sprite,Foreground,Centre,"sb\etc\pl.png",0,0 C,0,49321,,255,94,55 M,0,49321,49372,442,90,441.8479,143.9913 F,2,49321,49725,1,0 S,2,49321,49725,10,2 P,0,49321,49725,A M,0,49372,49423,441.8479,143.9913,444.765,197.9037 M,0,49423,49474,444.765,197.9037,450.8281,251.5534 M,0,49474,49525,450.8281,251.5534,459.9447,304.769
Sprite,Foreground,Centre,"sb\etc\pl.png",0,0 C,0,49729,,255,94,55 M,0,49729,49780,465,304,455.9161,250.7789 F,2,49729,50133,1,0 S,2,49729,50133,10,2 P,0,49729,50133,A M,0,49780,49831,455.9161,250.7789,450.0125,197.1118 M,0,49831,49882,450.0125,197.1118,447.4193,143.1835 M,0,49882,49933,447.4193,143.1835,448,90
Sprite,Foreground,Centre,"sb\etc\pl.png",0,0 C,0,50137,,17,254,176 M,0,50137,50188,202,117,162.4168,55.1765 F,2,50137,50541,1,0 S,2,50137,50541,10,2 P,0,50137,50541,A M,0,50188,50239,162.4168,55.1765,204.6523,69.06313 M,0,50239,50290,204.6523,69.06313,275.3241,98.35052 M,0,50290,50341,275.3241,98.35052,345.9958,127.6379
Sprite,Foreground,Centre,"sb\etc\pl.png",0,0 C,0,50444,,17,254,176 M,0,50444,50495,197,129,120.7923,127.0249 F,2,50444,50746,1,0 S,2,50444,50746,10,2 P,0,50444,50746,A M,0,50495,50546,120.7923,127.0249,67.90444,75.01433
Sprite,Foreground,Centre,"sb\etc\pl.png",0,0 C,0,50750,,173,255,95 M,0,50750,50801,299,333,262.8827,344.9511 F,2,50750,51052,1,0 S,2,50750,51052,10,2 P,0,50750,51052,A M,0,50801,50852,262.8827,344.9511,277.6124,271.8352
Sprite,Foreground,Centre,"sb\etc\pl.png",0,0 C,0,50954,,255,88,100 M,0,50954,51005,353,391,282.1312,362.246 F,2,50954,51358,1,0 S,2,50954,51358,10,2 P,0,50954,51358,A M,0,51005,51056,282.1312,362.246,208.6192,341.3224 M,0,51056,51107,208.6192,341.3224,132.6177,338.048 M,0,51107,51158,132.6177,338.048,70.09801,380.3153
Sprite,Foreground,Centre,"sb\etc\pl.png",0,0 C,0,51362,,255,94,55 M,0,51362,51413,129,111,123.7285,60.0047 F,2,51362,51613,1,0 S,2,51362,51613,10,2 P,0,51362,51613,A
Sprite,Foreground,Centre,"sb\etc\pl.png",0,0 C,0,51464,,255,94,55 M,0,51464,51515,169,87,216.0163,67.02589 F,2,51464,51715,1,0 S,2,51464,51715,10,2 P,0,51464,51715,A
Sprite,Foreground,Centre,"sb\etc\pl.png",0,0 C,0,51566,,255,94,55 M,0,51566,51617,202,117,236.2745,154.991 F,2,51566,51817,1,0 S,2,51566,51817,10,2 P,0,51566,51817,A
Sprite,Foreground,Centre,"sb\etc\pl.png",0,0 C,0,51668,,255,94,55 M,0,51668,51719,186,162,159,206 F,2,51668,51919,1,0 S,2,51668,51919,10,2 P,0,51668,51919,A
Sprite,Foreground,Centre,"sb\etc\pl.png",0,0 C,0,51770,,255,94,55 M,0,51770,51821,137,159,87,147 F,2,51770,52021,1,0 S,2,51770,52021,10,2 P,0,51770,52021,A
Sprite,Foreground,Centre,"sb\etc\pl.png",0,0 C,0,51974,,17,254,176 M,0,51974,52025,452,302,445.6264,335.1427 F,2,51974,52225,1,0 S,2,51974,52225,10,2 P,0,51974,52225,A
Sprite,Foreground,Centre,"sb\etc\pl.png",0,0 C,0,52076,,17,254,176 M,0,52076,52127,512,388,505.6264,421.1427 F,2,52076,52327,1,0 S,2,52076,52327,10,2 P,0,52076,52327,A
Sprite,Foreground,Centre,"sb\etc\pl.png",0,0 C,0,52178,,173,255,95 M,0,52178,52229,539,287,532.6077,320.1391 F,2,52178,52582,1,0 S,2,52178,52582,10,2 P,0,52178,52582,A M,0,52229,52280,532.6077,320.1391,526.2153,353.2782 M,0,52280,52331,526.2153,353.2782,519.8231,386.4174 M,0,52331,52382,519.8231,386.4174,513.4307,419.5565
Sprite,Foreground,Centre,"sb\etc\pl.png",0,0 C,0,52586,,255,88,100 M,0,52586,52637,491,214,507.0916,136.3933 F,2,52586,53092,1,0 S,2,52586,53092,10,2 P,0,52586,53092,A M,0,52637,52688,507.0916,136.3933,429.9636,98.72579 M,0,52688,52739,429.9636,98.72579,348.554,133.4141 M,0,52739,52790,348.554,133.4141,291.9023,202.6715 M,0,52790,52841,291.9023,202.6715,337.8225,206.9373 M,0,52841,52892,337.8225,206.9373,418.3109,184.768
Sprite,Foreground,Centre,"sb\etc\pl.png",0,0 C,0,52995,,255,88,100 M,0,52995,53046,569,91,513.1425,107.7161 F,2,52995,53501,1,0 S,2,52995,53501,10,2 P,0,52995,53501,A M,0,53046,53097,513.1425,107.7161,463.4251,138.2856 M,0,53097,53148,463.4251,138.2856,421.971,179.3669 M,0,53148,53199,421.971,179.3669,396.5032,231.3582 M,0,53199,53250,396.5032,231.3582,401.7554,289.3328 M,0,53250,53301,401.7554,289.3328,384.9093,344.2213
Sprite,Foreground,Centre,"sb\etc\pl.png",0,0 C,0,53403,,255,94,55 M,0,53403,53454,221,389,176.2375,376.2802 F,2,53403,53705,1,0 S,2,53403,53705,10,2 P,0,53403,53705,A M,0,53454,53505,176.2375,376.2802,241.686,374.4998
Sprite,Foreground,Centre,"sb\etc\pl.png",324,294 C,0,53607,,255,94,55 F,2,53607,53807,1,0 S,2,53607,53807,10,2 P,0,53607,53807,A
Sprite,Foreground,Centre,"sb\etc\pl.png",0,0 C,0,53709,,255,94,55 M,0,53709,53760,202,223,227.023,278.3279 F,2,53709,54113,1,0 S,2,53709,54113,10,2 P,0,53709,54113,A M,0,53760,53811,227.023,278.3279,178.5876,296.3229 M,0,53811,53862,178.5876,296.3229,126.7326,253.1105 M,0,53862,53913,126.7326,253.1105,135.827,193.5026
Sprite,Foreground,Centre,"sb\etc\pl.png",0,0 C,0,54015,,255,94,55 M,0,54015,54066,274,139,267.1057,174.1665 F,2,54015,54317,1,0 S,2,54015,54317,10,2 P,0,54015,54317,A M,0,54066,54117,267.1057,174.1665,209.3652,144.2576
Sprite,Foreground,Centre,"sb\etc\pl.png",0,0 C,0,54219,,17,254,176 M,0,54219,54270,69,131,113.7696,169.5273 F,2,54219,54725,1,0 S,2,54219,54725,10,2 P,0,54219,54725,A M,0,54270,54321,113.7696,169.5273,175.8119,142.9377 M,0,54321,54372,175.8119,142.9377,237.8542,116.3482 M,0,54372,54423,237.8542,116.3482,299.8965,89.75864 M,0,54423,54474,299.8965,89.75864,365.7946,84.00965 M,0,54474,54525,365.7946,84.00965,420.4389,121.6656
Sprite,Foreground,Centre,"sb\etc\pl.png",0,0 C,0,54627,,17,254,176 M,0,54627,54678,479,216,524.9635,170.4464 F,2,54627,55133,1,0 S,2,54627,55133,10,2 P,0,54627,55133,A M,0,54678,54729,524.9635,170.4464,503.4869,111.2489 M,0,54729,54780,503.4869,111.2489,442.1415,121.0222 M,0,54780,54831,442.1415,121.0222,422.9655,183.948 M,0,54831,54882,422.9655,183.948,438.4363,249.3201 M,0,54882,54933,438.4363,249.3201,469.5159,309.1396
Sprite,Foreground,Centre,"sb\etc\pl.png",0,0 C,0,55035,,17,254,176 M,0,55035,55086,427,391,478.007,349.6325 F,2,55035,55337,1,0 S,2,55035,55337,10,2 P,0,55035,55337,A M,0,55086,55137,478.007,349.6325,543.2032,356.4071
Sprite,Foreground,Centre,"sb\etc\pl.png",0,0 C,0,55239,,173,255,95 M,0,55239,55290,234,297,238.5632,232.721 F,2,55239,55490,1,0 S,2,55239,55490,10,2 P,0,55239,55490,A
Sprite,Foreground,Centre,"sb\etc\pl.png",0,0 C,0,55341,,173,255,95 M,0,55341,55392,310,273,305.4368,337.279 F,2,55341,55592,1,0 S,2,55341,55592,10,2 P,0,55341,55592,A
Sprite,Foreground,Centre,"sb\etc\pl.png",0,0 C,0,55444,,255,88,100 M,0,55444,55495,275,411,269.2101,343.7488 F,2,55444,55848,1,0 S,2,55444,55848,10,2 P,0,55444,55848,A M,0,55495,55546,269.2101,343.7488,263.4203,276.4976 M,0,55546,55597,263.4203,276.4976,257.6305,209.2463 M,0,55597,55648,257.6305,209.2463,251.8406,141.9951
Sprite,Foreground,Centre,"sb\etc\pl.png",0,0 C,0,55852,,255,94,55 M,0,55852,55903,68,391,112.3207,380.1537 F,2,55852,56256,1,0 S,2,55852,56256,10,2 P,0,55852,56256,A M,0,55903,55954,112.3207,380.1537,144.2783,347.6342 M,0,55954,56005,144.2783,347.6342,153.4102,302.9761 M,0,56005,56056,153.4102,302.9761,137.5334,260.2939
Sprite,Foreground,Centre,"sb\etc\pl.png",0,0 C,0,56260,,255,94,55 M,0,56260,56311,153,411,182.623,376.2131 F,2,56260,56664,1,0 S,2,56260,56664,10,2 P,0,56260,56664,A M,0,56311,56362,182.623,376.2131,190.5634,331.2881 M,0,56362,56413,190.5634,331.2881,174.3141,288.5872 M,0,56413,56464,174.3141,288.5872,138.2153,260.6277
Sprite,Foreground,Centre,"sb\etc\pl.png",0,0 C,0,56668,,17,254,176 M,0,56668,56719,550,209,491.5369,183.0355 F,2,56668,56970,1,0 S,2,56668,56970,10,2 P,0,56668,56970,A M,0,56719,56770,491.5369,183.0355,426.9994,163.2579
Sprite,Foreground,Centre,"sb\etc\pl.png",340,172 C,0,56872,,17,254,176 F,2,56872,57072,1,0 S,2,56872,57072,10,2 P,0,56872,57072,A
Sprite,Foreground,Centre,"sb\etc\pl.png",0,0 C,0,56974,,17,254,176 M,0,56974,57025,562,212,498.2465,234.1751 F,2,56974,57378,1,0 S,2,56974,57378,10,2 P,0,56974,57378,A M,0,57025,57076,498.2465,234.1751,510.7437,176.6504 M,0,57076,57127,510.7437,176.6504,530.0785,111.9788 M,0,57127,57178,530.0785,111.9788,549.4133,47.30724
Sprite,Foreground,Centre,"sb\etc\pl.png",0,0 C,0,57280,,17,254,176 M,0,57280,57331,379,99,385.5941,166.1771 F,2,57280,57582,1,0 S,2,57280,57582,10,2 P,0,57280,57582,A M,0,57331,57382,385.5941,166.1771,392.1881,233.3543
Sprite,Foreground,Centre,"sb\etc\pl.png",0,0 C,0,57484,,173,255,95 M,0,57484,57535,306,406,363.2865,370.2997 F,2,57484,57837,1,0 S,2,57484,57837,10,2 P,0,57484,57837,A M,0,57535,57586,363.2865,370.2997,350.0694,315.44 M,0,57586,57637,350.0694,315.44,318.7309,255.6559
Sprite,Foreground,Centre,"sb\etc\pl.png",0,0 C,0,57688,,173,255,95 M,0,57688,57739,318,255,304.0062,321.0335 F,2,57688,57990,1,0 S,2,57688,57990,10,2 P,0,57688,57990,A M,0,57739,57790,304.0062,321.0335,290.0123,387.067
Sprite,Foreground,Centre,"sb\etc\pl.png",214,207 C,0,57893,,173,255,95 F,2,57893,58093,1,0 S,2,57893,58093,10,2 P,0,57893,58093,A
Sprite,Foreground,Centre,"sb\etc\pl.png",0,0 C,0,58097,,255,88,100 M,0,58097,58148,517,405,517.7957,342.438 F,2,58097,58399,1,0 S,2,58097,58399,10,2 P,0,58097,58399,A M,0,58148,58199,517.7957,342.438,510.8022,275.3013
Sprite,Foreground,Centre,"sb\etc\pl.png",0,0 C,0,58301,,255,88,100 M,0,58301,58352,514,90,446.6667,94.74178 F,2,58301,58603,1,0 S,2,58301,58603,10,2 P,0,58301,58603,A M,0,58352,58403,446.6667,94.74178,379.3335,99.48355
Sprite,Foreground,Centre,"sb\etc\pl.png",339,165 C,0,58505,,255,88,100 F,2,58505,58705,1,0 S,2,58505,58705,10,2 P,0,58505,58705,A
Sprite,Foreground,Centre,"sb\etc\pl.png",0,0 C,0,58607,,255,88,100 M,0,58607,58658,214,93,275.8582,68.57602 F,2,58607,59011,1,0 S,2,58607,59011,10,2 P,0,58607,59011,A M,0,58658,58709,275.8582,68.57602,204.3476,44.89661 M,0,58709,58760,204.3476,44.89661,178.4934,125.0209 M,0,58760,58811,178.4934,125.0209,214.099,207.453
Sprite,Foreground,Centre,"sb\etc\pl.png",0,0 C,0,58913,,255,88,100 M,0,58913,58964,265,278,202.425,290.4306 F,2,58913,59215,1,0 S,2,58913,59215,10,2 P,0,58913,59215,A M,0,58964,59015,202.425,290.4306,135.5415,281.3281
Sprite,Foreground,Centre,"sb\etc\pl.png",0,0 C,0,59117,,255,94,55 M,0,59117,59168,99,415,48.45861,378.8917 F,2,59117,59623,1,0 S,2,59117,59623,10,2 P,0,59117,59623,A M,0,59168,59219,48.45861,378.8917,79.77347,325.5917 M,0,59219,59270,79.77347,325.5917,143.8309,335.7669 M,0,59270,59321,143.8309,335.7669,179.3524,391.419 M,0,59321,59372,179.3524,391.419,232.8252,374.2939 M,0,59372,59423,232.8252,374.2939,299.6943,378.8676
Sprite,Foreground,Centre,"sb\etc\pl.png",0,0 C,0,59525,,255,94,55 M,0,59525,59576,411,366,450.5439,312.7704 F,2,59525,60031,1,0 S,2,59525,60031,10,2 P,0,59525,60031,A M,0,59576,59627,450.5439,312.7704,497.3089,289.9339 M,0,59627,59678,497.3089,289.9339,430.3011,298.0706 M,0,59678,59729,430.3011,298.0706,365.2545,307.7003 M,0,59729,59780,365.2545,307.7003,375.2452,374.4568 M,0,59780,59831,375.2452,374.4568,385.236,441.2134
Sprite,Foreground,Centre,"sb\etc\pl.png",0,0 C,0,59933,,17,254,176 M,0,59933,59984,538,406,547.313,339.1456 F,2,59933,60337,1,0 S,2,59933,60337,10,2 P,0,59933,60337,A M,0,59984,60035,547.313,339.1456,556.6261,272.2911 M,0,60035,60086,556.6261,272.2911,565.9392,205.4367 M,0,60086,60137,565.9392,205.4367,507.6318,171.9836
Sprite,Foreground,Centre,"sb\etc\pl.png",0,0 C,0,60239,,17,254,176 M,0,60239,60290,359,108,370.6793,174.4819 F,2,60239,60643,1,0 S,2,60239,60643,10,2 P,0,60239,60643,A M,0,60290,60341,370.6793,174.4819,427.0835,165.2767 M,0,60341,60392,427.0835,165.2767,486.6338,133.4959 M,0,60392,60443,486.6338,133.4959,546.1841,101.7152
Sprite,Foreground,Centre,"sb\etc\pl.png",0,0 C,0,60546,,17,254,176 M,0,60546,60597,375,98,308.0152,89.67644 F,2,60546,60848,1,0 S,2,60546,60848,10,2 P,0,60546,60848,A M,0,60597,60648,308.0152,89.67644,241.0303,81.35288
Sprite,Foreground,Centre,"sb\etc\pl.png",0,0 C,0,60750,,173,255,95 M,0,60750,60801,115,306,73.69766,255.0377 F,2,60750,61256,1,0 S,2,60750,61256,10,2 P,0,60750,61256,A M,0,60801,60852,73.69766,255.0377,71.53439,245.7134 M,0,60852,60903,71.53439,245.7134,138.2443,256.0109 M,0,60903,60954,138.2443,256.0109,204.9542,266.3083 M,0,60954,61005,204.9542,266.3083,271.6641,276.6059 M,0,61005,61056,271.6641,276.6059,338.374,286.9034
Sprite,Foreground,Centre,"sb\etc\pl.png",0,0 C,0,61158,,173,255,95 M,0,61158,61209,323,390,387.4991,386.6952 F,2,61158,61664,1,0 S,2,61158,61664,10,2 P,0,61158,61664,A M,0,61209,61260,387.4991,386.6952,417.0967,329.6649 M,0,61260,61311,417.0967,329.6649,381.4172,276.6115 M,0,61311,61362,381.4172,276.6115,315.4103,274.3279 M,0,61362,61413,315.4103,274.3279,248.7625,263.6357 M,0,61413,61464,248.7625,263.6357,182.1147,252.9435
Sprite,Foreground,Centre,"sb\etc\pl.png",0,0 C,0,61566,,255,88,100 M,0,61566,61617,97,172,103.3464,238.854 F,2,61566,61868,1,0 S,2,61566,61868,10,2 P,0,61566,61868,A M,0,61617,61668,103.3464,238.854,114.7515,305.3835
Sprite,Foreground,Centre,"sb\etc\pl.png",0,0 C,0,61770,,255,94,55 M,0,61770,61821,217,99,250.4616,103.4028 F,2,61770,62021,1,0 S,2,61770,62021,10,2 P,0,61770,62021,A
Sprite,Foreground,Centre,"sb\etc\pl.png",0,0 C,0,61872,,255,94,55 M,0,61872,61923,314,61,347.4616,65.40284 F,2,61872,62123,1,0 S,2,61872,62123,10,2 P,0,61872,62123,A
Sprite,Foreground,Centre,"sb\etc\pl.png",0,0 C,0,61974,,17,254,176 M,0,61974,62025,213,108,275.2322,114.3522 F,2,61974,62378,1,0 S,2,61974,62378,10,2 P,0,61974,62378,A M,0,62025,62076,275.2322,114.3522,341.0691,99.46057 M,0,62076,62127,341.0691,99.46057,406.9059,84.56891 M,0,62127,62178,406.9059,84.56891,472.7427,69.67725
Sprite,Foreground,Centre,"sb\etc\pl.png",0,0 C,0,62382,,173,255,95 M,0,62382,62433,539,307,485.2613,268.1672 F,2,62382,62888,1,0 S,2,62382,62888,10,2 P,0,62382,62888,A M,0,62433,62484,485.2613,268.1672,423.0693,259.4159 M,0,62484,62535,423.0693,259.4159,481.1846,240.7954 M,0,62535,62586,481.1846,240.7954,529.7023,195.1833 M,0,62586,62637,529.7023,195.1833,520.8197,234.7897 M,0,62637,62688,520.8197,234.7897,533.8034,299.3582
Sprite,Foreground,Centre,"sb\etc\pl.png",0,0 C,0,62790,,173,255,95 M,0,62790,62841,353,336,383.1288,367.9814 F,2,62790,63296,1,0 S,2,62790,63296,10,2 P,0,62790,63296,A M,0,62841,62892,383.1288,367.9814,386.8948,307.4989 M,0,62892,62943,386.8948,307.4989,322.664,301.056 M,0,62943,62994,322.664,301.056,258.0936,315.7754 M,0,62994,63045,258.0936,315.7754,239.7874,343.6201 M,0,63045,63096,239.7874,343.6201,248.9991,408.6796
Sprite,Foreground,Centre,"sb\etc\pl.png",0,0 C,0,63199,,255,88,100 M,0,63199,63250,175,385,184.9109,318.2316 F,2,63199,63501,1,0 S,2,63199,63501,10,2 P,0,63199,63501,A M,0,63250,63301,184.9109,318.2316,193.0409,251.4852
Sprite,Foreground,Centre,"sb\etc\pl.png",112,249 C,0,63403,,255,88,100 F,2,63403,63603,1,0 S,2,63403,63603,10,2 P,0,63403,63603,A
Sprite,Foreground,Centre,"sb\etc\pl.png",0,0 C,0,63505,,255,88,100 M,0,63505,63556,178,394,170.5846,326.9086 F,2,63505,63909,1,0 S,2,63505,63909,10,2 P,0,63505,63909,A M,0,63556,63607,170.5846,326.9086,163.1693,259.8171 M,0,63607,63658,163.1693,259.8171,167.0224,198.6881 M,0,63658,63709,167.0224,198.6881,226.6635,167.0783
Sprite,Foreground,Centre,"sb\etc\pl.png",0,0 C,0,63811,,255,88,100 M,0,63811,63862,315,132,247.797,125.675 F,2,63811,64113,1,0 S,2,63811,64113,10,2 P,0,63811,64113,A M,0,63862,63913,247.797,125.675,218.7903,75.65829
Sprite,Foreground,Centre,"sb\etc\pl.png",0,0 C,0,64015,,255,94,55 M,0,64015,64066,495,111,502.169,134.689 F,2,64015,64317,1,0 S,2,64015,64317,10,2 P,0,64015,64317,A M,0,64066,64117,502.169,134.689,509.3381,158.3779
Sprite,Foreground,Centre,"sb\etc\pl.png",497,102 C,0,64219,,255,94,55 F,2,64219,64419,1,0 S,2,64219,64419,10,2 P,0,64219,64419,A
Sprite,Foreground,Centre,"sb\etc\pl.png",0,0 C,0,64423,,17,254,176 M,0,64423,64474,532,370,547.147,331.1006 F,2,64423,64674,1,0 S,2,64423,64674,10,2 P,0,64423,64674,A
Sprite,Foreground,Centre,"sb\etc\pl.png",0,0 C,0,64525,,17,254,176 M,0,64525,64576,498,354,502.0524,312.0331 F,2,64525,64776,1,0 S,2,64525,64776,10,2 P,0,64525,64776,A
Sprite,Foreground,Centre,"sb\etc\pl.png",0,0 C,0,64627,,17,254,176 M,0,64627,64678,462,348,455.1208,306.4259 F,2,64627,64878,1,0 S,2,64627,64878,10,2 P,0,64627,64878,A
Sprite,Foreground,Centre,"sb\etc\pl.png",0,0 C,0,64729,,17,254,176 M,0,64729,64780,424,351,407.3158,312.5395 F,2,64729,64980,1,0 S,2,64729,64980,10,2 P,0,64729,64980,A
Sprite,Foreground,Centre,"sb\etc\pl.png",0,0 C,0,64831,,17,254,176 M,0,64831,64882,393,365,366.7009,332.4345 F,2,64831,65082,1,0 S,2,64831,65082,10,2 P,0,64831,65082,A
Sprite,Foreground,Centre,"sb\etc\pl.png",0,0 C,0,65035,,173,255,95 M,0,65035,65086,231,393,239.0499,348.7259 F,2,65035,65286,1,0 S,2,65035,65286,10,2 P,0,65035,65286,A
Sprite,Foreground,Centre,"sb\etc\pl.png",0,0 C,0,65137,,173,255,95 M,0,65137,65188,222,347,230.0499,302.7259 F,2,65137,65388,1,0 S,2,65137,65388,10,2 P,0,65137,65388,A
Sprite,Foreground,Centre,"sb\etc\pl.png",0,0 C,0,65239,,255,88,100 M,0,65239,65290,237,401,212.7461,363.9153 F,2,65239,65643,1,0 S,2,65239,65643,10,2 P,0,65239,65643,A M,0,65290,65341,212.7461,363.9153,172.5227,345.5669 M,0,65341,65392,172.5227,345.5669,128.6593,351.3026 M,0,65392,65443,128.6593,351.3026,95.01094,380.0441
//Storyboard Layer 4 (Overlay)
//Storyboard Sound Samples

[TimingPoints]
342,408.163265306122,4,2,1,50,1,0
7382,-100,4,2,1,5,0,0
7688,-100,4,2,1,50,0,0
8199,-100,4,2,1,5,0,0
8301,-100,4,2,1,50,0,0
9015,-100,4,2,1,5,0,0
9321,-100,4,2,1,50,0,0
9831,-100,4,2,1,5,0,0
9933,-100,4,2,1,50,0,0
10648,-100,4,2,1,5,0,0
10954,-100,4,2,1,50,0,0
11464,-100,4,2,1,5,0,0
11566,-100,4,2,1,50,0,0
12280,-100,4,2,1,5,0,0
12484,-100,4,2,1,50,0,0
12893,-100,4,2,1,5,0,0
12995,-100,4,2,1,50,0,0
13097,-100,4,2,1,5,0,0
13199,-100,4,2,1,50,0,0
13403,-100,4,2,1,60,0,0
26464,-75.187969924812,4,2,2,70,0,0
26770,-75.187969924812,4,2,2,5,0,0
26872,-100,4,2,2,70,0,0
27280,-133.333333333333,4,2,2,70,0,0
27484,-133.333333333333,4,2,2,70,0,0
27586,-133.333333333333,4,2,2,70,0,0
27893,-133.333333333333,4,2,2,70,0,0
30035,-133.333333333333,4,2,2,5,0,0
30137,-133.333333333333,4,2,2,70,0,0
30546,-100,4,2,2,70,0,0
30750,-100,4,2,2,70,0,0
30852,-100,4,2,2,70,0,0
31158,-66.6666666666667,4,2,2,70,0,0
31974,-66.6666666666667,4,2,2,70,0,0
32076,-83.3333333333333,4,2,2,70,0,0
32995,-83.3333333333333,4,2,2,80,0,0
36260,-100,4,2,2,80,0,0
36668,-83.3333333333333,4,2,2,80,0,0
37076,-66.6666666666667,4,2,2,80,0,0
37484,-52.6315789473684,4,2,2,80,0,0
37893,-133.333333333333,4,2,2,60,0,0
37995,-133.333333333333,4,2,2,5,0,0
38097,-133.333333333333,4,2,2,60,0,0
38199,-133.333333333333,4,2,2,5,0,0
38301,-133.333333333333,4,2,2,60,0,0
38403,-133.333333333333,4,2,2,5,0,0
38505,-133.333333333333,4,2,2,60,0,0
39525,-62.5,4,2,3,90,0,0
39831,-62.5,4,2,3,5,0,0
39933,-100,4,2,3,90,0,0
40239,-100,4,2,3,5,0,0
40341,-50,4,2,3,90,0,0
40546,-50,4,2,3,90,0,0
40648,-58.8235294117647,4,2,3,90,0,0
40852,-58.8235294117647,4,2,3,5,0,0
40954,-33.3333333333333,4,2,3,90,0,0
41056,-33.3333333333333,4,2,3,5,0,0
41158,-62.5,4,2,3,90,0,0
41464,-62.5,4,2,3,5,0,0
41566,-50,4,2,3,90,0,0
41668,-50,4,2,3,5,0,0
41770,-62.5,4,2,3,90,0,0
42178,-62.5,4,2,3,90,0,0
42280,-62.5,4,2,3,90,0,0
42484,-62.5,4,2,3,5,0,0
42586,-62.5,4,2,3,90,0,0
42688,-62.5,4,2,3,5,0,0
42790,-62.5,4,2,3,90,0,0
43097,-62.5,4,2,3,5,0,0
43199,-62.5,4,2,3,90,0,0
43505,-62.5,4,2,3,5,0,0
43607,-62.5,4,2,3,90,0,0
43811,-62.5,4,2,3,90,0,0
43913,-133.333333333333,4,2,3,90,0,0
44117,-133.333333333333,4,2,3,5,0,0
44219,-222.222222222221,4,2,3,90,0,0
44321,-222.222222222221,4,2,3,5,0,0
44423,-50,4,2,3,90,0,0
44576,-50,4,2,3,5,0,0
44627,-50,4,2,3,90,0,0
44729,-50,4,2,3,5,0,0
44831,-66.6666666666667,4,2,3,90,0,0
45137,-66.6666666666667,4,2,3,5,0,0
45239,-66.6666666666667,4,2,3,90,0,0
45341,-66.6666666666667,4,2,3,5,0,0
45444,-66.6666666666667,4,2,3,90,0,0
45750,-66.6666666666667,4,2,3,5,0,0
45852,-66.6666666666667,4,2,3,90,0,0
45954,-66.6666666666667,4,2,3,5,0,0
46056,-66.6666666666667,4,2,3,90,0,0
46362,-66.6666666666667,4,2,3,5,0,0
46464,-66.6666666666667,4,2,3,90,0,0
46770,-66.6666666666667,4,2,3,5,0,0
46872,-66.6666666666667,4,2,3,90,0,0
47076,-66.6666666666667,4,2,3,90,0,0
47178,-66.6666666666667,4,2,3,90,0,0
47586,-66.6666666666667,4,2,3,5,0,0
47688,-66.6666666666667,4,2,3,90,0,0
47995,-66.6666666666667,4,2,3,5,0,0
48097,-66.6666666666667,4,2,3,90,0,0
48403,-66.6666666666667,4,2,3,5,0,0
48505,-66.6666666666667,4,2,3,90,0,0
48607,-66.6666666666667,4,2,3,5,0,0
48709,-100,4,2,3,90,0,0
48913,-66.6666666666667,4,2,3,90,0,0
49066,-66.6666666666667,4,2,3,5,0,0
49117,-66.6666666666667,4,2,3,90,0,0
49219,-66.6666666666667,4,2,3,5,0,0
49321,-83.3333333333333,4,2,3,90,0,0
50137,-58.8235294117647,4,2,3,90,0,0
50341,-58.8235294117647,4,2,3,90,0,0
50444,-58.8235294117647,4,2,3,90,0,0
50852,-58.8235294117647,4,2,3,5,0,0
50954,-58.8235294117647,4,2,3,90,0,0
51362,-76.9230769230769,4,2,3,90,0,0
51974,-133.333333333333,4,2,3,90,0,0
52586,-50,4,2,3,90,0,0
52893,-50,4,2,3,5,0,0
52995,-76.9230769230769,4,2,3,90,0,0
53301,-50,4,2,3,5,0,0
53403,-66.6666666666667,4,2,3,90,0,0
53505,-66.6666666666667,4,2,3,5,0,0
53607,-66.6666666666667,4,2,3,90,0,0
53913,-66.6666666666667,4,2,3,5,0,0
54015,-66.6666666666667,4,2,3,90,0,0
54117,-66.6666666666667,4,2,3,5,0,0
54219,-66.6666666666667,4,2,3,90,0,0
54525,-66.6666666666667,4,2,3,5,0,0
54627,-66.6666666666667,4,2,3,90,0,0
54933,-66.6666666666667,4,2,3,5,0,0
55035,-66.6666666666667,4,2,3,90,0,0
55137,-66.6666666666667,4,2,3,5,0,0
55239,-66.6666666666667,4,2,3,90,0,0
55852,-97.0873786407767,4,2,3,90,0,0
56668,-66.6666666666667,4,2,3,90,0,0
56770,-66.6666666666667,4,2,3,5,0,0
56872,-66.6666666666667,4,2,3,90,0,0
57178,-66.6666666666667,4,2,3,5,0,0
57280,-66.6666666666667,4,2,3,90,0,0
57382,-66.6666666666667,4,2,3,5,0,0
57484,-66.6666666666667,4,2,3,90,0,0
57637,-66.6666666666667,4,2,3,5,0,0
57688,-66.6666666666667,4,2,3,90,0,0
57790,-66.6666666666667,4,2,3,5,0,0
57893,-66.6666666666667,4,2,3,90,0,0
58199,-66.6666666666667,4,2,3,5,0,0
58301,-66.6666666666667,4,2,3,90,0,0
58403,-66.6666666666667,4,2,3,5,0,0
58505,-66.6666666666667,4,2,3,90,0,0
58607,-50,4,2,3,90,0,0
58811,-100,4,2,3,5,0,0
58913,-66.6666666666667,4,2,3,90,0,0
59015,-66.6666666666667,4,2,3,5,0,0
59117,-66.6666666666667,4,2,3,90,0,0
59423,-66.6666666666667,4,2,3,5,0,0
59525,-66.6666666666667,4,2,3,90,0,0
59831,-66.6666666666667,4,2,3,5,0,0
59933,-66.6666666666667,4,2,3,90,0,0
60137,-66.6666666666667,4,2,3,90,0,0
60239,-66.6666666666667,4,2,3,90,0,0
60444,-66.6666666666667,4,2,3,5,0,0
60546,-66.6666666666667,4,2,3,90,0,0
60648,-66.6666666666667,4,2,3,5,0,0
60750,-66.6666666666667,4,2,3,90,0,0
61056,-66.6666666666667,4,2,3,5,0,0
61158,-66.6666666666667,4,2,3,90,0,0
61464,-66.6666666666667,4,2,3,90,0,0
61566,-66.6666666666667,4,2,3,90,0,0
61668,-66.6666666666667,4,2,3,5,0,0
61770,-133.333333333333,4,2,3,90,0,0
61974,-66.6666666666667,4,2,3,90,0,0
62688,-66.6666666666667,4,2,3,5,0,0
62790,-66.6666666666667,4,2,3,90,0,0
63097,-66.6666666666667,4,2,3,5,0,0
63199,-66.6666666666667,4,2,3,90,0,0
63301,-66.6666666666667,4,2,3,5,0,0
63403,-66.6666666666667,4,2,3,90,0,0
63709,-66.6666666666667,4,2,3,5,0,0
63811,-66.6666666666667,4,2,3,90,0,0
63913,-66.6666666666667,4,2,3,5,0,0
64015,-181.818181818181,4,2,3,90,0,0
64117,-181.818181818181,4,2,3,5,0,0
64219,-181.818181818181,4,2,3,90,0,0
64423,-100,4,2,3,90,0,0
65648,-181.818181818181,4,2,3,60,0,0
65750,-181.818181818181,4,2,3,5,0,0
78709,-181.818181818181,4,2,1,70,0,0
90341,-100,4,2,1,70,0,0
91770,-100,4,2,1,60,0,0
104831,-76.9230769230769,4,2,2,70,0,0
105137,-76.9230769230769,4,2,2,5,0,0
105239,-100,4,2,2,70,0,0
105648,-133.333333333333,4,2,2,70,0,0
111362,-181.818181818181,4,2,2,80,0,0
116260,-66.6666666666667,4,2,2,80,0,0
116362,-66.6666666666667,4,2,2,5,0,0
116464,-66.6666666666667,4,2,2,80,0,0
116566,-66.6666666666667,4,2,2,5,0,0
116668,-66.6666666666667,4,2,2,80,0,0
116770,-66.6666666666667,4,2,2,5,0,0
116872,-66.6666666666667,4,2,2,80,0,0
116974,-66.6666666666667,4,2,2,5,0,0
117076,-66.6666666666667,4,2,2,80,0,0
117178,-66.6666666666667,4,2,2,5,0,0
117280,-66.6666666666667,4,2,2,80,0,0
117382,-66.6666666666667,4,2,2,5,0,0
117484,-66.6666666666667,4,2,2,80,0,0
117893,-50,4,2,3,90,0,0
118199,-50,4,2,3,5,0,0
118301,-66.6666666666667,4,2,3,90,0,0
118913,-133.333333333333,4,2,3,90,0,0
119015,-133.333333333333,4,2,3,5,0,0
119117,-66.6666666666667,4,2,3,90,0,0
119525,-55.5555555555556,4,2,3,90,0,0
119831,-55.5555555555556,4,2,3,5,0,0
119933,-71.4285714285714,4,2,3,90,0,0
120546,-133.333333333333,4,2,3,90,0,0
120648,-133.333333333333,4,2,3,5,0,0
120750,-66.6666666666667,4,2,3,90,0,0
121158,-58.8235294117647,4,2,3,90,0,0
121464,-58.8235294117647,4,2,3,5,0,0
121566,-58.8235294117647,4,2,3,90,0,0
121668,-58.8235294117647,4,2,3,5,0,0
121974,-58.8235294117647,4,2,3,90,0,0
122076,-58.8235294117647,4,2,3,5,0,0
122178,-58.8235294117647,4,2,3,90,0,0
122790,-55.5555555555556,4,2,3,90,0,0
122841,-55.5555555555556,4,2,3,5,0,0
122893,-55.5555555555556,4,2,3,90,0,0
122944,-55.5555555555556,4,2,3,5,0,0
122995,-55.5555555555556,4,2,3,90,0,0
123046,-55.5555555555556,4,2,3,5,0,0
123097,-55.5555555555556,4,2,3,90,0,0
123148,-55.5555555555556,4,2,3,5,0,0
123199,-43.4782608695652,4,2,3,90,0,0
123607,-62.5,4,2,3,90,0,0
124423,-100,4,2,4,90,0,0
124831,-166.666666666667,4,2,4,90,0,0
125444,-100,4,2,4,90,0,0
126260,-166.666666666667,4,2,4,90,0,0
126464,-166.666666666667,4,2,4,90,0,0
126872,-100,4,2,4,90,0,0
127688,-66.6666666666667,4,2,4,90,0,0
129321,-100,4,2,3,90,0,0
130954,-50,4,2,3,90,0,0
131260,-50,4,2,3,5,0,0
131362,-62.5,4,2,3,90,0,0
131668,-62.5,4,2,3,5,0,0
131770,-71.4285714285714,4,2,3,90,0,0
131872,-71.4285714285714,4,2,3,5,0,0
131974,-71.4285714285714,4,2,3,90,0,0
132280,-71.4285714285714,4,2,3,5,0,0
132382,-71.4285714285714,4,2,3,90,0,0
132484,-71.4285714285714,4,2,3,5,0,0
132586,-52.6315789473684,4,2,3,90,0,0
132893,-52.6315789473684,4,2,3,5,0,0
132995,-62.5,4,2,3,90,0,0
133301,-62.5,4,2,3,5,0,0
133403,-62.5,4,2,3,90,0,0
133505,-62.5,4,2,3,5,0,0
133607,-62.5,4,2,3,90,0,0
133709,-71.4285714285714,4,2,3,90,0,0
133913,-71.4285714285714,4,2,3,5,0,0
134015,-71.4285714285714,4,2,3,90,0,0
134117,-71.4285714285714,4,2,3,5,0,0
134219,-71.4285714285714,4,2,3,90,0,0
135137,-71.4285714285714,4,2,3,5,0,0
135239,-71.4285714285714,4,2,3,90,0,0
135341,-58.8235294117647,4,2,3,90,0,0
135546,-58.8235294117647,4,2,3,5,0,0
135648,-71.4285714285714,4,2,3,90,0,0
136005,-71.4285714285714,4,2,3,5,0,0
136056,-71.4285714285714,4,2,3,90,0,0
137076,-125,4,2,3,90,0,0
137484,-50,4,2,3,90,0,0
137790,-50,4,2,3,5,0,0
137893,-62.5,4,2,3,90,0,0
138199,-62.5,4,2,3,5,0,0
138301,-76.9230769230769,4,2,3,90,0,0
138403,-76.9230769230769,4,2,3,5,0,0
138505,-76.9230769230769,4,2,3,90,0,0
138607,-71.4285714285714,4,2,3,90,0,0
138811,-71.4285714285714,4,2,3,5,0,0
138913,-71.4285714285714,4,2,3,90,0,0
139015,-71.4285714285714,4,2,3,5,0,0
139117,-47.6190476190476,4,2,3,90,0,0
139423,-71.4285714285714,4,2,3,5,0,0
139525,-47.6190476190476,4,2,3,90,0,0
140341,-62.5,4,2,3,90,0,0
140444,-62.5,4,2,3,5,0,0
140546,-83.3333333333333,4,2,3,90,0,0
140648,-83.3333333333333,4,2,3,5,0,0
140750,-71.4285714285714,4,2,3,90,0,0
141872,-58.8235294117647,4,2,3,90,0,0
142178,-71.4285714285714,4,2,3,90,0,0
144015,-71.4285714285714,4,2,3,5,0,0

[Colours]
Combo1 : 17,254,176
Combo2 : 173,255,95
Combo3 : 255,88,100
Combo4 : 255,94,55

[HitObjects]
182,187,342,5,2,0:0:0:0:
182,187,750,1,2,0:0:0:0:
110,106,1158,5,2,0:0:0:0:
289,164,1464,1,2,0:0:0:0:
141,282,1770,1,2,0:0:0:0:
480,366,2178,5,2,0:0:0:0:
455,283,2382,1,2,0:0:0:0:
12,41,2790,5,2,0:0:0:0:
146,25,3097,1,2,0:0:0:0:
280,10,3403,1,2,0:0:0:0:
357,59,3607,5,2,0:0:0:0:
357,59,4015,1,2,0:0:0:0:
180,363,4423,5,2,0:0:0:0:
58,304,4729,1,2,0:0:0:0:
184,351,5035,1,2,0:0:0:0:
506,210,5444,5,2,0:0:0:0:
451,281,5648,1,2,0:0:0:0:
299,222,5954,1,2,0:0:0:0:
189,340,6260,1,2,0:0:0:0:
318,0,6668,5,2,0:0:0:0:
385,59,6872,1,2,0:0:0:0:
256,152,7280,6,0,P|257:182|258:152,1,89.9999976158143,2|0,0:1|0:0,0:0:0:0:
40,276,7688,5,2,0:0:0:0:
242,148,7995,1,2,0:0:0:0:
256,152,8097,6,0,P|257:182|258:152,1,89.9999976158143,2|0,0:1|0:0,0:0:0:0:
256,64,8301,1,2,0:0:0:0:
319,241,8709,5,2,0:0:0:0:
256,152,8913,6,0,P|257:182|258:152,1,89.9999976158143,2|0,0:1|0:0,0:0:0:0:
145,40,9321,5,2,0:0:0:0:
244,192,9627,1,2,0:0:0:0:
256,152,9729,6,0,P|257:182|258:152,1,89.9999976158143,2|0,0:1|0:0,0:0:0:0:
320,251,9933,1,2,0:0:0:0:
159,302,10137,5,2,0:0:0:0:
256,152,10546,6,0,P|257:182|258:152,1,89.9999976158143,2|0,0:1|0:0,0:0:0:0:
420,141,10954,5,2,0:0:0:0:
247,113,11260,1,2,0:0:0:0:
256,152,11362,6,0,P|257:182|258:152,1,89.9999976158143,2|0,0:1|0:0,0:0:0:0:
320,261,11566,1,2,0:0:0:0:
336,26,11974,5,2,0:0:0:0:
256,152,12178,6,0,P|257:182|258:152,1,89.9999976158143,2|0,0:1|0:0,0:0:0:0:
398,217,12484,1,2,0:0:0:0:
256,152,12791,6,0,P|257:182|258:152,1,89.9999976158143,2|0,0:1|0:0,0:0:0:0:
255,152,12995,6,0,P|256:181|259:152,1,89.9999976158143,2|0,0:1|0:0,0:0:0:0:
256,24,13199,1,2,0:0:0:0:
138,116,13403,6,0,B|128:107|109:102|109:102|137:77|174:107,1,89.9999976158143,4|0,0:2|0:0,0:0:0:0:
226,252,13607,1,2,0:0:0:0:
182,264,13709,1,2,0:0:0:0:
151,297,13811,2,0,P|70:243|106:167,2,179.999995231629,10|2|2,0:0|0:0|0:0,0:0:0:0:
460,169,14525,6,0,B|438:171|418:154|418:154|438:171|443:206,2,89.9999976158143,0|10|0,0:0|0:0|0:0,0:0:0:0:
431,272,14831,2,0,L|475:79,1,179.999995231629,2|2,0:0|0:0,0:0:0:0:
220,61,15239,6,0,P|289:84|328:62,1,89.9999976158143,2|0,0:0|0:0,0:0:0:0:
273,9,15444,2,0,L|239:229,1,179.999995231629,10|2,0:0|0:0,0:0:0:0:
304,328,15852,6,0,B|315:362|380:276|213:264|234:403,1,179.999995231629,2|0,0:0|0:0,0:0:0:0:
304,335,16158,2,0,L|325:215,1,89.9999976158143,0|10,0:0|0:0,0:0:0:0:
63,40,16464,1,0,0:0:0:0:
4,96,16668,5,2,0:0:0:0:
4,96,16872,2,0,P|64:122|144:38,2,179.999995231629,0|10|2,0:0|0:0|0:0,0:0:0:0:
108,312,17484,2,0,B|105:306|105:306|135:117,1,179.999995231629,2|2,0:0|0:0,0:0:0:0:
114,319,17790,2,0,L|242:280,1,89.9999976158143,0|10,0:0|0:0,0:0:0:0:
504,225,18097,1,0,0:0:0:0:
463,151,18301,5,2,0:0:0:0:
462,298,18505,2,0,P|421:249|423:203,1,89.9999976158143,2|0,0:0|0:0,0:0:0:0:
504,225,18709,2,0,P|439:234|378:142,1,179.999995231629,10|2,0:0|0:0,0:0:0:0:
463,151,19015,6,0,L|515:69,1,89.9999976158143
336,71,19321,6,0,L|381:157,1,89.9999976158143
470,3,19729,6,0,L|372:-1,1,89.9999976158143
169,83,19933,6,0,B|142:72|147:42|147:42|169:3|219:19,1,89.9999976158143,2|0,0:0|0:0,0:0:0:0:
331,79,20137,1,2,0:0:0:0:
287,71,20239,1,2,0:0:0:0:
243,62,20341,2,0,L|51:25,2,179.999995231629,10|2|2,0:0|0:0|0:0,0:0:0:0:
97,324,21056,6,0,B|66:292|66:292|117:301,2,89.9999976158143,0|10|0,0:0|0:0|0:0,0:0:0:0:
13,367,21362,2,0,L|232:321,1,179.999995231629,2|2,0:0|0:0,0:0:0:0:
387,349,21770,6,0,P|399:331|364:276,1,89.9999976158143,2|0,0:0|0:0,0:0:0:0:
380,360,21974,2,0,P|421:312|522:344,1,179.999995231629,10|2,0:0|0:0,0:0:0:0:
220,242,22382,6,0,B|218:239|218:239|13:203,1,179.999995231629,2|0,0:0|0:0,0:0:0:0:
227,248,22688,2,0,L|178:353,1,89.9999976158143,0|10,0:0|0:0,0:0:0:0:
42,40,22995,1,0,0:0:0:0:
114,2,23199,6,0,P|121:68|22:118,1,179.999995231629,2|2,0:0|0:0,0:0:0:0:
18,29,23505,1,2,0:0:0:0:
42,40,23607,1,10,0:0:0:0:
112,138,23811,1,2,0:0:0:0:
232,24,24015,6,0,B|236:23|236:23|427:50,1,179.999995231629,2|0,0:0|0:0,0:0:0:0:
228,35,24321,2,0,L|251:143,1,89.9999976158143,0|10,0:0|0:0,0:0:0:0:
486,275,24627,1,2,0:0:0:0:
410,166,24831,1,2,0:0:0:0:
480,195,25035,6,0,P|424:221|409:282,1,89.9999976158143,2|0,0:0|0:0,0:0:0:0:
486,275,25239,2,0,B|483:272|483:272|287:254,1,179.999995231629,8|2,0:0|0:0,0:0:0:0:
242,303,25546,6,0,P|233:222|271:184,1,89.9999976158143,0|2,0:0|0:0,0:0:0:0:
93,311,25852,6,0,P|167:343|181:395,1,89.9999976158143,2|0,0:0|0:0,0:0:0:0:
157,178,26260,6,0,P|91:226|39:212,1,89.9999976158143
245,384,26464,6,0,B|267:261|353:-8,1,359.999990463257,6|0,0:2|0:0,0:0:0:0:
338,36,26872,2,0,P|387:42|326:146,1,179.999995231629,10|0,0:0|0:0,0:0:0:0:
162,184,27280,2,0,P|171:122|180:50,1,135.000001573563,2|2,0:0|0:0,0:0:0:0:
103,44,27586,2,0,P|100:87|147:100,1,67.5000007867814,0|8,0:0|0:0,0:0:0:0:
162,184,27893,1,2,0:0:0:0:
10,286,28097,6,0,B|178:271|178:271|269:262|253:181|321:169|321:169|525:155,1,540.000006294251,8|8,0:1|0:1,0:0:0:0:
264,345,29117,2,0,P|271:320|240:276,2,67.5000007867814,2|2|8,0:0|0:0|0:0,0:0:0:0:
352,367,29525,1,0,0:0:0:0:
463,42,29729,6,0,B|422:46|392:14|392:14|433:140,1,202.500002360344,10|0,0:1|0:0,0:0:0:0:
438,134,30137,2,0,L|407:42,1,67.5000007867814,10|0,0:0|0:0,0:0:0:0:
28,144,30546,6,0,B|-25:133|69:49|99:169|62:256,1,179.999995231629,10|2,0:1|0:0,0:0:0:0:
104,295,30852,2,0,P|58:301|-3:247,1,89.9999976158143,0|8,0:0|0:0,0:0:0:0:
257,245,31158,6,0,B|151:214|151:214|138:170|138:170|25:143,2,270.000003147125,2|8|2,0:0|0:1|0:0,0:0:0:0:
251,140,31770,2,0,L|4:294,1,270.000003147125,10|2,0:0|0:0,0:0:0:0:
62,365,32076,2,0,P|115:322|89:283,1,107.999993843079,0|10,0:0|0:1,0:0:0:0:
423,232,32382,5,2,0:0:0:0:
354,285,32586,1,10,0:0:0:0:
391,362,32790,1,0,0:0:0:0:
378,105,32995,5,10,0:1:0:0:
306,56,33199,1,8,0:1:0:0:
453,149,33403,2,0,B|463:63|463:63|426:47,1,107.999993843079,10|0,0:0|0:0,0:0:0:0:
270,283,33607,1,8,0:1:0:0:
322,186,33811,5,10,0:1:0:0:
305,67,34015,1,10,0:1:0:0:
132,24,34219,2,0,B|141:114|141:114|172:138,1,107.999993843079,8|0,0:0|0:1,0:0:0:0:
104,214,34423,1,10,0:1:0:0:
398,354,34627,5,8,0:1:0:0:
264,374,34831,1,8,0:1:0:0:
108,222,35035,2,0,B|170:291|170:291|208:274,1,107.999993843079,8|0,0:0|0:0,0:0:0:0:
261,284,35239,1,8,0:1:0:0:
403,126,35444,5,8,0:1:0:0:
473,214,35648,1,8,0:1:0:0:
249,377,35852,2,0,B|277:288|277:288|244:264,1,107.999993843079,8|0,0:0|0:0,0:0:0:0:
280,195,36056,1,10,0:1:0:0:
141,67,36260,5,10,0:1:0:0:
118,63,36362,1,8,0:1:0:0:
97,69,36464,1,10,0:1:0:0:
80,83,36566,1,8,0:1:0:0:
118,214,36668,5,10,0:1:0:0:
136,194,36770,1,8,0:1:0:0:
142,168,36872,1,10,0:1:0:0:
136,142,36974,1,8,0:1:0:0:
0,179,37076,5,8,0:1:0:0:
4,212,37178,1,8,0:1:0:0:
8,245,37280,1,8,0:1:0:0:
13,279,37382,1,8,0:1:0:0:
119,362,37484,5,10,0:1:0:0:
154,338,37586,1,8,0:1:0:0:
195,331,37688,1,10,0:1:0:0:
236,344,37790,1,8,0:1:0:0:
267,373,37893,6,0,L|374:358,1,67.5000007867814,6|0,3:2|0:0,0:0:0:0:
267,373,38097,6,0,L|374:358,1,67.5000007867814,2|0,0:0|0:0,0:0:0:0:
267,373,38301,6,0,L|374:358,1,67.5000007867814,2|0,0:0|0:0,0:0:0:0:
267,373,38505,6,0,L|324:355,1,33.7500003933907,2|0,0:0|0:0,0:0:0:0:
292,284,38607,2,0,L|348:265,1,33.7500003933907,2|0,0:0|0:0,0:0:0:0:
415,368,38709,6,0,P|455:295|503:309,2,135.000001573563,2|2|2,0:0|0:0|3:2,0:0:0:0:
391,137,39525,6,0,B|496:101|432:-38|321:-9|284:69|339:126|339:126|380:177|343:244,1,431.999988555908,6|0,3:2|0:0,0:0:0:0:
242,324,39933,2,0,B|189:323|150:229|216:176|277:187|277:187|245:237|298:305,1,269.999992847443,2|0,3:2|0:0,0:0:0:0:
442,305,40341,6,0,B|486:294|486:294|480:268|480:268|366:219|366:219|350:231|350:231|380:379,1,359.999990463257,8|2,0:0|0:0,0:0:0:0:
450,315,40648,6,0,B|266:339|266:339|262:348|262:348|135:363,1,305.999997730255,0|0,3:0|0:0,0:0:0:0:
35,299,40954,6,0,B|19:299|-11:303|-11:303|24:261|75:280|75:280|45:302|41:336|41:336|24:312|-11:303,1,270.000003147125,2|0,3:2|0:0,0:0:0:0:
154,139,41158,6,0,B|237:169|237:169|255:148|255:148|226:50|226:50|206:37|206:37|9:95,1,431.999988555908,2|0,3:2|0:0,0:0:0:0:
39,1,41566,6,0,B|49:137|49:137|86:191,1,179.999995231629,2|0,3:2|0:0,0:0:0:0:
137,266,41770,6,0,B|174:274|174:274|192:245,1,71.9999980926514,2|0,0:1|0:0,0:0:0:0:
198,259,41872,2,0,B|179:287|179:287|142:279,1,71.9999980926514,2|0,0:1|0:0,0:0:0:0:
152,360,41974,6,0,B|99:270|99:270|112:278|112:278|349:320,1,287.999992370606,10|2,3:2|0:0,0:0:0:0:
161,369,42280,2,0,B|388:291|388:291|403:263|370:215,1,287.999992370606,0|0,3:0|0:0,0:0:0:0:
482,111,42586,2,0,B|541:69|541:69|407:128,1,143.999996185303,2|0,3:2|0:0,0:0:0:0:
474,206,42790,6,0,B|535:212|560:100|497:28|390:44|327:98|302:163|309:245,1,431.999988555908,2|0,3:2|0:0,0:0:0:0:
217,139,43199,2,0,B|140:120|194:62|121:29|121:29|420:128,1,431.999988555908,2|0,3:2|0:0,0:0:0:0:
336,12,43607,6,0,P|169:18|88:109,1,287.999992370606,10|2,3:2|0:0,0:0:0:0:
45,164,43913,6,0,P|72:221|85:313,1,135.000001573563,0|0,3:0|0:0,0:0:0:0:
8,276,44219,2,0,P|25:244|38:237,1,40.4999976911546,2|0,3:2|0:0,0:0:0:0:
342,359,44423,6,0,B|355:346|355:346|302:131|302:131|245:113,1,269.999992847443,2|0,3:2|0:0,0:0:0:0:
302,161,44627,2,0,L|347:351,1,179.999995231629,2|0,0:0|0:0,0:0:0:0:
383,116,44831,5,0,3:0:0:0:
132,373,45035,6,0,B|125:378|125:378|-30:362,1,135.000001573563,2|0,0:0|0:0,0:0:0:0:
85,291,45239,2,0,L|296:239,1,135.000001573563,10|0,3:2|0:0,0:0:0:0:
296,168,45444,1,2,0:0:0:0:
176,122,45546,2,0,B|219:118|238:76|197:15|150:41|115:60|141:123|141:123|209:277,1,270.000003147125,0|0,3:0|0:0,0:0:0:0:
279,300,45852,2,0,B|285:292|285:292|300:114,1,135.000001573563,2|0,3:2|0:0,0:0:0:0:
481,297,46056,6,0,B|240:323|171:332|171:332|125:339|158:364|64:373,1,405.000004720688,2|0,3:2|0:0,0:0:0:0:
55,223,46464,2,0,B|28:214|37:265|63:246|85:291|85:291|43:173|26:140|90:82|90:82|65:142|83:190,1,405.000004720688,2|0,3:2|0:0,0:0:0:0:
231,95,46872,6,0,B|259:73|329:108|278:184|197:183|160:53|239:6,1,270.000003147125,8|2,0:0|0:0,0:0:0:0:
239,109,47178,2,0,P|284:79|419:58,1,135.000001573563,0|2,3:0|0:0,0:0:0:0:
278,336,47484,6,0,B|266:314|236:307|236:307|280:282|370:316,1,135.000001573563,2|0,3:2|0:0,0:0:0:0:
349,371,47688,6,0,B|369:230|455:44|455:44|482:0|486:35|515:-21,1,405.000004720688,2|0,3:2|0:0,0:0:0:0:
437,208,48097,2,0,B|481:191|532:251|510:326|399:320|335:264|364:175|364:175|399:80|272:79|320:187,1,405.000004720688,2|0,3:2|0:0,0:0:0:0:
82,126,48505,6,0,P|133:124|130:29,1,135.000001573563,10|0,3:2|0:0,0:0:0:0:
113,319,48709,6,0,L|102:269,1,44.9999988079071,2|0,0:1|0:0,0:0:0:0:
162,216,48811,2,0,L|151:166,1,44.9999988079071,2|0,3:1|0:0,0:0:0:0:
27,306,48913,6,0,B|129:306|180:325|180:325|199:350|224:351,1,202.500002360344,2|0,0:0|0:0,0:0:0:0:
218,350,49117,2,0,P|267:334|217:280,1,135.000001573563,2|0,3:2|0:0,0:0:0:0:
378,34,49321,6,0,P|387:197|417:333,1,215.999987686158,2|0,3:2|0:0,0:0:0:0:
401,248,49729,2,0,P|386:141|384:34,1,215.999987686158,2|0,3:2|0:0,0:0:0:0:
138,61,50137,6,0,B|140:25|85:-10|85:-10|307:82,1,305.999997730255,10|2,3:2|0:0,0:0:0:0:
133,73,50444,2,0,B|78:74|78:74|24:74|-2:5,1,152.999998865128,0|2,3:0|0:0,0:0:0:0:
235,277,50750,6,0,B|213:289|205:315|205:315|180:235|237:192,1,152.999998865128,2|0,3:2|0:0,0:0:0:0:
289,335,50954,6,0,B|162:278|90:280|90:280|28:281|51:312|-18:334,1,305.999997730255,2|2,3:2|0:0,0:0:0:0:
65,55,51362,6,0,B|50:40|50:40|60:3,1,58.499995772362,2|2,0:0|0:0,0:0:0:0:
105,31,51464,2,0,B|115:12|115:12|153:11,1,58.499995772362,2|2,0:0|0:0,0:0:0:0:
138,61,51566,2,0,B|160:65|160:65|173:101,1,58.499995772362,2|2,0:0|0:0,0:0:0:0:
122,106,51668,2,0,B|124:127|124:127|95:150,1,58.499995772362,2|2,0:0|0:0,0:0:0:0:
73,103,51770,2,0,B|54:112|54:112|23:91,1,58.499995772362,8|0,0:1|0:0,0:0:0:0:
388,246,51974,6,0,L|378:298,1,33.7500003933907,8|0,0:1|0:0,0:0:0:0:
448,332,52076,2,0,L|438:384,1,33.7500003933907,8|0,0:1|0:0,0:0:0:0:
475,231,52178,6,0,L|437:428,1,135.000001573563,8|8,0:1|0:1,0:0:0:0:
427,158,52586,6,0,B|508:117|409:-48|268:49|216:171|216:171|231:163|282:113|278:183|356:166|363:103,1,539.999985694885,6|0,3:2|0:0,0:0:0:0:
505,35,52995,2,0,B|384:53|326:151|266:221|390:183|344:280|291:320,1,350.999974634172,2|0,3:2|0:0,0:0:0:0:
157,333,53403,6,0,B|102:318|102:318|163:334|142:290|202:334,1,135.000001573563,8|0,0:0|0:0,0:0:0:0:
260,238,53607,1,2,0:0:0:0:
138,167,53709,2,0,B|143:164|143:164|166:231|166:231|125:249|125:249|53:189|53:189|87:96,1,270.000003147125,0|0,3:0|0:0,0:0:0:0:
210,83,54015,2,0,B|229:106|211:131|211:131|184:79|135:82|78:100,1,135.000001573563,2|0,3:2|0:0,0:0:0:0:
5,75,54219,6,0,B|9:109|44:116|44:116|247:29|247:29|332:7|380:103,1,405.000004720688,2|0,3:2|0:0,0:0:0:0:
415,160,54627,2,0,B|509:130|484:-17|337:7|294:110|436:297,1,405.000004720688,2|0,3:2|0:0,0:0:0:0:
363,335,55035,2,0,P|453:291|510:328,1,135.000001573563,10|0,3:2|0:0,0:0:0:0:
170,241,55239,6,0,B|162:218|162:218|176:172,1,67.5000007867814,2|0,0:1|0:0,0:0:0:0:
246,217,55341,2,0,B|254:240|254:240|240:286,1,67.5000007867814,2|0,3:1|0:0,0:0:0:0:
211,355,55444,6,0,L|185:53,1,270.000003147125,2|2,0:0|3:2,0:0:0:0:
4,335,55852,6,0,P|63:314|45:180,1,185.399993532639,2|0,3:2|0:0,0:0:0:0:
89,355,56260,2,0,P|125:303|34:198,1,185.399993532639,2|0,3:2|0:0,0:0:0:0:
486,153,56668,6,0,B|449:141|449:141|447:133|447:133|323:95,1,135.000001573563,10|0,3:2|0:0,0:0:0:0:
276,116,56872,1,2,0:0:0:0:
498,156,56974,2,0,B|429:180|429:180|487:-14,1,270.000003147125,0|0,3:0|0:0,0:0:0:0:
315,43,57280,2,0,L|331:206,1,135.000001573563,2|0,3:2|0:0,0:0:0:0:
242,350,57484,6,0,B|311:307|311:307|246:183,1,202.500002360344,2|0,3:2|0:0,0:0:0:0:
254,199,57688,2,0,L|222:350,1,135.000001573563,2|0,0:0|0:0,0:0:0:0:
150,151,57893,1,0,3:0:0:0:
453,349,58097,6,0,B|460:346|460:346|445:202,1,135.000001573563,2|0,0:0|0:0,0:0:0:0:
450,34,58301,2,0,L|308:44,1,135.000001573563,10|0,3:2|0:0,0:0:0:0:
275,109,58505,1,2,0:0:0:0:
150,37,58607,2,0,B|164:66|231:70|258:-14|212:-52|131:-55|91:2|105:52|125:100|125:100|165:182,1,359.999990463257,0|0,3:0|0:0,0:0:0:0:
201,222,58913,2,0,B|172:239|172:239|3:216,1,135.000001573563,2|0,3:2|0:0,0:0:0:0:
35,359,59117,6,0,B|-45:361|-56:230|99:227|117:344|117:344|170:293|278:337,1,405.000004720688,2|0,3:2|0:0,0:0:0:0:
347,310,59525,2,0,B|366:252|441:233|441:233|301:250|301:250|323:397,1,405.000004720688,2|0,3:2|0:0,0:0:0:0:
474,350,59933,6,0,B|502:149|502:149|403:93,1,270.000003147125,8|2,0:0|0:0,0:0:0:0:
295,52,60239,2,0,B|308:126|308:126|328:128|328:128|521:25,1,270.000003147125,0|0,3:0|0:0,0:0:0:0:
311,42,60546,2,0,L|142:21,1,135.000001573563,2|0,3:2|0:0,0:0:0:0:
51,250,60750,6,0,B|35:199|-19:190|-19:190|-23:185|-23:185|275:231,1,405.000004720688,2|0,3:2|0:0,0:0:0:0:
259,334,61158,2,0,B|304:358|381:329|376:246|325:215|308:220|308:220|293:225|293:225|106:195,1,405.000004720688,2|2,3:2|0:0,0:0:0:0:
33,116,61566,6,0,B|32:140|32:140|62:315,1,135.000001573563,10|0,3:2|0:0,0:0:0:0:
153,43,61770,6,0,L|191:48,1,33.7500003933907,2|0,0:1|0:0,0:0:0:0:
250,5,61872,2,0,L|288:10,1,33.7500003933907,2|0,3:1|0:0,0:0:0:0:
149,52,61974,6,0,B|173:67|173:67|425:10,1,270.000003147125,2|2,0:0|3:2,0:0:0:0:
475,251,62382,6,0,B|436:198|360:209|360:209|358:197|358:197|436:198|472:128|472:128|474:137|474:137|436:198|475:251,1,405.000004720688,2|0,3:2|0:0,0:0:0:0:
289,280,62790,2,0,B|300:295|298:322|298:322|342:313|345:264|327:235|283:241|283:241|217:252|217:252|214:256|214:256|156:267|156:267|203:302|180:371,1,405.000004720688,2|0,3:2|0:0,0:0:0:0:
111,329,63199,6,0,B|130:201|130:201|126:178,1,135.000001573563,10|0,3:2|0:0,0:0:0:0:
48,193,63403,1,2,0:0:0:0:
114,338,63505,2,0,B|93:148|93:148|193:95,1,270.000003147125,0|0,3:0|0:0,0:0:0:0:
251,76,63811,2,0,B|166:68|166:68|150:-1,1,135.000001573563,2|0,3:2|0:0,0:0:0:0:
431,55,64015,6,0,L|454:131,1,49.500000199318,2|0,3:2|0:0,0:0:0:0:
433,46,64219,1,2,0:0:0:0:
468,314,64423,6,0,B|484:296|484:296|482:247,1,44.9999988079071,2|2,0:0|0:0,0:0:0:0:
434,298,64525,2,0,B|444:276|444:276|430:229,1,44.9999988079071,2|2,0:0|0:0,0:0:0:0:
398,292,64627,2,0,B|402:268|402:268|376:226,1,44.9999988079071,2|2,0:0|0:0,0:0:0:0:
360,295,64729,2,0,B|358:270|358:270|322:237,1,44.9999988079071,2|2,0:0|0:0,0:0:0:0:
329,309,64831,2,0,B|321:286|321:286|277:263,1,44.9999988079071,8|0,0:1|0:0,0:0:0:0:
167,337,65035,6,0,L|179:271,1,44.9999988079071,8|0,0:1|0:0,0:0:0:0:
158,291,65137,2,0,L|170:225,1,44.9999988079071,8|0,0:1|0:0,0:0:0:0:
173,345,65239,6,0,P|140:301|25:334,1,179.999995231629,8|8,0:1|0:1,0:0:0:0:
361,22,65648,6,0,B|357:25|357:25|288:12,1,49.500000199318,4|0,0:0|0:0,0:0:0:0:
83,185,78709,5,4,3:2:0:0:
77,168,78913,1,2,0:0:0:0:
165,253,79117,5,10,0:0:0:0:
179,208,79321,1,2,0:0:0:0:
254,320,79525,5,2,0:0:0:0:
338,238,79729,2,0,L|327:286,1,49.500000199318,2|0,0:0|0:0,0:0:0:0:
384,346,79933,5,10,0:0:0:0:
322,160,80137,1,2,0:0:0:0:
322,160,80546,5,2,0:0:0:0:
318,155,80648,1,2,0:0:0:0:
315,148,80750,1,10,0:0:0:0:
314,139,80852,1,2,0:0:0:0:
318,130,80954,1,2,0:0:0:0:
327,122,81056,1,2,0:0:0:0:
255,200,81158,5,2,0:0:0:0:
260,215,81260,1,2,0:0:0:0:
273,229,81362,1,2,0:0:0:0:
293,238,81464,1,2,0:0:0:0:
319,240,81566,1,10,0:0:0:0:
348,232,81668,1,2,0:0:0:0:
376,212,81770,1,2,0:0:0:0:
398,177,81873,1,2,0:0:0:0:
405,130,81975,1,2,0:0:0:0:
257,28,82178,5,2,0:0:0:0:
318,160,82382,1,10,0:0:0:0:
185,115,82586,1,2,0:0:0:0:
375,41,82790,1,2,0:0:0:0:
307,229,82995,2,0,L|313:290,1,49.500000199318,2|0,0:0|0:0,0:0:0:0:
370,330,83199,1,10,0:0:0:0:
199,204,83403,1,2,0:0:0:0:
199,204,83811,5,2,0:0:0:0:
307,111,84015,1,10,0:0:0:0:
425,229,84219,2,0,L|435:170,1,49.500000199318,2|0,0:0|0:0,0:0:0:0:
485,121,84423,1,2,0:0:0:0:
312,194,84627,1,2,0:0:0:0:
340,35,84831,1,10,0:0:0:0:
425,168,85035,1,2,0:0:0:0:
420,170,85444,5,2,0:0:0:0:
512,123,85648,1,10,0:0:0:0:
329,221,85852,1,2,0:0:0:0:
437,334,86056,5,2,0:0:0:0:
329,221,86260,2,0,L|340:269,1,49.500000199318,2|0,0:0|0:0,0:0:0:0:
305,378,86464,5,10,0:0:0:0:
387,79,86668,1,2,0:0:0:0:
381,82,87076,5,2,0:0:0:0:
375,83,87178,1,2,0:0:0:0:
367,83,87280,1,10,0:0:0:0:
358,84,87382,1,2,0:0:0:0:
348,85,87484,1,2,0:0:0:0:
336,86,87586,1,2,0:0:0:0:
205,21,87688,5,2,0:0:0:0:
206,37,87790,1,2,0:0:0:0:
208,56,87892,1,2,0:0:0:0:
210,78,87994,1,2,0:0:0:0:
213,104,88096,1,10,0:0:0:0:
216,134,88198,1,2,0:0:0:0:
219,169,88300,1,2,0:0:0:0:
223,210,88403,1,2,0:0:0:0:
227,258,88505,1,2,0:0:0:0:
326,125,88709,5,2,0:0:0:0:
117,198,88913,1,10,0:0:0:0:
334,119,89117,1,2,0:0:0:0:
112,76,89321,1,2,0:0:0:0:
230,322,89525,2,0,L|236:262,1,49.500000199318,2|0,0:0|0:0,0:0:0:0:
248,200,89729,1,10,0:0:0:0:
277,23,89934,1,2,0:0:0:0:
286,29,90341,6,0,L|375:22,1,89.9999976158143,2|0,0:0|0:0,0:0:0:0:
460,14,90546,1,10,0:0:0:0:
322,132,90750,5,2,0:0:0:0:
237,124,90853,2,0,L|148:117,1,89.9999976158143,0|2,0:0|0:0,0:0:0:0:
10,233,91158,6,0,L|99:226,1,89.9999976158143,2|0,0:0|0:0,0:0:0:0:
184,218,91363,1,10,0:0:0:0:
296,327,91566,6,0,L|385:334,1,89.9999976158143,2|0,0:0|0:0,0:0:0:0:
470,342,91771,1,4,0:2:0:0:
258,53,91974,5,2,0:0:0:0:
249,76,92076,1,2,0:0:0:0:
242,97,92178,2,0,P|152:100|41:72,2,179.999995231629,10|2|2,0:0|0:0|0:0,0:0:0:0:
417,42,92893,5,0,0:0:0:0:
417,42,92995,1,10,0:0:0:0:
376,217,93199,2,0,L|420:24,1,179.999995231629,2|2,0:0|0:0,0:0:0:0:
509,294,93607,6,0,P|464:290|426:312,1,89.9999976158143,2|0,0:0|0:0,0:0:0:0:
248,340,93812,2,0,L|468:306,1,179.999995231629,10|2,0:0|0:0,0:0:0:0:
259,219,94219,6,0,B|159:236|201:154|82:174,1,179.999995231629,2|0,0:0|0:0,0:0:0:0:
116,258,94525,1,0,0:0:0:0:
116,258,94627,1,10,0:0:0:0:
240,137,94832,1,0,0:0:0:0:
252,308,95036,5,2,0:0:0:0:
252,308,95239,2,0,B|218:191|218:191|249:112,2,179.999995231629,0|10|2,0:0|0:0|0:0,0:0:0:0:
128,114,95852,2,0,P|224:109|322:79,1,179.999995231629,2|2,0:0|0:0,0:0:0:0:
395,27,96158,1,0,0:0:0:0:
395,27,96260,1,10,0:0:0:0:
329,240,96465,1,0,0:0:0:0:
300,10,96669,5,2,0:0:0:0:
458,151,96872,2,0,L|345:139,1,89.9999976158143,2|0,0:0|0:0,0:0:0:0:
191,183,97076,2,0,L|399:167,1,179.999995231629,10|2,0:0|0:0,0:0:0:0:
274,268,97382,5,0,0:0:0:0:
370,169,97688,5,0,0:0:0:0:
370,169,97893,5,8,0:0:0:0:
507,138,98097,5,0,0:0:0:0:
284,275,98301,5,2,0:0:0:0:
161,105,98505,5,2,0:0:0:0:
140,86,98607,1,2,0:0:0:0:
114,79,98709,2,0,B|-1:95|116:216,2,179.999995231629,10|2|2,0:0|0:0|0:0,0:0:0:0:
404,59,99423,5,0,0:0:0:0:
404,59,99525,1,10,0:0:0:0:
226,32,99729,2,0,L|432:63,1,179.999995231629,2|2,0:0|0:0,0:0:0:0:
149,140,100137,6,0,L|50:127,1,89.9999976158143,2|0,0:0|0:0,0:0:0:0:
328,125,100342,2,0,L|127:142,1,179.999995231629,10|2,0:0|0:0,0:0:0:0:
309,207,100750,6,0,B|409:224|367:142|486:162,1,179.999995231629,2|0,0:0|0:0,0:0:0:0:
452,246,101056,1,0,0:0:0:0:
452,246,101158,1,10,0:0:0:0:
328,125,101363,1,0,0:0:0:0:
184,320,101566,6,0,P|162:229|132:144,1,179.999995231629,2|2,0:0|0:0,0:0:0:0:
75,76,101872,1,2,0:0:0:0:
75,76,101974,1,10,0:0:0:0:
226,161,102178,1,2,0:0:0:0:
333,35,102382,6,0,B|528:61,1,179.999995231629,2|0,0:0|0:0,0:0:0:0:
329,46,102688,2,0,L|352:154,1,89.9999976158143,0|10,0:0|0:0,0:0:0:0:
440,242,102994,1,2,0:0:0:0:
367,351,103198,1,2,0:0:0:0:
224,244,103402,6,0,L|241:142,1,89.9999976158143,2|0,0:0|0:0,0:0:0:0:
37,273,103606,2,0,B|40:270|40:270|236:252,1,179.999995231629,8|2,0:0|0:0,0:0:0:0:
430,102,103913,6,0,P|421:183|459:221,1,89.9999976158143,0|2,0:0|0:0,0:0:0:0:
281,94,104219,6,0,P|355:62|369:10,1,89.9999976158143,2|0,0:0|0:0,0:0:0:0:
365,39,104423,1,10,0:0:0:0:
341,238,104627,6,0,P|275:190|223:204,1,89.9999976158143
20,319,104831,6,0,B|218:368|108:188|373:244,1,350.999974634172,6|0,0:2|0:0,0:0:0:0:
469,213,105239,2,0,P|405:277|337:232,1,179.999995231629,10|0,0:0|0:0,0:0:0:0:
485,346,105648,6,0,P|472:288|471:179,1,135.000001573563,2|2,0:0|0:0,0:0:0:0:
501,101,105954,1,0,0:0:0:0:
501,101,106056,1,8,0:0:0:0:
386,276,106261,1,2,0:0:0:0:
295,80,106464,6,0,P|127:42|288:169,1,540.000006294251,8|8,0:1|0:1,0:0:0:0:
76,265,107484,5,2,0:0:0:0:
76,265,107586,1,2,0:0:0:0:
76,265,107688,1,8,0:0:0:0:
199,117,107893,1,0,0:0:0:0:
314,363,108097,6,0,L|260:205,1,135.000001573563,10|0,0:1|0:0,0:0:0:0:
66,90,108505,2,0,L|229:122,1,135.000001573563,10|0,0:0|0:0,0:0:0:0:
441,73,108913,2,0,L|331:198,1,135.000001573563,10|2,0:1|0:0,0:0:0:0:
278,159,109219,5,0,0:0:0:0:
278,159,109321,1,8,0:0:0:0:
431,288,109525,6,0,P|471:279|495:259,1,67.5000007867814,2|0,0:0|0:0,0:0:0:0:
486,357,109729,6,0,P|417:314|329:325,1,135.000001573563,8|2,0:1|0:0,0:0:0:0:
142,332,110137,2,0,P|208:326|262:287,1,135.000001573563,10|2,0:0|0:0,0:0:0:0:
299,184,110444,1,0,0:0:0:0:
306,162,110546,2,0,L|276:24,3,135.000001573563,10|2|10|0,0:1|0:0|0:0|0:0,0:0:0:0:
438,139,111362,5,10,0:1:0:0:
438,139,111566,1,8,0:1:0:0:
367,271,111770,5,10,0:0:0:0:
367,271,111974,1,8,0:1:0:0:
211,330,112178,5,10,0:1:0:0:
211,330,112382,1,10,0:1:0:0:
61,208,112586,5,8,0:0:0:0:
61,208,112790,1,10,0:1:0:0:
287,48,112995,5,8,0:1:0:0:
315,138,113199,1,8,0:1:0:0:
61,208,113403,5,8,0:0:0:0:
94,78,113607,1,8,0:1:0:0:
214,302,113811,5,8,0:1:0:0:
61,208,114015,2,0,L|127:194,1,49.500000199318,8|0,0:1|0:0,0:0:0:0:
206,126,114219,2,0,L|346:150,1,99.0000003986359,8|10,0:0|0:1,0:0:0:0:
444,220,114627,5,10,0:1:0:0:
450,254,114729,1,8,0:1:0:0:
441,286,114831,1,10,0:1:0:0:
420,311,114933,1,8,0:1:0:0:
254,267,115035,5,10,0:1:0:0:
284,240,115137,1,8,0:1:0:0:
323,231,115239,1,10,0:1:0:0:
362,240,115341,1,8,0:1:0:0:
229,357,115443,5,8,0:1:0:0:
179,351,115545,1,8,0:1:0:0:
130,345,115647,1,8,0:1:0:0:
78,337,115749,1,8,0:1:0:0:
0,209,115852,5,10,0:1:0:0:
64,199,115954,1,8,0:1:0:0:
125,191,116056,1,10,0:1:0:0:
187,184,116158,1,8,0:1:0:0:
261,140,116260,6,0,P|247:98|258:139,1,135.000001573563,6|0,3:2|0:0,0:0:0:0:
261,140,116464,6,0,P|247:98|258:139,1,135.000001573563,2|0,0:0|0:0,0:0:0:0:
261,140,116668,6,0,P|247:98|258:139,1,135.000001573563,2|0,0:0|0:0,0:0:0:0:
261,140,116872,6,0,P|247:98|258:139,1,135.000001573563,2|0,0:0|0:0,0:0:0:0:
261,140,117076,6,0,P|247:98|258:139,1,135.000001573563,2|0,0:0|0:0,0:0:0:0:
261,140,117280,6,0,P|247:98|258:139,1,135.000001573563,2|0,0:0|0:0,0:0:0:0:
261,140,117484,6,0,P|255:49|258:139,1,270.000003147125,2|2,3:2|0:0,0:0:0:0:
265,321,117893,6,0,B|67:241|-98:260|-106:407|105:439|171:336|162:276|142:219,1,539.999985694885,6|0,3:2|0:0,0:0:0:0:
20,141,118301,6,0,B|84:119|84:119|135:129|135:129|101:181|101:181|168:281,2,270.000003147125,10|0|2,0:0|0:0|0:0,0:0:0:0:
308,54,118913,6,0,P|319:96|333:117,1,67.5000007867814,2|0,3:2|0:0,0:0:0:0:
265,321,119117,2,0,L|309:49,1,270.000003147125,10|2,0:2|0:0,0:0:0:0:
413,306,119525,6,0,B|339:263|247:287|245:341|292:386|106:416|-37:301|157:166|202:273,1,485.999972293855,2|0,3:2|0:0,0:0:0:0:
412,178,119933,6,0,B|361:198|361:198|293:182|293:182|259:225|259:225|193:263,2,251.999985633851,10|0|2,0:2|0:0|0:0,0:0:0:0:
220,42,120546,6,0,P|262:31|283:17,1,67.5000007867814,2|0,3:2|0:0,0:0:0:0:
487,85,120750,2,0,L|215:41,1,270.000003147125,10|2,0:0|0:0,0:0:0:0:
26,181,121158,6,0,B|77:139|196:144|114:271|112:348|315:333|372:218|240:143|175:219,1,458.999996595383,2|0,3:2|0:0,0:0:0:0:
199,369,121566,6,0,L|170:179,1,152.999998865128,10|0,0:0|0:0,0:0:0:0:
199,369,121974,6,0,L|170:179,1,152.999998865128,2|0,0:0|0:0,0:0:0:0:
148,52,122178,5,0,3:2:0:0:
332,256,122382,2,0,B|211:229|211:229|187:204|187:204|40:177,1,305.999997730255,10|2,0:0|0:0,0:0:0:0:
300,71,122790,6,0,P|338:56|367:28,1,80.9999953823091,2|0,3:2|0:0,0:0:0:0:
291,85,122893,6,0,P|331:91|370:81,1,80.9999953823091
279,92,122995,6,0,P|310:117|349:128,1,80.9999953823091,2|0,0:0|0:0,0:0:0:0:
262,91,123098,6,0,P|277:129|305:158,1,80.9999953823091
95,150,123199,6,0,B|251:130|251:130|293:151|293:151|513:124,1,413.999996929169,8|2,0:0|0:0,0:0:0:0:
393,227,123505,1,0,0:0:0:0:
395,207,123607,2,0,L|418:42,1,143.999996185303,2|0,0:0|0:0,0:0:0:0:
239,207,123811,1,2,3:2:0:0:
241,227,123913,2,0,L|264:392,1,143.999996185303,0|8,0:0|0:0,0:0:0:0:
91,101,124219,5,2,3:2:0:0:
0,147,124423,6,0,P|44:144|96:115,1,89.9999976158143,6|0,3:2|0:0,0:0:0:0:
49,233,124627,2,0,P|52:189|81:137,1,89.9999976158143,0|0,3:2|0:0,0:0:0:0:
141,27,124831,6,0,P|178:38|223:41,1,53.9999969215394,10|0,0:0|0:0,0:0:0:0:
324,35,125035,5,0,3:0:0:0:
361,60,125137,1,8,0:0:0:0:
385,98,125239,1,0,3:0:0:0:
392,142,125341,1,8,0:0:0:0:
381,185,125444,6,0,L|283:171,1,89.9999976158143,2|8,3:2|0:0,0:0:0:0:
423,255,125648,2,0,L|521:241,1,89.9999976158143,10|0,3:2|0:0,0:0:0:0:
366,327,125852,2,0,L|268:313,1,89.9999976158143,2|0,0:0|0:0,0:0:0:0:
50,361,126056,5,2,3:2:0:0:
82,318,126158,1,0,0:0:0:0:
87,265,126260,2,0,P|78:221|63:185,1,53.9999969215394,2|0,3:2|0:0,0:0:0:0:
2,84,126464,5,10,0:0:0:0:
46,87,126566,1,0,0:0:0:0:
91,91,126668,1,2,3:2:0:0:
136,95,126770,1,8,0:0:0:0:
204,166,126872,5,2,3:2:0:0:
248,163,126974,1,8,0:0:0:0:
293,159,127076,1,2,3:2:0:0:
338,155,127178,1,8,0:0:0:0:
478,96,127280,6,0,P|429:180|395:270,1,179.999995231629,10|2,0:2|0:0,0:0:0:0:
365,361,127586,5,0,0:0:0:0:
358,338,127688,2,0,L|322:174,1,135.000001573563,2|0,3:2|0:0,0:0:0:0:
110,108,127893,2,0,L|270:158,1,135.000001573563,0|0,3:0|0:0,0:0:0:0:
433,18,128097,2,0,L|308:131,1,135.000001573563,10|0,3:2|0:0,0:0:0:0:
147,248,128301,5,0,3:0:0:0:
136,226,128403,1,8,0:0:0:0:
45,360,128505,2,0,P|104:325|182:328,1,135.000001573563,0|8,3:0|0:0,0:0:0:0:
338,343,128709,5,2,3:2:0:0:
327,365,128811,1,8,0:0:0:0:
236,231,128913,2,0,P|295:266|373:263,1,135.000001573563,10|0,3:2|0:0,0:0:0:0:
479,164,129117,5,2,3:2:0:0:
510,81,129219,1,0,3:0:0:0:
430,94,129321,1,6,3:2:0:0:
260,166,129729,6,0,P|258:151|263:161,8,44.9999988079071,2|2|2|2|2|2|2|2|8,0:2|0:2|0:2|0:2|0:2|0:2|0:2|0:2|0:1,0:0:0:0:
250,249,130341,5,8,0:1:0:0:
262,157,130443,1,8,0:1:0:0:
273,66,130545,1,8,0:1:0:0:
273,66,130750,5,8,0:1:0:0:
42,205,130954,6,0,B|144:177|144:177|161:185|161:185|261:156|261:156|310:280|310:280|387:261|387:261|348:159,1,539.999985694885,6|0,3:2|0:0,0:0:0:0:
414,111,131362,2,0,B|488:317|488:317|265:374,1,431.999988555908,2|0,3:2|0:0,0:0:0:0:
148,343,131770,6,0,B|209:325|209:325|221:307|221:307|182:318,1,125.999992816925,8|0,0:0|0:0,0:0:0:0:
7,343,131974,1,2,0:0:0:0:
30,197,132076,2,0,B|52:79|52:79|126:89|126:89|110:160,1,251.999985633851,0|0,3:0|0:0,0:0:0:0:
187,195,132382,2,0,B|105:187|105:187|115:135,1,125.999992816925,2|0,3:2|0:0,0:0:0:0:
322,48,132586,6,0,B|264:247|264:247|358:275|358:275|416:73,1,512.999972711564,2|0,3:2|0:0,0:0:0:0:
333,353,132995,2,0,B|172:302|172:302|247:27,1,431.999988555908,2|0,3:2|0:0,0:0:0:0:
31,114,133403,6,0,B|76:121|76:121|116:102|116:102|76:136|76:136|67:184,1,143.999996185303,10|0,3:2|0:0,0:0:0:0:
63,36,133607,1,2,0:0:0:0:
89,287,133709,2,0,L|62:26,1,251.999985633851,0|0,3:0|0:0,0:0:0:0:
201,97,134015,2,0,B|258:127|258:127|329:87,1,125.999992816925,2|0,3:2|0:0,0:0:0:0:
472,16,134219,5,2,3:2:0:0:
472,16,134627,5,2,3:2:0:0:
472,16,135035,6,0,L|451:149,1,125.999992816925,10|0,3:2|0:0,0:0:0:0:
424,299,135239,1,2,0:0:0:0:
508,230,135341,2,0,B|388:208|388:208|366:224|366:224|189:187,1,305.999997730255,0|0,3:0|0:0,0:0:0:0:
83,322,135648,2,0,L|222:294,1,125.999992816925,2|0,3:2|0:0,0:0:0:0:
14,189,135852,5,2,3:2:0:0:
26,173,135954,2,0,L|13:104,1,62.9999964084627
110,216,136056,2,0,L|132:56,1,125.999992816925,2|0,0:0|0:0,0:0:0:0:
245,12,136260,1,0,3:0:0:0:
231,35,136362,2,0,L|248:159,1,125.999992816925,0|2,0:0|0:0,0:0:0:0:
383,241,136566,1,0,0:0:0:0:
369,218,136668,2,0,L|386:93,1,125.999992816925,10|0,3:2|0:0,0:0:0:0:
435,314,136872,5,2,0:0:0:0:
367,353,136974,1,0,3:0:0:0:
287,344,137076,2,0,P|258:334|202:320,1,71.9999980926514
53,367,137280,2,0,P|81:357|138:343,1,71.9999980926514,2|0,3:2|0:0,0:0:0:0:
367,353,137484,6,0,B|323:201|323:201|396:181|396:181|417:243|417:243|492:219|492:219|427:24,1,539.999985694885,2|0,3:2|0:0,0:0:0:0:
183,158,137893,2,0,B|372:103|372:103|344:21|344:21|201:64,1,431.999988555908,2|0,3:2|0:0,0:0:0:0:
32,212,138301,6,0,B|89:199|89:199|132:237,1,116.999991544724,8|0,0:0|0:0,0:0:0:0:
202,352,138505,1,2,0:0:0:0:
71,292,138607,2,0,L|329:243,1,251.999985633851,0|0,3:0|0:0,0:0:0:0:
457,237,138913,2,0,L|314:265,1,125.999992816925,2|0,3:2|0:0,0:0:0:0:
106,136,139117,6,0,B|275:110|275:110|261:28|261:28|185:41|185:41|207:200|207:200|201:209|201:209|212:285,1,566.999967676164,2|0,3:2|0:0,0:0:0:0:
355,285,139525,5,2,3:2:0:0:
299,354,139729,5,2,0:2:0:0:
355,297,139831,1,0,0:0:0:0:
432,317,139933,1,10,3:2:0:0:
423,88,140137,5,2,0:1:0:0:
348,60,140239,1,2,3:1:0:0:
279,101,140341,2,0,L|308:252,1,143.999996185303,2|0,0:0|0:0,0:0:0:0:
185,130,140546,2,0,L|211:5,1,107.999993843079,2|0,3:2|0:0,0:0:0:0:
115,290,140750,5,2,3:2:0:0:
115,290,141158,5,2,3:2:0:0:
115,290,141566,6,0,L|94:157,1,125.999992816925,10|0,3:2|0:0,0:0:0:0:
208,265,141770,1,2,0:0:0:0:
309,119,141872,2,0,B|189:141|189:141|167:125|167:125|-10:162,1,305.999997730255,0|0,3:0|0:0,0:0:0:0:
191,1,142179,2,0,L|167:124,1,125.999992816925,2|0,3:2|0:0,0:0:0:0:
224,309,142382,5,2,3:2:0:0:
224,309,142484,1,0,0:0:0:0:
224,309,142586,1,2,0:0:0:0:
332,200,142790,5,0,3:0:0:0:
332,200,142893,1,0,0:0:0:0:
472,216,143097,5,2,0:0:0:0:
404,254,143200,1,8,3:2:0:0:
357,57,143403,5,2,0:0:0:0:
434,88,143506,1,0,3:0:0:0:
434,88,143607,1,0,0:0:0:0:
87,223,143811,6,0,B|183:207|183:207|211:222|211:222|333:199,1,251.999985633851,0|0,3:0|0:0,0:0:0:0:
