osu file format v14

[General]
AudioFilename: audio.mp3
AudioLeadIn: 0
PreviewTime: 13505
Countdown: 0
SampleSet: Soft
StackLeniency: 0.5
Mode: 0
LetterboxInBreaks: 0
EpilepsyWarning: 1
WidescreenStoryboard: 1

[Editor]
Bookmarks: 342,13403,26464,39525,52586,65648,78709,91770,104831,117893,130954,144015
DistanceSpacing: 1.1
BeatDivisor: 4
GridSize: 16
TimelineZoom: 1.4

[Metadata]
Title:LUV U NEED U
TitleUnicode:LUV U NEED U
Artist:Slushii
ArtistUnicode:Slushii
Creator:M a r v o l l o
Version:HYPER
Source:
Tags:shmiklak marvollo m_a_r_v_o_l_l_o daycore electronic edm electropop english mappers' guild mg mpg fa featured artist monstercat rocket league vol.1 love
BeatmapID:3969495
BeatmapSetID:1910029

[Difficulty]
HPDrainRate:4.5
CircleSize:3.7
OverallDifficulty:7
ApproachRate:8
SliderMultiplier:1.99999990463257
SliderTickRate:1

[Events]
//Background and Video events
0,0,"me.jpg",0,0
//Break Periods
2,65848,77809
//Storyboard Layer 0 (Background)
//Storyboard Layer 1 (Fail)
//Storyboard Layer 2 (Pass)
//Storyboard Layer 3 (Foreground)
Sprite,Foreground,Centre,"sb/etc/pl.png",395,161 S,2,78709,78909,10,2 F,2,78709,78909,1,0 P,0,78709,78909,A C,0,78709,,173,255,95
Sprite,Foreground,Centre,"sb/etc/pl.png",0,0 S,2,78913,79521,10,2 F,2,78913,79521,1,0 P,0,78913,79521,A C,0,78913,,173,255,95 M,0,78913,78964,465,198,489.9589,198.8385 M,0,78964,79015,489.9589,198.8385,514.7617,195.9716 M,0,79015,79066,514.7617,195.9716,538.8621,189.4639 M,0,79066,79117,538.8621,189.4639,561.7291,179.4597 M,0,79117,79168,561.7291,179.4597,538.8621,189.4639 M,0,79168,79219,538.8621,189.4639,514.7617,195.9716 M,0,79219,79270,514.7617,195.9716,489.9589,198.8385 M,0,79270,79321,489.9589,198.8385,465,198
Sprite,Foreground,Centre,"sb/etc/pl.png",395,161 S,2,79525,79725,10,2 F,2,79525,79725,1,0 P,0,79525,79725,A C,0,79525,,173,255,95
Sprite,Foreground,Centre,"sb/etc/pl.png",0,0 S,2,79729,80133,10,2 F,2,79729,80133,1,0 P,0,79729,80133,A C,0,79729,,173,255,95 M,0,79729,79780,327,203,304.7191,191.8828 M,0,79780,79831,304.7191,191.8828,280.5604,186.0302 M,0,79831,79882,280.5604,186.0302,304.7191,191.8828 M,0,79882,79933,304.7191,191.8828,327,203
Sprite,Foreground,Centre,"sb/etc/pl.png",0,0 S,2,80137,80541,10,2 F,2,80137,80541,1,0 P,0,80137,80541,A C,0,80137,,173,255,95 M,0,80137,80188,361,274,356.7876,298.6426 M,0,80188,80239,356.7876,298.6426,352.5752,323.2851 M,0,80239,80290,352.5752,323.2851,348.3628,347.9277 M,0,80290,80341,348.3628,347.9277,344.1504,372.5702
Sprite,Foreground,Centre,"sb/etc/pl.png",293,428 S,2,80546,80746,10,2 F,2,80546,80746,1,0 P,0,80546,80746,A C,0,80546,,173,255,95
Sprite,Foreground,Centre,"sb/etc/pl.png",293,428 S,2,80648,80848,10,2 F,2,80648,80848,1,0 P,0,80648,80848,A C,0,80648,,173,255,95
Sprite,Foreground,Centre,"sb/etc/pl.png",0,0 S,2,80750,81256,10,2 F,2,80750,81256,1,0 P,0,80750,81256,A C,0,80750,,173,255,95 M,0,80750,80801,293,428,271.0113,416.1973 M,0,80801,80852,271.0113,416.1973,247.1053,409.0413 M,0,80852,80903,247.1053,409.0413,271.0113,416.1973 M,0,80903,80954,271.0113,416.1973,293,428 M,0,80954,81005,293,428,271.0113,416.1973 M,0,81005,81056,271.0113,416.1973,247.1053,409.0413
Sprite,Foreground,Centre,"sb/etc/pl.png",0,0 S,2,81158,81664,10,2 F,2,81158,81664,1,0 P,0,81158,81664,A C,0,81158,,173,255,95 M,0,81158,81209,183,370,161.0113,381.8027 M,0,81209,81260,161.0113,381.8027,137.1053,388.9587 M,0,81260,81311,137.1053,388.9587,161.0113,381.8027 M,0,81311,81362,161.0113,381.8027,183,370 M,0,81362,81413,183,370,161.0113,381.8027 M,0,81413,81464,161.0113,381.8027,137.1053,388.9587
Sprite,Foreground,Centre,"sb/etc/pl.png",0,0 S,2,81566,82072,10,2 F,2,81566,82072,1,0 P,0,81566,82072,A C,0,81566,,173,255,95 M,0,81566,81617,78,343,77.02892,318.1084 M,0,81617,81668,77.02892,318.1084,83.00507,293.935 M,0,81668,81719,83.00507,293.935,77.02892,318.1084 M,0,81719,81770,77.02892,318.1084,78,343 M,0,81770,81821,78,343,77.02892,318.1084 M,0,81821,81872,77.02892,318.1084,83.00507,293.935
Sprite,Foreground,Centre,"sb/etc/pl.png",123,227 S,2,81974,82174,10,2 F,2,81974,82174,1,0 P,0,81974,82174,A C,0,81974,,255,88,100
Sprite,Foreground,Centre,"sb/etc/pl.png",0,0 S,2,82178,82786,10,2 F,2,82178,82786,1,0 P,0,82178,82786,A C,0,82178,,255,88,100 M,0,82178,82229,123,227,120.248,202.2341 M,0,82229,82280,120.248,202.2341,110.8604,179.1555 M,0,82280,82331,110.8604,179.1555,95.5479,159.5061 M,0,82331,82382,95.5479,159.5061,76,145 M,0,82382,82433,76,145,95.5479,159.5061 M,0,82433,82484,95.5479,159.5061,110.8604,179.1555 M,0,82484,82535,110.8604,179.1555,120.248,202.2341 M,0,82535,82586,120.248,202.2341,123,227
Sprite,Foreground,Centre,"sb/etc/pl.png",82,293 S,2,82790,82990,10,2 F,2,82790,82990,1,0 P,0,82790,82990,A C,0,82790,,255,88,100
Sprite,Foreground,Centre,"sb/etc/pl.png",160,337 S,2,82995,83195,10,2 F,2,82995,83195,1,0 P,0,82995,83195,A C,0,82995,,255,88,100
Sprite,Foreground,Centre,"sb/etc/pl.png",160,337 S,2,83097,83297,10,2 F,2,83097,83297,1,0 P,0,83097,83297,A C,0,83097,,255,88,100
Sprite,Foreground,Centre,"sb/etc/pl.png",160,337 S,2,83199,83399,10,2 F,2,83199,83399,1,0 P,0,83199,83399,A C,0,83199,,255,88,100
Sprite,Foreground,Centre,"sb/etc/pl.png",0,0 S,2,83403,83807,10,2 F,2,83403,83807,1,0 P,0,83403,83807,A C,0,83403,,255,88,100 M,0,83403,83454,219,283,242.988,275.9982 M,0,83454,83505,242.988,275.9982,267.5486,271.3979 M,0,83505,83556,267.5486,271.3979,292.4421,269.2436 M,0,83556,83607,292.4421,269.2436,317.428,269.5302
Sprite,Foreground,Centre,"sb/etc/pl.png",395,287 S,2,83811,84011,10,2 F,2,83811,84011,1,0 P,0,83811,84011,A C,0,83811,,255,88,100
Sprite,Foreground,Centre,"sb/etc/pl.png",473,272 S,2,84015,84215,10,2 F,2,84015,84215,1,0 P,0,84015,84215,A C,0,84015,,255,88,100
Sprite,Foreground,Centre,"sb/etc/pl.png",517,208 S,2,84219,84419,10,2 F,2,84219,84419,1,0 P,0,84219,84419,A C,0,84219,,255,88,100
Sprite,Foreground,Centre,"sb/etc/pl.png",517,208 S,2,84321,84521,10,2 F,2,84321,84521,1,0 P,0,84321,84521,A C,0,84321,,255,88,100
Sprite,Foreground,Centre,"sb/etc/pl.png",517,208 S,2,84423,84623,10,2 F,2,84423,84623,1,0 P,0,84423,84623,A C,0,84423,,255,88,100
Sprite,Foreground,Centre,"sb/etc/pl.png",490,132 S,2,84627,84827,10,2 F,2,84627,84827,1,0 P,0,84627,84827,A C,0,84627,,255,88,100
Sprite,Foreground,Centre,"sb/etc/pl.png",417,97 S,2,84831,85031,10,2 F,2,84831,85031,1,0 P,0,84831,85031,A C,0,84831,,255,88,100
Sprite,Foreground,Centre,"sb/etc/pl.png",0,0 S,2,85035,85439,10,2 F,2,85035,85439,1,0 P,0,85035,85439,A C,0,85035,,255,88,100 M,0,85035,85086,348,137,323.2741,140.431 M,0,85086,85137,323.2741,140.431,298.3408,139.2727 M,0,85137,85188,298.3408,139.2727,274.0443,133.5651 M,0,85188,85239,274.0443,133.5651,252,124
Sprite,Foreground,Centre,"sb/etc/pl.png",0,0 S,2,85444,86052,10,2 F,2,85444,86052,1,0 P,0,85444,86052,A C,0,85444,,255,94,55 M,0,85444,85495,176,92,151.0397,91.43903 M,0,85495,85546,151.0397,91.43903,126.2362,94.15724 M,0,85546,85597,126.2362,94.15724,102.0515,100.2984 M,0,85597,85648,102.0515,100.2984,78.87769,109.5869 M,0,85648,85699,78.87769,109.5869,102.0515,100.2984 M,0,85699,85750,102.0515,100.2984,126.2362,94.15724 M,0,85750,85801,126.2362,94.15724,151.0397,91.43903 M,0,85801,85852,151.0397,91.43903,176,92
Sprite,Foreground,Centre,"sb/etc/pl.png",251,123 S,2,86056,86256,10,2 F,2,86056,86256,1,0 P,0,86056,86256,A C,0,86056,,255,94,55
Sprite,Foreground,Centre,"sb/etc/pl.png",0,0 S,2,86260,86664,10,2 F,2,86260,86664,1,0 P,0,86260,86664,A C,0,86260,,255,94,55 M,0,86260,86311,196,181,184.8828,203.281 M,0,86311,86362,184.8828,203.281,179.0302,227.4396 M,0,86362,86413,179.0302,227.4396,184.8828,203.281 M,0,86413,86464,184.8828,203.281,196,181
Sprite,Foreground,Centre,"sb/etc/pl.png",0,0 S,2,86668,87072,10,2 F,2,86668,87072,1,0 P,0,86668,87072,A C,0,86668,,255,94,55 M,0,86668,86719,251,123,275.9767,122.5107 M,0,86719,86770,275.9767,122.5107,300.8763,124.4312 M,0,86770,86821,300.8763,124.4312,325.4487,128.8916 M,0,86821,86872,325.4487,128.8916,349.4358,135.8451
Sprite,Foreground,Centre,"sb/etc/pl.png",408,204 S,2,87077,87277,10,2 F,2,87077,87277,1,0 P,0,87077,87277,A C,0,87077,,255,94,55
Sprite,Foreground,Centre,"sb/etc/pl.png",408,204 S,2,87179,87379,10,2 F,2,87179,87379,1,0 P,0,87179,87379,A C,0,87179,,255,94,55
Sprite,Foreground,Centre,"sb/etc/pl.png",0,0 S,2,87281,87787,10,2 F,2,87281,87787,1,0 P,0,87281,87787,A C,0,87281,,255,94,55 M,0,87281,87332,408,204,396.1973,225.9887 M,0,87332,87383,396.1973,225.9887,389.0413,249.8947 M,0,87383,87434,389.0413,249.8947,396.1973,225.9887 M,0,87434,87485,396.1973,225.9887,408,204 M,0,87485,87536,408,204,396.1973,225.9887 M,0,87536,87587,396.1973,225.9887,389.0413,249.8947
Sprite,Foreground,Centre,"sb/etc/pl.png",0,0 S,2,87689,88195,10,2 F,2,87689,88195,1,0 P,0,87689,88195,A C,0,87689,,255,94,55 M,0,87689,87740,350,314,361.8027,335.9887 M,0,87740,87791,361.8027,335.9887,368.9587,359.8947 M,0,87791,87842,368.9587,359.8947,361.8027,335.9887 M,0,87842,87893,361.8027,335.9887,350,314 M,0,87893,87944,350,314,361.8027,335.9887 M,0,87944,87995,361.8027,335.9887,368.9587,359.8947
Sprite,Foreground,Centre,"sb/etc/pl.png",0,0 S,2,88097,88603,10,2 F,2,88097,88603,1,0 P,0,88097,88603,A C,0,88097,,255,94,55 M,0,88097,88148,429,409,453.1776,402.9852 M,0,88148,88199,453.1776,402.9852,478,404 M,0,88199,88250,478,404,453.1776,402.9852 M,0,88250,88301,453.1776,402.9852,429,409 M,0,88301,88352,429,409,453.1776,402.9852 M,0,88352,88403,453.1776,402.9852,478,404
Sprite,Foreground,Centre,"sb/etc/pl.png",542,357 S,2,88505,88705,10,2 F,2,88505,88705,1,0 P,0,88505,88705,A C,0,88505,,17,254,176
Sprite,Foreground,Centre,"sb/etc/pl.png",0,0 S,2,88709,89317,10,2 F,2,88709,89317,1,0 P,0,88709,89317,A C,0,88709,,17,254,176 M,0,88709,88760,542,357,546.8604,332.477 M,0,88760,88811,546.8604,332.477,551.7208,307.954 M,0,88811,88862,551.7208,307.954,556.5812,283.4311 M,0,88862,88913,556.5812,283.4311,561.4417,258.9081 M,0,88913,88964,561.4417,258.9081,556.5812,283.4311 M,0,88964,89015,556.5812,283.4311,551.7208,307.954 M,0,89015,89066,551.7208,307.954,546.8604,332.477 M,0,89066,89117,546.8604,332.477,542,357
Sprite,Foreground,Centre,"sb/etc/pl.png",477,404 S,2,89321,89521,10,2 F,2,89321,89521,1,0 P,0,89321,89521,A C,0,89321,,17,254,176
Sprite,Foreground,Centre,"sb/etc/pl.png",423,346 S,2,89526,89726,10,2 F,2,89526,89726,1,0 P,0,89526,89726,A C,0,89526,,17,254,176
Sprite,Foreground,Centre,"sb/etc/pl.png",423,346 S,2,89627,89827,10,2 F,2,89627,89827,1,0 P,0,89627,89827,A C,0,89627,,17,254,176
Sprite,Foreground,Centre,"sb/etc/pl.png",423,346 S,2,89730,89930,10,2 F,2,89730,89930,1,0 P,0,89730,89930,A C,0,89730,,17,254,176
Sprite,Foreground,Centre,"sb/etc/pl.png",0,0 S,2,89934,90338,10,2 F,2,89934,90338,1,0 P,0,89934,90338,A C,0,89934,,17,254,176 M,0,89934,89985,351,300,327.012,292.9982 M,0,89985,90036,327.012,292.9982,302.4514,288.3979 M,0,90036,90087,302.4514,288.3979,277.5579,286.2436 M,0,90087,90138,277.5579,286.2436,252.572,286.5302
Sprite,Foreground,Centre,"sb/etc/pl.png",183,326 S,2,90342,90542,10,2 F,2,90342,90542,1,0 P,0,90342,90542,A C,0,90342,,17,254,176
Sprite,Foreground,Centre,"sb/etc/pl.png",122,273 S,2,90546,90746,10,2 F,2,90546,90746,1,0 P,0,90546,90746,A C,0,90546,,17,254,176
Sprite,Foreground,Centre,"sb/etc/pl.png",179,219 S,2,90750,90950,10,2 F,2,90750,90950,1,0 P,0,90750,90950,A C,0,90750,,17,254,176
Sprite,Foreground,Centre,"sb/etc/pl.png",179,219 S,2,90852,91052,10,2 F,2,90852,91052,1,0 P,0,90852,91052,A C,0,90852,,17,254,176
Sprite,Foreground,Centre,"sb/etc/pl.png",179,219 S,2,90954,91154,10,2 F,2,90954,91154,1,0 P,0,90954,91154,A C,0,90954,,17,254,176
Sprite,Foreground,Centre,"sb/etc/pl.png",124,150 S,2,91158,91358,10,2 F,2,91158,91358,1,0 P,0,91158,91358,A C,0,91158,,17,254,176
Sprite,Foreground,Centre,"sb/etc/pl.png",0,0 S,2,91362,91766,10,2 F,2,91362,91766,1,0 P,0,91362,91766,A C,0,91362,,17,254,176 M,0,91362,91413,183,96,207.9763,95.48937 M,0,91413,91464,207.9763,95.48937,232.8748,97.4242 M,0,91464,91515,232.8748,97.4242,257.4386,101.9296 M,0,91515,91566,257.4386,101.9296,281.403,108.9569
Sprite,Foreground,Centre,"sb/etc/pl.png",265,301 S,2,116260,116460,10,2 F,2,116260,116460,1,0 P,0,116260,116460,A C,0,116260,,17,254,176
Sprite,Foreground,Centre,"sb/etc/pl.png",0,0 S,2,117893,118297,10,2 F,2,117893,118297,1,0 P,0,117893,118297,A C,0,117893,,173,255,95 M,0,117893,117944,283,361,248.0974,358.6524 M,0,117944,117995,248.0974,358.6524,213.146,360.0382 M,0,117995,118046,213.146,360.0382,178.5435,365.1411 M,0,118046,118097,178.5435,365.1411,144.6652,373.846
Sprite,Foreground,Centre,"sb/etc/pl.png",0,0 S,2,118301,118705,10,2 F,2,118301,118705,1,0 P,0,118301,118705,A C,0,118301,,173,255,95 M,0,118301,118352,67,292,101.9026,294.3476 M,0,118352,118403,101.9026,294.3476,136.854,292.9618 M,0,118403,118454,136.854,292.9618,171.4565,287.8589 M,0,118454,118505,171.4565,287.8589,205.3348,279.154
Sprite,Foreground,Centre,"sb/etc/pl.png",291,207 S,2,118709,118909,10,2 F,2,118709,118909,1,0 P,0,118709,118909,A C,0,118709,,173,255,95
Sprite,Foreground,Centre,"sb/etc/pl.png",185,162 S,2,118913,119113,10,2 F,2,118913,119113,1,0 P,0,118913,119113,A C,0,118913,,173,255,95
Sprite,Foreground,Centre,"sb/etc/pl.png",0,0 S,2,119117,119521,10,2 F,2,119117,119521,1,0 P,0,119117,119521,A C,0,119117,,173,255,95 M,0,119117,119168,284,109,316.9953,97.32475 M,0,119168,119219,316.9953,97.32475,350.0126,86.28059 M,0,119219,119270,350.0126,86.28059,383.7415,95.62717 M,0,119270,119321,383.7415,95.62717,417.4705,104.9737
Sprite,Foreground,Centre,"sb/etc/pl.png",0,0 S,2,119525,119929,10,2 F,2,119525,119929,1,0 P,0,119525,119929,A C,0,119525,,173,255,95 M,0,119525,119576,502,177,467.5564,178.72 M,0,119576,119627,467.5564,178.72,439.1194,198.0626 M,0,119627,119678,439.1194,198.0626,424.9362,229.3228 M,0,119678,119729,424.9362,229.3228,429.0994,263.3623
Sprite,Foreground,Centre,"sb/etc/pl.png",0,0 S,2,119933,120337,10,2 F,2,119933,120337,1,0 P,0,119933,120337,A C,0,119933,,173,255,95 M,0,119933,119984,506,344,485.1019,316.5472 M,0,119984,120035,485.1019,316.5472,453.0947,303.8982 M,0,120035,120086,453.0947,303.8982,419.2236,309.6265 M,0,120086,120137,419.2236,309.6265,393.2373,332.0306
Sprite,Foreground,Centre,"sb/etc/pl.png",314,415 S,2,120341,120541,10,2 F,2,120341,120541,1,0 P,0,120341,120541,A C,0,120341,,173,255,95
Sprite,Foreground,Centre,"sb/etc/pl.png",242,328 S,2,120546,120746,10,2 F,2,120546,120746,1,0 P,0,120546,120746,A C,0,120546,,173,255,95
Sprite,Foreground,Centre,"sb/etc/pl.png",0,0 S,2,120750,121154,10,2 F,2,120750,121154,1,0 P,0,120750,121154,A C,0,120750,,173,255,95 M,0,120750,120801,305,235,308.8918,200.217 M,0,120801,120852,308.8918,200.217,312.7836,165.4341 M,0,120852,120903,312.7836,165.4341,316.6754,130.6511 M,0,120903,120954,316.6754,130.6511,320.5672,95.86819
Sprite,Foreground,Centre,"sb/etc/pl.png",0,0 S,2,121158,121664,10,2 F,2,121158,121664,1,0 P,0,121158,121664,A C,0,121158,,255,88,100 M,0,121158,121209,210,75,177.0733,86.4973 M,0,121209,121260,177.0733,86.4973,148.2634,106.1087 M,0,121260,121311,148.2634,106.1087,125.3599,132.3937 M,0,121311,121362,125.3599,132.3937,110.3637,163.8715 M,0,121362,121413,110.3637,163.8715,104.0269,198.1374 M,0,121413,121464,104.0269,198.1374,106.5874,232.907
Sprite,Foreground,Centre,"sb/etc/pl.png",0,0 S,2,121566,122072,10,2 F,2,121566,122072,1,0 P,0,121566,122072,A C,0,121566,,255,88,100 M,0,121566,121617,116,258,142.1433,234.9187 M,0,121617,121668,142.1433,234.9187,173.3849,219.4774 M,0,121668,121719,173.3849,219.4774,207.549,212.5257 M,0,121719,121770,207.549,212.5257,242.3205,215.1182 M,0,121770,121821,242.3205,215.1182,275.187,226.6948 M,0,121821,121872,275.187,226.6948,304.0211,246.293
Sprite,Foreground,Centre,"sb/etc/pl.png",318,270 S,2,121974,122174,10,2 F,2,121974,122174,1,0 P,0,121974,122174,A C,0,121974,,255,88,100
Sprite,Foreground,Centre,"sb/etc/pl.png",305,381 S,2,122178,122378,10,2 F,2,122178,122378,1,0 P,0,122178,122378,A C,0,122178,,255,88,100
Sprite,Foreground,Centre,"sb/etc/pl.png",0,0 S,2,122382,122990,10,2 F,2,122382,122990,1,0 P,0,122382,122990,A C,0,122382,,255,88,100 M,0,122382,122433,412,411,446.6613,406.143 M,0,122433,122484,446.6613,406.143,481.3227,401.286 M,0,122484,122535,481.3227,401.286,515.9841,396.429 M,0,122535,122586,515.9841,396.429,550.6454,391.572 M,0,122586,122637,550.6454,391.572,515.9841,396.429 M,0,122637,122688,515.9841,396.429,481.3227,401.286 M,0,122688,122739,481.3227,401.286,446.6613,406.143 M,0,122739,122790,446.6613,406.143,412,411
Sprite,Foreground,Centre,"sb/etc/pl.png",305,381 S,2,122995,123195,10,2 F,2,122995,123195,1,0 P,0,122995,123195,A C,0,122995,,255,88,100
Sprite,Foreground,Centre,"sb/etc/pl.png",228,299 S,2,123199,123399,10,2 F,2,123199,123399,1,0 P,0,123199,123399,A C,0,123199,,255,88,100
Sprite,Foreground,Centre,"sb/etc/pl.png",0,0 S,2,123403,124011,10,2 F,2,123403,124011,1,0 P,0,123403,124011,A C,0,123403,,255,88,100 M,0,123403,123454,168,393,141.6767,370.1992 M,0,123454,123505,141.6767,370.1992,123.6867,340.4211 M,0,123505,123556,123.6867,340.4211,115.7628,306.5637 M,0,123556,123607,115.7628,306.5637,118.5516,271.8947 M,0,123607,123658,118.5516,271.8947,132.1833,239.8838 M,0,123658,123709,132.1833,239.8838,155.0113,213.6529 M,0,123709,123760,155.0113,213.6529,184.757,195.6232 M,0,123760,123811,184.757,195.6232,218.6966,187.9564
Sprite,Foreground,Centre,"sb/etc/pl.png",0,0 S,2,124015,124317,10,2 F,2,124015,124317,1,0 P,0,124015,124317,A C,0,124015,,255,88,100 M,0,124015,124066,328,208,362.2144,200.8461 M,0,124066,124117,362.2144,200.8461,394.8549,188.3657
Sprite,Foreground,Centre,"sb/etc/pl.png",0,0 S,2,124219,124521,10,2 F,2,124219,124521,1,0 P,0,124219,124521,A C,0,124219,,255,88,100 M,0,124219,124270,419,174,453.2144,181.1539 M,0,124270,124321,453.2144,181.1539,485.8549,193.6343
Sprite,Foreground,Centre,"sb/etc/pl.png",0,0 S,2,124423,124827,10,2 F,2,124423,124827,1,0 P,0,124423,124827,A C,0,124423,,255,94,55 M,0,124423,124474,503,215,495.4975,249.181 M,0,124474,124525,495.4975,249.181,489.8617,283.7179 M,0,124525,124576,489.8617,283.7179,486.1089,318.5092 M,0,124576,124627,486.1089,318.5092,484.2322,353.4522
Sprite,Foreground,Centre,"sb/etc/pl.png",0,0 S,2,124831,125235,10,2 F,2,124831,125235,1,0 P,0,124831,125235,A C,0,124831,,255,94,55 M,0,124831,124882,395,421,392.1395,386.1193 M,0,124882,124933,392.1395,386.1193,388.0241,351.3648 M,0,124933,124984,388.0241,351.3648,382.6591,316.7814 M,0,124984,125035,382.6591,316.7814,376.0842,282.407
Sprite,Foreground,Centre,"sb/etc/pl.png",357,261 S,2,125137,125337,10,2 F,2,125137,125337,1,0 P,0,125137,125337,A C,0,125137,,255,94,55
Sprite,Foreground,Centre,"sb/etc/pl.png",0,0 S,2,125239,125643,10,2 F,2,125239,125643,1,0 P,0,125239,125643,A C,0,125239,,255,94,55 M,0,125239,125290,357,261,322.0636,259.2029 M,0,125290,125341,322.0636,259.2029,287.4798,253.9589 M,0,125341,125392,287.4798,253.9589,253.5862,245.3196 M,0,125392,125443,253.5862,245.3196,220.6867,233.4356
Sprite,Foreground,Centre,"sb/etc/pl.png",123,176 S,2,125648,125848,10,2 F,2,125648,125848,1,0 P,0,125648,125848,A C,0,125648,,255,94,55
Sprite,Foreground,Centre,"sb/etc/pl.png",220,121 S,2,125852,126052,10,2 F,2,125852,126052,1,0 P,0,125852,126052,A C,0,125852,,255,94,55
Sprite,Foreground,Centre,"sb/etc/pl.png",0,0 S,2,126056,126460,10,2 F,2,126056,126460,1,0 P,0,126056,126460,A C,0,126056,,255,94,55 M,0,126056,126107,220,233,213.4197,267.329 M,0,126107,126158,213.4197,267.329,201.4399,300.1561 M,0,126158,126209,201.4399,300.1561,184.3691,330.6422 M,0,126209,126260,184.3691,330.6422,162.719,358.0754
Sprite,Foreground,Centre,"sb/etc/pl.png",0,0 S,2,126464,126868,10,2 F,2,126464,126868,1,0 P,0,126464,126868,A C,0,126464,,255,94,55 M,0,126464,126515,242,436,269.2151,414.0651 M,0,126515,126566,269.2151,414.0651,299.6202,396.839 M,0,126566,126617,299.6202,396.839,332.4115,384.7747 M,0,126617,126668,332.4115,384.7747,366.7059,378.0373
Sprite,Foreground,Centre,"sb/etc/pl.png",392,390 S,2,126770,126970,10,2 F,2,126770,126970,1,0 P,0,126770,126970,A C,0,126770,,255,94,55
Sprite,Foreground,Centre,"sb/etc/pl.png",0,0 S,2,126872,127276,10,2 F,2,126872,127276,1,0 P,0,126872,127276,A C,0,126872,,255,94,55 M,0,126872,126923,392,390,426.884,392.8477 M,0,126923,126974,426.884,392.8477,461.7679,395.6953 M,0,126974,127025,461.7679,395.6953,496.6519,398.543 M,0,127025,127076,496.6519,398.543,531.5358,401.3907
Sprite,Foreground,Centre,"sb/etc/pl.png",0,0 S,2,127280,127684,10,2 F,2,127280,127684,1,0 P,0,127280,127684,A C,0,127280,,255,94,55 M,0,127280,127331,565,294,530.1075,296.7415 M,0,127331,127382,530.1075,296.7415,495.2151,299.4831 M,0,127382,127433,495.2151,299.4831,460.3226,302.2247 M,0,127433,127484,460.3226,302.2247,425.4302,304.9662
Sprite,Foreground,Centre,"sb/etc/pl.png",0,0 S,2,127688,128500,10,2 F,2,127688,128500,1,0 P,0,127688,128500,A C,0,127688,,17,254,176 M,0,127688,127739,341,231,313.0494,215.1373 M,0,127739,127790,313.0494,215.1373,320.7183,184.4849 M,0,127790,127841,320.7183,184.4849,351.975,183.7458 M,0,127841,127892,351.975,183.7458,361.8043,213.8257 M,0,127892,127943,361.8043,213.8257,351.9749,183.7458 M,0,127943,127994,351.9749,183.7458,320.7183,184.485 M,0,127994,128045,320.7183,184.485,313.0494,215.1374 M,0,128045,128096,313.0494,215.1374,341,231 M,0,128096,128147,341,231,313.0494,215.1373 M,0,128147,128198,313.0494,215.1373,320.7184,184.4849 M,0,128198,128249,320.7184,184.4849,351.975,183.7458 M,0,128249,128300,351.975,183.7458,361.8043,213.8257
Sprite,Foreground,Centre,"sb/etc/pl.png",0,0 S,2,128505,129113,10,2 F,2,128505,129113,1,0 P,0,128505,129113,A C,0,128505,,17,254,176 M,0,128505,128556,451,151,478.9506,135.1373 M,0,128556,128607,478.9506,135.1373,471.2817,104.4849 M,0,128607,128658,471.2817,104.4849,440.025,103.7458 M,0,128658,128709,440.025,103.7458,430.1957,133.8257 M,0,128709,128760,430.1957,133.8257,440.0251,103.7458 M,0,128760,128811,440.0251,103.7458,471.2817,104.4849 M,0,128811,128862,471.2817,104.4849,478.9506,135.1374 M,0,128862,128913,478.9506,135.1374,451,151
Sprite,Foreground,Centre,"sb/etc/pl.png",0,0 S,2,129117,129521,10,2 F,2,129117,129521,1,0 P,0,129117,129521,A C,0,129117,,17,254,176 M,0,129117,129168,527,232,534.5366,207.1301 M,0,129168,129219,534.5366,207.1301,514.7886,223.8494 M,0,129219,129270,514.7886,223.8494,534.5366,207.1301 M,0,129270,129321,534.5366,207.1301,527,232
Sprite,Foreground,Centre,"sb/etc/pl.png",0,0 S,2,130953,131357,10,2 F,2,130953,131357,1,0 P,0,130953,131357,A C,0,130953,,173,255,95 M,0,130953,131004,527,232,492.1689,235.4341 M,0,131004,131055,492.1689,235.4341,457.3378,238.8681 M,0,131055,131106,457.3378,238.8681,422.5067,242.3022 M,0,131106,131157,422.5067,242.3022,387.6755,245.7362
Sprite,Foreground,Centre,"sb/etc/pl.png",0,0 S,2,131362,131766,10,2 F,2,131362,131766,1,0 P,0,131362,131766,A C,0,131362,,173,255,95 M,0,131362,131413,297,313,262.1737,309.5174 M,0,131413,131464,262.1737,309.5174,227.3474,306.0347 M,0,131464,131515,227.3474,306.0347,192.5211,302.5521 M,0,131515,131566,192.5211,302.5521,157.6948,299.0695
Sprite,Foreground,Centre,"sb/etc/pl.png",100,203 S,2,131769,131969,10,2 F,2,131769,131969,1,0 P,0,131769,131969,A C,0,131769,,173,255,95
Sprite,Foreground,Centre,"sb/etc/pl.png",172,116 S,2,131974,132174,10,2 F,2,131974,132174,1,0 P,0,131974,132174,A C,0,131974,,173,255,95
Sprite,Foreground,Centre,"sb/etc/pl.png",0,0 S,2,132076,132480,10,2 F,2,132076,132480,1,0 P,0,132076,132480,A C,0,132076,,173,255,95 M,0,132076,132127,187,140,218.2067,155.7517 M,0,132127,132178,218.2067,155.7517,251.5025,166.3729 M,0,132178,132229,251.5025,166.3729,286.0527,171.5993 M,0,132229,132280,286.0527,171.5993,320.9917,171.3013
Sprite,Foreground,Centre,"sb/etc/pl.png",347,160 S,2,132382,132582,10,2 F,2,132382,132582,1,0 P,0,132382,132582,A C,0,132382,,173,255,95
Sprite,Foreground,Centre,"sb/etc/pl.png",0,0 S,2,132586,132990,10,2 F,2,132586,132990,1,0 P,0,132586,132990,A C,0,132586,,173,255,95 M,0,132586,132637,395,260,388.0437,294.3018 M,0,132637,132688,388.0437,294.3018,381.0874,328.6035 M,0,132688,132739,381.0874,328.6035,374.1311,362.9052 M,0,132739,132790,374.1311,362.9052,367.1748,397.207
Sprite,Foreground,Centre,"sb/etc/pl.png",0,0 S,2,132995,133399,10,2 F,2,132995,133399,1,0 P,0,132995,133399,A C,0,132995,,173,255,95 M,0,132995,133046,256,416,222.5819,405.9696 M,0,133046,133097,222.5819,405.9696,192.6415,388.0971 M,0,133097,133148,192.6415,388.0971,167.8109,363.5947 M,0,133148,133199,167.8109,363.5947,150.0254,333.5808
Sprite,Foreground,Centre,"sb/etc/pl.png",94,236 S,2,133402,133602,10,2 F,2,133402,133602,1,0 P,0,133402,133602,A C,0,133402,,173,255,95
Sprite,Foreground,Centre,"sb/etc/pl.png",0,0 S,2,133607,134011,10,2 F,2,133607,134011,1,0 P,0,133607,134011,A C,0,133607,,173,255,95 M,0,133607,133658,178,161,212.6987,165.2024 M,0,133658,133709,212.6987,165.2024,246.2173,175.1064 M,0,133709,133760,246.2173,175.1064,212.6987,165.2024 M,0,133760,133811,212.6987,165.2024,178,161
Sprite,Foreground,Centre,"sb/etc/pl.png",73,121 S,2,134014,134214,10,2 F,2,134014,134214,1,0 P,0,134014,134214,A C,0,134014,,173,255,95
Sprite,Foreground,Centre,"sb/etc/pl.png",94,236 S,2,134218,134418,10,2 F,2,134218,134418,1,0 P,0,134218,134418,A C,0,134218,,255,88,100
Sprite,Foreground,Centre,"sb/etc/pl.png",94,236 S,2,134627,134827,10,2 F,2,134627,134827,1,0 P,0,134627,134827,A C,0,134627,,255,88,100
Sprite,Foreground,Centre,"sb/etc/pl.png",94,236 S,2,135035,135235,10,2 F,2,135035,135235,1,0 P,0,135035,135235,A C,0,135035,,255,88,100
Sprite,Foreground,Centre,"sb/etc/pl.png",183,303 S,2,135239,135439,10,2 F,2,135239,135439,1,0 P,0,135239,135439,A C,0,135239,,255,88,100
Sprite,Foreground,Centre,"sb/etc/pl.png",0,0 S,2,135341,135745,10,2 F,2,135341,135745,1,0 P,0,135341,135745,A C,0,135341,,255,88,100 M,0,135341,135392,207,319,241.89,321.7727 M,0,135392,135443,241.89,321.7727,276.78,324.5454 M,0,135443,135494,276.78,324.5454,311.67,327.3181 M,0,135494,135545,311.67,327.3181,346.56,330.0909
Sprite,Foreground,Centre,"sb/etc/pl.png",373,342 S,2,135647,135847,10,2 F,2,135647,135847,1,0 P,0,135647,135847,A C,0,135647,,255,88,100
Sprite,Foreground,Centre,"sb/etc/pl.png",0,0 S,2,135851,136357,10,2 F,2,135851,136357,1,0 P,0,135851,136357,A C,0,135851,,255,88,100 M,0,135851,135902,455,417,489.8412,413.8601 M,0,135902,135953,489.8412,413.8601,524.1575,407.0756 M,0,135953,136004,524.1575,407.0756,489.8412,413.8601 M,0,136004,136055,489.8412,413.8601,455,417 M,0,136055,136106,455,417,489.8412,413.8601 M,0,136106,136157,489.8412,413.8601,524.1575,407.0756
Sprite,Foreground,Centre,"sb/etc/pl.png",0,0 S,2,136259,136561,10,2 F,2,136259,136561,1,0 P,0,136259,136561,A C,0,136259,,255,88,100 M,0,136259,136310,563,338,553.2596,304.5038 M,0,136310,136361,553.2596,304.5038,535.2284,274.6664
Sprite,Foreground,Centre,"sb/etc/pl.png",0,0 S,2,136463,136867,10,2 F,2,136463,136867,1,0 P,0,136463,136867,A C,0,136463,,255,88,100 M,0,136463,136514,477,222,442.4387,217.4315 M,0,136514,136565,442.4387,217.4315,410.0659,229.3006 M,0,136565,136616,410.0659,229.3006,379.4933,245.8422 M,0,136616,136667,379.4933,245.8422,344.73,246.5932
Sprite,Foreground,Centre,"sb/etc/pl.png",275,171 S,2,136872,137072,10,2 F,2,136872,137072,1,0 P,0,136872,137072,A C,0,136872,,255,88,100
Sprite,Foreground,Centre,"sb/etc/pl.png",275,171 S,2,136974,137174,10,2 F,2,136974,137174,1,0 P,0,136974,137174,A C,0,136974,,255,88,100
Sprite,Foreground,Centre,"sb/etc/pl.png",275,171 S,2,137076,137276,10,2 F,2,137076,137276,1,0 P,0,137076,137276,A C,0,137076,,255,88,100
Sprite,Foreground,Centre,"sb/etc/pl.png",164,153 S,2,137280,137480,10,2 F,2,137280,137480,1,0 P,0,137280,137480,A C,0,137280,,255,88,100
Sprite,Foreground,Centre,"sb/etc/pl.png",0,0 S,2,137484,137888,10,2 F,2,137484,137888,1,0 P,0,137484,137888,A C,0,137484,,255,94,55 M,0,137484,137535,159,267,151.1832,301.0885 M,0,137535,137586,151.1832,301.0885,139.2176,333.9458 M,0,137586,137637,139.2176,333.9458,123.287,365.0706 M,0,137637,137688,123.287,365.0706,103.7223,394.056
Sprite,Foreground,Centre,"sb/etc/pl.png",0,0 S,2,137892,138296,10,2 F,2,137892,138296,1,0 P,0,137892,138296,A C,0,137892,,255,94,55 M,0,137892,137943,214,418,221.8168,383.9115 M,0,137943,137994,221.8168,383.9115,233.7824,351.0543 M,0,137994,138045,233.7824,351.0543,249.713,319.9294 M,0,138045,138096,249.713,319.9294,269.2777,290.944
Sprite,Foreground,Centre,"sb/etc/pl.png",371,244 S,2,138300,138500,10,2 F,2,138300,138500,1,0 P,0,138300,138500,A C,0,138300,,255,94,55
Sprite,Foreground,Centre,"sb/etc/pl.png",334,138 S,2,138505,138705,10,2 F,2,138505,138705,1,0 P,0,138505,138705,A C,0,138505,,255,94,55
Sprite,Foreground,Centre,"sb/etc/pl.png",0,0 S,2,138607,139011,10,2 F,2,138607,139011,1,0 P,0,138607,139011,A C,0,138607,,255,94,55 M,0,138607,138658,319,162,287.7933,177.7517 M,0,138658,138709,287.7933,177.7517,254.4975,188.3729 M,0,138709,138760,254.4975,188.3729,219.9473,193.5993 M,0,138760,138811,219.9473,193.5993,185.0083,193.3013
Sprite,Foreground,Centre,"sb/etc/pl.png",159,182 S,2,138913,139113,10,2 F,2,138913,139113,1,0 P,0,138913,139113,A C,0,138913,,255,94,55
Sprite,Foreground,Centre,"sb/etc/pl.png",0,0 S,2,139117,139521,10,2 F,2,139117,139521,1,0 P,0,139117,139521,A C,0,139117,,255,94,55 M,0,139117,139168,127,289,161.2115,282.9086 M,0,139168,139219,161.2115,282.9086,195.2242,289.7802 M,0,139219,139270,195.2242,289.7802,224.3229,308.6357 M,0,139270,139321,224.3229,308.6357,244.6993,336.7393
Sprite,Foreground,Centre,"sb/etc/pl.png",279,438 S,2,139525,139725,10,2 F,2,139525,139725,1,0 P,0,139525,139725,A C,0,139525,,255,94,55
Sprite,Foreground,Centre,"sb/etc/pl.png",363,364 S,2,139729,139929,10,2 F,2,139729,139929,1,0 P,0,139729,139929,A C,0,139729,,255,94,55
Sprite,Foreground,Centre,"sb/etc/pl.png",363,364 S,2,139831,140031,10,2 F,2,139831,140031,1,0 P,0,139831,140031,A C,0,139831,,255,94,55
Sprite,Foreground,Centre,"sb/etc/pl.png",363,364 S,2,139933,140133,10,2 F,2,139933,140133,1,0 P,0,139933,140133,A C,0,139933,,255,94,55
Sprite,Foreground,Centre,"sb/etc/pl.png",0,0 S,2,140137,140541,10,2 F,2,140137,140541,1,0 P,0,140137,140541,A C,0,140137,,255,94,55 M,0,140137,140188,466,407,463.0732,372.1226 M,0,140188,140239,463.0732,372.1226,460.1465,337.2452 M,0,140239,140290,460.1465,337.2452,457.2197,302.3678 M,0,140290,140341,457.2197,302.3678,454.2929,267.4904
Sprite,Foreground,Centre,"sb/etc/pl.png",529,184 S,2,140545,140745,10,2 F,2,140545,140745,1,0 P,0,140545,140745,A C,0,140545,,255,94,55
Sprite,Foreground,Centre,"sb/etc/pl.png",461,108 S,2,140749,140949,10,2 F,2,140749,140949,1,0 P,0,140749,140949,A C,0,140749,,17,254,176
Sprite,Foreground,Centre,"sb/etc/pl.png",461,108 S,2,141158,141358,10,2 F,2,141158,141358,1,0 P,0,141158,141358,A C,0,141158,,17,254,176
Sprite,Foreground,Centre,"sb/etc/pl.png",461,108 S,2,141566,141766,10,2 F,2,141566,141766,1,0 P,0,141566,141766,A C,0,141566,,17,254,176
Sprite,Foreground,Centre,"sb/etc/pl.png",380,185 S,2,141770,141970,10,2 F,2,141770,141970,1,0 P,0,141770,141970,A C,0,141770,,17,254,176
Sprite,Foreground,Centre,"sb/etc/pl.png",0,0 S,2,141872,142276,10,2 F,2,141872,142276,1,0 P,0,141872,142276,A C,0,141872,,17,254,176 M,0,141872,141923,357,171,323.7961,182.068 M,0,141923,141974,323.7961,182.068,290.6587,190.6811 M,0,141974,142025,290.6587,190.6811,258.1033,177.8302 M,0,142025,142076,258.1033,177.8302,225.5479,164.9794
Sprite,Foreground,Centre,"sb/etc/pl.png",203,150 S,2,142178,142378,10,2 F,2,142178,142378,1,0 P,0,142178,142378,A C,0,142178,,17,254,176
Sprite,Foreground,Centre,"sb/etc/pl.png",124,229 S,2,142382,142582,10,2 F,2,142382,142582,1,0 P,0,142382,142582,A C,0,142382,,173,255,95
Sprite,Foreground,Centre,"sb/etc/pl.png",124,229 S,2,142484,142684,10,2 F,2,142484,142684,1,0 P,0,142484,142684,A C,0,142484,,173,255,95
Sprite,Foreground,Centre,"sb/etc/pl.png",124,229 S,2,142586,142786,10,2 F,2,142586,142786,1,0 P,0,142586,142786,A C,0,142586,,173,255,95
Sprite,Foreground,Centre,"sb/etc/pl.png",182,330 S,2,142790,142990,10,2 F,2,142790,142990,1,0 P,0,142790,142990,A C,0,142790,,255,88,100
Sprite,Foreground,Centre,"sb/etc/pl.png",182,330 S,2,142893,143093,10,2 F,2,142893,143093,1,0 P,0,142893,143093,A C,0,142893,,255,88,100
Sprite,Foreground,Centre,"sb/etc/pl.png",294,360 S,2,143097,143297,10,2 F,2,143097,143297,1,0 P,0,143097,143297,A C,0,143097,,255,94,55
Sprite,Foreground,Centre,"sb/etc/pl.png",294,360 S,2,143200,143400,10,2 F,2,143200,143400,1,0 P,0,143200,143400,A C,0,143200,,255,94,55
Sprite,Foreground,Centre,"sb/etc/pl.png",404,330 S,2,143403,143603,10,2 F,2,143403,143603,1,0 P,0,143403,143603,A C,0,143403,,17,254,176
Sprite,Foreground,Centre,"sb/etc/pl.png",0,0 S,2,143505,143807,10,2 F,2,143505,143807,1,0 P,0,143505,143807,A C,0,143505,,17,254,176 M,0,143505,143556,404,330,437.0745,318.5511 M,0,143556,143607,437.0745,318.5511,470.149,307.1023
Sprite,Foreground,Centre,"sb/etc/pl.png",0,0 S,2,143811,144215,10,2 F,2,143811,144215,1,0 P,0,143811,144215,A C,0,143811,,173,255,95 M,0,143811,143862,518,205,483.4907,199.16 M,0,143862,143913,483.4907,199.16,449.4371,195.9794 M,0,143913,143964,449.4371,195.9794,416.8576,200.46 M,0,143964,144015,416.8576,200.46,382.5054,193.7572
Sprite,Foreground,Centre,"sb/etc/pl.png",536,319 S,2,37892,38092,10,2 F,2,37892,38092,1,0 P,0,37892,38092,A C,0,37892,,17,254,176
Sprite,Foreground,Centre,"sb/etc/pl.png",0,0 S,2,39525,39929,10,2 F,2,39525,39929,1,0 P,0,39525,39929,A C,0,39525,,173,255,95 M,0,39525,39576,536,319,539.4341,284.1689 M,0,39576,39627,539.4341,284.1689,542.8681,249.3378 M,0,39627,39678,542.8681,249.3378,546.3021,214.5066 M,0,39678,39729,546.3021,214.5066,549.7362,179.6755
Sprite,Foreground,Centre,"sb/etc/pl.png",0,0 S,2,39933,40337,10,2 F,2,39933,40337,1,0 P,0,39933,40337,A C,0,39933,,173,255,95 M,0,39933,39984,462,249,430.2293,263.5851 M,0,39984,40035,430.2293,263.5851,396.5667,272.9912 M,0,40035,40086,396.5667,272.9912,361.849,276.9862 M,0,40086,40137,361.849,276.9862,326.9388,275.4722
Sprite,Foreground,Centre,"sb/etc/pl.png",252,359 S,2,40341,40541,10,2 F,2,40341,40541,1,0 P,0,40341,40541,A C,0,40341,,173,255,95
Sprite,Foreground,Centre,"sb/etc/pl.png",166,289 S,2,40546,40746,10,2 F,2,40546,40746,1,0 P,0,40546,40746,A C,0,40546,,173,255,95
Sprite,Foreground,Centre,"sb/etc/pl.png",0,0 S,2,40648,41052,10,2 F,2,40648,41052,1,0 P,0,40648,41052,A C,0,40648,,173,255,95 M,0,40648,40699,190,274,205.7517,242.7933 M,0,40699,40750,205.7517,242.7933,216.3729,209.4975 M,0,40750,40801,216.3729,209.4975,221.5993,174.9473 M,0,40801,40852,221.5993,174.9473,221.3013,140.0083
Sprite,Foreground,Centre,"sb/etc/pl.png",210,114 S,2,40954,41154,10,2 F,2,40954,41154,1,0 P,0,40954,41154,A C,0,40954,,173,255,95
Sprite,Foreground,Centre,"sb/etc/pl.png",0,0 S,2,41158,41562,10,2 F,2,41158,41562,1,0 P,0,41158,41562,A C,0,41158,,173,255,95 M,0,41158,41209,313,72,347.7714,75.99401 M,0,41209,41260,347.7714,75.99401,382.5427,79.98801 M,0,41260,41311,382.5427,79.98801,417.3141,83.98203 M,0,41311,41362,417.3141,83.98203,452.0854,87.97603
Sprite,Foreground,Centre,"sb/etc/pl.png",514,180 S,2,41566,41766,10,2 F,2,41566,41766,1,0 P,0,41566,41766,A C,0,41566,,173,255,95
Sprite,Foreground,Centre,"sb/etc/pl.png",429,253 S,2,41770,41970,10,2 F,2,41770,41970,1,0 P,0,41770,41970,A C,0,41770,,173,255,95
Sprite,Foreground,Centre,"sb/etc/pl.png",429,253 S,2,41872,42072,10,2 F,2,41872,42072,1,0 P,0,41872,42072,A C,0,41872,,173,255,95
Sprite,Foreground,Centre,"sb/etc/pl.png",429,253 S,2,41974,42174,10,2 F,2,41974,42174,1,0 P,0,41974,42174,A C,0,41974,,173,255,95
Sprite,Foreground,Centre,"sb/etc/pl.png",498,340 S,2,42178,42378,10,2 F,2,42178,42378,1,0 P,0,42178,42378,A C,0,42178,,173,255,95
Sprite,Foreground,Centre,"sb/etc/pl.png",0,0 S,2,42280,42684,10,2 F,2,42280,42684,1,0 P,0,42280,42684,A C,0,42280,,173,255,95 M,0,42280,42331,475,357,440.1974,353.2877 M,0,42331,42382,440.1974,353.2877,405.3949,349.5754 M,0,42382,42433,405.3949,349.5754,370.5923,345.8632 M,0,42433,42484,370.5923,345.8632,335.7897,342.1509
Sprite,Foreground,Centre,"sb/etc/pl.png",312,357 S,2,42586,42786,10,2 F,2,42586,42786,1,0 P,0,42586,42786,A C,0,42586,,173,255,95
Sprite,Foreground,Centre,"sb/etc/pl.png",216,411 S,2,42790,42990,10,2 F,2,42790,42990,1,0 P,0,42790,42990,A C,0,42790,,255,88,100
Sprite,Foreground,Centre,"sb/etc/pl.png",216,411 S,2,43199,43399,10,2 F,2,43199,43399,1,0 P,0,43199,43399,A C,0,43199,,255,88,100
Sprite,Foreground,Centre,"sb/etc/pl.png",216,411 S,2,43607,43807,10,2 F,2,43607,43807,1,0 P,0,43607,43807,A C,0,43607,,255,88,100
Sprite,Foreground,Centre,"sb/etc/pl.png",132,336 S,2,43811,44011,10,2 F,2,43811,44011,1,0 P,0,43811,44011,A C,0,43811,,255,88,100
Sprite,Foreground,Centre,"sb/etc/pl.png",0,0 S,2,43913,44317,10,2 F,2,43913,44317,1,0 P,0,43913,44317,A C,0,43913,,255,88,100 M,0,43913,43964,148,312,150.7727,277.11 M,0,43964,44015,150.7727,277.11,153.5454,242.22 M,0,44015,44066,153.5454,242.22,156.3181,207.33 M,0,44066,44117,156.3181,207.33,159.0909,172.44
Sprite,Foreground,Centre,"sb/etc/pl.png",171,146 S,2,44219,44419,10,2 F,2,44219,44419,1,0 P,0,44219,44419,A C,0,44219,,255,88,100
Sprite,Foreground,Centre,"sb/etc/pl.png",0,0 S,2,44423,44929,10,2 F,2,44423,44929,1,0 P,0,44423,44929,A C,0,44423,,255,88,100 M,0,44423,44474,279,172,313.8412,168.8601 M,0,44474,44525,313.8412,168.8601,348.1574,162.0756 M,0,44525,44576,348.1574,162.0756,313.8412,168.8601 M,0,44576,44627,313.8412,168.8601,279,172 M,0,44627,44678,279,172,313.8412,168.8601 M,0,44678,44729,313.8412,168.8601,348.1574,162.0756
Sprite,Foreground,Centre,"sb/etc/pl.png",0,0 S,2,44831,45133,10,2 F,2,44831,45133,1,0 P,0,44831,45133,A C,0,44831,,255,88,100 M,0,44831,44882,412,124,445.4962,133.7404 M,0,44882,44933,445.4962,133.7404,475.3336,151.7716
Sprite,Foreground,Centre,"sb/etc/pl.png",0,0 S,2,45035,45439,10,2 F,2,45035,45439,1,0 P,0,45035,45439,A C,0,45035,,255,88,100 M,0,45035,45086,512,219,504.9088,253.2741 M,0,45086,45137,504.9088,253.2741,497.8176,287.5482 M,0,45137,45188,497.8176,287.5482,490.7264,321.8223 M,0,45188,45239,490.7264,321.8223,483.6352,356.0964
Sprite,Foreground,Centre,"sb/etc/pl.png",393,419 S,2,45444,45644,10,2 F,2,45444,45644,1,0 P,0,45444,45644,A C,0,45444,,255,88,100
Sprite,Foreground,Centre,"sb/etc/pl.png",393,419 S,2,45546,45746,10,2 F,2,45546,45746,1,0 P,0,45546,45746,A C,0,45546,,255,88,100
Sprite,Foreground,Centre,"sb/etc/pl.png",393,419 S,2,45648,45848,10,2 F,2,45648,45848,1,0 P,0,45648,45848,A C,0,45648,,255,88,100
Sprite,Foreground,Centre,"sb/etc/pl.png",305,349 S,2,45852,46052,10,2 F,2,45852,46052,1,0 P,0,45852,46052,A C,0,45852,,255,88,100
Sprite,Foreground,Centre,"sb/etc/pl.png",0,0 S,2,46056,46460,10,2 F,2,46056,46460,1,0 P,0,46056,46460,A C,0,46056,,255,94,55 M,0,46056,46107,213,414,178.2818,409.5679 M,0,46107,46158,178.2818,409.5679,143.5635,405.1358 M,0,46158,46209,143.5635,405.1358,108.8453,400.7036 M,0,46209,46260,108.8453,400.7036,74.12703,396.2715
Sprite,Foreground,Centre,"sb/etc/pl.png",0,0 S,2,46464,46868,10,2 F,2,46464,46868,1,0 P,0,46464,46868,A C,0,46464,,255,94,55 M,0,46464,46515,149,313,171.6587,286.3296 M,0,46515,46566,171.6587,286.3296,193.0206,258.6106 M,0,46566,46617,193.0206,258.6106,213.0375,229.9058 M,0,46617,46668,213.0375,229.9058,231.664,200.2803
Sprite,Foreground,Centre,"sb/etc/pl.png",257,91 S,2,46872,47072,10,2 F,2,46872,47072,1,0 P,0,46872,47072,A C,0,46872,,255,94,55
Sprite,Foreground,Centre,"sb/etc/pl.png",326,179 S,2,47077,47277,10,2 F,2,47077,47277,1,0 P,0,47077,47277,A C,0,47077,,255,94,55
Sprite,Foreground,Centre,"sb/etc/pl.png",0,0 S,2,47179,47583,10,2 F,2,47179,47583,1,0 P,0,47179,47583,A C,0,47179,,255,94,55 M,0,47179,47230,341,203,372.2067,218.7517 M,0,47230,47281,372.2067,218.7517,405.5025,229.3729 M,0,47281,47332,405.5025,229.3729,440.0527,234.5993 M,0,47332,47383,440.0527,234.5993,474.9917,234.3013
Sprite,Foreground,Centre,"sb/etc/pl.png",501,223 S,2,47485,47685,10,2 F,2,47485,47685,1,0 P,0,47485,47685,A C,0,47485,,255,94,55
Sprite,Foreground,Centre,"sb/etc/pl.png",0,0 S,2,47689,48093,10,2 F,2,47689,48093,1,0 P,0,47689,48093,A C,0,47689,,255,94,55 M,0,47689,47740,517,333,482.2286,329.006 M,0,47740,47791,482.2286,329.006,447.4573,325.012 M,0,47791,47842,447.4573,325.012,412.6859,321.018 M,0,47842,47893,412.6859,321.018,377.9146,317.024
Sprite,Foreground,Centre,"sb/etc/pl.png",298,396 S,2,48097,48297,10,2 F,2,48097,48297,1,0 P,0,48097,48297,A C,0,48097,,255,94,55
Sprite,Foreground,Centre,"sb/etc/pl.png",211,342 S,2,48301,48501,10,2 F,2,48301,48501,1,0 P,0,48301,48501,A C,0,48301,,255,94,55
Sprite,Foreground,Centre,"sb/etc/pl.png",211,342 S,2,48403,48603,10,2 F,2,48403,48603,1,0 P,0,48403,48603,A C,0,48403,,255,94,55
Sprite,Foreground,Centre,"sb/etc/pl.png",211,342 S,2,48505,48705,10,2 F,2,48505,48705,1,0 P,0,48505,48705,A C,0,48505,,255,94,55
Sprite,Foreground,Centre,"sb/etc/pl.png",0,0 S,2,48709,49113,10,2 F,2,48709,49113,1,0 P,0,48709,49113,A C,0,48709,,255,94,55 M,0,48709,48760,242,234,207.4762,228.246 M,0,48760,48811,207.4762,228.246,172.9524,222.4921 M,0,48811,48862,172.9524,222.4921,207.4762,228.246 M,0,48862,48913,207.4762,228.246,242,234
Sprite,Foreground,Centre,"sb/etc/pl.png",346,194 S,2,49117,49317,10,2 F,2,49117,49317,1,0 P,0,49117,49317,A C,0,49117,,255,94,55
Sprite,Foreground,Centre,"sb/etc/pl.png",440,272 S,2,49321,49521,10,2 F,2,49321,49521,1,0 P,0,49321,49521,A C,0,49321,,17,254,176
Sprite,Foreground,Centre,"sb/etc/pl.png",440,272 S,2,49730,49930,10,2 F,2,49730,49930,1,0 P,0,49730,49930,A C,0,49730,,17,254,176
Sprite,Foreground,Centre,"sb/etc/pl.png",440,272 S,2,50138,50338,10,2 F,2,50138,50338,1,0 P,0,50138,50338,A C,0,50138,,17,254,176
Sprite,Foreground,Centre,"sb/etc/pl.png",383,175 S,2,50342,50542,10,2 F,2,50342,50542,1,0 P,0,50342,50542,A C,0,50342,,17,254,176
Sprite,Foreground,Centre,"sb/etc/pl.png",0,0 S,2,50444,50848,10,2 F,2,50444,50848,1,0 P,0,50444,50848,A C,0,50444,,17,254,176 M,0,50444,50495,359,159,324.11,156.2273 M,0,50495,50546,324.11,156.2273,289.22,153.4546 M,0,50546,50597,289.22,153.4546,254.33,150.6819 M,0,50597,50648,254.33,150.6819,219.44,147.9091
Sprite,Foreground,Centre,"sb/etc/pl.png",193,136 S,2,50750,50950,10,2 F,2,50750,50950,1,0 P,0,50750,50950,A C,0,50750,,17,254,176
Sprite,Foreground,Centre,"sb/etc/pl.png",235,239 S,2,50954,51154,10,2 F,2,50954,51154,1,0 P,0,50954,51154,A C,0,50954,,17,254,176
Sprite,Foreground,Centre,"sb/etc/pl.png",0,0 S,2,52586,52990,10,2 F,2,52586,52990,1,0 P,0,52586,52990,A C,0,52586,,173,255,95 M,0,52586,52637,235,239,269.8311,235.5659 M,0,52637,52688,269.8311,235.5659,304.6622,232.1319 M,0,52688,52739,304.6622,232.1319,339.4933,228.6978 M,0,52739,52790,339.4933,228.6978,374.3245,225.2638
Sprite,Foreground,Centre,"sb/etc/pl.png",0,0 S,2,52995,53399,10,2 F,2,52995,53399,1,0 P,0,52995,53399,A C,0,52995,,173,255,95 M,0,52995,53046,414,330,379.1689,326.5659 M,0,53046,53097,379.1689,326.5659,344.3378,323.1319 M,0,53097,53148,344.3378,323.1319,309.5067,319.6978 M,0,53148,53199,309.5067,319.6978,274.6755,316.2638
Sprite,Foreground,Centre,"sb/etc/pl.png",177,370 S,2,53402,53602,10,2 F,2,53402,53602,1,0 P,0,53402,53602,A C,0,53402,,173,255,95
Sprite,Foreground,Centre,"sb/etc/pl.png",82,309 S,2,53607,53807,10,2 F,2,53607,53807,1,0 P,0,53607,53807,A C,0,53607,,173,255,95
Sprite,Foreground,Centre,"sb/etc/pl.png",0,0 S,2,53709,54113,10,2 F,2,53709,54113,1,0 P,0,53709,54113,A C,0,53709,,173,255,95 M,0,53709,53760,106,294,121.7517,262.7933 M,0,53760,53811,121.7517,262.7933,132.3729,229.4975 M,0,53811,53862,132.3729,229.4975,137.5993,194.9473 M,0,53862,53913,137.5993,194.9473,137.3013,160.0083
Sprite,Foreground,Centre,"sb/etc/pl.png",126,134 S,2,54015,54215,10,2 F,2,54015,54215,1,0 P,0,54015,54215,A C,0,54015,,173,255,95
Sprite,Foreground,Centre,"sb/etc/pl.png",0,0 S,2,54219,54623,10,2 F,2,54219,54623,1,0 P,0,54219,54623,A C,0,54219,,173,255,95 M,0,54219,54270,223,79,254.7675,93.60623 M,0,54270,54321,254.7675,93.60623,288.2894,103.5223 M,0,54321,54372,288.2894,103.5223,322.8797,108.5468 M,0,54372,54423,322.8797,108.5468,357.8406,108.7162
Sprite,Foreground,Centre,"sb/etc/pl.png",0,0 S,2,54627,55031,10,2 F,2,54627,55031,1,0 P,0,54627,55031,A C,0,54627,,173,255,95 M,0,54627,54678,466,80,466.1581,114.9647 M,0,54678,54729,466.1581,114.9647,471.2325,149.5527 M,0,54729,54780,471.2325,149.5527,481.1213,183.079 M,0,54780,54831,481.1213,183.079,495,214
Sprite,Foreground,Centre,"sb/etc/pl.png",569,299 S,2,55035,55235,10,2 F,2,55035,55235,1,0 P,0,55035,55235,A C,0,55035,,173,255,95
Sprite,Foreground,Centre,"sb/etc/pl.png",0,0 S,2,55239,55643,10,2 F,2,55239,55643,1,0 P,0,55239,55643,A C,0,55239,,173,255,95 M,0,55239,55290,466,344,431.3013,339.7976 M,0,55290,55341,431.3013,339.7976,397.7827,329.8936 M,0,55341,55392,397.7827,329.8936,431.3013,339.7976 M,0,55392,55443,431.3013,339.7976,466,344
Sprite,Foreground,Centre,"sb/etc/pl.png",555,412 S,2,55648,55848,10,2 F,2,55648,55848,1,0 P,0,55648,55848,A C,0,55648,,173,255,95
Sprite,Foreground,Centre,"sb/etc/pl.png",569,299 S,2,55851,56051,10,2 F,2,55851,56051,1,0 P,0,55851,56051,A C,0,55851,,255,88,100
Sprite,Foreground,Centre,"sb/etc/pl.png",569,299 S,2,56260,56460,10,2 F,2,56260,56460,1,0 P,0,56260,56460,A C,0,56260,,255,88,100
Sprite,Foreground,Centre,"sb/etc/pl.png",569,299 S,2,56668,56868,10,2 F,2,56668,56868,1,0 P,0,56668,56868,A C,0,56668,,255,88,100
Sprite,Foreground,Centre,"sb/etc/pl.png",489,220 S,2,56872,57072,10,2 F,2,56872,57072,1,0 P,0,56872,57072,A C,0,56872,,255,88,100
Sprite,Foreground,Centre,"sb/etc/pl.png",0,0 S,2,56974,57378,10,2 F,2,56974,57378,1,0 P,0,56974,57378,A C,0,56974,,255,88,100 M,0,56974,57025,465,204,430.11,201.2273 M,0,57025,57076,430.11,201.2273,395.22,198.4546 M,0,57076,57127,395.22,198.4546,360.33,195.6819 M,0,57127,57178,360.33,195.6819,325.44,192.9091
Sprite,Foreground,Centre,"sb/etc/pl.png",299,181 S,2,57280,57480,10,2 F,2,57280,57480,1,0 P,0,57280,57480,A C,0,57280,,255,88,100
Sprite,Foreground,Centre,"sb/etc/pl.png",0,0 S,2,57484,57990,10,2 F,2,57484,57990,1,0 P,0,57484,57990,A C,0,57484,,255,88,100 M,0,57484,57535,205,119,170.1588,122.1399 M,0,57535,57586,170.1588,122.1399,135.8426,128.9244 M,0,57586,57637,135.8426,128.9244,170.1588,122.1399 M,0,57637,57688,170.1588,122.1399,205,119 M,0,57688,57739,205,119,170.1588,122.1399 M,0,57739,57790,170.1588,122.1399,135.8426,128.9244
Sprite,Foreground,Centre,"sb/etc/pl.png",0,0 S,2,57892,58194,10,2 F,2,57892,58194,1,0 P,0,57892,58194,A C,0,57892,,255,88,100 M,0,57892,57943,92,193,101.7404,226.4962 M,0,57943,57994,101.7404,226.4962,119.7716,256.3336
Sprite,Foreground,Centre,"sb/etc/pl.png",0,0 S,2,58096,58500,10,2 F,2,58096,58500,1,0 P,0,58096,58500,A C,0,58096,,255,88,100 M,0,58096,58147,177,309,211.5614,313.5685 M,0,58147,58198,211.5614,313.5685,243.9341,301.6994 M,0,58198,58249,243.9341,301.6994,274.5066,285.1578 M,0,58249,58300,274.5066,285.1578,309.2699,284.4068
Sprite,Foreground,Centre,"sb/etc/pl.png",389,378 S,2,58505,58705,10,2 F,2,58505,58705,1,0 P,0,58505,58705,A C,0,58505,,255,88,100
Sprite,Foreground,Centre,"sb/etc/pl.png",389,378 S,2,58607,58807,10,2 F,2,58607,58807,1,0 P,0,58607,58807,A C,0,58607,,255,88,100
Sprite,Foreground,Centre,"sb/etc/pl.png",389,378 S,2,58709,58909,10,2 F,2,58709,58909,1,0 P,0,58709,58909,A C,0,58709,,255,88,100
Sprite,Foreground,Centre,"sb/etc/pl.png",494,341 S,2,58913,59113,10,2 F,2,58913,59113,1,0 P,0,58913,59113,A C,0,58913,,255,88,100
Sprite,Foreground,Centre,"sb/etc/pl.png",0,0 S,2,59117,59521,10,2 F,2,59117,59521,1,0 P,0,59117,59521,A C,0,59117,,255,94,55 M,0,59117,59168,479,229,486.8169,194.9115 M,0,59168,59219,486.8169,194.9115,498.7824,162.0542 M,0,59219,59270,498.7824,162.0542,514.713,130.9294 M,0,59270,59321,514.713,130.9294,534.2777,101.944
Sprite,Foreground,Centre,"sb/etc/pl.png",0,0 S,2,59525,59929,10,2 F,2,59525,59929,1,0 P,0,59525,59929,A C,0,59525,,255,94,55 M,0,59525,59576,424,78,416.1831,112.0885 M,0,59576,59627,416.1831,112.0885,404.2176,144.9458 M,0,59627,59678,404.2176,144.9458,388.287,176.0706 M,0,59678,59729,388.287,176.0706,368.7223,205.056
Sprite,Foreground,Centre,"sb/etc/pl.png",267,252 S,2,59933,60133,10,2 F,2,59933,60133,1,0 P,0,59933,60133,A C,0,59933,,255,94,55
Sprite,Foreground,Centre,"sb/etc/pl.png",304,358 S,2,60138,60338,10,2 F,2,60138,60338,1,0 P,0,60138,60338,A C,0,60138,,255,94,55
Sprite,Foreground,Centre,"sb/etc/pl.png",0,0 S,2,60240,60644,10,2 F,2,60240,60644,1,0 P,0,60240,60644,A C,0,60240,,255,94,55 M,0,60240,60291,319,334,350.2067,318.2483 M,0,60291,60342,350.2067,318.2483,383.5025,307.6271 M,0,60342,60393,383.5025,307.6271,418.0527,302.4007 M,0,60393,60444,418.0527,302.4007,452.9917,302.6987
Sprite,Foreground,Centre,"sb/etc/pl.png",479,314 S,2,60546,60746,10,2 F,2,60546,60746,1,0 P,0,60546,60746,A C,0,60546,,255,94,55
Sprite,Foreground,Centre,"sb/etc/pl.png",0,0 S,2,60750,61154,10,2 F,2,60750,61154,1,0 P,0,60750,61154,A C,0,60750,,255,94,55 M,0,60750,60801,509,206,474.1992,209.7287 M,0,60801,60852,474.1992,209.7287,439.3984,213.4573 M,0,60852,60903,439.3984,213.4573,404.5975,217.186 M,0,60903,60954,404.5975,217.186,369.7968,220.9146
Sprite,Foreground,Centre,"sb/etc/pl.png",277,158 S,2,61158,61358,10,2 F,2,61158,61358,1,0 P,0,61158,61358,A C,0,61158,,255,94,55
Sprite,Foreground,Centre,"sb/etc/pl.png",201,240 S,2,61362,61562,10,2 F,2,61362,61562,1,0 P,0,61362,61562,A C,0,61362,,255,94,55
Sprite,Foreground,Centre,"sb/etc/pl.png",201,240 S,2,61464,61664,10,2 F,2,61464,61664,1,0 P,0,61464,61664,A C,0,61464,,255,94,55
Sprite,Foreground,Centre,"sb/etc/pl.png",201,240 S,2,61566,61766,10,2 F,2,61566,61766,1,0 P,0,61566,61766,A C,0,61566,,255,94,55
Sprite,Foreground,Centre,"sb/etc/pl.png",0,0 S,2,61770,62174,10,2 F,2,61770,62174,1,0 P,0,61770,62174,A C,0,61770,,255,94,55 M,0,61770,61821,118,164,112.246,129.4762 M,0,61821,61872,112.246,129.4762,106.4921,94.95243 M,0,61872,61923,106.4921,94.95243,112.246,129.4762 M,0,61923,61974,112.246,129.4762,118,164
Sprite,Foreground,Centre,"sb/etc/pl.png",75,267 S,2,62178,62378,10,2 F,2,62178,62378,1,0 P,0,62178,62378,A C,0,62178,,255,94,55
Sprite,Foreground,Centre,"sb/etc/pl.png",142,369 S,2,62382,62582,10,2 F,2,62382,62582,1,0 P,0,62382,62582,A C,0,62382,,17,254,176
Sprite,Foreground,Centre,"sb/etc/pl.png",142,369 S,2,62791,62991,10,2 F,2,62791,62991,1,0 P,0,62791,62991,A C,0,62791,,17,254,176
Sprite,Foreground,Centre,"sb/etc/pl.png",142,369 S,2,63199,63399,10,2 F,2,63199,63399,1,0 P,0,63199,63399,A C,0,63199,,17,254,176
Sprite,Foreground,Centre,"sb/etc/pl.png",245,326 S,2,63403,63603,10,2 F,2,63403,63603,1,0 P,0,63403,63603,A C,0,63403,,17,254,176
Sprite,Foreground,Centre,"sb/etc/pl.png",0,0 S,2,63505,63909,10,2 F,2,63505,63909,1,0 P,0,63505,63909,A C,0,63505,,17,254,176 M,0,63505,63556,268,340,301.2039,328.932 M,0,63556,63607,301.2039,328.932,334.3413,320.3189 M,0,63607,63658,334.3413,320.3189,366.8967,333.1697 M,0,63658,63709,366.8967,333.1697,399.4521,346.0206
Sprite,Foreground,Centre,"sb/etc/pl.png",422,361 S,2,63811,64011,10,2 F,2,63811,64011,1,0 P,0,63811,64011,A C,0,63811,,17,254,176
Sprite,Foreground,Centre,"sb/etc/pl.png",320,248 S,2,64015,65848,10,2 F,2,64015,65848,1,0 P,0,64015,65848,A C,0,64015,,17,254,176
//Storyboard Sound Samples

[TimingPoints]
342,408.163265306122,4,2,1,50,1,0
13403,-100,4,2,1,60,0,0
26464,-83.3333333333333,4,2,2,70,0,0
27893,-125,4,2,2,70,0,0
28913,-83.3333333333333,4,2,2,70,0,0
31158,-125,4,2,2,70,0,0
32995,-111.111111111111,4,2,2,80,0,0
36260,-83.3333333333333,4,2,2,80,0,0
37893,-83.3333333333333,4,2,2,60,0,0
39525,-71.4285714285714,4,2,3,90,0,0
65648,-71.4285714285714,4,2,3,60,0,0
78709,-100,4,2,1,70,0,0
91770,-100,4,2,1,60,0,0
104831,-83.3333333333333,4,2,2,70,0,0
106260,-125,4,2,2,70,0,0
108097,-83.3333333333333,4,2,2,70,0,0
109525,-125,4,2,2,70,0,0
111362,-111.111111111111,4,2,2,80,0,0
114627,-83.3333333333333,4,2,2,80,0,0
117893,-71.4285714285714,4,2,3,90,0,0
121464,-71.4285714285714,4,2,3,5,0,0
121566,-71.4285714285714,4,2,3,90,0,0
121872,-71.4285714285714,4,2,3,5,0,0
121974,-71.4285714285714,4,2,3,90,0,0
124423,-71.4285714285714,4,2,4,90,0,0
129321,-71.4285714285714,4,2,3,90,0,0
144015,-71.4285714285714,4,2,3,5,0,0

[Colours]
Combo1 : 17,254,176
Combo2 : 173,255,95
Combo3 : 255,88,100
Combo4 : 255,94,55

[HitObjects]
289,216,13403,6,0,P|342:231|390:257,1,99.9999952316285,4|2,0:2|0:0,0:0:0:0:
381,251,13709,1,2,0:0:0:0:
381,251,13811,1,10,0:0:0:0:
434,347,14015,1,2,0:0:0:0:
497,257,14219,2,0,L|465:88,1,149.999992847443,2|0,0:0|0:0,0:0:0:0:
469,109,14627,1,10,0:0:0:0:
395,26,14831,2,0,P|380:79|354:127,1,99.9999952316285,2|2,0:0|0:0,0:0:0:0:
261,168,15239,1,2,0:0:0:0:
183,89,15444,1,10,0:0:0:0:
269,156,15648,1,2,0:0:0:0:
205,245,15852,2,0,P|148:225|53:231,1,149.999992847443,2|0,0:0|0:0,0:0:0:0:
44,242,16260,2,0,B|28:293|28:293|48:352,2,99.9999952316285,10|0|2,0:0|0:0|0:0,0:0:0:0:
97,145,16872,5,0,0:0:0:0:
142,44,17076,1,10,0:0:0:0:
73,129,17280,1,2,0:0:0:0:
146,210,17484,2,0,P|205:188|248:186,1,99.9999952316285,2|2,0:0|0:0,0:0:0:0:
259,194,17790,1,0,0:0:0:0:
277,202,17893,2,0,P|344:192|341:104,1,149.999992847443,10|0,0:0|0:0,0:0:0:0:
354,120,18301,1,2,0:0:0:0:
447,61,18505,1,2,0:0:0:0:
482,165,18709,2,0,B|461:315,2,149.999992847443,10|0|0,0:0|0:0|0:0,0:0:0:0:
447,61,19525,1,8,0:0:0:0:
354,120,19729,2,0,P|301:120|238:102,1,99.9999952316285,0|2,0:0|0:0,0:0:0:0:
160,53,20137,5,2,0:0:0:0:
160,53,20239,1,2,0:0:0:0:
160,53,20341,1,10,0:0:0:0:
67,113,20546,1,2,0:0:0:0:
45,220,20750,2,0,P|91:245|141:289,1,99.9999952316285,2|0,0:0|0:0,0:0:0:0:
127,274,21056,1,0,0:0:0:0:
127,274,21158,1,10,0:0:0:0:
195,361,21362,1,2,0:0:0:0:
267,277,21566,1,2,0:0:0:0:
352,345,21770,1,2,0:0:0:0:
415,255,21974,2,0,P|370:201|361:151,1,99.9999952316285,10|2,0:0|0:0,0:0:0:0:
381,65,22382,2,0,P|293:94|224:95,1,149.999992847443,2|0,0:0|0:0,0:0:0:0:
220,83,22790,2,0,L|104:71,1,99.9999952316285,10|0,0:0|0:0,0:0:0:0:
40,148,23199,6,0,P|43:193|52:264,1,99.9999952316285,2|2,0:0|0:0,0:0:0:0:
49,247,23505,1,2,0:0:0:0:
49,247,23607,1,10,0:0:0:0:
122,329,23811,1,2,0:0:0:0:
208,260,24015,2,0,P|181:205|163:113,1,149.999992847443,2|0,0:0|0:0,0:0:0:0:
163,118,24423,1,10,0:0:0:0:
227,29,24627,2,0,P|279:73|331:90,1,99.9999952316285,2|2,0:0|0:0,0:0:0:0:
417,73,25035,1,2,0:0:0:0:
409,182,25239,2,0,P|421:281|443:340,2,149.999992847443,8|0|2,0:0|0:0|0:0,0:0:0:0:
417,73,26056,1,10,0:0:0:0:
496,148,26260,1,0,0:0:0:0:
325,221,26464,6,0,P|243:210|170:146,1,179.999985923768,6|0,0:2|0:0,0:0:0:0:
162,140,26872,2,0,P|193:216|174:311,1,179.999985923768,10|0,0:0|0:0,0:0:0:0:
174,322,27280,2,0,P|222:255|314:224,1,179.999985923768,2|0,0:0|0:0,0:0:0:0:
323,229,27688,1,8,0:0:0:0:
406,349,27893,2,0,P|286:312|163:324,1,239.999988555908,2|8,0:0|0:0,0:0:0:0:
173,321,28913,1,8,0:1:0:0:
254,162,29219,1,0,0:0:0:0:
254,162,29321,1,8,0:0:0:0:
189,60,29525,1,0,0:0:0:0:
313,15,29729,6,0,P|384:31|503:27,1,179.999985923768,10|0,0:1|0:0,0:0:0:0:
485,39,30137,2,0,P|481:128|499:216,1,179.999985923768,10|0,0:0|0:0,0:0:0:0:
502,228,30546,2,0,P|412:224|324:242,1,179.999985923768,10|0,0:1|0:0,0:0:0:0:
316,250,30954,1,8,0:0:0:0:
212,349,31158,2,0,B|227:263|185:186|77:174|77:174|174:169|236:128|258:77|258:77|204:83|161:36,1,559.99997329712,2|10,0:0|0:0,0:0:0:0:
436,15,32995,6,0,L|420:141,3,89.9999929618838,10|8|10|8,0:1|0:1|0:0|0:1,0:0:0:0:
432,139,33709,1,0,0:0:0:0:
445,172,33811,2,0,L|432:300,3,89.9999929618838,10|10|8|2,0:1|0:1|0:0|0:0,0:0:0:0:
363,329,34627,1,8,0:1:0:0:
267,303,34831,1,8,0:1:0:0:
183,350,35035,1,8,0:0:0:0:
114,299,35239,1,8,0:1:0:0:
114,299,35341,1,0,0:0:0:0:
114,299,35444,2,0,L|128:202,1,89.9999929618838,8|8,0:1|0:1,0:0:0:0:
73,126,35852,1,8,0:0:0:0:
152,65,36056,1,10,0:1:0:0:
152,65,36158,1,0,0:0:0:0:
152,65,36260,6,0,P|191:64|222:73,3,59.9999953079226,10|8|10|8,0:1|0:1|0:1|0:1,0:0:0:0:
266,123,36668,2,0,P|305:124|336:115,3,59.9999953079226,10|8|10|8,0:1|0:1|0:1|0:1,0:0:0:0:
388,76,37076,2,0,P|427:75|458:84,3,59.9999953079226,8|8|8|8,0:1|0:1|0:1|0:1,0:0:0:0:
486,144,37484,1,10,0:1:0:0:
482,173,37586,1,8,0:1:0:0:
479,203,37688,1,10,0:1:0:0:
475,233,37790,1,8,0:1:0:0:
472,263,37892,1,6,3:2:0:0:
472,263,39525,6,0,L|486:121,1,139.999989051819,6|0,3:2|0:0,0:0:0:0:
398,193,39933,2,0,P|346:214|252:218,1,139.999989051819,2|0,3:2|0:0,0:0:0:0:
188,303,40341,1,8,0:0:0:0:
102,233,40546,1,2,0:0:0:0:
126,218,40648,2,0,P|156:135|152:51,1,139.999989051819,0|0,3:0|0:0,0:0:0:0:
146,58,40954,1,2,3:2:0:0:
249,16,41158,2,0,L|397:33,1,139.999989051819,2|0,3:2|0:0,0:0:0:0:
450,124,41566,1,2,3:2:0:0:
365,197,41770,1,2,0:1:0:0:
365,197,41872,1,2,0:1:0:0:
365,197,41974,1,10,3:2:0:0:
434,284,42178,1,2,0:0:0:0:
411,301,42280,2,0,L|261:285,1,139.999989051819,0|0,3:0|0:0,0:0:0:0:
248,301,42586,1,2,3:2:0:0:
152,355,42790,5,2,3:2:0:0:
152,355,43199,1,2,3:2:0:0:
152,355,43607,1,10,3:2:0:0:
68,280,43811,1,2,0:0:0:0:
84,256,43913,2,0,L|96:105,1,139.999989051819,0|0,3:0|0:0,0:0:0:0:
107,90,44219,1,2,3:2:0:0:
215,116,44423,2,0,P|249:113|299:102,3,69.9999945259097,2|0|2|0,3:2|0:0|0:0|0:0,0:0:0:0:
348,68,44831,2,0,P|375:75|421:104,1,69.9999945259097,0|0,3:0|0:0,0:0:0:0:
448,163,45035,2,0,L|418:308,1,139.999989051819,2|10,0:0|3:2,0:0:0:0:
329,363,45444,1,2,0:0:0:0:
329,363,45546,1,0,3:0:0:0:
329,363,45648,1,0,0:0:0:0:
241,293,45852,1,2,3:2:0:0:
149,358,46056,6,0,L|8:340,1,139.999989051819,2|0,3:2|0:0,0:0:0:0:
85,257,46464,2,0,P|119:216|172:137,1,139.999989051819,2|0,3:2|0:0,0:0:0:0:
193,35,46872,1,8,0:0:0:0:
262,123,47077,1,2,0:0:0:0:
277,147,47179,2,0,P|360:177|444:173,1,139.999989051819,0|0,3:0|0:0,0:0:0:0:
437,167,47485,1,2,3:2:0:0:
453,277,47689,2,0,L|305:260,1,139.999989051819,2|0,3:2|0:0,0:0:0:0:
234,340,48097,1,2,3:2:0:0:
147,286,48301,1,2,0:2:0:0:
147,286,48403,1,0,0:0:0:0:
147,286,48505,1,10,3:2:0:0:
178,178,48709,2,0,L|100:165,2,69.9999945259097,2|2|2,0:1|3:1|0:0,0:0:0:0:
282,138,49117,1,2,3:2:0:0:
376,216,49321,5,2,3:2:0:0:
376,216,49730,1,2,3:2:0:0:
376,216,50138,1,10,3:2:0:0:
319,119,50342,1,2,0:0:0:0:
295,103,50444,2,0,L|144:91,1,139.999989051819,0|0,3:0|0:0,0:0:0:0:
129,80,50750,1,2,3:2:0:0:
171,183,50954,1,2,3:2:0:0:
171,183,52586,6,0,L|313:169,1,139.999989051819,6|0,3:2|0:0,0:0:0:0:
350,274,52995,2,0,L|208:260,1,139.999989051819,2|0,3:2|0:0,0:0:0:0:
113,314,53402,1,8,0:0:0:0:
18,253,53607,1,2,0:0:0:0:
42,238,53709,2,0,P|72:155|68:71,1,139.999989051819,0|0,3:0|0:0,0:0:0:0:
62,78,54015,1,2,3:2:0:0:
159,23,54219,2,0,P|226:48|302:52,1,139.999989051819,2|0,3:2|0:0,0:0:0:0:
402,24,54627,2,0,P|407:93|431:158,1,139.999989051819,2|0,3:2|0:2,0:0:0:0:
505,243,55035,1,10,3:2:0:0:
402,288,55239,2,0,P|368:284|329:272,2,69.9999945259097,2|2|2,0:1|3:1|0:0,0:0:0:0:
491,356,55648,1,2,3:2:0:0:
505,243,55851,5,2,3:2:0:0:
505,243,56260,1,2,3:2:0:0:
505,243,56668,1,10,3:2:0:0:
425,164,56872,1,2,0:0:0:0:
401,148,56974,2,0,L|250:136,1,139.999989051819,0|0,3:0|0:0,0:0:0:0:
235,125,57280,1,2,3:2:0:0:
141,63,57484,2,0,P|107:66|57:77,3,69.9999945259097,2|0|2|0,3:2|0:0|0:0|0:0,0:0:0:0:
28,137,57892,2,0,P|35:164|64:210,1,69.9999945259097,0|0,3:0|0:0,0:0:0:0:
113,253,58096,2,0,B|196:275|171:211|259:231,1,139.999989051819,2|10,0:0|3:2,0:0:0:0:
325,322,58505,1,2,0:0:0:0:
325,322,58607,1,0,3:0:0:0:
325,322,58709,1,0,0:0:0:0:
430,285,58913,1,2,3:2:0:0:
415,173,59117,6,0,P|433:110|475:40,1,139.999989051819,2|0,3:2|0:0,0:0:0:0:
360,22,59525,2,0,P|342:85|300:155,1,139.999989051819,2|0,3:2|0:0,0:0:0:0:
203,196,59933,1,8,0:0:0:0:
240,302,60138,1,2,0:0:0:0:
255,278,60240,2,0,P|338:248|422:252,1,139.999989051819,0|0,3:0|0:0,0:0:0:0:
415,258,60546,1,2,3:2:0:0:
445,150,60750,2,0,L|305:165,1,139.999989051819,2|0,3:2|0:0,0:0:0:0:
213,102,61158,1,2,3:2:0:0:
137,184,61362,1,2,0:0:0:0:
137,184,61464,1,2,0:0:0:0:
137,184,61566,1,10,3:2:0:0:
54,108,61770,2,0,L|41:30,2,69.9999945259097,2|2|2,0:1|3:1|0:0,0:0:0:0:
11,211,62178,1,2,3:2:0:0:
78,313,62382,5,2,3:2:0:0:
78,313,62791,1,2,3:2:0:0:
78,313,63199,1,10,3:2:0:0:
181,270,63403,1,2,0:0:0:0:
204,284,63505,2,0,B|267:263|267:263|343:293,1,139.999989051819,0|0,3:0|0:0,0:0:0:0:
358,305,63811,1,2,3:2:0:0:
256,192,64015,12,4,65648,0:0:0:0:
331,105,78709,5,4,3:2:0:0:
401,142,78913,2,0,P|451:140|522:108,2,99.9999952316285,2|10|2,0:0|0:0|0:0,0:0:0:0:
331,105,79525,1,2,0:0:0:0:
263,147,79729,2,0,P|242:136|207:129,2,49.9999976158143,2|2|10,0:0|0:0|0:0,0:0:0:0:
297,218,80137,2,0,L|277:335,1,99.9999952316285,2|0,0:0|0:0,0:0:0:0:
229,372,80546,1,2,0:0:0:0:
229,372,80648,1,2,0:0:0:0:
229,372,80750,2,0,P|183:353|167:351,3,49.9999976158143,10|2|2|2,0:0|0:0|0:0|0:0,0:0:0:0:
119,314,81158,2,0,P|73:333|57:335,3,49.9999976158143,2|2|2|2,0:0|0:0|0:0|0:0,0:0:0:0:
14,287,81566,2,0,P|14:255|26:224,3,49.9999976158143,10|2|2|2,0:0|0:0|0:0|0:0,0:0:0:0:
59,171,81974,5,2,0:0:0:0:
59,171,82178,2,0,P|43:117|12:89,2,99.9999952316285,2|10|2,0:0|0:0|0:0,0:0:0:0:
18,237,82790,1,2,0:0:0:0:
96,281,82995,1,2,0:0:0:0:
96,281,83097,1,2,0:0:0:0:
96,281,83199,1,10,0:0:0:0:
155,227,83403,2,0,P|188:218|260:214,1,99.9999952316285,2|0,0:0|0:0,0:0:0:0:
331,231,83811,1,2,0:0:0:0:
409,216,84015,1,10,0:0:0:0:
453,152,84219,1,2,0:0:0:0:
453,152,84321,1,2,0:0:0:0:
453,152,84423,1,2,0:0:0:0:
426,76,84627,1,2,0:0:0:0:
353,41,84831,1,10,0:0:0:0:
284,81,85035,2,0,P|222:81|188:68,1,99.9999952316285,2|0,0:0|0:0,0:0:0:0:
112,36,85444,6,0,P|62:38|14:54,2,99.9999952316285,2|10|2,0:0|0:0|0:0,0:0:0:0:
187,67,86056,1,2,0:0:0:0:
132,125,86260,2,0,P|121:146|114:181,2,49.9999976158143,2|2|10,0:0|0:0|0:0,0:0:0:0:
187,67,86668,2,0,P|242:69|304:87,1,99.9999952316285,2|0,0:0|0:0,0:0:0:0:
344,148,87077,1,2,0:0:0:0:
344,148,87179,1,2,0:0:0:0:
344,148,87281,2,0,P|325:194|323:210,3,49.9999976158143,10|2|2|2,0:0|0:0|0:0|0:0,0:0:0:0:
286,258,87689,2,0,P|305:304|307:320,3,49.9999976158143,2|2|2|2,0:0|0:0|0:0|0:0,0:0:0:0:
365,353,88097,2,0,P|389:347|414:348,3,49.9999976158143,10|2|2|2,0:0|0:0|0:0|0:0,0:0:0:0:
478,301,88505,5,2,0:0:0:0:
478,301,88709,2,0,L|500:190,2,99.9999952316285,2|10|2,0:0|0:0|0:0,0:0:0:0:
413,348,89321,1,2,0:0:0:0:
359,290,89526,1,2,0:0:0:0:
359,290,89627,1,2,0:0:0:0:
359,290,89730,1,10,0:0:0:0:
287,244,89934,2,0,P|254:235|182:231,1,99.9999952316285,2|0,0:0|0:0,0:0:0:0:
119,270,90342,1,2,0:0:0:0:
58,217,90546,1,10,0:0:0:0:
115,163,90750,1,2,0:0:0:0:
115,163,90852,1,0,0:0:0:0:
115,163,90954,1,2,0:0:0:0:
60,94,91158,1,2,0:0:0:0:
119,40,91362,2,0,P|174:42|226:56,1,99.9999952316285,10|2,0:0|0:0,0:0:0:0:
305,173,91770,6,0,P|290:226|264:274,1,99.9999952316285,4|2,0:2|0:0,0:0:0:0:
270,265,92076,1,2,0:0:0:0:
270,265,92178,1,10,0:0:0:0:
181,329,92382,1,2,0:0:0:0:
89,268,92586,2,0,L|57:99,1,149.999992847443,2|0,0:0|0:0,0:0:0:0:
61,120,92994,1,10,0:0:0:0:
139,42,93198,2,0,P|192:57|240:83,1,99.9999952316285,2|2,0:0|0:0,0:0:0:0:
281,176,93606,1,2,0:0:0:0:
202,254,93811,1,10,0:0:0:0:
269,168,94015,1,2,0:0:0:0:
331,258,94219,2,0,P|388:278|483:272,1,149.999992847443,2|0,0:0|0:0,0:0:0:0:
487,257,94627,2,0,B|478:149,2,99.9999952316285,10|0|2,0:0|0:0|0:0,0:0:0:0:
417,342,95239,5,0,0:0:0:0:
307,332,95443,1,10,0:0:0:0:
200,358,95647,1,2,0:0:0:0:
103,304,95851,2,0,P|81:245|79:202,1,99.9999952316285,2|2,0:0|0:0,0:0:0:0:
87,191,96157,1,0,0:0:0:0:
95,173,96260,2,0,P|85:106|-3:109,1,149.999992847443,10|0,0:0|0:0,0:0:0:0:
13,95,96668,1,2,0:0:0:0:
83,15,96872,1,2,0:0:0:0:
179,68,97076,2,0,P|254:66|329:47,2,149.999992847443,10|0|0,0:0|0:0|0:0,0:0:0:0:
103,147,97892,1,8,0:0:0:0:
170,233,98096,2,0,P|223:233|286:251,1,99.9999952316285,0|2,0:0|0:0,0:0:0:0:
350,331,98504,5,2,0:0:0:0:
350,331,98606,1,2,0:0:0:0:
350,331,98708,1,10,0:0:0:0:
443,271,98913,1,2,0:0:0:0:
465,164,99117,2,0,P|419:139|369:95,1,99.9999952316285,2|0,0:0|0:0,0:0:0:0:
382,108,99423,1,0,0:0:0:0:
382,108,99525,1,10,0:0:0:0:
315,23,99729,1,2,0:0:0:0:
243,107,99933,1,2,0:0:0:0:
158,39,100137,1,2,0:0:0:0:
95,129,100341,2,0,P|140:183|149:233,1,99.9999952316285,10|2,0:0|0:0,0:0:0:0:
129,319,100749,2,0,P|217:290|286:289,1,149.999992847443,2|0,0:0|0:0,0:0:0:0:
290,301,101157,2,0,L|406:313,1,99.9999952316285,10|0,0:0|0:0,0:0:0:0:
470,236,101566,6,0,P|467:191|458:120,1,99.9999952316285,2|2,0:0|0:0,0:0:0:0:
461,137,101872,1,2,0:0:0:0:
461,137,101974,1,10,0:0:0:0:
388,55,102178,1,2,0:0:0:0:
317,139,102382,2,0,P|262:166|170:184,1,149.999992847443,2|0,0:0|0:0,0:0:0:0:
175,184,102790,1,10,0:0:0:0:
77,233,102994,2,0,P|121:254|157:288,1,99.9999952316285,2|2,0:0|0:0,0:0:0:0:
227,374,103402,1,2,0:0:0:0:
312,304,103606,2,0,P|411:316|470:338,2,149.999992847443,8|0|2,0:0|0:0|0:0,0:0:0:0:
227,374,104423,1,10,0:0:0:0:
158,288,104627,1,0,0:0:0:0:
262,207,104831,6,0,P|273:125|337:52,1,179.999985923768,6|0,0:2|0:0,0:0:0:0:
343,44,105239,2,0,P|267:75|172:56,1,179.999985923768,10|0,0:0|0:0,0:0:0:0:
161,56,105647,2,0,P|228:104|259:196,1,179.999985923768,2|0,0:0|0:0,0:0:0:0:
254,205,106055,1,8,0:0:0:0:
133,288,106260,2,0,P|170:168|158:45,1,239.999988555908,2|8,0:0|0:0,0:0:0:0:
160,55,107280,1,8,0:1:0:0:
269,137,107586,1,0,0:0:0:0:
269,137,107688,1,8,0:0:0:0:
341,87,107892,1,0,0:0:0:0:
442,172,108097,6,0,P|426:243|430:362,1,179.999985923768,10|0,0:1|0:0,0:0:0:0:
418,344,108504,2,0,P|329:340|241:358,1,179.999985923768,10|0,0:0|0:0,0:0:0:0:
229,361,108913,2,0,P|233:271|215:183,1,179.999985923768,10|0,0:1|0:0,0:0:0:0:
207,175,109321,1,8,0:0:0:0:
166,46,109525,2,0,B|252:31|329:73|341:181|341:181|346:84|387:22|438:0|438:0|432:54|479:97,1,559.99997329712,2|10,0:0|0:0,0:0:0:0:
382,334,111362,6,0,P|299:293|274:296,3,89.9999929618838,10|8|10|8,0:1|0:1|0:0|0:1,0:0:0:0:
272,308,112076,1,0,0:0:0:0:
245,332,112178,2,0,P|210:321|136:308,3,89.9999929618838,10|10|8|10,0:1|0:1|0:0|0:1,0:0:0:0:
94,233,112995,1,8,0:1:0:0:
162,161,113199,1,8,0:1:0:0:
97,86,113403,1,8,0:0:0:0:
180,29,113607,1,8,0:1:0:0:
180,29,113709,1,0,0:0:0:0:
180,29,113812,2,0,L|277:43,1,89.9999929618838,8|8,0:1|0:1,0:0:0:0:
322,124,114220,1,8,0:0:0:0:
422,104,114424,1,10,0:1:0:0:
422,104,114526,1,0,0:0:0:0:
422,104,114627,6,0,P|450:104|483:118,3,59.9999953079226,10|8|10|8,0:1|0:1|0:1|0:1,0:0:0:0:
510,185,115035,2,0,P|510:213|496:246,3,59.9999953079226,10|8|10|8,0:1|0:1|0:1|0:1,0:0:0:0:
439,289,115444,2,0,P|411:289|378:275,3,59.9999953079226,8|8|8|8,0:1|0:1|0:1|0:1,0:0:0:0:
320,231,115852,1,10,0:1:0:0:
291,235,115954,1,8,0:1:0:0:
261,238,116056,1,10,0:1:0:0:
231,242,116158,1,8,0:1:0:0:
201,245,116260,1,6,3:2:0:0:
219,305,117893,6,0,P|149:304|77:319,1,139.999989051819,6|0,3:2|0:0,0:0:0:0:
3,236,118301,2,0,P|73:237|145:222,1,139.999989051819,10|0,0:0|0:0,0:0:0:0:
227,151,118709,1,2,0:0:0:0:
121,106,118913,1,2,3:2:0:0:
220,53,119117,2,0,B|285:30|285:30|368:53,1,139.999989051819,10|2,0:2|0:0,0:0:0:0:
438,121,119525,2,0,P|364:160|373:222,1,139.999989051819,2|0,3:2|0:0,0:0:0:0:
442,288,119933,2,0,P|367:249|321:292,1,139.999989051819,10|0,0:2|0:0,0:0:0:0:
250,359,120341,1,2,0:0:0:0:
178,272,120546,1,2,3:2:0:0:
241,179,120750,2,0,L|257:36,1,139.999989051819,10|2,0:0|0:0,0:0:0:0:
146,19,121158,6,0,P|90:45|44:183,1,209.999983577729,2|0,3:2|0:0,0:0:0:0:
52,202,121566,2,0,P|102:166|245:195,1,209.999983577729,10|0,0:0|0:0,0:0:0:0:
254,214,121974,1,2,0:0:0:0:
241,325,122178,1,0,3:2:0:0:
348,355,122382,2,0,L|505:333,2,139.999989051819,10|2|2,0:0|0:0|3:2,0:0:0:0:
241,325,122995,1,2,0:0:0:0:
164,243,123199,1,8,0:0:0:0:
104,337,123403,2,0,P|52:256|190:135,1,279.999978103639,2|2,0:0|3:2,0:0:0:0:
264,152,124015,2,0,P|298:145|347:124,1,69.9999945259097,8|0,0:0|0:0,0:0:0:0:
355,118,124219,2,0,P|389:125|438:146,1,69.9999945259097,2|0,3:2|0:0,0:0:0:0:
439,159,124423,6,0,P|421:278|420:311,1,139.999989051819,6|0,3:2|3:2,0:0:0:0:
331,365,124831,2,0,P|324:295|312:226,1,139.999989051819,10|0,0:0|3:0,0:0:0:0:
293,205,125137,1,8,0:0:0:0:
293,205,125239,2,0,P|234:200|151:175,1,139.999989051819,0|2,3:0|3:2,0:0:0:0:
59,120,125648,1,10,3:2:0:0:
156,65,125852,1,2,0:0:0:0:
156,177,126056,2,0,P|139:241|95:306,1,139.999989051819,2|2,3:2|3:2,0:0:0:0:
178,380,126464,2,0,P|235:341|303:322,1,139.999989051819,10|2,0:0|3:2,0:0:0:0:
328,334,126770,1,8,0:0:0:0:
328,334,126872,2,0,L|475:346,1,139.999989051819,2|2,3:2|3:2,0:0:0:0:
501,238,127280,2,0,L|361:249,1,139.999989051819,10|2,0:2|0:0,0:0:0:0:
277,175,127688,6,0,P|257:127|289:170,3,139.999989051819,2|0|10|0,3:2|3:0|3:2|3:0,0:0:0:0:
387,95,128505,2,0,P|407:47|375:90,2,139.999989051819,0|2|10,3:0|3:2|3:2,0:0:0:0:
463,176,129117,2,0,P|476:158|456:174,2,69.9999945259097,2|0|6,3:2|3:0|3:2,0:0:0:0:
463,176,130953,6,0,L|321:190,1,139.999989051819,6|0,3:2|0:0,0:0:0:0:
233,257,131362,2,0,L|93:243,1,139.999989051819,2|0,3:2|0:0,0:0:0:0:
36,147,131769,1,8,0:0:0:0:
108,60,131974,1,2,0:0:0:0:
123,84,132076,2,0,P|206:114|290:110,1,139.999989051819,0|0,3:0|0:0,0:0:0:0:
283,104,132382,1,2,3:2:0:0:
331,204,132586,2,0,L|302:347,1,139.999989051819,2|0,3:2|0:0,0:0:0:0:
192,360,132995,2,0,P|121:326|77:250,1,139.999989051819,2|2,3:2|0:0,0:0:0:0:
30,180,133402,1,10,3:2:0:0:
114,105,133607,2,0,P|148:109|187:121,2,69.9999945259097,2|0|2,0:0|3:0|0:0,0:0:0:0:
9,65,134014,1,2,3:2:0:0:
30,180,134218,5,2,3:2:0:0:
30,180,134627,1,2,3:2:0:0:
30,180,135035,1,10,3:2:0:0:
119,247,135239,1,2,0:0:0:0:
143,263,135341,2,0,L|294:275,1,139.999989051819,0|0,3:0|0:0,0:0:0:0:
309,286,135647,1,2,3:2:0:0:
391,361,135851,2,0,P|425:358|475:347,3,69.9999945259097,2|0|2|0,3:2|0:0|0:0|0:0,0:0:0:0:
499,282,136259,2,0,P|492:255|463:209,1,69.9999945259097,0|0,3:0|0:0,0:0:0:0:
413,166,136463,2,0,B|330:144|355:208|267:188,1,139.999989051819,2|10,0:0|3:2,0:0:0:0:
211,115,136872,1,2,0:0:0:0:
211,115,136974,1,0,3:0:0:0:
211,115,137076,1,0,0:0:0:0:
100,97,137280,1,2,3:2:0:0:
95,211,137484,6,0,P|77:274|35:344,1,139.999989051819,2|0,3:2|0:0,0:0:0:0:
150,362,137892,2,0,P|168:299|210:229,1,139.999989051819,2|0,3:2|0:0,0:0:0:0:
307,188,138300,1,8,0:0:0:0:
270,82,138505,1,2,0:0:0:0:
255,106,138607,2,0,P|172:136|88:132,1,139.999989051819,0|0,3:0|0:0,0:0:0:0:
95,126,138913,1,2,3:2:0:0:
63,233,139117,2,0,P|117:229|183:286,1,139.999989051819,2|0,3:2|0:0,0:0:0:0:
215,382,139525,1,2,3:2:0:0:
299,308,139729,1,2,0:2:0:0:
299,308,139831,1,0,0:0:0:0:
299,308,139933,1,10,3:2:0:0:
402,351,140137,2,0,L|390:208,1,139.999989051819,2|2,0:1|0:0,0:0:0:0:
465,128,140545,1,2,3:2:0:0:
397,52,140749,5,2,3:2:0:0:
397,52,141158,1,2,3:2:0:0:
397,52,141566,1,10,3:2:0:0:
316,129,141770,1,2,0:0:0:0:
293,115,141872,2,0,B|230:136|230:136|154:106,1,139.999989051819,0|0,3:0|0:0,0:0:0:0:
139,94,142178,1,2,3:2:0:0:
60,173,142382,5,2,3:2:0:0:
60,173,142484,1,0,0:0:0:0:
60,173,142586,1,2,0:0:0:0:
118,274,142790,5,0,3:0:0:0:
118,274,142893,1,0,0:0:0:0:
230,304,143097,5,2,0:0:0:0:
230,304,143200,1,8,3:2:0:0:
340,274,143403,5,2,0:0:0:0:
340,274,143505,2,0,L|418:247,1,69.9999945259097,0|0,3:0|0:0,0:0:0:0:
454,149,143811,6,0,B|389:138|389:138|371:148|371:148|289:132,1,139.999989051819,0|0,3:0|0:0,0:0:0:0:
