osu file format v14

[General]
AudioFilename: audio.mp3
AudioLeadIn: 0
PreviewTime: 39221
Countdown: 0
SampleSet: Soft
StackLeniency: 0.3
Mode: 0
LetterboxInBreaks: 0
WidescreenStoryboard: 0

[Editor]
Bookmarks: 13367,72142,143979
DistanceSpacing: 0.8
BeatDivisor: 4
GridSize: 32
TimelineZoom: 2.3

[Metadata]
Title:LUV U NEED U
TitleUnicode:LUV U NEED U
Artist:Slushii
ArtistUnicode:Slushii
Creator:Deneb
Version:anime wubs
Source:
Tags:
BeatmapID:1526980
BeatmapSetID:723379

[Difficulty]
HPDrainRate:7
CircleSize:3.8
OverallDifficulty:7.5
ApproachRate:9.5
SliderMultiplier:2.5
SliderTickRate:2

[Events]
//Background and Video events
0,0,"wallhaven-368870.jpg",0,0
//Break Periods
2,65812,71501
//Storyboard Layer 0 (Background)
//Storyboard Layer 1 (Fail)
//Storyboard Layer 2 (Pass)
//Storyboard Layer 3 (Foreground)
//Storyboard Sound Samples

[TimingPoints]
306.23708344029,408.163265306122,4,2,0,80,1,0
16173,-100,4,2,0,20,0,0
16224,-100,4,2,0,80,0,0
16581,-100,4,2,0,20,0,0
16632,-100,4,2,0,80,0,0
22653,-100,4,2,0,20,0,0
22755,-100,4,2,0,80,0,0
23061,-100,4,2,0,20,0,0
23163,-100,4,2,0,80,0,0
26428,-200,4,2,0,80,0,0
31024,-100,4,2,0,80,0,0
31632,-100,4,2,0,20,0,0
31734,-100,4,2,0,80,0,0
32040,-100,4,2,0,20,0,0
32142,-100,4,2,0,80,0,0
32959,-100,4,2,0,40,0,0
34591,-100,4,2,0,50,0,0
36224,-100,4,2,0,80,0,0
37657,-200,4,2,0,100,0,0
37857,-200,4,2,0,50,0,0
39081,-58.8235294117647,4,2,0,100,0,0
39489,-66.6666666666667,4,2,0,80,0,0
41020,-66.6666666666667,4,2,0,20,0,0
41122,-66.6666666666667,4,2,0,80,0,0
47551,-66.6666666666667,4,2,0,20,0,0
47653,-66.6666666666667,4,2,0,80,0,0
54081,-66.6666666666667,4,2,0,20,0,0
54183,-66.6666666666667,4,2,0,80,0,0
55714,-66.6666666666667,4,2,0,20,0,0
55816,-66.6666666666667,4,2,0,58,0,0
56122,-66.6666666666667,4,2,0,20,0,0
56224,-66.6666666666667,4,2,0,80,0,0
56530,-66.6666666666667,4,2,0,20,0,0
56632,-66.6666666666667,4,2,0,80,0,0
58775,-66.6666666666667,4,2,0,20,0,0
58877,-66.6666666666667,4,2,0,80,0,0
78673,-200,4,2,0,80,0,0
88469,-133.333333333333,4,2,0,80,0,0
88775,-133.333333333333,4,2,0,20,0,0
88877,-133.333333333333,4,2,0,80,0,0
89183,-133.333333333333,4,2,0,20,0,0
89285,-117.647058823529,4,2,0,80,0,0
89489,-117.647058823529,4,2,0,20,0,0
89591,-117.647058823529,4,2,0,80,0,0
89796,-117.647058823529,4,2,0,20,0,0
89898,-117.647058823529,4,2,0,80,0,0
90714,-117.647058823529,4,2,0,20,0,0
90816,-117.647058823529,4,2,0,80,0,0
91020,-117.647058823529,4,2,0,20,0,0
91122,-117.647058823529,4,2,0,80,0,0
91326,-117.647058823529,4,2,0,20,0,0
91428,-117.647058823529,4,2,0,80,0,0
94489,-117.647058823529,4,2,0,20,0,0
94591,-117.647058823529,4,2,0,80,0,0
94898,-117.647058823529,4,2,0,20,0,0
95000,-117.647058823529,4,2,0,80,0,0
101020,-117.647058823529,4,2,0,20,0,0
101122,-117.647058823529,4,2,0,80,0,0
101428,-117.647058823529,4,2,0,20,0,0
101530,-117.647058823529,4,2,0,80,0,0
104796,-200,4,2,0,80,0,0
107959,-200,4,2,0,20,0,0
108061,-200,4,2,0,80,0,0
109489,-100,4,2,0,80,0,0
110000,-100,4,2,0,20,0,0
110102,-100,4,2,0,80,0,0
110408,-100,4,2,0,20,0,0
110510,-100,4,2,0,80,0,0
116224,-200,4,2,0,80,0,0
117449,-58.8235294117647,4,2,0,80,0,0
117857,-66.6666666666667,4,2,0,80,0,0
119387,-66.6666666666667,4,2,0,20,0,0
119489,-66.6666666666667,4,2,0,80,0,0
119796,-66.6666666666667,4,2,0,20,0,0
119898,-66.6666666666667,4,2,0,80,0,0
120204,-66.6666666666667,4,2,0,20,0,0
120306,-66.6666666666667,4,2,0,80,0,0
127142,-66.6666666666667,4,2,0,20,0,0
127245,-66.6666666666667,4,2,0,80,0,0
132449,-66.6666666666667,4,2,0,20,0,0
132551,-66.6666666666667,4,2,0,80,0,0
133265,-66.6666666666667,4,2,0,20,0,0
133367,-66.6666666666667,4,2,0,80,0,0
134183,-66.6666666666667,4,2,0,80,0,0
136938,-66.6666666666667,4,2,0,20,0,0
137040,-66.6666666666667,4,2,0,80,0,0
138979,-66.6666666666667,4,2,0,20,0,0
139081,-66.6666666666667,4,2,0,80,0,0

[HitObjects]
62,35,13367,5,4,0:0:0:0:
26,106,13571,1,0,0:0:0:0:
55,115,13673,1,0,0:0:0:0:
85,110,13775,1,8,0:0:0:0:
166,46,13979,1,0,0:0:0:0:
242,101,14183,2,0,P|261:152|230:240,1,125
157,270,14591,1,8,0:0:0:0:
67,221,14796,1,0,0:0:0:0:
135,163,15000,5,0,0:0:0:0:
264,232,15204,2,0,L|398:215,1,125,0|8,0:0|0:0,0:0:0:0:
248,312,15612,1,0,0:0:0:0:
388,216,15816,2,0,P|383:135|341:208,1,218.75
371,176,16224,2,0,P|366:95|324:168,1,218.75,8|0,0:0|0:0,0:0:0:0:
353,138,16632,5,0,0:0:0:0:
452,83,16836,1,0,0:0:0:0:
355,26,17040,2,0,P|272:61|248:101,1,125,8|0,0:0|0:0,0:0:0:0:
241,134,17347,1,0,0:0:0:0:
248,175,17449,2,0,P|206:129|146:113,1,125
39,199,17857,1,8,0:0:0:0:
62,93,18061,1,0,0:0:0:0:
120,235,18265,6,0,L|252:227,1,125
35,345,18673,1,8,0:0:0:0:
120,235,18877,1,0,0:0:0:0:
120,235,18979,1,0,0:0:0:0:
120,235,19081,2,0,L|148:107,1,125
31,170,19489,1,8,0:0:0:0:
120,235,19693,1,0,0:0:0:0:
279,92,19898,5,0,0:0:0:0:
388,307,20102,1,0,0:0:0:0:
397,278,20204,1,0,0:0:0:0:
392,248,20306,1,8,0:0:0:0:
293,272,20510,1,0,0:0:0:0:
451,336,20714,2,0,P|468:268|442:199,1,125
279,92,21122,1,8,0:0:0:0:
293,272,21326,1,0,0:0:0:0:
403,98,21530,6,0,L|278:91,1,125
183,4,21938,1,8,0:0:0:0:
93,93,22142,2,0,L|97:155,1,62.5
149,204,22347,2,0,P|222:169|148:172,1,187.5
102,277,22755,2,0,P|29:242|103:245,1,187.5,8|0,0:0|0:0,0:0:0:0:
173,300,23163,5,0,0:0:0:0:
312,332,23367,1,0,0:0:0:0:
343,332,23469,1,0,0:0:0:0:
374,332,23571,1,8,0:0:0:0:
479,254,23775,1,0,0:0:0:0:
343,332,23979,2,0,P|321:250|342:180,1,125
366,78,24387,1,8,0:0:0:0:
209,197,24591,1,0,0:0:0:0:
400,161,24796,6,0,P|442:123|452:55,1,125
201,62,25204,1,8,0:0:0:0:
366,78,25408,1,0,0:0:0:0:
120,180,25612,2,0,P|128:240|172:283,1,125
351,311,26020,1,8,0:0:0:0:
351,311,26428,6,0,L|354:227,1,62.5,4|0,0:0|0:0,0:0:0:0:
207,220,26836,2,0,L|210:136,1,62.5,8|0,0:0|0:0,0:0:0:0:
391,87,27245,2,0,L|394:3,1,62.5
263,6,27653,1,8,0:0:0:0:
361,188,27857,1,0,0:0:0:0:
361,188,27959,1,0,0:0:0:0:
361,188,28061,6,0,L|445:191,1,62.5
474,114,28469,1,8,0:0:0:0:
474,114,28877,6,0,L|414:113,1,31.25
301,245,29183,6,0,L|251:211,1,31.25,0|8,0:0|0:0,0:0:0:0:
119,34,29489,6,0,L|85:83,1,31.25
46,132,29693,6,0,L|49:216,1,62.5
136,353,30102,2,0,L|138:290,1,62.5,8|0,0:0|0:0,0:0:0:0:
267,52,30510,2,0,L|264:114,1,62.5
330,319,30918,1,8,0:0:0:0:
330,319,31122,6,0,P|358:244|365:353,1,312.5
252,304,31734,2,0,P|292:202|376:166,1,187.5,8|0,0:0|0:0,0:0:0:0:
455,141,32142,2,0,P|392:80|321:84,1,125
125,111,32551,1,8,0:0:0:0:
125,111,32959,5,0,0:0:0:0:
43,52,33163,1,0,0:0:0:0:
33,151,33367,1,8,0:0:0:0:
115,207,33571,1,0,0:0:0:0:
236,175,33775,1,0,0:0:0:0:
207,296,33979,1,0,0:0:0:0:
328,266,34183,1,8,0:0:0:0:
388,128,34387,1,0,0:0:0:0:
276,27,34591,5,0,0:0:0:0:
236,175,34796,1,0,0:0:0:0:
441,233,35000,1,8,0:0:0:0:
245,99,35204,1,0,0:0:0:0:
207,296,35408,1,0,0:0:0:0:
200,36,35612,1,0,0:0:0:0:
133,327,35816,1,8,0:0:0:0:
276,27,36020,1,0,0:0:0:0:
64,288,36224,5,0,0:0:0:0:
46,266,36326,1,0,0:0:0:0:
34,242,36428,1,0,0:0:0:0:
29,215,36530,1,0,0:0:0:0:
29,188,36632,5,8,0:0:0:0:
37,162,36734,1,0,0:0:0:0:
50,138,36836,1,0,0:0:0:0:
69,118,36938,1,0,0:0:0:0:
91,103,37040,5,0,0:0:0:0:
117,94,37142,1,0,0:0:0:0:
144,91,37245,1,0,0:0:0:0:
171,95,37347,1,0,0:0:0:0:
197,105,37449,5,8,0:0:0:0:
219,121,37551,1,0,0:0:0:0:
236,142,37653,1,0,0:0:0:0:
249,166,37755,1,0,0:0:0:0:
255,193,37857,6,0,L|251:245,1,31.25
162,288,38061,6,0,L|164:256,1,31.25
361,119,38265,6,0,L|357:171,1,31.25
63,297,38469,6,0,L|61:329,2,31.25
305,109,38877,5,0,0:0:0:0:
305,109,38979,1,0,0:0:0:0:
305,109,39081,2,0,B|378:53|478:92|478:92|445:142,1,212.500004053116
116,352,39489,6,0,B|43:341|28:298|28:298|38:237|118:272,1,187.500007152558
197,255,39898,2,0,B|245:200|229:157|229:157|183:117|143:195,1,187.500007152558
39,358,40306,1,8,0:0:0:0:
30,133,40510,1,0,0:0:0:0:
30,133,40612,1,0,0:0:0:0:
30,133,40714,2,0,B|120:117|120:117|182:151|182:151|310:119,1,281.250010728836
417,284,41122,6,0,B|440:322|387:366|387:366|322:329|342:276,1,187.500007152558
261,36,41530,2,0,P|352:48|368:64,1,93.7500035762788
384,92,41734,1,0,0:0:0:0:
386,152,41836,1,0,0:0:0:0:
347,201,41938,1,8,0:0:0:0:
347,201,42142,2,0,P|304:203|190:169,1,93.7500035762788
261,36,42347,2,0,P|218:34|104:68,1,93.7500035762788
23,134,42551,1,0,0:0:0:0:
156,244,42755,6,0,B|217:288|264:261|264:261|282:191|209:167,1,187.500007152558
263,343,43163,2,0,P|166:337|90:283,1,187.500007152558
366,153,43571,1,8,0:0:0:0:
459,145,43775,2,0,L|365:152,1,93.7500035762788
162,32,43979,2,0,L|255:39,1,93.7500035762788
425,242,44183,2,0,L|331:234,1,93.7500035762788
142,197,44387,6,0,P|108:154|170:187,1,187.500007152558
72,240,44796,1,0,0:0:0:0:
236,104,45000,2,0,P|251:148|245:196,1,93.7500035762788
46,111,45204,2,0,P|76:75|120:56,1,93.7500035762788,8|0,0:0|0:0,0:0:0:0:
157,265,45408,2,0,P|109:262|67:240,1,93.7500035762788
250,35,45612,1,0,0:0:0:0:
152,344,45816,1,0,0:0:0:0:
330,264,46020,6,0,B|361:217|344:158|344:158|370:200|406:191,1,187.500007152558
339,47,46428,2,0,P|234:140|245:220,1,187.500007152558
420,283,46836,1,8,0:0:0:0:
199,341,47040,1,0,0:0:0:0:
199,341,47142,1,0,0:0:0:0:
199,341,47245,2,0,B|114:349|84:286|84:286|128:216|215:252,1,281.250010728836
24,246,47653,6,0,P|140:168|213:175,1,187.500007152558
329,267,48061,1,0,0:0:0:0:
237,77,48265,2,0,P|273:109|286:175,1,93.7500035762788
209,249,48469,1,8,0:0:0:0:
378,103,48673,1,0,0:0:0:0:
392,146,48775,1,0,0:0:0:0:
384,192,48877,1,0,0:0:0:0:
199,341,49081,1,0,0:0:0:0:
56,57,49285,6,0,P|149:57|240:81,1,187.500007152558
82,134,49693,2,0,P|172:157|253:204,1,187.500007152558
105,223,50102,2,0,P|159:254|204:298,1,93.7500035762788,8|0,0:0|0:0,0:0:0:0:
226,378,50306,1,0,0:0:0:0:
304,126,50510,2,0,P|274:162|253:204,1,93.7500035762788
226,378,50714,1,0,0:0:0:0:
162,29,50918,6,0,P|217:61|262:105,1,93.7500035762788
226,378,51122,1,0,0:0:0:0:
388,261,51326,2,0,L|434:252,6,46.8750017881394
239,80,51734,1,0,0:0:0:0:
333,136,51938,1,0,0:0:0:0:
286,189,52040,1,0,0:0:0:0:
217,192,52142,1,0,0:0:0:0:
396,26,52347,1,0,0:0:0:0:
155,156,52551,6,0,B|90:120|90:75|90:75|126:33|182:66,1,187.500007152558,4|0,0:0|0:0,0:0:0:0:
352,273,52959,2,0,B|424:287|453:252|453:252|450:193|377:197,1,187.500007152558
69,308,53367,1,8,0:0:0:0:
155,156,53571,1,0,0:0:0:0:
155,156,53673,1,0,0:0:0:0:
155,156,53775,2,0,B|206:174|250:146|250:146|302:154|323:201|323:201|389:227|441:172,1,281.250010728836
454,258,54183,6,0,P|349:285|255:245,1,187.500007152558
17,316,54591,2,0,P|106:340|194:313,1,187.500007152558
254,150,55000,1,8,0:0:0:0:
366,283,55204,1,0,0:0:0:0:
319,279,55306,1,0,0:0:0:0:
276,261,55408,1,0,0:0:0:0:
111,44,55612,2,0,P|156:35|200:50,1,93.7500035762788
200,50,55816,6,0,P|82:63|73:202,1,281.250010728836
352,176,56224,2,0,P|339:58|200:49,1,281.250010728836
150,139,56632,1,8,0:0:0:0:
150,139,56836,2,0,L|281:143,1,93.7500035762788
316,255,57040,2,0,L|222:252,1,93.7500035762788
357,87,57245,2,0,L|488:91,1,93.7500035762788
243,141,57449,5,0,0:0:0:0:
196,139,57551,1,0,0:0:0:0:
149,138,57653,1,0,0:0:0:0:
41,2,57857,1,0,0:0:0:0:
60,125,58061,2,0,P|107:144|153:134,1,93.7500035762788
301,83,58265,2,0,P|254:64|207:73,1,93.7500035762788,8|0,0:0|0:0,0:0:0:0:
47,258,58469,2,0,B|95:255|135:306|135:306|200:319|224:255|224:255|211:211|152:199,1,281.250010728836
47,258,58877,1,0,0:0:0:0:
139,377,59081,6,0,P|239:351|292:248,1,187.500007152558
199,185,59489,2,0,P|213:270|132:301,1,187.500007152558
60,125,59898,1,8,0:0:0:0:
213,270,60102,2,0,P|177:299|131:300,1,93.7500035762788
199,185,60306,2,0,P|244:186|284:215,1,93.7500035762788
212,270,60510,1,0,0:0:0:0:
352,176,60714,6,0,P|281:116|190:108,1,187.500007152558
47,258,61122,1,0,0:0:0:0:
189,108,61326,1,0,0:0:0:0:
45,9,61530,1,8,0:0:0:0:
208,212,61734,1,0,0:0:0:0:
272,177,61836,1,0,0:0:0:0:
286,106,61938,1,0,0:0:0:0:
132,206,62142,1,0,0:0:0:0:
434,346,62347,6,0,P|474:231|462:139,1,187.500007152558
298,283,62755,2,0,P|285:161|235:83,1,187.500007152558
178,335,63163,6,0,P|142:276|98:247,1,93.7500035762788,8|0,0:0|0:0,0:0:0:0:
24,214,63367,1,0,0:0:0:0:
128,50,63571,6,0,P|94:109|92:162,1,93.7500035762788
123,260,63775,1,0,0:0:0:0:
292,209,63979,6,0,P|232:175|179:173,1,93.7500035762788
211,12,64183,2,0,P|166:23|128:50,1,93.7500035762788
90,133,64387,6,0,L|43:139,7,46.8750017881394
211,12,64796,1,0,0:0:0:0:
121,210,65000,1,0,0:0:0:0:
168,261,65102,1,0,0:0:0:0:
236,271,65204,1,0,0:0:0:0:
90,133,65408,1,0,0:0:0:0:
414,300,65612,5,0,0:0:0:0:
414,300,72551,5,0,0:0:0:0:
414,300,73367,1,0,0:0:0:0:
414,300,74183,1,0,0:0:0:0:
414,300,75000,1,0,0:0:0:0:
95,330,75408,5,0,0:0:0:0:
95,330,75816,1,0,0:0:0:0:
95,330,76632,1,0,0:0:0:0:
95,330,77449,1,0,0:0:0:0:
420,111,78061,5,0,0:0:0:0:
326,84,78265,1,0,0:0:0:0:
326,84,78673,5,4,0:0:0:0:
233,62,78877,2,0,L|179:61,1,31.25
138,127,79081,2,0,L|84:126,1,31.25,8|0,0:0|0:0,0:0:0:0:
50,29,79285,2,0,L|-4:28,1,31.25
239,183,79489,2,0,L|185:182,1,31.25
132,263,79693,2,0,L|78:262,1,31.25
106,126,79898,2,0,L|52:125,1,31.25,8|0,0:0|0:0,0:0:0:0:
250,307,80102,2,0,L|196:306,1,31.25
218,306,80510,5,0,0:0:0:0:
250,290,80612,1,0,0:0:0:0:
286,290,80714,1,8,0:0:0:0:
321,302,80816,1,0,0:0:0:0:
356,312,80918,5,0,0:0:0:0:
391,307,81020,1,0,0:0:0:0:
424,290,81122,1,0,0:0:0:0:
395,301,81224,1,0,0:0:0:0:
365,294,81326,5,0,0:0:0:0:
343,272,81428,1,0,0:0:0:0:
338,242,81530,1,8,0:0:0:0:
350,214,81632,1,0,0:0:0:0:
375,197,81734,5,0,0:0:0:0:
406,197,81836,1,0,0:0:0:0:
431,215,81938,1,0,0:0:0:0:
431,215,82142,6,0,L|430:161,1,31.25
327,132,82347,2,0,L|326:78,1,31.25,8|0,0:0|0:0,0:0:0:0:
475,42,82551,2,0,L|474:-12,1,31.25
258,221,82755,2,0,L|257:167,1,31.25
356,343,82959,2,0,L|355:289,1,31.25
178,263,83163,2,0,L|177:209,1,31.25,8|0,0:0|0:0,0:0:0:0:
326,100,83367,2,0,L|325:46,1,31.25
474,13,83775,6,0,L|474:44,1,31.25
435,151,83979,2,0,L|435:182,1,31.25,8|0,0:0|0:0,0:0:0:0:
342,95,84183,2,0,L|342:126,1,31.25
489,256,84387,2,0,L|489:287,1,31.25
331,330,84591,2,0,L|331:361,1,31.25
218,248,84796,2,0,L|218:279,1,31.25,8|0,0:0|0:0,0:0:0:0:
35,338,85000,2,0,L|35:369,1,31.25
35,369,85408,6,0,L|66:369,1,31.25
140,313,85612,2,0,L|171:313,1,31.25,8|0,0:0|0:0,0:0:0:0:
301,384,85816,2,0,L|332:384,1,31.25
217,203,86020,2,0,L|248:203,1,31.25
335,276,86224,2,0,L|366:276,1,31.25
88,224,86428,2,0,L|119:224,1,31.25,8|0,0:0|0:0,0:0:0:0:
351,126,86632,2,0,L|382:126,1,31.25
382,126,87040,5,0,0:0:0:0:
350,110,87142,1,0,0:0:0:0:
314,110,87245,1,8,0:0:0:0:
279,122,87347,1,0,0:0:0:0:
244,132,87449,5,0,0:0:0:0:
209,127,87551,1,0,0:0:0:0:
176,110,87653,1,0,0:0:0:0:
205,121,87755,1,0,0:0:0:0:
235,114,87857,5,0,0:0:0:0:
257,92,87959,1,0,0:0:0:0:
262,62,88061,1,8,0:0:0:0:
250,34,88163,1,0,0:0:0:0:
225,17,88265,5,0,0:0:0:0:
194,17,88367,1,0,0:0:0:0:
169,35,88469,6,0,P|117:57|38:31,1,140.625005364418
39,32,88877,2,0,L|49:213,1,140.625005364418,8|0,0:0|0:0,0:0:0:0:
46,172,89285,2,0,P|128:169|161:209,1,106.250002026558
143,181,89591,2,0,P|246:169|257:144,1,106.250002026558
239,178,89898,2,0,P|342:189|353:214,1,106.250002026558
397,264,90306,5,0,0:0:0:0:
143,181,90510,2,0,P|166:113|228:80,1,106.250002026558,8|0,0:0|0:0,0:0:0:0:
191,92,90816,2,0,P|123:115|90:177,1,106.250002026558
102,140,91122,2,0,P|125:72|187:39,1,106.250002026558,0|8,0:0|0:0,0:0:0:0:
150,51,91428,2,0,P|82:74|49:136,1,106.250002026558
397,264,91734,5,4,0:0:0:0:
416,173,91938,1,0,0:0:0:0:
388,171,92040,1,0,0:0:0:0:
363,178,92142,1,8,0:0:0:0:
273,229,92347,1,0,0:0:0:0:
193,325,92551,2,0,L|61:303,1,106.250002026558
68,210,92959,1,8,0:0:0:0:
159,141,93163,1,0,0:0:0:0:
260,244,93367,6,0,L|128:222,1,106.250002026558
68,107,93775,1,8,0:0:0:0:
159,38,93979,1,0,0:0:0:0:
251,102,94183,2,0,P|332:105|406:56,1,159.375003039837
339,24,94591,2,0,P|336:105|385:179,1,159.375003039837,8|0,0:0|0:0,0:0:0:0:
433,211,95000,5,0,0:0:0:0:
472,104,95204,1,0,0:0:0:0:
339,24,95408,2,0,L|214:31,1,106.250002026558,8|0,0:0|0:0,0:0:0:0:
134,118,95816,1,0,0:0:0:0:
42,50,96020,1,0,0:0:0:0:
87,217,96224,1,8,0:0:0:0:
24,150,96428,1,0,0:0:0:0:
130,294,96632,6,0,P|171:244|157:166,1,106.250002026558
134,118,97040,1,8,0:0:0:0:
130,294,97245,1,0,0:0:0:0:
130,294,97347,1,0,0:0:0:0:
130,294,97449,2,0,L|259:292,1,106.250002026558
355,344,97857,1,8,0:0:0:0:
236,292,98061,1,0,0:0:0:0:
443,243,98265,5,0,0:0:0:0:
355,344,98469,1,0,0:0:0:0:
334,326,98571,1,0,0:0:0:0:
323,303,98673,1,8,0:0:0:0:
348,210,98877,1,0,0:0:0:0:
433,112,99081,2,0,P|353:80|312:92,1,106.250002026558
237,169,99489,1,8,0:0:0:0:
134,138,99693,1,0,0:0:0:0:
50,56,99898,6,0,P|130:24|171:36,1,106.250002026558
246,102,100306,1,8,0:0:0:0:
306,206,100510,1,0,0:0:0:0:
199,263,100714,2,0,P|120:266|52:227,1,159.375003039837
110,184,101122,2,0,P|113:262|74:330,1,159.375003039837,8|0,0:0|0:0,0:0:0:0:
23,379,101530,5,0,0:0:0:0:
148,264,101734,1,0,0:0:0:0:
173,256,101836,1,0,0:0:0:0:
198,262,101938,1,8,0:0:0:0:
288,332,102142,1,0,0:0:0:0:
179,363,102347,2,0,P|179:302|212:247,1,106.250002026558
281,187,102755,1,8,0:0:0:0:
402,200,102959,1,0,0:0:0:0:
293,292,103163,6,0,L|277:157,1,106.250002026558
190,111,103571,1,8,0:0:0:0:
301,71,103775,1,0,0:0:0:0:
202,5,103979,2,0,L|189:110,1,106.250002026558
84,168,104387,1,8,0:0:0:0:
84,168,104796,6,0,L|91:249,1,62.5,4|0,0:0|0:0,0:0:0:0:
217,219,105204,2,0,L|210:300,1,62.5,8|0,0:0|0:0,0:0:0:0:
33,295,105612,2,0,L|40:376,1,62.5
201,356,106020,1,8,0:0:0:0:
89,230,106224,1,0,0:0:0:0:
89,230,106326,1,0,0:0:0:0:
89,230,106428,6,0,L|26:224,1,62.5
188,110,106836,1,8,0:0:0:0:
188,110,107245,6,0,L|239:105,1,31.25
120,227,107551,6,0,L|68:231,1,31.25,0|8,0:0|0:0,0:0:0:0:
291,96,107857,6,0,L|342:91,1,31.25
415,70,108061,6,0,L|409:132,1,62.5
306,172,108469,2,0,L|311:234,1,62.5,8|0,0:0|0:0,0:0:0:0:
464,239,108877,2,0,L|458:301,1,62.5
320,316,109285,1,8,0:0:0:0:
320,316,109489,6,0,P|222:300|333:246,1,312.5
188,379,110102,2,0,P|146:317|159:200,1,187.5,8|0,0:0|0:0,0:0:0:0:
325,145,110510,2,0,P|231:144|201:161,1,125
69,310,110918,1,8,0:0:0:0:
69,310,111326,5,0,0:0:0:0:
154,208,111530,1,0,0:0:0:0:
57,232,111734,1,8,0:0:0:0:
273,265,111938,1,0,0:0:0:0:
69,310,112142,1,0,0:0:0:0:
346,246,112347,1,0,0:0:0:0:
166,291,112551,1,8,0:0:0:0:
423,227,112755,1,0,0:0:0:0:
154,208,112959,5,0,0:0:0:0:
402,303,113163,1,0,0:0:0:0:
222,356,113367,1,8,0:0:0:0:
375,376,113571,1,0,0:0:0:0:
129,352,113775,1,0,0:0:0:0:
402,303,113979,1,0,0:0:0:0:
154,208,114183,1,8,0:0:0:0:
457,136,114387,1,0,0:0:0:0:
154,208,114591,5,0,0:0:0:0:
122,206,114693,1,0,0:0:0:0:
91,204,114795,1,0,0:0:0:0:
60,202,114897,1,0,0:0:0:0:
25,127,115000,5,8,0:0:0:0:
56,125,115102,1,0,0:0:0:0:
87,123,115204,1,0,0:0:0:0:
119,121,115306,1,0,0:0:0:0:
164,47,115408,5,0,0:0:0:0:
132,45,115510,1,0,0:0:0:0:
101,43,115612,1,0,0:0:0:0:
70,41,115714,1,0,0:0:0:0:
42,40,115816,5,8,0:0:0:0:
87,43,115918,1,0,0:0:0:0:
121,74,116020,1,0,0:0:0:0:
128,120,116122,1,0,0:0:0:0:
105,160,116224,6,0,L|108:191,1,31.25
178,344,116428,2,0,L|181:312,1,31.25
259,100,116632,2,0,L|262:131,1,31.25
343,384,116836,2,0,L|346:352,1,31.25
385,61,117040,2,0,L|388:92,1,31.25
266,288,117245,1,0,0:0:0:0:
266,288,117347,1,0,0:0:0:0:
266,288,117449,2,0,B|193:344|93:305|93:305|126:255,1,212.500004053116
225,93,117857,6,0,B|256:46|229:9|229:9|177:-3|139:63,1,187.500007152558,4|0,0:0|0:0,0:0:0:0:
157,162,118265,2,0,B|126:209|153:246|153:246|205:258|243:192,1,187.500007152558,8|0,0:0|0:0,0:0:0:0:
226,9,118673,1,0,0:0:0:0:
157,162,118877,1,0,0:0:0:0:
157,162,118979,1,0,0:0:0:0:
157,162,119081,2,0,B|126:209|154:249|154:249|210:255|245:193|245:193|290:226|345:198,1,281.250010728836,8|0,0:0|0:0,0:0:0:0:
463,221,119489,6,0,P|482:322|362:246,1,281.250010728836
423,281,119898,2,0,P|442:180|322:256,1,281.250010728836,8|0,0:0|0:0,0:0:0:0:
385,220,120306,1,0,0:0:0:0:
244,197,120510,1,0,0:0:0:0:
463,221,120714,2,0,B|474:128|474:128|439:57|439:57|405:74,1,187.500007152558,8|0,0:0|0:0,0:0:0:0:
244,197,121122,6,0,B|201:215|201:215|163:184|163:184|174:140|174:140|231:117,1,187.500007152558
313,93,121530,2,0,B|356:75|356:75|367:31|367:31|329:0|329:0|286:18,1,187.500007152558,8|0,0:0|0:0,0:0:0:0:
244,197,121938,1,0,0:0:0:0:
286,18,122142,1,0,0:0:0:0:
143,245,122347,2,0,P|203:303|329:268,1,187.500007152558,8|0,0:0|0:0,0:0:0:0:
151,167,122755,6,0,P|92:186|92:304,1,187.500007152558
300,293,123163,1,8,0:0:0:0:
194,96,123367,2,0,P|75:107|49:126,1,93.7500035762788
252,12,123571,2,0,P|281:49|298:93,1,93.7500035762788
151,167,123775,2,0,P|111:191|81:226,1,93.7500035762788
300,293,123979,1,8,0:0:0:0:
85,297,124183,1,0,0:0:0:0:
379,285,124387,6,0,P|322:217|226:269,1,187.500007152558
409,363,124796,2,0,P|457:303|368:302,1,187.500007152558,8|0,0:0|0:0,0:0:0:0:
279,379,125204,1,0,0:0:0:0:
378,284,125408,1,0,0:0:0:0:
378,284,125510,1,0,0:0:0:0:
378,284,125612,2,0,P|375:176|318:84,1,187.500007152558,8|0,0:0|0:0,0:0:0:0:
219,33,126020,6,0,P|339:41|441:85,1,187.500007152558
477,166,126428,1,8,0:0:0:0:
299,188,126632,1,0,0:0:0:0:
299,188,126734,1,0,0:0:0:0:
299,188,126836,2,0,B|198:206|198:206|126:169|126:169|23:189,1,281.250010728836
0,311,127245,1,8,0:0:0:0:
117,349,127449,1,0,0:0:0:0:
299,188,127653,5,0,0:0:0:0:
160,186,127857,1,0,0:0:0:0:
342,253,128061,1,8,0:0:0:0:
84,288,128265,1,0,0:0:0:0:
378,181,128469,1,0,0:0:0:0:
65,129,128673,1,0,0:0:0:0:
427,85,128877,1,8,0:0:0:0:
170,4,129081,1,0,0:0:0:0:
124,9,129183,1,0,0:0:0:0:
88,38,129285,5,0,0:0:0:0:
88,38,129693,2,0,L|28:43,6,46.8750017881394
186,69,130102,1,0,0:0:0:0:
427,85,130306,1,0,0:0:0:0:
391,114,130408,1,0,0:0:0:0:
346,120,130510,1,0,0:0:0:0:
170,4,130714,1,0,0:0:0:0:
391,114,130918,6,0,P|409:237|384:319,1,187.500007152558,4|0,0:0|0:0,0:0:0:0:
486,347,131326,2,0,P|363:329|281:354,1,187.500007152558
187,384,131734,1,8,0:0:0:0:
275,250,131938,1,0,0:0:0:0:
275,250,132040,1,0,0:0:0:0:
275,250,132142,2,0,P|279:167|212:257,1,281.250010728836
348,127,132551,6,0,P|273:75|182:83,1,187.500007152558
112,37,132959,2,0,B|83:91|118:140|118:140|77:226|140:308,1,281.250010728836
191,376,133367,1,8,0:0:0:0:
313,300,133571,2,0,P|270:283|221:297,1,93.7500035762788
96,380,133775,2,0,P|102:334|139:298,1,93.7500035762788
382,211,133979,2,0,P|342:186|291:192,1,93.7500035762788
134,301,134183,6,0,P|103:220|141:103,1,187.500007152558
269,95,134591,2,0,P|188:126|71:88,1,187.500007152558
34,0,135000,1,8,0:0:0:0:
222,41,135204,2,0,P|173:56|118:37,1,93.7500035762788
11,126,135408,2,0,P|38:168|93:189,1,93.7500035762788
272,217,135612,2,0,P|256:265|209:299,1,93.7500035762788
51,318,135816,6,0,P|130:222|200:220,1,187.500007152558
325,304,136224,1,0,0:0:0:0:
170,340,136428,1,0,0:0:0:0:
170,340,136530,1,0,0:0:0:0:
170,340,136632,2,0,B|106:213|106:213|192:71,1,281.250010728836,8|0,0:0|0:0,0:0:0:0:
266,50,137040,2,0,P|277:93|252:157,1,93.7500035762788
279,253,137245,2,0,P|321:241|364:187,1,93.7500035762788
440,118,137449,6,0,B|479:80|479:80|455:245,1,187.500007152558
325,304,137857,2,0,B|265:300|265:300|210:329|210:329|133:324,1,187.500007152558
51,318,138265,1,8,0:0:0:0:
182,219,138469,1,0,0:0:0:0:
182,219,138571,1,0,0:0:0:0:
182,219,138673,2,0,P|152:138|115:249,1,281.250010728836
228,285,139081,6,0,P|265:191|226:98,1,187.500007152558
47,89,139489,1,0,0:0:0:0:
141,204,139693,1,0,0:0:0:0:
141,204,139796,1,0,0:0:0:0:
141,204,139898,2,0,B|203:211|203:211|254:180|254:180|341:189,1,187.500007152558,8|0,0:0|0:0,0:0:0:0:
423,183,140204,2,0,B|359:112|359:112|252:99,1,187.500007152558
277,269,140510,1,0,0:0:0:0:
461,88,140714,6,0,B|480:74|475:40|475:40|400:-13|322:46,1,187.500007152558
199,208,141122,2,0,B|175:205|162:173|162:173|201:90|298:102,1,187.500007152558
423,183,141530,1,8,0:0:0:0:
389,313,141734,2,0,L|280:306,1,93.7500035762788
267,100,141938,2,0,L|176:160,1,93.7500035762788
114,353,142142,2,0,L|16:304,1,93.7500035762788
13,155,142347,6,0,P|117:125|204:164,1,187.500007152558
102,243,142755,1,0,0:0:0:0:
33,62,142959,2,0,P|125:52|155:57,1,93.7500035762788
206,71,143163,1,8,0:0:0:0:
398,87,143367,2,0,P|323:141|294:152,1,93.7500035762788
233,166,143571,1,0,0:0:0:0:
57,255,143775,2,0,P|94:170|114:146,1,93.7500035762788
