osu file format v14

[General]
AudioFilename: audio.mp3
AudioLeadIn: 0
PreviewTime: 42237
Countdown: 0
SampleSet: Soft
StackLeniency: 0.2
Mode: 0
LetterboxInBreaks: 0
WidescreenStoryboard: 0

[Editor]
DistanceSpacing: 2
BeatDivisor: 6
GridSize: 4
TimelineZoom: 2.999999

[Metadata]
Title:War Squids
TitleUnicode:War Squids
Artist:Slugdge
ArtistUnicode:Slugdge
Creator:Makeli
Version:Greatfather Mollusca
Source:
Tags:Esoteric Malacology blackened progressive sludge death metal
BeatmapID:1652503
BeatmapSetID:787331

[Difficulty]
HPDrainRate:6
CircleSize:4.4
OverallDifficulty:9
ApproachRate:9.3
SliderMultiplier:1.6
SliderTickRate:1

[Events]
//Background and Video events
0,0,"goo jk its kum.jpg",0,0
//Break Periods
//Storyboard Layer 0 (Background)
//Storyboard Layer 1 (Fail)
//Storyboard Layer 2 (Pass)
//Storyboard Layer 3 (Foreground)
//Storyboard Sound Samples

[TimingPoints]
89,428.571428571429,4,2,0,60,1,0
303,-200,4,2,1,60,0,0
374,-200,4,2,13,60,0,0
875,-200,4,2,1,5,0,0
947,428.571428571429,4,2,1,60,1,0
947,-66.6666666666667,4,2,2,60,0,0
1232,-66.6666666666667,4,2,1,60,0,0
6947,-66.6666666666667,4,2,1,60,0,0
7518,-66.6666666666667,4,2,2,60,0,0
8089,-66.6666666666667,4,2,1,60,0,0
10804,-40,4,2,1,60,0,0
11161,-40,4,2,1,5,0,0
11232,-200,4,2,2,60,0,0
11589,-200,4,2,2,5,0,0
11661,-66.6666666666667,4,2,1,60,0,0
14375,-66.6666666666667,4,2,1,60,0,0
14661,-200,4,2,2,60,0,0
14947,-200,4,2,2,5,0,0
15089,-66.6666666666667,4,2,1,60,0,0
17661,-66.6666666666667,4,2,3,60,0,0
18089,-66.6666666666667,4,2,2,60,0,0
18232,-66.6666666666667,4,2,1,60,0,0
21232,-66.6666666666667,4,2,2,60,0,0
21518,-200,4,2,2,60,0,0
21947,-66.6666666666667,4,2,1,60,0,0
24518,-40,4,2,1,60,0,0
24947,-200,4,2,2,60,0,0
25304,-200,4,2,2,5,0,0
25375,-66.6666666666667,4,2,1,60,0,0
28089,-66.6666666666667,4,2,2,60,0,0
28375,-200,4,2,2,60,0,0
28804,-66.6666666666667,4,2,1,60,0,0
31375,-66.6666666666667,4,2,3,60,0,0
31804,-66.6666666666667,4,2,2,60,0,0
31947,-66.6666666666667,4,2,1,60,0,0
34947,-66.6666666666667,4,2,2,60,0,0
35232,-200,4,2,2,60,0,0
35518,-200,4,2,1,60,0,0
35661,-40,4,2,1,60,0,0
35804,-66.6666666666667,4,2,1,60,0,0
38232,-40,4,2,1,60,0,0
38661,-200,4,2,2,60,0,0
39018,-200,4,2,2,5,0,0
39089,-66.6666666666667,4,2,1,60,0,0
41804,-66.6666666666667,4,2,2,60,0,0
42089,-66.6666666666667,4,2,3,60,0,0
44661,-66.6666666666667,4,2,2,60,0,0
45518,-200,4,2,2,60,0,0
45875,-200,4,2,2,5,0,0
45947,-76.9230769230769,4,2,1,60,0,0
46804,-111.111111111111,4,2,1,60,0,0
47161,-111.111111111111,4,2,1,5,0,0
47232,-76.9230769230769,4,2,1,60,0,0
52375,-200,4,2,2,60,0,0
52732,-200,4,2,1,5,0,0
52804,-76.9230769230769,4,2,1,60,0,0
54089,-76.9230769230769,4,2,2,60,0,0
54232,-76.9230769230769,4,2,1,60,0,0
55804,-76.9230769230769,4,2,2,60,0,0
55875,-76.9230769230769,4,2,1,60,0,0
59232,-200,4,2,2,60,0,0
59589,-200,4,2,1,5,0,0
59661,-76.9230769230769,4,2,1,60,0,0
60518,-111.111111111111,4,2,1,60,0,0
60875,-111.111111111111,4,2,1,5,0,0
60947,-76.9230769230769,4,2,1,60,0,0
62661,-76.9230769230769,4,2,2,60,0,0
62732,-76.9230769230769,4,2,1,60,0,0
66089,-200,4,2,2,60,0,0
66447,-200,4,2,1,5,0,0
66518,-76.9230769230769,4,2,1,60,0,0
67804,-76.9230769230769,4,2,2,60,0,0
67947,-76.9230769230769,4,2,1,60,0,0
68661,375,4,2,1,60,1,0
68661,-76.9230769230769,4,2,1,60,0,0
68942,428.571428571429,4,2,2,60,1,0
68942,-76.9230769230769,4,2,2,60,0,0
69518,428.571428571429,4,2,2,50,1,0
69518,-100,4,2,2,50,0,0
69946,-100,4,2,1,50,0,0
70089,-100,4,2,2,50,0,0
70803,-100,4,2,1,50,0,0
70946,-100,4,2,2,50,0,0
71232,-100,4,2,1,50,0,0
71518,-100,4,2,2,50,0,0
73375,-100,4,2,1,50,0,0
73518,-100,4,2,2,50,0,0
74232,-100,4,2,1,50,0,0
74375,-100,4,2,2,50,0,0
74660,-100,4,2,1,50,0,0
74946,-100,4,2,2,50,0,0
75518,-100,4,2,1,50,0,0
76375,-100,4,2,2,50,0,0
76803,-100,4,2,1,50,0,0
76946,-100,4,2,2,50,0,0
77660,-100,4,2,1,50,0,0
77803,-100,4,2,2,50,0,0
78089,-100,4,2,1,50,0,0
78232,-100,4,2,2,50,0,0
78518,-100,4,2,1,50,0,0
78661,-100,4,2,2,50,0,0
80232,-100,4,2,1,50,0,0
80375,-100,4,2,2,50,0,0
81089,-100,4,2,1,50,0,0
81232,-100,4,2,2,50,0,0
81518,-100,4,2,1,50,0,0
81661,-100,4,2,2,50,0,0
81946,-100,4,2,1,50,0,0
82089,-100,4,2,2,50,0,0
82803,-100,4,2,4,50,0,0
83018,-100,4,2,5,50,0,0
83232,-86.9565217391304,4,2,2,50,0,0
83375,-86.9565217391304,4,2,1,50,0,0
83518,-86.9565217391304,4,2,2,50,0,0
83660,-86.9565217391304,4,2,1,50,0,0
84232,-86.9565217391304,4,2,2,50,0,0
84803,-86.9565217391304,4,2,1,50,0,0
85089,-86.9565217391304,4,2,2,50,0,0
85660,-86.9565217391304,4,2,1,50,0,0
85803,-86.9565217391304,4,2,2,50,0,0
86518,-86.9565217391304,4,2,1,50,0,0
86946,-86.9565217391304,4,2,2,50,0,0
87089,-86.9565217391304,4,2,1,50,0,0
87946,-86.9565217391304,4,2,2,50,0,0
88089,-86.9565217391304,4,2,1,50,0,0
88232,-86.9565217391304,4,2,2,50,0,0
88375,-86.9565217391304,4,2,1,50,0,0
88803,-86.9565217391304,4,2,2,50,0,0
88946,-86.9565217391304,4,2,1,50,0,0
90089,-86.9565217391304,4,2,2,50,0,0
90232,-86.9565217391304,4,2,1,50,0,0
90375,-86.9565217391304,4,2,2,50,0,0
90518,-86.9565217391304,4,2,1,50,0,0
91232,-86.9565217391304,4,2,2,50,0,0
91375,-86.9565217391304,4,2,1,50,0,0
92089,-86.9565217391304,4,2,2,50,0,0
92375,-86.9565217391304,4,2,1,50,0,0
96089,-76.9230769230769,4,2,1,50,0,0
96375,-76.9230769230769,4,2,2,50,0,0
96518,-76.9230769230769,4,2,1,50,0,0
96660,-200,4,2,1,50,0,0
96948,285.714285714286,6,2,2,60,1,0
97019,-100,6,2,6,60,0,0
100376,-100,6,2,2,60,0,0
100448,-100,6,2,6,60,0,0
103233,-100,6,2,1,60,0,0
103519,-100,6,2,2,60,0,0
103876,-100,6,2,6,60,0,0
107233,-100,6,2,2,60,0,0
107305,-100,6,2,6,60,0,0
110162,-100,6,2,1,60,0,0
110376,-100,6,2,2,60,0,0
110733,-100,6,2,1,60,0,0
110948,-100,6,2,3,60,0,0
117519,-100,6,2,2,60,0,0
117590,-100,6,2,1,60,0,0
117805,-100,6,2,3,60,0,0
122948,-100,6,2,2,60,0,0
123090,-100,6,2,1,60,0,0
123233,-100,6,2,2,60,0,0
123376,-100,6,2,1,60,0,0
123519,-100,6,2,2,60,0,0
124378,352.941176470588,4,2,2,50,1,0
125436,-250,4,2,3,60,0,0
125701,-250,4,2,3,5,0,0
125789,-125,4,2,2,60,0,0
125966,-125,4,2,1,60,0,0
128613,-125,4,2,3,60,0,0
128966,-125,4,2,1,60,0,0
130201,-125,4,2,1,60,0,0
130730,-125,4,2,3,60,0,0
131083,-66.6666666666667,4,2,3,60,0,0
131436,-125,4,2,2,60,0,0
131613,-125,4,2,1,60,0,0
134260,-125,4,2,3,60,0,0
134525,-125,4,2,1,5,0,0
134613,-125,4,2,1,60,0,0
134966,-125,4,2,3,60,0,0
136025,-125,4,2,2,60,0,0
137260,-125,4,2,1,60,0,0
139907,-125,4,2,3,60,0,0
140789,-125,4,2,1,60,0,0
142025,-125,4,2,3,60,0,0
142378,-66.6666666666667,4,2,3,60,0,0
142730,-125,4,2,2,60,0,0
142907,-125,4,2,1,60,0,0
145554,-125,4,2,3,60,0,0
145819,-125,4,2,1,5,0,0
145907,-125,4,2,1,60,0,0
146260,-125,4,2,3,60,0,0
146613,-125,4,2,1,60,0,0
146966,-125,4,2,3,60,0,0
147319,-125,4,2,2,60,0,0
148554,-125,4,2,1,60,0,0
151201,-125,4,2,3,60,0,0
151554,-125,4,2,1,60,0,0
151907,-125,4,2,3,60,0,0
152083,-125,4,2,1,60,0,0
153319,-125,4,2,3,60,0,0
153672,-66.6666666666667,4,2,3,60,0,0
154025,-125,4,2,2,60,0,0
154201,-125,4,2,1,60,0,0
156848,-125,4,2,3,60,0,0
157113,-125,4,2,1,5,0,0
157201,-125,4,2,1,60,0,0
158966,-125,4,2,2,60,0,0
159672,-125,4,2,2,60,0,0
159848,-125,4,2,1,60,0,0
162495,-125,4,2,3,60,0,0
162848,-125,4,2,1,60,0,0
163201,-125,4,2,3,60,0,0
163377,-125,4,2,1,60,0,0
164613,-125,4,2,3,60,0,0
164966,-66.6666666666667,4,2,1,60,0,0
165319,-125,4,2,2,60,0,0
165495,-125,4,2,1,60,0,0
168142,-125,4,2,3,60,0,0
168407,-125,4,2,1,5,0,0
168495,-125,4,2,1,60,0,0
168848,-125,4,2,3,60,0,0
169907,-125,4,2,2,60,0,0
170966,-333.333333333333,4,2,2,60,0,0
171142,-333.333333333333,4,2,1,60,0,0
171730,-200,4,2,13,60,0,0
172289,-333.333333333333,4,2,1,5,0,0
172377,-333.333333333333,4,2,1,60,0,0
173672,-200,4,2,13,60,0,0
174230,-333.333333333333,4,2,1,5,0,0
174319,-333.333333333333,4,2,1,60,0,0
174495,-333.333333333333,4,2,2,60,0,0
175201,-333.333333333333,4,2,1,60,0,0
177377,-200,4,2,13,60,0,0
177936,-333.333333333333,4,2,1,5,0,0
178025,-333.333333333333,4,2,1,60,0,0
178201,-333.333333333333,4,2,2,60,0,0
178554,-333.333333333333,4,2,1,60,0,0
179319,-200,4,2,13,60,0,0
179701,-333.333333333333,4,2,1,5,0,0
179789,-333.333333333333,4,2,1,60,0,0
181730,-333.333333333333,4,2,2,60,0,0
182436,-333.333333333333,4,2,1,60,0,0
183025,-200,4,2,13,60,0,0
183583,-333.333333333333,4,2,1,5,0,0
183672,-333.333333333333,4,2,1,60,0,0
184966,-200,4,2,13,60,0,0
185525,-333.333333333333,4,2,1,5,0,0
185613,-333.333333333333,4,2,1,60,0,0
185789,-333.333333333333,4,2,2,60,0,0
186495,-333.333333333333,4,2,1,60,0,0
188672,-200,4,2,13,60,0,0
189230,-333.333333333333,4,2,1,5,0,0
189319,-333.333333333333,4,2,2,60,0,0
189848,-333.333333333333,4,2,1,60,0,0
190613,-200,4,2,13,60,0,0
190995,-333.333333333333,4,2,1,5,0,0
191083,-333.333333333333,4,2,2,60,0,0
191966,-333.333333333333,4,2,1,60,0,0
192848,-100,4,2,1,60,0,0
193201,-333.333333333333,4,2,2,60,0,0
193554,-333.333333333333,4,2,2,60,0,0
193613,-200,4,2,13,60,0,0
194172,-333.333333333333,4,2,1,5,0,0
194260,-100,4,2,3,60,0,0
199201,-333.333333333333,4,2,2,60,0,0
199260,-200,4,2,13,60,0,0
199819,-333.333333333333,4,2,1,5,0,0
199907,-100,4,2,3,60,0,0
203436,-100,4,2,2,60,0,0
203525,-100,4,2,3,60,0,0
204319,-100,4,2,2,60,0,0
204495,-100,4,2,5,60,0,0
204848,-333.333333333333,4,2,2,60,0,0
204907,-200,4,2,13,60,0,0
205377,-100,4,2,1,60,0,0
205554,-100,4,2,3,60,0,0
207142,-333.333333333333,4,2,2,60,0,0
207201,-200,4,2,13,60,0,0
207672,-100,4,2,3,60,0,0
210495,-333.333333333333,4,2,2,60,0,0
210554,-200,4,2,13,60,0,0
211025,-333.333333333333,4,2,2,5,0,0
211201,-100,4,2,3,60,0,0
212966,-377.358490566038,4,2,2,60,0,0
213025,-200,4,2,13,60,0,0
213495,-333.333333333333,4,2,2,5,0,0
213672,-100,4,2,3,60,0,0
215260,-100,4,2,2,60,0,0
215789,-100,4,2,5,60,0,0
216142,-100,4,2,2,60,0,0
216230,-100,4,2,1,60,0,0
218613,-100,4,2,3,60,0,0
218966,-100,4,2,2,60,0,0
219054,-100,4,2,1,60,0,0
221172,-100,4,2,3,60,0,0
221789,-100,4,2,2,60,0,0
221877,-100,4,2,1,60,0,0
224260,-100,4,2,3,60,0,0
224613,-100,4,2,2,60,0,0
224701,-100,4,2,1,60,0,0
226377,-100,4,2,2,60,0,0
226730,-100,4,2,4,60,0,0
227083,-100,4,2,5,60,0,0
227436,-100,4,2,2,60,0,0
227524,-100,4,2,1,60,0,0
229907,-100,4,2,3,60,0,0
230260,-100,4,2,2,60,0,0
230348,-100,4,2,1,60,0,0
232025,-100,4,2,3,60,0,0
232377,-100,4,2,1,60,0,0
233083,-100,4,2,2,60,0,0
233171,-100,4,2,1,60,0,0
235554,-100,4,2,3,60,0,0
235907,-100,4,2,2,60,0,0
235995,-100,4,2,1,60,0,0
237319,-100,4,2,2,60,0,0
237407,-100,4,2,1,60,0,0
237583,-100,4,2,2,60,0,0
237672,-100,4,2,1,60,0,0
237848,-100,4,2,2,60,0,0
237936,-100,4,2,3,60,0,0
238730,-100,4,2,2,60,0,0
238818,-100,4,2,1,60,0,0
241201,-100,4,2,3,60,0,0
241554,-100,4,2,2,60,0,0
241642,-100,4,2,1,60,0,0
243760,-100,4,2,3,60,0,0
244377,-100,4,2,2,60,0,0
244465,-100,4,2,1,60,0,0
246848,-100,4,2,3,60,0,0
247201,-100,4,2,2,60,0,0
247289,-100,4,2,1,60,0,0
248966,-100,4,2,2,60,0,0
249319,-100,4,2,4,60,0,0
249672,-100,4,2,5,60,0,0
250025,-100,4,2,2,60,0,0
250113,-100,4,2,1,60,0,0
252495,-100,4,2,3,60,0,0
252848,-100,4,2,2,60,0,0
252936,-100,4,2,1,60,0,0
255054,-100,4,2,3,60,0,0
255672,-100,4,2,2,60,0,0
255760,-100,4,2,1,60,0,0
258495,-100,4,2,2,60,0,0
258583,-100,4,2,1,60,0,0
260260,-100,4,2,2,60,0,0
260613,-100,4,2,1,60,0,0
261319,285.714285714286,3,2,1,70,1,1
261319,-83.3333333333333,3,2,2,70,0,1
261390,-83.3333333333333,3,2,1,70,0,0
261890,-83.3333333333333,3,2,2,70,0,0
262176,-83.3333333333333,3,2,2,70,0,1
262247,-83.3333333333333,3,2,1,70,0,0
262747,-83.3333333333333,3,2,2,70,0,0
263033,-83.3333333333333,3,2,2,70,0,1
263104,-83.3333333333333,3,2,1,70,0,0
263604,-83.3333333333333,3,2,2,70,0,0
263890,-83.3333333333333,3,2,2,70,0,1
264176,-83.3333333333333,3,2,2,70,0,0
264319,-83.3333333333333,3,2,1,70,0,0
264461,-83.3333333333333,3,2,3,70,0,0
264747,-83.3333333333333,3,2,2,70,0,1
264819,-83.3333333333333,3,2,1,70,0,0
265319,-83.3333333333333,3,2,2,70,0,0
265604,-83.3333333333333,3,2,2,70,0,1
265676,-83.3333333333333,3,2,1,70,0,0
266176,-83.3333333333333,3,2,2,70,0,0
266461,-83.3333333333333,3,2,2,70,0,1
266747,-83.3333333333333,3,2,1,70,0,1
266890,-83.3333333333333,3,2,3,70,0,1
267033,-83.3333333333333,3,2,1,70,0,1
268033,-83.3333333333333,3,2,1,70,0,0
268176,-83.3333333333333,3,2,2,70,0,1
268247,-83.3333333333333,3,2,1,70,0,0
268747,-83.3333333333333,3,2,2,70,0,0
269033,-83.3333333333333,3,2,2,70,0,1
269104,-83.3333333333333,3,2,1,70,0,0
269604,-83.3333333333333,3,2,2,70,0,0
269890,-83.3333333333333,3,2,2,70,0,1
269961,-83.3333333333333,3,2,1,70,0,0
270461,-83.3333333333333,3,2,2,70,0,0
270747,-83.3333333333333,3,2,1,70,0,1
271033,-83.3333333333333,3,2,2,70,0,0
271176,-83.3333333333333,3,2,1,70,0,0
271319,-83.3333333333333,3,2,3,70,0,0
271604,-83.3333333333333,3,2,2,70,0,1
271676,-83.3333333333333,3,2,1,70,0,0
272176,-83.3333333333333,3,2,2,70,0,0
272461,-83.3333333333333,3,2,2,70,0,1
272533,-83.3333333333333,3,2,1,70,0,0
273033,-83.3333333333333,3,2,2,70,0,0
273319,-83.3333333333333,3,2,2,70,0,1
273604,-83.3333333333333,3,2,1,70,0,1
273747,-83.3333333333333,3,2,3,70,0,1
273890,-83.3333333333333,3,2,1,70,0,1
274747,-83.3333333333333,3,2,2,70,0,1
274890,-83.3333333333333,3,2,2,70,0,0
275033,-83.3333333333333,3,2,2,70,0,1
275176,-83.3333333333333,3,2,6,70,0,1
276747,-83.3333333333333,3,2,2,70,0,1
276819,-83.3333333333333,3,2,6,70,0,1
277604,-83.3333333333333,3,2,2,70,0,1
278604,-83.3333333333333,3,2,6,70,0,1
280176,-83.3333333333333,3,2,2,70,0,1
280319,-83.3333333333333,3,2,1,70,0,1
281461,-83.3333333333333,3,2,1,70,0,0
281890,-83.3333333333333,3,2,2,70,0,1
282033,-83.3333333333333,3,2,6,70,0,1
283604,-83.3333333333333,3,2,2,70,0,1
283676,-83.3333333333333,3,2,6,70,0,1
284461,-83.3333333333333,3,2,1,70,0,0
284604,-83.3333333333333,3,2,2,70,0,0
284747,-83.3333333333333,3,2,1,70,0,0
284890,-83.3333333333333,3,2,2,70,0,0
285033,-83.3333333333333,3,2,1,70,0,0
285176,-83.3333333333333,3,2,2,70,0,0
285319,-83.3333333333333,3,2,2,70,0,1
285461,-83.3333333333333,3,2,6,70,0,1
287033,-83.3333333333333,3,2,2,70,0,1
287176,-83.3333333333333,3,2,1,70,0,1
288747,-83.3333333333333,3,2,2,70,0,1
288890,-83.3333333333333,3,2,1,70,0,1
290461,-83.3333333333333,3,2,3,70,0,1
290747,-83.3333333333333,3,2,1,70,0,1
291319,-83.3333333333333,3,2,3,70,0,1
291604,-83.3333333333333,3,2,1,70,0,1
292176,-83.3333333333333,3,2,2,70,0,1
292319,-83.3333333333333,3,2,1,70,0,1
293890,-83.3333333333333,3,2,2,70,0,1
294033,-83.3333333333333,3,2,1,70,0,1
295604,-83.3333333333333,3,2,3,70,0,1
295890,-83.3333333333333,3,2,1,70,0,1
296461,-83.3333333333333,3,2,3,70,0,1
296747,-83.3333333333333,3,2,1,70,0,1
297319,-83.3333333333333,3,2,2,70,0,1
297461,-83.3333333333333,3,2,1,70,0,1
299033,-83.3333333333333,3,2,2,70,0,1
299176,-83.3333333333333,3,2,1,70,0,1
300461,-83.3333333333333,3,2,2,70,0,1
300890,-83.3333333333333,3,2,1,70,0,1
302461,-83.3333333333333,3,2,3,70,0,1
302747,-83.3333333333333,3,2,1,70,0,1
303319,-83.3333333333333,3,2,3,70,0,1
303604,-83.3333333333333,3,2,1,70,0,1
304176,-83.3333333333333,3,2,2,70,0,1
304319,-83.3333333333333,3,2,1,70,0,1
305890,-83.3333333333333,3,2,2,70,0,1
306033,-83.3333333333333,3,2,1,70,0,1
307319,-83.3333333333333,3,2,2,70,0,1
307747,-83.3333333333333,3,2,1,70,0,1
309319,-83.3333333333333,3,2,3,70,0,1
309604,-83.3333333333333,3,2,1,70,0,1
310176,-83.3333333333333,3,2,3,70,0,1
310461,-83.3333333333333,3,2,1,70,0,1
311033,-83.3333333333333,3,2,2,70,0,1
311176,-83.3333333333333,3,2,1,70,0,1
312747,-83.3333333333333,3,2,2,70,0,1
312890,-83.3333333333333,3,2,1,70,0,1
313747,-83.3333333333333,3,2,2,70,0,1
314461,428.571428571429,4,2,2,60,1,0
314461,-200,4,2,2,60,0,0
314889,-66.6666666666667,4,2,1,60,0,0
317461,-66.6666666666667,4,2,3,60,0,0
317889,-66.6666666666667,4,2,2,60,0,0
318032,-66.6666666666667,4,2,1,60,0,0
321032,-66.6666666666667,4,2,2,60,0,0
321318,-200,4,2,2,60,0,0
321746,-40,4,2,1,60,0,0
321889,-66.6666666666667,4,2,1,60,0,0
324318,-40,4,2,1,60,0,0
324746,-200,4,2,2,60,0,0
325103,-200,4,2,2,5,0,0
325175,-66.6666666666667,4,2,1,60,0,0
327889,-66.6666666666667,4,2,2,60,0,0
328175,-200,4,2,2,60,0,0
328603,-66.6666666666667,4,2,1,60,0,0
331175,-66.6666666666667,4,2,3,60,0,0
331461,-66.6666666666667,4,2,1,60,0,0
334746,-66.6666666666667,4,2,2,60,0,0
335032,-200,4,2,2,60,0,0
335461,-66.6666666666667,4,2,1,60,0,0
338032,-40,4,2,1,60,0,0
338461,-200,4,2,2,60,0,0
338818,-200,4,2,2,5,0,0
338889,-66.6666666666667,4,2,1,60,0,0
341603,-66.6666666666667,4,2,2,60,0,0
341889,-66.6666666666667,4,2,3,60,0,0
344461,-66.6666666666667,4,2,2,60,0,0
345318,-200,4,2,2,60,0,0
345675,-200,4,2,2,5,0,0
345746,-76.9230769230769,4,2,1,60,0,0
346603,-111.111111111111,4,2,1,60,0,0
346961,-111.111111111111,4,2,1,5,0,0
347032,-76.9230769230769,4,2,1,60,0,0
351889,-76.9230769230769,4,2,2,60,0,0
352175,-200,4,2,2,60,0,0
352532,-200,4,2,1,60,0,0
352603,-76.9230769230769,4,2,1,60,0,0
355603,-76.9230769230769,4,2,2,60,0,0
355675,-76.9230769230769,4,2,1,60,0,0
358746,-76.9230769230769,4,2,2,60,0,0
359032,-200,4,2,2,60,0,0
359389,-200,4,2,2,5,0,0
359461,-76.9230769230769,4,2,1,60,0,0
360246,-76.9230769230769,4,2,1,5,0,0
360318,-111.111111111111,4,2,1,60,0,0
360675,-111.111111111111,4,2,1,5,0,0
360746,-76.9230769230769,4,2,1,60,0,0
362175,-76.9230769230769,4,2,2,60,0,0
362461,-66.6666666666667,4,2,2,60,0,0
362532,-66.6666666666667,4,2,1,60,0,0
365032,-66.6666666666667,4,2,2,60,0,0
365175,-66.6666666666667,4,2,4,60,0,0
365318,-66.6666666666667,4,2,5,60,0,0
365461,-66.6666666666667,4,2,2,60,0,0
365746,-66.6666666666667,4,2,4,60,0,0
365889,-200,4,2,2,60,0,0
366246,-200,4,2,2,5,0,0
366318,-76.9230769230769,4,2,1,60,0,0
367889,-76.9230769230769,4,2,2,60,0,0
368032,-76.9230769230769,4,2,1,60,0,0
368318,-76.9230769230769,4,2,2,60,0,0
368461,375,4,2,2,60,1,0
368461,-66.6666666666667,4,2,2,60,0,0
369023,-66.6666666666667,4,2,4,60,0,0
369315,428.571428571429,4,2,2,50,1,0
369315,-100,4,2,2,50,0,0
370600,-100,4,2,1,50,0,0
370743,-100,4,2,2,50,0,0
371029,-100,4,2,1,50,0,0
371315,-100,4,2,2,50,0,0
372743,-100,4,2,1,50,0,0
373029,-100,4,2,2,50,0,0
374029,-100,4,2,1,50,0,0
374172,-100,4,2,2,50,0,0
374457,-100,4,2,1,50,0,0
374743,-100,4,2,2,50,0,0
374886,-100,4,2,1,50,0,0
375029,-100,4,2,2,50,0,0
375315,-100,4,2,1,50,0,0
376172,-100,4,2,2,50,0,0
376600,-100,4,2,1,50,0,0
376743,-100,4,2,2,50,0,0
377886,-100,4,2,1,50,0,0
378172,-100,4,2,2,50,0,0
378315,-100,4,2,1,50,0,0
378457,-100,4,2,2,50,0,0
379600,-100,4,2,1,50,0,0
379886,-100,4,2,2,50,0,0
380029,-100,4,2,1,50,0,0
380172,-100,4,2,2,50,0,0
380886,-100,4,2,1,50,0,0
381029,-100,4,2,2,50,0,0
381315,-100,4,2,1,50,0,0
381600,-100,4,2,2,50,0,0
381743,-100,4,2,1,50,0,0
381886,-100,4,2,2,50,0,0
382600,-100,4,2,4,50,0,0
382815,-100,4,2,5,50,0,0
383029,-86.9565217391304,4,2,2,50,0,0
383172,-86.9565217391304,4,2,1,50,0,0
383315,-86.9565217391304,4,2,2,50,0,0
383600,-86.9565217391304,4,2,1,50,0,0
383886,-86.9565217391304,4,2,2,50,0,0
384315,-86.9565217391304,4,2,1,50,0,0
384457,-86.9565217391304,4,2,2,50,0,0
384743,-86.9565217391304,4,2,1,50,0,0
385029,-86.9565217391304,4,2,2,50,0,0
385315,-86.9565217391304,4,2,1,50,0,0
385600,-86.9565217391304,4,2,2,50,0,0
386315,-86.9565217391304,4,2,1,50,0,0
386743,-86.9565217391304,4,2,2,50,0,0
387029,-86.9565217391304,4,2,1,50,0,0
387600,-86.9565217391304,4,2,2,50,0,0
387886,-86.9565217391304,4,2,1,50,0,0
388029,-86.9565217391304,4,2,2,50,0,0
388172,-86.9565217391304,4,2,1,50,0,0
388600,-86.9565217391304,4,2,2,50,0,0
388743,-86.9565217391304,4,2,1,50,0,0
388886,-86.9565217391304,4,2,2,50,0,0
389029,-86.9565217391304,4,2,1,50,0,0
389886,-86.9565217391304,4,2,2,50,0,0
390029,-86.9565217391304,4,2,1,50,0,0
390172,-86.9565217391304,4,2,2,50,0,0
390315,-86.9565217391304,4,2,1,50,0,0
391029,-86.9565217391304,4,2,2,50,0,0
391172,-86.9565217391304,4,2,1,50,0,0
391886,-86.9565217391304,4,2,2,50,0,0
392172,-86.9565217391304,4,2,1,50,0,0
395886,-76.9230769230769,4,2,1,50,0,0
396172,-86.9565217391304,4,2,2,50,0,0
396315,-76.9230769230769,4,2,1,50,0,0
396457,-200,4,2,1,50,0,0
396671,-200,4,2,1,5,0,0
396743,285.714285714286,6,2,2,60,1,0
396814,-100,6,2,3,60,0,0
403600,-100,6,2,2,60,0,0
403671,-100,6,2,3,60,0,0
410457,-100,6,2,2,60,0,0
410528,-100,6,2,3,60,0,0
417028,-100,6,2,2,60,0,0
417385,-100,6,2,3,60,0,0
422743,-100,6,2,2,60,0,0
422885,-100,6,2,3,60,0,0
423028,-100,6,2,2,60,0,0
423171,-100,6,2,3,60,0,0
423314,-100,6,2,2,60,0,0
424243,-100,6,2,6,60,0,0
427600,-100,6,2,2,60,0,0
427671,-100,6,2,6,60,0,0
430528,-100,6,2,2,60,0,0
431100,-100,6,2,6,60,0,0
434457,-100,6,2,2,60,0,0
434528,-100,6,2,6,60,0,0
437028,-100,6,2,2,60,0,0
437600,-100,6,2,4,60,0,0
437885,-100,6,2,2,60,0,0
437957,-100,6,2,3,60,0,0

[Colours]
Combo1 : 199,88,185
Combo2 : 114,77,191
Combo3 : 125,25,77
Combo4 : 90,71,114

[HitObjects]
356,169,304,6,0,L|366:282,1,106.666666666667
341,304,948,6,0,L|325:136,1,160.000006103516,4|2,0:0|0:0,0:0:0:0:
408,94,1376,1,8,0:0:0:0:
293,237,1519,2,0,L|191:227,1,80.0000030517579,2|0,0:0|0:0,0:0:0:0:
126,83,1804,6,0,P|159:140|159:173,1,80.0000030517579,6|0,0:0|0:0,0:0:0:0:
41,247,2089,1,6,0:0:0:0:
43,258,2161,1,2,0:0:0:0:
45,269,2232,1,8,0:0:0:0:
201,330,2375,2,0,P|163:326|107:323,1,80.0000030517579,2|4,0:0|0:0,0:0:0:0:
357,316,2661,6,0,P|387:312|453:305,1,80.0000030517579,2|0,0:0|0:0,0:0:0:0:
269,245,2947,1,2,0:0:0:0:
389,202,3089,1,12,0:0:0:0:
199,175,3232,2,0,P|160:172|104:170,1,80.0000030517579,2|4,0:0|0:0,0:0:0:0:
359,295,3518,5,2,0:0:0:0:
293,132,3661,1,8,0:0:0:0:
469,171,3804,5,6,0:0:0:0:
281,120,3947,1,8,0:0:0:0:
431,243,4089,5,2,0:0:0:0:
268,107,4232,1,8,0:0:0:0:
184,312,4375,5,2,0:0:0:0:
168,315,4518,1,2,0:0:0:0:
152,318,4661,1,2,0:0:0:0:
73,239,4804,1,12,0:0:0:0:
254,262,4947,2,0,B|273:302|273:302|260:360,1,80.0000030517579,2|0,0:0|0:0,0:0:0:0:
172,181,5232,6,0,L|186:77,1,80.0000030517579,6|0,0:0|0:0,0:0:0:0:
379,56,5518,1,6,0:0:0:0:
258,14,5661,1,8,0:0:0:0:
374,161,5804,2,0,P|449:154|477:153,1,80.0000030517579,2|0,0:0|0:0,0:0:0:0:
234,258,6089,6,0,P|158:249|126:247,1,80.0000030517579,2|4,0:0|0:0,0:0:0:0:
377,175,6375,1,2,0:0:0:0:
379,186,6447,1,2,0:0:0:0:
381,197,6518,1,12,0:0:0:0:
228,103,6661,2,0,P|232:60|250:11,1,80.0000030517579,2|0,0:0|0:0,0:0:0:0:
89,193,6947,5,6,0:0:0:0:
254,262,7089,1,8,0:0:0:0:
130,104,7232,5,6,0:0:0:0:
270,266,7375,1,8,0:0:0:0:
228,124,7518,5,2,0:0:0:0:
228,124,7661,1,2,0:0:0:0:
187,336,7804,6,0,P|253:299|362:316,1,160.000006103516,6|2,0:0|0:0,0:0:0:0:
398,374,8232,1,12,0:0:0:0:
254,262,8375,2,0,L|265:152,1,80.0000030517579,2|4,0:0|0:0,0:0:0:0:
436,114,8661,6,0,P|390:136|348:135,1,80.0000030517579,2|0,0:0|0:0,0:0:0:0:
156,66,8947,1,2,0:0:0:0:
277,20,9089,1,12,0:0:0:0:
190,174,9232,2,0,P|142:170|86:167,1,80.0000030517579,2|0,0:0|0:0,0:0:0:0:
371,265,9518,6,0,P|427:259|473:256,1,80.0000030517579,2|0,0:0|0:0,0:0:0:0:
275,343,9804,1,6,0:0:0:0:
400,376,9947,1,8,0:0:0:0:
292,235,10089,2,0,P|255:235|202:255,1,80.0000030517579,2|0,0:0|0:0,0:0:0:0:
353,88,10375,6,0,L|371:188,1,80.0000030517579,6|0,0:0|0:0,0:0:0:0:
140,83,10661,1,6,0:0:0:0:
151,79,10732,1,2,0:0:0:0:
162,75,10804,6,0,B|175:109|153:136|123:138|94:139|76:103|89:73|89:73|67:95|67:149|81:132|115:192|76:245,1,333.333333333333,8|0,0:0|0:0,0:0:0:0:
130,304,11232,6,0,L|205:314,1,66.6666666666667,4|0,0:0|0:0,0:0:0:0:
273,378,11661,5,10,0:0:0:0:
284,376,11732,1,2,0:0:0:0:
296,375,11804,1,2,0:0:0:0:
308,373,11875,1,2,0:0:0:0:
320,372,11947,1,2,0:0:0:0:
332,370,12018,1,2,0:0:0:0:
344,369,12089,6,0,L|352:308,5,40.000001525879,2|2|2|2|2|2,0:0|0:0|0:0|0:0|0:0|0:0,0:0:0:0:
441,296,12518,5,10,0:0:0:0:
438,280,12589,1,2,0:0:0:0:
436,264,12660,1,2,0:0:0:0:
434,248,12732,1,2,0:0:0:0:
432,232,12803,1,2,0:0:0:0:
430,216,12875,1,2,0:0:0:0:
428,200,12947,6,0,L|440:143,5,40.000001525879,2|2|2|2|2|2,0:0|0:0|0:0|0:0|0:0|0:0,0:0:0:0:
487,68,13375,5,10,0:0:0:0:
471,80,13446,1,2,0:0:0:0:
452,86,13517,1,2,0:0:0:0:
432,87,13589,1,2,0:0:0:0:
413,82,13660,1,2,0:0:0:0:
396,71,13732,1,2,0:0:0:0:
374,28,13803,5,10,0:0:0:0:
311,185,13947,1,8,0:0:0:0:
263,191,14018,1,8,0:0:0:0:
215,197,14089,1,8,0:0:0:0:
138,75,14232,5,8,0:0:0:0:
296,104,14375,1,2,0:0:0:0:
296,104,14518,1,2,0:0:0:0:
81,155,14661,6,0,L|22:147,1,53.3333333333333,4|0,0:0|0:0,0:0:0:0:
188,357,15089,5,14,0:0:0:0:
191,360,15161,1,2,0:0:0:0:
194,363,15232,2,0,L|204:309,1,40.000001525879,2|2,0:0|0:0,0:0:0:0:
329,261,15375,5,6,0:0:0:0:
332,264,15447,1,2,0:0:0:0:
335,267,15518,2,0,L|285:289,1,40.000001525879,2|2,0:0|0:0,0:0:0:0:
174,216,15661,5,6,0:0:0:0:
177,219,15732,1,2,0:0:0:0:
180,222,15804,2,0,L|227:249,1,40.000001525879,2|2,0:0|0:0,0:0:0:0:
380,333,15947,5,14,0:0:0:0:
402,310,16018,1,2,0:0:0:0:
413,280,16089,1,2,0:0:0:0:
411,247,16161,1,2,0:0:0:0:
397,218,16232,1,2,0:0:0:0:
372,197,16304,1,2,0:0:0:0:
349,174,16375,1,2,0:0:0:0:
336,144,16447,1,2,0:0:0:0:
336,112,16518,1,2,0:0:0:0:
349,83,16589,1,2,0:0:0:0:
371,60,16661,2,0,L|441:53,1,40.000001525879,2|2,0:0|0:0,0:0:0:0:
257,127,16804,5,14,0:0:0:0:
225,123,16875,1,2,0:0:0:0:
192,119,16947,1,2,0:0:0:0:
160,115,17018,1,2,0:0:0:0:
128,111,17089,2,0,L|122:62,1,40.000001525879,2|2,0:0|0:0,0:0:0:0:
243,211,17232,5,6,0:0:0:0:
246,214,17304,1,2,0:0:0:0:
249,217,17375,2,0,L|307:210,1,40.000001525879,2|2,0:0|0:0,0:0:0:0:
179,288,17518,2,0,L|112:275,1,40.000001525879,6|2,0:0|0:0,0:0:0:0:
295,328,17661,6,0,P|302:349|306:378,5,40.000001525879,14|2|2|2|2|2,0:0|0:0|0:0|0:0|0:0|0:0,0:0:0:0:
382,264,18089,5,4,0:0:0:0:
382,264,18232,1,2,0:0:0:0:
228,211,18375,5,6,0:0:0:0:
228,211,18518,2,0,L|216:116,1,80.0000030517579,8|2,0:0|0:0,0:0:0:0:
459,322,18804,5,4,0:0:0:0:
459,322,18947,2,0,L|471:227,1,80.0000030517579,2|0,0:0|0:0,0:0:0:0:
162,314,19232,6,0,L|150:219,1,80.0000030517579,6|8,0:0|0:0,0:0:0:0:
352,357,19518,2,0,L|364:262,1,80.0000030517579,6|0,0:0|0:0,0:0:0:0:
217,131,19804,5,2,0:0:0:0:
217,131,19947,1,0,0:0:0:0:
414,112,20089,5,6,0:0:0:0:
414,112,20232,2,0,L|426:17,1,80.0000030517579,8|2,0:0|0:0,0:0:0:0:
298,202,20518,5,6,0:0:0:0:
296,190,20589,1,2,0:0:0:0:
294,178,20660,1,8,0:0:0:0:
415,243,20804,5,4,0:0:0:0:
415,243,20947,1,2,0:0:0:0:
228,281,21089,5,8,0:0:0:0:
336,314,21232,1,2,0:0:0:0:
336,314,21375,1,2,0:0:0:0:
170,190,21518,6,0,L|108:198,1,53.3333333333333,4|0,0:0|0:0,0:0:0:0:
290,130,21947,6,0,P|297:111|300:91,5,40.000001525879,10|2|2|2|2|2,0:0|0:0|0:0|0:0|0:0|0:0,0:0:0:0:
342,225,22375,5,6,0:0:0:0:
345,228,22447,1,2,0:0:0:0:
348,231,22518,2,0,L|400:240,1,40.000001525879,2|2,0:0|0:0,0:0:0:0:
296,136,22661,5,6,0:0:0:0:
296,136,22732,1,2,0:0:0:0:
299,139,22804,2,0,L|249:150,1,40.000001525879,10|2,0:0|0:0,0:0:0:0:
170,258,22947,5,6,0:0:0:0:
173,261,23018,1,2,0:0:0:0:
176,264,23089,2,0,L|166:202,1,40.000001525879,2|2,0:0|0:0,0:0:0:0:
134,92,23232,5,6,0:0:0:0:
137,95,23304,1,2,0:0:0:0:
140,98,23375,2,0,L|130:160,1,40.000001525879,2|2,0:0|0:0,0:0:0:0:
135,332,23518,5,6,0:0:0:0:
165,342,23589,1,2,0:0:0:0:
197,340,23661,1,10,0:0:0:0:
225,326,23732,1,2,0:0:0:0:
254,313,23804,1,2,0:0:0:0:
285,314,23875,1,2,0:0:0:0:
314,325,23947,2,0,L|325:380,1,40.000001525879,2|2,0:0|0:0,0:0:0:0:
382,239,24089,5,6,0:0:0:0:
385,242,24161,1,2,0:0:0:0:
388,245,24232,2,0,L|379:316,1,40.000001525879,2|2,0:0|0:0,0:0:0:0:
279,186,24375,2,0,L|294:256,1,40.000001525879,6|2,0:0|0:0,0:0:0:0:
404,117,24518,6,0,B|377:97|377:97|326:101,5,66.6666666666667,10|2|2|2|6|2,0:0|0:0|0:0|0:0|0:0|0:0,0:0:0:0:
290,164,24947,6,0,L|212:154,1,66.6666666666667,4|0,0:0|0:0,0:0:0:0:
136,108,25375,5,10,0:0:0:0:
134,119,25446,1,2,0:0:0:0:
133,131,25517,1,2,0:0:0:0:
132,143,25589,1,2,0:0:0:0:
131,155,25660,1,2,0:0:0:0:
129,167,25732,1,2,0:0:0:0:
128,179,25804,6,0,L|63:187,5,40.000001525879,2|2|2|2|2|2,0:0|0:0|0:0|0:0|0:0|0:0,0:0:0:0:
195,230,26232,5,10,0:0:0:0:
208,238,26303,1,2,0:0:0:0:
223,242,26374,1,2,0:0:0:0:
239,241,26446,1,2,0:0:0:0:
254,235,26517,1,2,0:0:0:0:
266,225,26589,1,2,0:0:0:0:
275,212,26661,6,0,L|266:142,5,40.000001525879,2|2|2|2|2|2,0:0|0:0|0:0|0:0|0:0|0:0,0:0:0:0:
344,263,27089,5,10,0:0:0:0:
363,265,27160,1,2,0:0:0:0:
383,267,27231,1,2,0:0:0:0:
403,270,27303,1,2,0:0:0:0:
423,272,27374,1,2,0:0:0:0:
443,275,27446,1,2,0:0:0:0:
490,280,27518,5,10,0:0:0:0:
397,141,27661,1,8,0:0:0:0:
349,146,27732,1,8,0:0:0:0:
300,151,27804,1,8,0:0:0:0:
169,66,27947,5,8,0:0:0:0:
127,220,28089,1,2,0:0:0:0:
127,220,28232,1,2,0:0:0:0:
257,85,28375,6,0,L|250:27,1,53.3333333333333,4|0,0:0|0:0,0:0:0:0:
127,220,28804,5,14,0:0:0:0:
130,223,28875,1,2,0:0:0:0:
133,226,28947,2,0,P|157:235|199:237,1,40.000001525879,2|2,0:0|0:0,0:0:0:0:
284,156,29089,5,6,0:0:0:0:
287,159,29161,1,2,0:0:0:0:
290,162,29232,2,0,P|268:176|243:209,1,40.000001525879,2|2,0:0|0:0,0:0:0:0:
254,321,29375,5,6,0:0:0:0:
257,324,29447,1,2,0:0:0:0:
260,327,29518,2,0,P|260:301|247:261,1,40.000001525879,2|2,0:0|0:0,0:0:0:0:
183,162,29661,5,14,0:0:0:0:
153,147,29732,1,2,0:0:0:0:
121,145,29804,1,2,0:0:0:0:
90,156,29875,1,2,0:0:0:0:
67,177,29947,1,2,0:0:0:0:
53,206,30018,1,2,0:0:0:0:
51,237,30089,1,2,0:0:0:0:
61,267,30161,1,2,0:0:0:0:
82,290,30232,1,2,0:0:0:0:
110,305,30304,1,2,0:0:0:0:
142,308,30375,2,0,L|196:295,1,40.000001525879,2|2,0:0|0:0,0:0:0:0:
284,156,30518,5,14,0:0:0:0:
287,159,30590,1,2,0:0:0:0:
290,162,30661,2,0,L|276:221,1,40.000001525879,2|2,0:0|0:0,0:0:0:0:
419,175,30804,5,6,0:0:0:0:
422,178,30875,1,2,0:0:0:0:
425,181,30947,2,0,L|384:135,1,40.000001525879,2|2,0:0|0:0,0:0:0:0:
339,277,31089,5,6,0:0:0:0:
342,280,31161,1,2,0:0:0:0:
345,283,31232,2,0,L|405:275,1,40.000001525879,2|2,0:0|0:0,0:0:0:0:
247,324,31375,6,0,P|237:351|235:378,5,40.000001525879,14|2|2|2|2|2,0:0|0:0|0:0|0:0|0:0|0:0,0:0:0:0:
170,251,31804,5,4,0:0:0:0:
170,251,31947,1,2,0:0:0:0:
345,283,32089,5,6,0:0:0:0:
345,283,32232,2,0,L|360:377,1,80.0000030517579,8|2,0:0|0:0,0:0:0:0:
264,188,32518,5,0,0:0:0:0:
264,188,32661,1,2,0:0:0:0:
88,197,32804,6,0,L|73:291,1,80.0000030517579,4|2,0:0|0:0,0:0:0:0:
173,129,33089,1,8,0:0:0:0:
350,193,33232,6,0,L|365:287,1,80.0000030517579,6|0,0:0|0:0,0:0:0:0:
256,101,33518,5,2,0:0:0:0:
256,101,33661,1,0,0:0:0:0:
170,251,33804,6,0,L|155:345,1,80.0000030517579,6|8,0:0|0:0,0:0:0:0:
331,180,34089,2,0,L|346:274,1,80.0000030517579,6|2,0:0|0:0,0:0:0:0:
346,270,34304,1,2,0:0:0:0:
347,281,34375,1,8,0:0:0:0:
240,197,34518,5,4,0:0:0:0:
240,197,34661,1,2,0:0:0:0:
411,131,34804,5,8,0:0:0:0:
304,98,34947,1,2,0:0:0:0:
304,98,35089,1,2,0:0:0:0:
423,242,35232,6,0,L|480:238,1,53.3333333333333,4|4,0:0|0:0,0:0:0:0:
317,110,35661,6,0,B|300:144|300:144|318:187,1,66.6666666666667,10|2,0:0|0:0,0:0:0:0:
228,285,35804,5,6,0:0:0:0:
196,288,35875,1,2,0:0:0:0:
163,291,35947,1,2,0:0:0:0:
131,294,36018,1,2,0:0:0:0:
99,297,36089,2,0,L|86:351,1,40.000001525879,2|2,0:0|0:0,0:0:0:0:
278,349,36232,5,6,0:0:0:0:
299,325,36304,1,2,0:0:0:0:
309,294,36375,1,2,0:0:0:0:
306,261,36447,1,2,0:0:0:0:
291,232,36518,1,10,0:0:0:0:
265,212,36589,1,2,0:0:0:0:
245,186,36661,1,2,0:0:0:0:
235,155,36732,1,2,0:0:0:0:
241,123,36804,1,2,0:0:0:0:
257,95,36875,1,2,0:0:0:0:
284,78,36947,1,2,0:0:0:0:
314,70,37018,1,2,0:0:0:0:
345,75,37089,1,2,0:0:0:0:
372,91,37161,1,2,0:0:0:0:
391,116,37232,2,0,L|401:171,1,40.000001525879,2|2,0:0|0:0,0:0:0:0:
488,260,37375,5,14,0:0:0:0:
459,244,37447,1,2,0:0:0:0:
427,241,37518,1,2,0:0:0:0:
397,252,37589,1,2,0:0:0:0:
369,269,37661,1,2,0:0:0:0:
337,271,37732,1,2,0:0:0:0:
306,261,37804,2,0,L|293:212,1,40.000001525879,2|2,0:0|0:0,0:0:0:0:
257,95,37947,5,6,0:0:0:0:
260,98,38018,1,2,0:0:0:0:
263,101,38089,2,0,L|255:140,1,40.000001525879,2|2,0:0|0:0,0:0:0:0:
116,247,38232,6,0,B|148:237|148:237|191:262,5,66.6666666666667,10|2|2|2|2|2,0:0|0:0|0:0|0:0|0:0|0:0,0:0:0:0:
226,335,38661,6,0,L|300:328,1,66.6666666666667,4|0,0:0|0:0,0:0:0:0:
381,374,39089,5,10,0:0:0:0:
382,362,39160,1,2,0:0:0:0:
384,350,39231,1,2,0:0:0:0:
385,338,39303,1,2,0:0:0:0:
387,326,39374,1,2,0:0:0:0:
389,314,39446,1,2,0:0:0:0:
390,302,39518,6,0,L|446:295,5,40.000001525879,2|2|2|2|2|2,0:0|0:0|0:0|0:0|0:0|0:0,0:0:0:0:
318,250,39947,5,10,0:0:0:0:
316,234,40018,1,2,0:0:0:0:
314,218,40089,1,2,0:0:0:0:
312,202,40161,1,2,0:0:0:0:
310,186,40232,1,2,0:0:0:0:
308,170,40304,1,2,0:0:0:0:
306,154,40375,6,0,L|252:143,5,40.000001525879,2|2|2|2|2|2,0:0|0:0|0:0|0:0|0:0|0:0,0:0:0:0:
186,84,40804,5,10,0:0:0:0:
190,103,40875,1,2,0:0:0:0:
188,123,40946,1,2,0:0:0:0:
179,140,41018,1,2,0:0:0:0:
164,154,41089,1,2,0:0:0:0:
146,161,41161,1,2,0:0:0:0:
98,161,41232,5,10,0:0:0:0:
255,222,41375,1,8,0:0:0:0:
260,270,41447,1,8,0:0:0:0:
266,317,41518,1,8,0:0:0:0:
399,365,41661,5,8,0:0:0:0:
342,212,41804,1,2,0:0:0:0:
342,212,41947,1,2,0:0:0:0:
463,257,42089,5,6,0:0:0:0:
135,98,44661,5,12,0:0:0:0:
212,238,44804,1,8,0:0:0:0:
259,241,44875,1,8,0:0:0:0:
307,244,44947,1,8,0:0:0:0:
366,101,45089,5,8,0:0:0:0:
442,244,45232,1,2,0:0:0:0:
442,244,45375,1,2,0:0:0:0:
465,30,45518,6,0,L|457:105,1,66.6666666666667,4|0,0:0|0:0,0:0:0:0:
373,120,45947,5,2,0:0:0:0:
373,120,46089,2,0,L|384:206,1,69.3333301595054,2|2,0:0|0:0,0:0:0:0:
468,236,46375,1,8,0:0:0:0:
306,273,46518,6,0,P|341:275|395:286,1,69.3333301595054,2|0,0:0|0:0,0:0:0:0:
170,204,46804,2,0,P|228:191|288:186,1,119.999996337891,2|0,0:0|0:0,0:0:0:0:
187,283,47232,5,2,0:0:0:0:
187,283,47375,2,0,L|97:272,1,69.3333301595054,2|2,0:0|0:0,0:0:0:0:
115,277,47589,1,2,0:0:0:0:
112,280,47661,2,0,P|100:246|96:190,2,69.3333301595054,8|2|2,0:0|0:0|0:0,0:0:0:0:
109,283,48018,1,2,0:0:0:0:
106,286,48089,2,0,L|16:293,2,69.3333301595054,8|2|2,0:0|0:0|0:0,0:0:0:0:
193,143,48518,5,8,0:0:0:0:
268,151,48661,1,8,0:0:0:0:
343,159,48804,1,8,0:0:0:0:
208,54,48947,5,2,0:0:0:0:
197,55,49018,1,2,0:0:0:0:
187,56,49089,1,2,0:0:0:0:
177,57,49161,1,2,0:0:0:0:
166,58,49232,1,2,0:0:0:0:
166,58,49375,1,2,0:0:0:0:
268,151,49518,5,2,0:0:0:0:
257,150,49589,1,2,0:0:0:0:
247,149,49660,1,2,0:0:0:0:
237,148,49732,1,2,0:0:0:0:
226,147,49803,1,10,0:0:0:0:
226,147,49946,1,2,0:0:0:0:
335,60,50089,5,2,0:0:0:0:
324,61,50160,1,2,0:0:0:0:
314,62,50231,1,2,0:0:0:0:
304,63,50303,1,2,0:0:0:0:
293,64,50374,1,2,0:0:0:0:
293,64,50517,1,2,0:0:0:0:
416,170,50661,6,0,L|427:118,1,34.6666650797527,2|2,0:0|0:0,0:0:0:0:
411,257,50804,2,0,L|447:295,1,34.6666650797527,2|2,0:0|0:0,0:0:0:0:
337,207,50947,2,0,L|284:214,1,34.6666650797527,2|2,0:0|0:0,0:0:0:0:
201,233,51089,5,2,0:0:0:0:
201,233,51232,1,2,0:0:0:0:
201,233,51375,1,2,0:0:0:0:
278,39,51518,5,8,0:0:0:0:
343,125,51661,1,2,0:0:0:0:
343,125,51804,1,2,0:0:0:0:
137,96,51947,5,8,0:0:0:0:
200,10,52089,1,2,0:0:0:0:
200,10,52232,1,2,0:0:0:0:
227,222,52375,6,0,L|217:147,1,66.6666666666667,4|0,0:0|0:0,0:0:0:0:
131,115,52804,5,2,0:0:0:0:
131,115,52947,2,0,L|140:13,1,69.3333301595054,2|2,0:0|0:0,0:0:0:0:
214,232,53232,5,8,0:0:0:0:
151,287,53375,2,0,P|115:279|60:269,1,69.3333301595054,2|2,0:0|0:0,0:0:0:0:
284,165,53661,5,8,0:0:0:0:
220,110,53804,2,0,P|184:118|129:128,1,69.3333301595054,2|2,0:0|0:0,0:0:0:0:
409,102,54089,5,4,0:0:0:0:
409,102,54232,2,0,L|421:190,1,69.3333301595054,2|2,0:0|0:0,0:0:0:0:
280,278,54518,5,8,0:0:0:0:
280,278,54661,2,0,P|326:262|357:261,1,69.3333301595054,2|2,0:0|0:0,0:0:0:0:
349,263,54875,1,2,0:0:0:0:
352,266,54947,2,0,L|369:338,2,69.3333301595054,8|2|2,0:0|0:0|0:0,0:0:0:0:
187,230,55375,5,8,0:0:0:0:
198,154,55518,1,8,0:0:0:0:
210,78,55661,1,8,0:0:0:0:
97,213,55804,5,4,0:0:0:0:
98,223,55875,1,2,0:0:0:0:
99,233,55946,1,2,0:0:0:0:
101,243,56018,1,2,0:0:0:0:
102,254,56089,1,2,0:0:0:0:
102,254,56232,1,2,0:0:0:0:
198,154,56375,5,2,0:0:0:0:
197,164,56446,1,2,0:0:0:0:
196,174,56517,1,2,0:0:0:0:
194,184,56589,1,2,0:0:0:0:
193,195,56660,1,10,0:0:0:0:
193,195,56803,1,2,0:0:0:0:
89,96,56947,5,2,0:0:0:0:
90,106,57018,1,2,0:0:0:0:
91,116,57089,1,2,0:0:0:0:
93,126,57161,1,2,0:0:0:0:
94,137,57232,1,2,0:0:0:0:
94,137,57375,1,2,0:0:0:0:
243,84,57518,6,0,P|226:77|198:75,1,34.6666650797527,2|2,0:0|0:0,0:0:0:0:
332,68,57661,2,0,P|347:58|365:36,1,34.6666650797527,2|2,0:0|0:0,0:0:0:0:
303,155,57804,2,0,P|302:173|309:200,1,34.6666650797527,2|2,0:0|0:0,0:0:0:0:
433,251,57947,5,2,0:0:0:0:
433,251,58089,1,2,0:0:0:0:
433,251,58232,1,2,0:0:0:0:
232,312,58375,5,8,0:0:0:0:
336,338,58518,1,2,0:0:0:0:
336,338,58661,1,2,0:0:0:0:
159,225,58804,5,8,0:0:0:0:
113,326,58947,1,2,0:0:0:0:
113,326,59089,1,2,0:0:0:0:
71,118,59232,6,0,L|86:191,1,66.6666666666667,4|0,0:0|0:0,0:0:0:0:
177,212,59661,5,2,0:0:0:0:
177,212,59804,2,0,L|168:309,1,69.3333301595054,2|2,0:0|0:0,0:0:0:0:
89,334,60089,1,8,0:0:0:0:
277,354,60232,6,0,P|225:359|196:363,1,69.3333301595054,2|0,0:0|0:0,0:0:0:0:
406,269,60518,2,0,P|348:253|280:243,1,119.999996337891,2|0,0:0|0:0,0:0:0:0:
188,145,60947,5,2,0:0:0:0:
188,145,61089,2,0,P|195:185|203:233,1,69.3333301595054,2|2,0:0|0:0,0:0:0:0:
202,216,61304,1,2,0:0:0:0:
205,219,61375,2,0,P|176:237|126:244,2,69.3333301595054,8|2|2,0:0|0:0|0:0,0:0:0:0:
208,222,61732,1,2,0:0:0:0:
211,225,61804,2,0,L|287:236,2,69.3333301595054,8|2|2,0:0|0:0|0:0,0:0:0:0:
373,120,62232,5,8,0:0:0:0:
389,194,62375,1,8,0:0:0:0:
405,268,62518,1,8,0:0:0:0:
270,148,62661,5,4,0:0:0:0:
274,129,62732,1,2,0:0:0:0:
277,112,62803,1,2,0:0:0:0:
281,95,62875,1,2,0:0:0:0:
284,79,62946,1,2,0:0:0:0:
284,79,63089,1,10,0:0:0:0:
389,194,63232,5,2,0:0:0:0:
385,175,63303,1,2,0:0:0:0:
382,158,63374,1,2,0:0:0:0:
378,141,63446,1,2,0:0:0:0:
375,125,63517,1,2,0:0:0:0:
375,125,63660,1,2,0:0:0:0:
252,241,63804,5,2,0:0:0:0:
256,222,63875,1,2,0:0:0:0:
259,205,63946,1,10,0:0:0:0:
263,188,64018,1,2,0:0:0:0:
266,172,64089,1,2,0:0:0:0:
266,172,64232,1,2,0:0:0:0:
383,291,64375,5,2,0:0:0:0:
366,284,64446,1,2,0:0:0:0:
349,283,64517,1,2,0:0:0:0:
332,287,64589,1,2,0:0:0:0:
318,296,64660,1,2,0:0:0:0:
306,309,64732,1,2,0:0:0:0:
295,349,64803,5,10,0:0:0:0:
295,349,64947,2,0,L|209:357,1,69.3333301595054,2|2,0:0|0:0,0:0:0:0:
222,358,65161,1,2,0:0:0:0:
219,361,65232,5,8,0:0:0:0:
156,274,65375,1,2,0:0:0:0:
156,274,65518,1,2,0:0:0:0:
353,164,65661,5,8,0:0:0:0:
332,287,65804,1,2,0:0:0:0:
332,287,65947,1,2,0:0:0:0:
253,90,66089,6,0,L|277:157,1,66.6666666666667,4|0,0:0|0:0,0:0:0:0:
369,152,66518,5,8,0:0:0:0:
369,152,66661,2,0,L|360:231,1,69.3333301595054,2|2,0:0|0:0,0:0:0:0:
248,284,66947,5,2,0:0:0:0:
250,297,67089,1,2,0:0:0:0:
252,310,67232,1,2,0:0:0:0:
79,355,67375,5,8,0:0:0:0:
79,355,67518,2,0,P|124:349|158:347,1,69.3333301595054,2|2,0:0|0:0,0:0:0:0:
218,135,67804,5,4,0:0:0:0:
218,135,67947,2,0,P|211:175|207:218,1,69.3333301595054,2|2,0:0|0:0,0:0:0:0:
210,206,68161,1,2,0:0:0:0:
213,209,68232,2,0,L|124:219,2,69.3333301595054,8|2|2,0:0|0:0|0:0,0:0:0:0:
216,212,68589,1,2,0:0:0:0:
219,215,68661,6,0,L|289:223,2,51.999997619629,8|8|8,0:0|0:0|0:0,0:0:0:0:
331,269,68942,6,0,P|338:302|345:345,1,69.3333301595054,2|2,0:0|0:0,0:0:0:0:
431,202,69227,2,0,P|424:235|417:278,1,69.3333301595054,2|2,0:0|0:0,0:0:0:0:
121,128,69518,6,0,P|176:121|234:119,1,106.666666666667,4|2,0:0|0:0,0:0:0:0:
227,118,69946,1,2,0:0:0:0:
166,203,70089,2,0,P|203:210|227:217,1,53.3333333333333,2|2,0:0|0:0,0:0:0:0:
354,92,70375,6,0,P|421:85|478:76,1,106.666666666667,8|2,0:0|0:0,0:0:0:0:
459,79,70803,1,2,0:0:0:0:
402,170,70946,2,0,P|431:173|470:180,1,53.3333333333333,2|2,0:0|0:0,0:0:0:0:
219,313,71232,6,0,P|282:295|339:284,1,106.666666666667,2|2,0:0|0:0,0:0:0:0:
322,286,71660,1,2,0:0:0:0:
218,214,71803,2,0,P|251:220|271:222,1,53.3333333333333,2|2,0:0|0:0,0:0:0:0:
24,302,72089,6,0,P|102:310|141:319,2,106.666666666667,8|2|2,0:0|0:0|0:0,0:0:0:0:
331,223,72946,6,0,P|395:214|447:201,1,106.666666666667,4|2,0:0|0:0,0:0:0:0:
435,204,73375,1,2,0:0:0:0:
351,131,73518,2,0,P|387:135|408:136,1,53.3333333333333,2|2,0:0|0:0,0:0:0:0:
107,75,73803,6,0,P|140:69|220:59,1,106.666666666667,8|2,0:0|0:0,0:0:0:0:
212,59,74232,1,2,0:0:0:0:
152,147,74375,2,0,P|187:150|210:153,1,53.3333333333333,2|2,0:0|0:0,0:0:0:0:
303,323,74660,6,0,P|371:308|418:303,1,106.666666666667,2|2,0:0|0:0,0:0:0:0:
255,242,75089,1,2,0:0:0:0:
255,242,75232,2,0,P|286:247|320:249,1,53.3333333333333,2|2,0:0|0:0,0:0:0:0:
161,341,75518,5,8,0:0:0:0:
82,280,75660,1,2,0:0:0:0:
85,266,75732,1,2,0:0:0:0:
88,253,75803,1,8,0:0:0:0:
17,198,75946,1,2,0:0:0:0:
232,252,76089,5,8,0:0:0:0:
42,353,76232,1,8,0:0:0:0:
198,177,76375,6,0,P|136:171|76:157,1,106.666666666667,4|2,0:0|0:0,0:0:0:0:
92,161,76803,1,2,0:0:0:0:
136,254,76946,2,0,P|109:258|84:265,1,53.3333333333333,2|2,0:0|0:0,0:0:0:0:
397,111,77232,6,0,P|335:100|278:96,1,106.666666666667,8|2,0:0|0:0,0:0:0:0:
291,96,77660,1,2,0:0:0:0:
353,186,77803,2,0,P|328:189|289:197,1,53.3333333333333,2|2,0:0|0:0,0:0:0:0:
130,347,78089,6,0,P|74:350|4:360,1,106.666666666667,2|2,0:0|0:0,0:0:0:0:
23,356,78518,1,2,0:0:0:0:
91,274,78660,2,0,P|72:272|36:266,1,53.3333333333333,2|2,0:0|0:0,0:0:0:0:
375,269,78946,6,0,P|345:276|251:284,2,106.666666666667,8|2|2,0:0|0:0|0:0,0:0:0:0:
148,73,79803,6,0,P|86:65|26:62,1,106.666666666667,4|2,0:0|0:0,0:0:0:0:
41,62,80232,1,2,0:0:0:0:
109,152,80375,2,0,P|93:155|55:165,1,53.3333333333333,2|2,0:0|0:0,0:0:0:0:
383,207,80660,6,0,P|353:203|259:181,1,106.666666666667,8|2,0:0|0:0,0:0:0:0:
278,186,81089,1,2,0:0:0:0:
382,123,81232,2,0,P|358:124|314:130,1,53.3333333333333,2|2,0:0|0:0,0:0:0:0:
285,335,81518,6,0,P|236:323|166:311,1,106.666666666667,2|2,0:0|0:0,0:0:0:0:
348,252,81946,1,2,0:0:0:0:
348,252,82089,2,0,P|322:257|279:262,1,53.3333333333333,2|2,0:0|0:0,0:0:0:0:
102,134,82375,5,8,0:0:0:0:
97,165,82446,1,8,0:0:0:0:
92,196,82518,1,8,0:0:0:0:
69,217,82589,5,2,0:0:0:0:
87,237,82660,1,2,0:0:0:0:
105,256,82731,1,2,0:0:0:0:
96,286,82803,5,2,0:0:0:0:
116,293,82874,1,2,0:0:0:0:
136,301,82945,1,2,0:0:0:0:
152,329,83018,5,2,0:0:0:0:
166,321,83089,1,2,0:0:0:0:
180,313,83160,1,2,0:0:0:0:
208,337,83232,5,4,0:0:0:0:
208,337,83375,2,0,P|253:341|297:348,1,61.3333345031739,2|2,0:0|0:0,0:0:0:0:
356,298,83660,1,2,0:0:0:0:
243,258,83803,2,0,P|280:252|315:244,1,61.3333345031739
112,151,84089,6,0,P|147:158|191:162,2,61.3333345031739,8|2|2,0:0|0:0|0:0,0:0:0:0:
269,137,84518,1,2,0:0:0:0:
155,83,84660,2,0,P|189:77|219:74,1,61.3333345031739,2|0,0:0|0:0,0:0:0:0:
367,308,84946,5,0,0:0:0:0:
367,308,85089,2,0,P|409:315|442:324,1,61.3333345031739,2|2,0:0|0:0,0:0:0:0:
475,232,85375,1,2,0:0:0:0:
324,238,85518,2,0,P|363:233|392:231,1,61.3333345031739,2|2,0:0|0:0,0:0:0:0:
112,352,85803,6,0,P|164:344|239:317,2,122.666669006348,8|2|2,0:0|0:0|0:0,0:0:0:0:
187,377,86518,1,2,0:0:0:0:
57,265,86660,5,2,0:0:0:0:
57,265,86803,2,0,P|102:270|126:274,1,61.3333345031739,2|2,0:0|0:0,0:0:0:0:
179,195,87089,1,2,0:0:0:0:
33,171,87232,2,0,P|81:164|107:162,1,61.3333345031739,2|2,0:0|0:0,0:0:0:0:
353,87,87518,6,0,P|390:92|429:101,2,61.3333345031739,8|2|2,0:0|0:0|0:0,0:0:0:0:
286,159,87946,1,2,0:0:0:0:
221,50,88089,2,0,P|267:45|289:41,1,61.3333345031739,2|2,0:0|0:0,0:0:0:0:
149,199,88375,5,2,0:0:0:0:
149,199,88518,2,0,P|192:208|228:211,1,61.3333345031739,0|2,0:0|0:0,0:0:0:0:
276,281,88803,1,2,0:0:0:0:
136,308,88946,2,0,P|180:300|208:296,1,61.3333345031739,2|2,0:0|0:0,0:0:0:0:
381,150,89232,6,0,P|427:156|462:158,1,61.3333345031739,8|2,0:0|0:0,0:0:0:0:
289,264,89518,2,0,P|335:258|370:256,1,61.3333345031739,2|2,0:0|0:0,0:0:0:0:
216,142,89803,5,8,0:0:0:0:
154,318,89946,1,8,0:0:0:0:
362,165,90089,5,4,0:0:0:0:
362,165,90232,2,0,P|330:162|287:152,1,61.3333345031739,2|2,0:0|0:0,0:0:0:0:
274,250,90518,1,2,0:0:0:0:
421,237,90660,2,0,P|385:242|352:253,1,61.3333345031739
141,101,90946,6,0,P|112:94|56:85,2,61.3333345031739,8|2|0,0:0|0:0|0:0,0:0:0:0:
203,177,91375,1,2,0:0:0:0:
275,58,91518,2,0,P|238:62|196:70,1,61.3333345031739,2|2,0:0|0:0,0:0:0:0:
338,248,91803,5,2,0:0:0:0:
338,248,91946,2,0,P|295:245|260:239,1,61.3333345031739,0|2,0:0|0:0,0:0:0:0:
221,161,92232,1,2,0:0:0:0:
368,143,92375,2,0,P|336:148|301:159,1,61.3333345031739,2|2,0:0|0:0,0:0:0:0:
512,353,92660,6,0,P|452:339|381:331,2,122.666669006348,8|2|2,0:0|0:0|0:0,0:0:0:0:
456,302,93375,1,2,0:0:0:0:
212,339,93518,6,0,P|168:344|70:365,1,122.666669006348,2|2,0:0|0:0,0:0:0:0:
232,257,93946,1,2,0:0:0:0:
232,257,94089,1,2,0:0:0:0:
149,75,94375,6,0,P|128:71|11:56,1,122.666669006348,8|2,0:0|0:0,0:0:0:0:
173,156,94803,1,2,0:0:0:0:
173,156,94946,1,2,0:0:0:0:
409,141,95232,6,0,P|397:144|268:163,1,122.666669006348,2|2,0:0|0:0,0:0:0:0:
329,59,95660,1,2,0:0:0:0:
329,59,95803,1,2,0:0:0:0:
217,241,96089,5,8,0:0:0:0:
176,246,96160,1,8,0:0:0:0:
134,252,96232,2,0,L|122:318,1,34.6666650797527,2|2,0:0|0:0,0:0:0:0:
182,165,96375,5,2,0:0:0:0:
185,168,96446,1,2,0:0:0:0:
188,171,96518,2,0,L|178:116,1,34.6666650797527,2|2,0:0|0:0,0:0:0:0:
261,314,96660,6,0,L|305:319,1,40,8|0,0:0|0:0,0:0:0:0:
217,241,96948,5,4,0:0:0:0:
220,244,97019,1,8,0:0:0:0:
223,247,97090,2,0,L|162:256,1,40,2|8,0:0|0:0,0:0:0:0:
316,206,97233,5,6,0:0:0:0:
318,186,97305,1,8,0:0:0:0:
320,166,97376,1,2,0:0:0:0:
322,146,97448,1,8,0:0:0:0:
325,126,97519,1,2,0:0:0:0:
327,106,97590,1,8,0:0:0:0:
329,86,97662,2,0,L|380:78,1,40,2|8,0:0|0:0,0:0:0:0:
238,138,97805,5,6,0:0:0:0:
219,145,97876,1,8,0:0:0:0:
198,147,97948,1,2,0:0:0:0:
178,144,98019,1,8,0:0:0:0:
159,137,98090,1,2,0:0:0:0:
140,128,98162,1,8,0:0:0:0:
122,119,98233,1,2,0:0:0:0:
102,115,98305,1,8,0:0:0:0:
82,116,98376,1,2,0:0:0:0:
62,122,98448,1,8,0:0:0:0:
46,134,98519,2,0,L|34:197,1,40,2|8,0:0|0:0,0:0:0:0:
6,290,98662,5,6,0:0:0:0:
25,285,98733,1,8,0:0:0:0:
45,284,98805,1,2,0:0:0:0:
64,288,98876,1,8,0:0:0:0:
82,295,98948,1,2,0:0:0:0:
96,308,99019,1,8,0:0:0:0:
109,322,99090,1,2,0:0:0:0:
125,334,99162,1,8,0:0:0:0:
143,341,99233,1,2,0:0:0:0:
162,343,99305,1,8,0:0:0:0:
181,341,99376,2,0,L|192:281,1,40,2|8,0:0|0:0,0:0:0:0:
317,266,99519,5,6,0:0:0:0:
314,246,99590,1,8,0:0:0:0:
311,226,99661,1,2,0:0:0:0:
309,206,99733,1,8,0:0:0:0:
306,186,99804,1,2,0:0:0:0:
304,166,99876,1,8,0:0:0:0:
301,146,99948,2,0,L|235:136,1,40,2|8,0:0|0:0,0:0:0:0:
386,127,100090,5,6,0:0:0:0:
404,119,100162,1,8,0:0:0:0:
419,106,100233,1,2,0:0:0:0:
429,88,100305,1,8,0:0:0:0:
431,68,100376,5,4,0:0:0:0:
411,74,100448,1,8,0:0:0:0:
397,88,100519,1,2,0:0:0:0:
389,106,100590,1,8,0:0:0:0:
386,127,100662,1,2,0:0:0:0:
393,145,100733,1,8,0:0:0:0:
407,159,100805,1,2,0:0:0:0:
422,171,100876,1,8,0:0:0:0:
432,188,100947,1,2,0:0:0:0:
434,208,101019,1,8,0:0:0:0:
428,227,101090,1,2,0:0:0:0:
416,243,101162,1,8,0:0:0:0:
398,253,101233,1,2,0:0:0:0:
379,255,101304,1,8,0:0:0:0:
360,250,101376,1,2,0:0:0:0:
340,242,101447,1,8,0:0:0:0:
320,244,101518,1,2,0:0:0:0:
302,252,101590,1,8,0:0:0:0:
289,266,101661,1,2,0:0:0:0:
282,285,101733,1,8,0:0:0:0:
282,304,101804,1,2,0:0:0:0:
291,322,101875,1,8,0:0:0:0:
305,336,101948,2,0,L|374:346,1,40,2|8,0:0|0:0,0:0:0:0:
204,289,102090,5,6,0:0:0:0:
184,287,102162,1,8,0:0:0:0:
164,285,102232,1,2,0:0:0:0:
144,283,102304,1,8,0:0:0:0:
124,281,102375,1,2,0:0:0:0:
104,279,102447,1,8,0:0:0:0:
84,277,102519,2,0,L|76:227,1,40,2|8,0:0|0:0,0:0:0:0:
52,140,102662,5,6,0:0:0:0:
71,145,102733,1,8,0:0:0:0:
90,144,102804,1,2,0:0:0:0:
108,135,102876,1,8,0:0:0:0:
122,121,102947,1,2,0:0:0:0:
130,103,103019,1,8,0:0:0:0:
131,83,103090,1,2,0:0:0:0:
125,64,103161,1,8,0:0:0:0:
113,49,103233,5,2,0:0:0:0:
101,96,103304,1,8,0:0:0:0:
90,144,103375,1,8,0:0:0:0:
78,192,103447,1,8,0:0:0:0:
87,199,103519,5,2,0:0:0:0:
75,201,103590,1,2,0:0:0:0:
63,204,103661,1,2,0:0:0:0:
52,207,103733,1,2,0:0:0:0:
24,246,103804,5,4,0:0:0:0:
27,249,103876,1,8,0:0:0:0:
30,252,103948,2,0,L|22:306,1,40,2|8,0:0|0:0,0:0:0:0:
126,359,104090,5,6,0:0:0:0:
139,344,104161,1,8,0:0:0:0:
156,334,104232,1,2,0:0:0:0:
175,328,104304,1,8,0:0:0:0:
195,328,104375,1,2,0:0:0:0:
215,333,104447,1,8,0:0:0:0:
232,343,104519,1,2,0:0:0:0:
245,357,104590,1,8,0:0:0:0:
262,367,104661,1,2,0:0:0:0:
281,373,104733,1,8,0:0:0:0:
301,373,104804,1,2,0:0:0:0:
321,368,104876,1,8,0:0:0:0:
338,358,104948,1,2,0:0:0:0:
352,344,105019,1,8,0:0:0:0:
363,327,105090,2,0,L|352:266,1,40,2|8,0:0|0:0,0:0:0:0:
233,235,105233,5,6,0:0:0:0:
235,215,105305,1,8,0:0:0:0:
237,195,105376,1,2,0:0:0:0:
239,175,105448,1,8,0:0:0:0:
241,155,105519,1,2,0:0:0:0:
243,135,105590,1,8,0:0:0:0:
245,115,105662,1,2,0:0:0:0:
247,95,105733,1,8,0:0:0:0:
249,75,105805,1,2,0:0:0:0:
252,56,105876,1,8,0:0:0:0:
254,36,105948,2,0,L|318:28,1,40,2|8,0:0|0:0,0:0:0:0:
161,98,106090,5,6,0:0:0:0:
141,100,106162,1,8,0:0:0:0:
121,98,106233,1,2,0:0:0:0:
103,89,106305,1,8,0:0:0:0:
88,76,106376,1,2,0:0:0:0:
77,60,106448,1,8,0:0:0:0:
71,41,106519,2,0,L|83:-21,1,40,2|8,0:0|0:0,0:0:0:0:
126,175,106662,5,6,0:0:0:0:
130,194,106733,1,8,0:0:0:0:
128,214,106805,1,2,0:0:0:0:
121,232,106876,1,8,0:0:0:0:
108,248,106948,1,2,0:0:0:0:
91,258,107019,1,8,0:0:0:0:
72,263,107090,1,2,0:0:0:0:
52,262,107162,1,8,0:0:0:0:
34,254,107233,5,4,0:0:0:0:
37,257,107305,1,8,0:0:0:0:
40,260,107376,2,0,L|31:200,1,40,2|8,0:0|0:0,0:0:0:0:
146,309,107519,5,6,0:0:0:0:
165,310,107590,1,8,0:0:0:0:
185,312,107662,1,2,0:0:0:0:
205,313,107733,1,8,0:0:0:0:
225,315,107805,1,2,0:0:0:0:
245,317,107876,1,8,0:0:0:0:
265,318,107948,2,0,L|275:383,1,40,2|8,0:0|0:0,0:0:0:0:
338,263,108090,5,6,0:0:0:0:
348,246,108162,1,8,0:0:0:0:
354,227,108233,1,2,0:0:0:0:
353,207,108305,1,8,0:0:0:0:
347,188,108376,1,2,0:0:0:0:
336,172,108448,1,8,0:0:0:0:
320,159,108519,1,2,0:0:0:0:
306,144,108590,1,8,0:0:0:0:
297,126,108662,1,2,0:0:0:0:
294,106,108733,1,8,0:0:0:0:
297,87,108805,1,2,0:0:0:0:
306,69,108876,1,8,0:0:0:0:
319,54,108948,1,2,0:0:0:0:
334,40,109019,1,8,0:0:0:0:
352,32,109090,1,2,0:0:0:0:
372,30,109162,1,8,0:0:0:0:
391,33,109233,1,2,0:0:0:0:
409,43,109305,1,8,0:0:0:0:
423,57,109376,2,0,L|432:118,1,40,2|8,0:0|0:0,0:0:0:0:
347,188,109519,5,6,0:0:0:0:
327,191,109590,1,8,0:0:0:0:
307,195,109662,1,2,0:0:0:0:
288,199,109733,1,8,0:0:0:0:
268,203,109805,1,2,0:0:0:0:
248,206,109876,1,8,0:0:0:0:
229,210,109948,2,0,L|225:260,1,40,2|8,0:0|0:0,0:0:0:0:
201,119,110090,5,6,0:0:0:0:
174,78,110162,1,8,0:0:0:0:
128,63,110233,1,8,0:0:0:0:
81,76,110305,1,8,0:0:0:0:
74,65,110376,5,2,0:0:0:0:
72,76,110447,1,2,0:0:0:0:
71,88,110518,1,2,0:0:0:0:
70,100,110590,1,2,0:0:0:0:
63,147,110662,6,0,L|-4:156,3,40,4|2|2|2,0:0|0:0|0:0|0:0,0:0:0:0:
105,240,110948,2,0,L|136:179,3,40,6|2|2|2,0:0|0:0|0:0|0:0,0:0:0:0:
6,227,111233,2,0,L|37:286,3,40,6|2|2|2,0:0|0:0|0:0|0:0,0:0:0:0:
94,338,111519,5,6,0:0:0:0:
97,337,111590,1,2,0:0:0:0:
101,337,111661,1,2,0:0:0:0:
105,336,111733,1,2,0:0:0:0:
109,336,111804,1,6,0:0:0:0:
113,335,111876,1,2,0:0:0:0:
117,335,111947,1,2,0:0:0:0:
121,334,112018,1,2,0:0:0:0:
125,334,112090,1,6,0:0:0:0:
129,334,112161,1,2,0:0:0:0:
133,333,112233,1,2,0:0:0:0:
137,333,112305,1,2,0:0:0:0:
141,332,112376,5,12,0:0:0:0:
137,332,112447,1,2,0:0:0:0:
133,332,112518,1,2,0:0:0:0:
129,330,112590,1,2,0:0:0:0:
125,329,112661,1,6,0:0:0:0:
122,327,112733,1,2,0:0:0:0:
119,324,112804,1,2,0:0:0:0:
116,321,112875,1,2,0:0:0:0:
114,317,112947,1,6,0:0:0:0:
113,314,113018,1,2,0:0:0:0:
112,310,113090,1,2,0:0:0:0:
113,306,113161,1,2,0:0:0:0:
113,302,113233,1,6,0:0:0:0:
114,298,113304,1,2,0:0:0:0:
116,294,113375,1,2,0:0:0:0:
119,291,113447,1,2,0:0:0:0:
122,288,113518,1,6,0:0:0:0:
125,287,113590,1,2,0:0:0:0:
129,285,113661,1,2,0:0:0:0:
133,284,113733,1,2,0:0:0:0:
136,283,113804,1,6,0:0:0:0:
140,284,113875,1,2,0:0:0:0:
144,285,113947,1,2,0:0:0:0:
148,287,114018,1,2,0:0:0:0:
151,289,114090,6,0,L|159:232,3,40,6|2|2|2,0:0|0:0|0:0|0:0,0:0:0:0:
68,164,114376,2,0,L|110:203,3,40,6|2|2|2,0:0|0:0|0:0|0:0,0:0:0:0:
222,163,114662,2,0,L|165:174,3,40,6|2|2|2,0:0|0:0|0:0|0:0,0:0:0:0:
306,194,114948,5,6,0:0:0:0:
303,190,115019,1,2,0:0:0:0:
301,187,115090,1,2,0:0:0:0:
299,183,115162,1,2,0:0:0:0:
298,180,115233,1,6,0:0:0:0:
298,176,115305,1,2,0:0:0:0:
298,172,115376,1,2,0:0:0:0:
299,168,115447,1,2,0:0:0:0:
301,164,115519,1,6,0:0:0:0:
303,161,115590,1,2,0:0:0:0:
306,158,115662,1,2,0:0:0:0:
309,156,115733,1,2,0:0:0:0:
313,154,115805,5,12,0:0:0:0:
310,156,115876,1,2,0:0:0:0:
307,159,115947,1,2,0:0:0:0:
304,162,116019,1,2,0:0:0:0:
300,164,116090,1,6,0:0:0:0:
297,166,116162,1,2,0:0:0:0:
294,168,116233,1,2,0:0:0:0:
290,170,116304,1,2,0:0:0:0:
286,171,116376,1,6,0:0:0:0:
282,173,116447,1,2,0:0:0:0:
279,174,116519,1,2,0:0:0:0:
275,175,116590,1,2,0:0:0:0:
271,175,116662,1,6,0:0:0:0:
267,176,116733,1,2,0:0:0:0:
263,176,116804,1,2,0:0:0:0:
259,176,116876,1,2,0:0:0:0:
255,176,116947,1,6,0:0:0:0:
251,175,117019,1,2,0:0:0:0:
247,174,117090,1,2,0:0:0:0:
243,173,117162,1,2,0:0:0:0:
239,172,117233,1,6,0:0:0:0:
236,171,117304,1,2,0:0:0:0:
232,169,117376,1,2,0:0:0:0:
228,167,117447,1,2,0:0:0:0:
225,165,117519,6,0,L|152:175,3,40,4|2|2|2,0:0|0:0|0:0|0:0,0:0:0:0:
240,86,117805,2,0,L|273:20,3,40,6|2|2|2,0:0|0:0|0:0|0:0,0:0:0:0:
307,136,118090,2,0,L|341:201,3,40,6|2|2|2,0:0|0:0|0:0|0:0,0:0:0:0:
420,209,118376,5,6,0:0:0:0:
419,212,118447,1,2,0:0:0:0:
418,216,118518,1,2,0:0:0:0:
418,220,118590,1,2,0:0:0:0:
417,224,118661,1,6,0:0:0:0:
416,228,118733,1,2,0:0:0:0:
416,232,118804,1,2,0:0:0:0:
415,236,118875,1,2,0:0:0:0:
415,240,118947,1,6,0:0:0:0:
414,244,119018,1,2,0:0:0:0:
413,248,119090,1,2,0:0:0:0:
413,252,119161,1,2,0:0:0:0:
412,256,119233,5,12,0:0:0:0:
415,255,119304,1,2,0:0:0:0:
419,255,119375,1,2,0:0:0:0:
423,253,119447,1,2,0:0:0:0:
427,251,119518,1,6,0:0:0:0:
430,249,119590,1,2,0:0:0:0:
432,246,119661,1,2,0:0:0:0:
434,242,119732,1,2,0:0:0:0:
436,238,119804,1,6,0:0:0:0:
436,234,119875,1,2,0:0:0:0:
436,230,119947,1,2,0:0:0:0:
436,227,120018,1,2,0:0:0:0:
435,223,120090,1,6,0:0:0:0:
432,219,120161,1,2,0:0:0:0:
430,216,120232,1,2,0:0:0:0:
427,214,120304,1,2,0:0:0:0:
424,211,120375,1,6,0:0:0:0:
420,210,120447,1,2,0:0:0:0:
416,209,120518,1,2,0:0:0:0:
412,209,120590,1,2,0:0:0:0:
408,209,120661,1,6,0:0:0:0:
404,211,120732,1,2,0:0:0:0:
401,212,120804,1,2,0:0:0:0:
398,215,120875,1,2,0:0:0:0:
395,218,120948,6,0,L|390:165,3,40,6|2|2|2,0:0|0:0|0:0|0:0,0:0:0:0:
378,79,121233,2,0,L|347:104,3,40,6|2|2|2,0:0|0:0|0:0|0:0,0:0:0:0:
272,172,121519,2,0,L|310:182,3,40,6|2|2|2,0:0|0:0|0:0|0:0,0:0:0:0:
205,241,121805,5,6,0:0:0:0:
201,241,121876,1,2,0:0:0:0:
197,241,121947,1,2,0:0:0:0:
193,241,122019,1,2,0:0:0:0:
189,242,122090,1,6,0:0:0:0:
185,242,122162,1,2,0:0:0:0:
181,242,122233,1,2,0:0:0:0:
177,243,122304,1,2,0:0:0:0:
173,243,122376,1,6,0:0:0:0:
169,243,122447,1,2,0:0:0:0:
165,244,122519,1,2,0:0:0:0:
161,244,122590,1,2,0:0:0:0:
135,285,122662,5,8,0:0:0:0:
87,277,122733,1,8,0:0:0:0:
39,269,122805,2,0,L|47:326,1,40,2|2,0:0|0:0,0:0:0:0:
96,164,122948,5,2,0:0:0:0:
99,167,123019,1,2,0:0:0:0:
102,170,123090,2,0,L|47:160,1,40,2|2,0:0|0:0,0:0:0:0:
205,241,123233,5,2,0:0:0:0:
208,244,123305,1,2,0:0:0:0:
211,247,123376,2,0,L|266:234,1,40,2|2,0:0|0:0,0:0:0:0:
316,111,123519,5,8,0:0:0:0:
363,117,123590,1,8,0:0:0:0:
410,124,123662,2,0,L|403:77,1,40,2|2,0:0|0:0,0:0:0:0:
416,130,123805,2,0,L|407:80,1,40,2|2,0:0|0:0,0:0:0:0:
238,165,123948,5,8,0:0:0:0:
191,171,124019,1,8,0:0:0:0:
144,178,124091,2,0,L|151:131,1,40,2|2,0:0|0:0,0:0:0:0:
138,184,124234,2,0,L|147:134,1,40,2|2,0:0|0:0,0:0:0:0:
369,361,124378,5,0,0:0:0:0:
349,285,124466,2,0,P|331:274|311:266,2,40,8|2|2,0:0|0:0|0:0,0:0:0:0:
186,332,124730,5,0,0:0:0:0:
259,359,124818,2,0,P|278:350|296:338,2,40,8|2|2,0:0|0:0|0:0,0:0:0:0:
307,193,125083,5,0,0:0:0:0:
243,237,125171,2,0,P|238:257|238:279,2,40,8|2|2,0:0|0:0|0:0,0:0:0:0:
131,174,125436,6,0,L|141:235,1,48,12|0,0:0|0:0,0:0:0:0:
215,87,125789,6,0,L|207:163,1,64,4|0,0:0|0:0,0:0:0:0:
382,63,126142,1,2,0:0:0:0:
366,59,126230,1,2,0:0:0:0:
287,39,126319,5,8,0:0:0:0:
287,39,126672,1,2,0:0:0:0:
392,188,126848,6,0,L|477:177,1,64,2|0,0:0|0:0,0:0:0:0:
377,175,127201,1,0,0:0:0:0:
317,324,127378,5,6,0:0:0:0:
317,324,127730,1,2,0:0:0:0:
190,119,128083,6,0,P|198:157|203:195,1,64,8|4,0:0|0:0,0:0:0:0:
202,102,128436,1,0,0:0:0:0:
114,258,128613,5,6,0:0:0:0:
114,258,128966,1,6,0:0:0:0:
362,186,129319,6,0,P|326:183|289:181,1,64,8|4,0:0|0:0,0:0:0:0:
377,175,129672,1,0,0:0:0:0:
214,86,129848,6,0,P|258:84|301:78,1,64,6|0,0:0|0:0,0:0:0:0:
160,199,130201,5,2,0:0:0:0:
158,183,130289,1,2,0:0:0:0:
156,166,130378,1,2,0:0:0:0:
156,166,130554,1,6,0:0:0:0:
233,299,130730,5,12,0:0:0:0:
248,185,130907,1,2,0:0:0:0:
245,201,130995,1,2,0:0:0:0:
236,281,131083,6,0,B|260:267|260:267|273:167,1,120.000004577637,12|2,0:0|0:0,0:0:0:0:
363,159,131348,1,8,0:0:0:0:
359,143,131436,6,0,L|348:223,1,64,4|0,0:0|0:0,0:0:0:0:
353,125,131789,1,4,0:0:0:0:
395,296,131966,5,8,0:0:0:0:
395,296,132319,1,2,0:0:0:0:
158,222,132495,5,2,0:0:0:0:
248,185,132672,1,4,0:0:0:0:
236,281,132848,1,0,0:0:0:0:
170,126,133025,5,2,0:0:0:0:
170,126,133378,1,6,0:0:0:0:
267,188,133554,5,0,0:0:0:0:
103,226,133730,2,0,P|144:230|179:236,1,64,12|0,0:0|0:0,0:0:0:0:
86,213,134083,1,4,0:0:0:0:
254,292,134260,6,0,P|196:308|160:324,1,96,6|0,0:0|0:0,0:0:0:0:
83,310,134613,1,2,0:0:0:0:
83,310,134789,1,4,0:0:0:0:
285,189,134966,5,12,0:0:0:0:
125,150,135142,2,0,L|115:66,1,64,8|0,0:0|0:0,0:0:0:0:
301,191,135495,5,2,0:0:0:0:
298,206,135583,1,2,0:0:0:0:
280,284,135672,5,12,0:0:0:0:
216,230,135848,1,2,0:0:0:0:
386,195,136025,5,8,0:0:0:0:
392,157,136113,1,8,0:0:0:0:
398,119,136201,2,0,L|450:109,1,32,2|2,0:0|0:0,0:0:0:0:
291,98,136378,5,8,0:0:0:0:
269,92,136466,1,2,0:0:0:0:
247,87,136554,1,2,0:0:0:0:
255,7,136642,5,8,0:0:0:0:
233,13,136730,1,2,0:0:0:0:
211,18,136818,1,2,0:0:0:0:
229,96,136907,5,8,0:0:0:0:
191,89,136995,1,8,0:0:0:0:
153,82,137083,6,0,P|160:132|164:170,1,64,4|0,0:0|0:0,0:0:0:0:
136,75,137436,1,4,0:0:0:0:
241,223,137613,5,8,0:0:0:0:
241,223,137966,1,2,0:0:0:0:
62,249,138142,6,0,P|114:254|130:257,1,64,6|0,0:0|0:0,0:0:0:0:
48,236,138495,1,4,0:0:0:0:
142,350,138672,5,2,0:0:0:0:
142,350,139025,1,2,0:0:0:0:
355,144,139378,6,0,P|318:151|268:156,1,64,12|0,0:0|0:0,0:0:0:0:
373,156,139730,1,0,0:0:0:0:
203,121,139907,5,6,0:0:0:0:
203,121,140260,1,2,0:0:0:0:
349,345,140613,6,0,P|342:308|339:276,1,64,12|4,0:0|0:0,0:0:0:0:
364,357,140966,1,0,0:0:0:0:
418,186,141142,6,0,P|412:229|410:263,1,64,2|4,0:0|0:0,0:0:0:0:
272,137,141495,5,2,0:0:0:0:
287,134,141583,1,2,0:0:0:0:
302,131,141672,1,6,0:0:0:0:
302,131,141848,1,2,0:0:0:0:
178,226,142025,5,12,0:0:0:0:
291,251,142201,1,2,0:0:0:0:
275,247,142289,1,2,0:0:0:0:
195,231,142378,6,0,B|206:258|206:258|327:278,1,120.000004577637,12|2,0:0|0:0,0:0:0:0:
303,363,142642,1,8,0:0:0:0:
320,355,142730,6,0,L|229:340,1,64,4|0,0:0|0:0,0:0:0:0:
336,348,143083,1,0,0:0:0:0:
154,319,143260,5,8,0:0:0:0:
154,319,143613,1,2,0:0:0:0:
286,155,143789,5,2,0:0:0:0:
289,251,143966,1,0,0:0:0:0:
204,205,144142,1,4,0:0:0:0:
371,195,144319,5,2,0:0:0:0:
371,195,144672,1,2,0:0:0:0:
271,136,144848,5,0,0:0:0:0:
220,282,145025,2,0,P|215:241|208:207,1,64,8|0,0:0|0:0,0:0:0:0:
208,298,145378,1,4,0:0:0:0:
145,129,145554,6,0,P|131:182|103:237,1,96,6|0,0:0|0:0,0:0:0:0:
34,242,145907,1,2,0:0:0:0:
34,242,146083,1,0,0:0:0:0:
108,61,146260,5,12,0:0:0:0:
204,202,146436,2,0,L|285:194,1,64,8|4,0:0|0:0,0:0:0:0:
104,80,146789,5,2,0:0:0:0:
101,95,146878,1,2,0:0:0:0:
82,172,146966,5,12,0:0:0:0:
20,116,147142,1,2,0:0:0:0:
76,272,147319,5,8,0:0:0:0:
114,269,147407,1,8,0:0:0:0:
152,266,147495,2,0,L|141:320,1,32,2|2,0:0|0:0,0:0:0:0:
213,170,147672,5,8,0:0:0:0:
234,175,147760,1,2,0:0:0:0:
255,180,147848,1,2,0:0:0:0:
238,258,147936,5,8,0:0:0:0:
259,253,148024,1,2,0:0:0:0:
280,248,148112,1,2,0:0:0:0:
267,168,148201,5,8,0:0:0:0:
303,178,148289,1,8,0:0:0:0:
340,188,148378,6,0,P|335:150|332:114,1,64,12|0,0:0|0:0,0:0:0:0:
415,210,148730,1,2,0:0:0:0:
268,62,148907,5,8,0:0:0:0:
268,62,149260,1,2,0:0:0:0:
202,226,149436,5,12,0:0:0:0:
142,128,149613,1,2,0:0:0:0:
142,128,149789,1,6,0:0:0:0:
318,208,149966,5,8,0:0:0:0:
318,208,150319,1,2,0:0:0:0:
42,208,150672,6,0,P|76:211|121:222,1,64,8|0,0:0|0:0,0:0:0:0:
28,197,151025,1,0,0:0:0:0:
180,303,151201,5,12,0:0:0:0:
180,303,151554,1,6,0:0:0:0:
271,63,151907,6,0,P|265:102|262:138,1,64,12|0,0:0|0:0,0:0:0:0:
170,154,152260,1,2,0:0:0:0:
358,201,152436,6,0,P|331:204|280:218,1,64,8|4,0:0|0:0,0:0:0:0:
456,99,152789,5,2,0:0:0:0:
458,114,152877,1,2,0:0:0:0:
460,129,152966,1,2,0:0:0:0:
460,129,153142,1,2,0:0:0:0:
351,14,153319,5,12,0:0:0:0:
340,130,153495,1,2,0:0:0:0:
342,114,153583,1,2,0:0:0:0:
349,33,153672,6,0,B|326:50|326:50|309:167,1,120.000004577637,12|2,0:0|0:0,0:0:0:0:
224,156,153936,1,8,0:0:0:0:
286,206,154025,6,0,L|298:132,1,64,12|2,0:0|0:0,0:0:0:0:
237,63,154377,1,6,0:0:0:0:
178,238,154554,5,8,0:0:0:0:
178,238,154907,1,6,0:0:0:0:
393,247,155083,5,8,0:0:0:0:
286,206,155260,1,2,0:0:0:0:
286,206,155436,1,2,0:0:0:0:
282,45,155613,5,12,0:0:0:0:
282,45,155966,1,6,0:0:0:0:
49,188,156319,6,0,P|90:193|131:202,1,64,8|4,0:0|0:0,0:0:0:0:
36,173,156672,1,0,0:0:0:0:
213,257,156848,6,0,P|160:272|111:299,1,96,12|0,0:0|0:0,0:0:0:0:
97,362,157201,1,2,0:0:0:0:
97,362,157377,1,2,0:0:0:0:
183,185,157554,1,8,0:0:0:0:
233,268,157730,5,0,0:0:0:0:
123,290,157907,1,2,0:0:0:0:
304,324,158083,1,8,0:0:0:0:
200,175,158260,6,0,P|250:171|285:166,1,64,2|4,0:0|0:0,0:0:0:0:
343,253,158613,1,2,0:0:0:0:
343,253,158789,1,2,0:0:0:0:
128,207,158966,5,8,0:0:0:0:
124,168,159054,1,8,0:0:0:0:
120,129,159142,2,0,L|63:122,1,32,2|2,0:0|0:0,0:0:0:0:
195,93,159319,5,2,0:0:0:0:
214,89,159407,1,2,0:0:0:0:
233,85,159495,1,2,0:0:0:0:
252,81,159583,1,2,0:0:0:0:
330,60,159672,5,4,0:0:0:0:
290,167,159848,1,6,0:0:0:0:
290,167,160025,1,2,0:0:0:0:
456,62,160201,5,8,0:0:0:0:
456,62,160554,1,0,0:0:0:0:
373,237,160730,5,12,0:0:0:0:
273,172,160907,1,2,0:0:0:0:
273,172,161083,1,2,0:0:0:0:
336,347,161260,5,8,0:0:0:0:
336,347,161613,1,2,0:0:0:0:
104,249,161966,6,0,P|148:255|180:261,1,64,8|0,0:0|0:0,0:0:0:0:
86,260,162319,1,4,0:0:0:0:
256,178,162495,5,12,0:0:0:0:
256,178,162848,1,6,0:0:0:0:
432,361,163201,6,0,P|425:319|418:283,1,64,12|0,0:0|0:0,0:0:0:0:
504,219,163554,1,2,0:0:0:0:
333,190,163730,6,0,P|373:184|404:182,1,64,8|0,0:0|0:0,0:0:0:0:
228,300,164083,5,2,0:0:0:0:
212,297,164172,1,2,0:0:0:0:
196,294,164260,1,2,0:0:0:0:
196,294,164436,1,6,0:0:0:0:
324,212,164613,5,12,0:0:0:0:
212,186,164789,1,2,0:0:0:0:
227,190,164877,1,2,0:0:0:0:
306,208,164966,6,0,B|295:187|295:187|169:158,1,120.000004577637,12|2,0:0|0:0,0:0:0:0:
186,77,165230,1,8,0:0:0:0:
129,134,165319,6,0,L|212:157,1,64,12|2,0:0|0:0,0:0:0:0:
70,187,165672,1,2,0:0:0:0:
314,42,165848,5,8,0:0:0:0:
314,42,166201,1,6,0:0:0:0:
232,211,166377,5,8,0:0:0:0:
343,179,166554,1,2,0:0:0:0:
343,179,166730,1,2,0:0:0:0:
218,306,166907,5,8,0:0:0:0:
218,306,167260,1,6,0:0:0:0:
100,79,167613,6,0,P|108:120|112:154,1,64,12|0,0:0|0:0,0:0:0:0:
113,62,167966,1,4,0:0:0:0:
152,225,168142,6,0,P|178:180|214:134,1,96,6|0,0:0|0:0,0:0:0:0:
289,146,168495,1,6,0:0:0:0:
289,146,168672,1,0,0:0:0:0:
76,213,168848,5,12,0:0:0:0:
224,259,169025,2,0,L|236:339,1,64,8|0,0:0|0:0,0:0:0:0:
44,374,169377,1,2,0:0:0:0:
59,370,169466,1,2,0:0:0:0:
137,353,169554,5,12,0:0:0:0:
79,294,169730,1,2,0:0:0:0:
236,243,169907,5,8,0:0:0:0:
244,205,169995,1,8,0:0:0:0:
252,167,170083,2,0,L|307:159,1,32,2|2,0:0|0:0,0:0:0:0:
150,159,170260,5,8,0:0:0:0:
146,136,170348,1,2,0:0:0:0:
142,113,170436,1,2,0:0:0:0:
63,131,170525,5,8,0:0:0:0:
67,108,170613,1,2,0:0:0:0:
71,85,170701,1,2,0:0:0:0:
150,96,170789,5,8,0:0:0:0:
143,58,170877,1,8,0:0:0:0:
134,20,170966,5,4,0:0:0:0:
147,24,171142,1,2,0:0:0:0:
160,28,171319,1,2,0:0:0:0:
173,32,171495,1,2,0:0:0:0:
230,95,171672,6,0,P|276:86|323:79,1,83.9999974365235,2|0,0:0|0:0,0:0:0:0:
438,174,172377,5,8,0:0:0:0:
363,215,172554,1,2,0:0:0:0:
364,200,172730,1,2,0:0:0:0:
365,186,172906,1,2,0:0:0:0:
366,171,173083,1,2,0:0:0:0:
367,157,173259,1,2,0:0:0:0:
369,143,173436,1,2,0:0:0:0:
370,128,173613,2,0,B|351:139|351:139|346:209,1,83.9999974365235,2|0,0:0|0:0,0:0:0:0:
274,246,174319,5,2,0:0:0:0:
275,253,174407,1,2,0:0:0:0:
281,288,174495,5,2,0:0:0:0:
254,123,174672,1,2,0:0:0:0:
175,112,175201,5,8,0:0:0:0:
204,191,175377,1,2,0:0:0:0:
189,189,175553,1,2,0:0:0:0:
175,188,175729,1,2,0:0:0:0:
161,186,175906,1,2,0:0:0:0:
146,185,176082,1,2,0:0:0:0:
132,183,176259,1,2,0:0:0:0:
118,182,176435,1,2,0:0:0:0:
42,143,176613,5,2,0:0:0:0:
40,158,176789,1,2,0:0:0:0:
39,172,176965,1,2,0:0:0:0:
38,187,177142,1,2,0:0:0:0:
85,256,177319,6,0,P|92:308|98:343,1,83.9999974365235,2|0,0:0|0:0,0:0:0:0:
2,284,178025,5,8,0:0:0:0:
166,229,178201,1,2,0:0:0:0:
166,229,178554,1,2,0:0:0:0:
236,275,178730,5,2,0:0:0:0:
237,260,178906,1,2,0:0:0:0:
238,246,179082,1,2,0:0:0:0:
239,231,179260,2,0,B|253:244|253:244|248:293,1,59.9999981689454,2|0,0:0|0:0,0:0:0:0:
158,340,179789,5,2,0:0:0:0:
337,323,180142,1,2,0:0:0:0:
384,54,180672,5,2,0:0:0:0:
385,61,180760,1,2,0:0:0:0:
399,131,180848,5,8,0:0:0:0:
462,86,181024,1,2,0:0:0:0:
462,86,181200,1,2,0:0:0:0:
322,113,181377,5,2,0:0:0:0:
320,120,181466,1,2,0:0:0:0:
298,188,181554,5,8,0:0:0:0:
231,129,181730,1,2,0:0:0:0:
193,247,181907,1,2,0:0:0:0:
146,80,182083,1,2,0:0:0:0:
287,278,182260,5,4,0:0:0:0:
301,276,182436,1,2,0:0:0:0:
315,275,182612,1,2,0:0:0:0:
330,274,182789,1,2,0:0:0:0:
386,210,182966,6,0,P|448:218|473:222,1,83.9999974365235,2|0,0:0|0:0,0:0:0:0:
323,160,183672,5,8,0:0:0:0:
357,84,183848,1,2,0:0:0:0:
343,85,184024,1,2,0:0:0:0:
328,86,184201,1,2,0:0:0:0:
314,87,184377,1,2,0:0:0:0:
300,88,184554,1,2,0:0:0:0:
285,89,184730,1,2,0:0:0:0:
270,91,184907,2,0,B|286:108|286:108|351:102,1,83.9999974365235,2|0,0:0|0:0,0:0:0:0:
407,162,185613,5,2,0:0:0:0:
414,160,185701,1,2,0:0:0:0:
448,154,185789,5,2,0:0:0:0:
283,182,185966,1,2,0:0:0:0:
220,133,186495,5,8,0:0:0:0:
278,200,186672,1,2,0:0:0:0:
263,201,186848,1,2,0:0:0:0:
249,203,187024,1,2,0:0:0:0:
235,204,187201,1,2,0:0:0:0:
220,205,187377,1,2,0:0:0:0:
206,206,187554,1,2,0:0:0:0:
192,208,187730,1,2,0:0:0:0:
121,160,187907,5,2,0:0:0:0:
119,175,188083,1,2,0:0:0:0:
118,189,188259,1,2,0:0:0:0:
116,204,188436,1,2,0:0:0:0:
33,226,188613,6,0,P|38:272|41:309,1,83.9999974365235,2|0,0:0|0:0,0:0:0:0:
165,324,189319,5,2,0:0:0:0:
47,148,189495,1,2,0:0:0:0:
47,148,189848,1,2,0:0:0:0:
122,111,190025,5,2,0:0:0:0:
123,125,190201,1,2,0:0:0:0:
124,139,190377,1,2,0:0:0:0:
125,154,190554,2,0,B|138:138|138:138|134:90,1,59.9999981689454,2|0,0:0|0:0,0:0:0:0:
23,52,191083,5,2,0:0:0:0:
222,22,191436,1,2,0:0:0:0:
280,78,191966,5,2,0:0:0:0:
287,76,192054,1,0,0:0:0:0:
357,63,192142,5,8,0:0:0:0:
308,5,192319,1,2,0:0:0:0:
308,5,192495,1,2,0:0:0:0:
236,153,192672,5,2,0:0:0:0:
228,152,192760,1,2,0:0:0:0:
157,141,192848,5,8,0:0:0:0:
160,144,192966,2,0,L|149:83,1,53.3333333333333,8|2,0:0|0:0,0:0:0:0:
263,232,193201,5,2,0:0:0:0:
342,221,193319,1,2,0:0:0:0:
420,210,193436,1,2,0:0:0:0:
499,198,193554,6,0,L|506:107,1,83.9999974365235,4|0,0:0|0:0,0:0:0:0:
406,86,194260,5,14,0:0:0:0:
400,75,194348,1,2,0:0:0:0:
394,64,194436,1,2,0:0:0:0:
354,73,194525,1,2,0:0:0:0:
315,82,194613,5,2,0:0:0:0:
318,70,194701,1,2,0:0:0:0:
321,58,194789,1,2,0:0:0:0:
281,50,194877,1,2,0:0:0:0:
241,42,194966,5,6,0:0:0:0:
244,53,195054,1,2,0:0:0:0:
247,64,195142,1,2,0:0:0:0:
214,87,195230,1,2,0:0:0:0:
179,108,195319,5,2,0:0:0:0:
176,119,195407,1,2,0:0:0:0:
173,130,195495,1,2,0:0:0:0:
135,142,195583,1,2,0:0:0:0:
96,154,195672,5,14,0:0:0:0:
100,165,195760,1,2,0:0:0:0:
104,176,195848,1,2,0:0:0:0:
139,193,195936,1,2,0:0:0:0:
171,210,196025,5,2,0:0:0:0:
167,233,196113,1,2,0:0:0:0:
163,257,196201,1,2,0:0:0:0:
159,281,196289,1,2,0:0:0:0:
128,305,196377,5,6,0:0:0:0:
155,302,196465,1,2,0:0:0:0:
183,300,196553,1,2,0:0:0:0:
211,297,196641,1,2,0:0:0:0:
251,295,196729,5,2,0:0:0:0:
258,304,196819,1,2,0:0:0:0:
265,313,196907,1,2,0:0:0:0:
303,302,196995,1,2,0:0:0:0:
341,291,197083,5,14,0:0:0:0:
339,302,197172,1,2,0:0:0:0:
337,313,197260,1,2,0:0:0:0:
375,323,197348,1,2,0:0:0:0:
413,333,197436,5,2,0:0:0:0:
410,321,197525,1,2,0:0:0:0:
407,309,197613,1,2,0:0:0:0:
441,288,197701,1,2,0:0:0:0:
476,270,197789,5,6,0:0:0:0:
465,264,197877,1,2,0:0:0:0:
454,258,197966,1,2,0:0:0:0:
441,220,198054,1,2,0:0:0:0:
435,180,198142,5,14,0:0:0:0:
420,185,198230,1,2,0:0:0:0:
404,190,198319,1,2,0:0:0:0:
381,147,198407,1,2,0:0:0:0:
358,104,198495,5,14,0:0:0:0:
349,122,198583,1,2,0:0:0:0:
340,140,198672,1,2,0:0:0:0:
292,139,198760,1,2,0:0:0:0:
244,138,198848,5,14,0:0:0:0:
255,159,198936,1,2,0:0:0:0:
266,180,199025,1,2,0:0:0:0:
231,213,199113,1,2,0:0:0:0:
197,247,199201,6,0,P|118:235|107:234,1,83.9999974365235,4|0,0:0|0:0,0:0:0:0:
76,344,199907,5,14,0:0:0:0:
86,350,199995,1,2,0:0:0:0:
96,356,200083,1,2,0:0:0:0:
131,337,200172,1,2,0:0:0:0:
166,318,200260,5,2,0:0:0:0:
173,327,200348,1,2,0:0:0:0:
180,336,200436,1,2,0:0:0:0:
220,332,200525,1,2,0:0:0:0:
259,328,200613,5,6,0:0:0:0:
257,339,200701,1,2,0:0:0:0:
256,350,200789,1,2,0:0:0:0:
293,336,200877,1,2,0:0:0:0:
331,322,200966,5,2,0:0:0:0:
338,331,201054,1,2,0:0:0:0:
345,340,201142,1,2,0:0:0:0:
372,311,201230,1,2,0:0:0:0:
400,282,201319,5,14,0:0:0:0:
401,270,201407,1,2,0:0:0:0:
402,258,201495,1,2,0:0:0:0:
439,270,201583,1,2,0:0:0:0:
477,282,201672,5,2,0:0:0:0:
472,258,201760,1,2,0:0:0:0:
468,234,201848,1,2,0:0:0:0:
464,211,201936,1,2,0:0:0:0:
488,178,202025,5,6,0:0:0:0:
460,174,202113,1,2,0:0:0:0:
432,171,202201,1,2,0:0:0:0:
404,168,202289,1,2,0:0:0:0:
364,165,202377,5,2,0:0:0:0:
359,153,202466,1,2,0:0:0:0:
354,141,202554,1,2,0:0:0:0:
315,132,202642,1,2,0:0:0:0:
276,123,202730,5,14,0:0:0:0:
271,134,202819,1,2,0:0:0:0:
266,145,202907,1,2,0:0:0:0:
228,158,202995,1,2,0:0:0:0:
190,171,203083,5,2,0:0:0:0:
186,159,203172,1,2,0:0:0:0:
182,147,203260,1,2,0:0:0:0:
143,135,203348,1,2,0:0:0:0:
62,104,203436,5,4,0:0:0:0:
70,126,203525,1,2,0:0:0:0:
70,149,203613,1,2,0:0:0:0:
65,172,203701,1,2,0:0:0:0:
53,192,203789,6,0,L|3:200,1,40,8|2,0:0|0:0,0:0:0:0:
152,259,203966,2,0,L|102:251,1,40,8|2,0:0|0:0,0:0:0:0:
266,145,204142,5,8,0:0:0:0:
355,293,204319,1,2,0:0:0:0:
260,242,204495,1,2,0:0:0:0:
260,242,204672,1,2,0:0:0:0:
481,205,204848,6,0,P|448:208|406:213,1,71.9999978027344,4|2,0:0|0:0,0:0:0:0:
325,27,205554,5,12,0:0:0:0:
267,132,205730,1,2,0:0:0:0:
255,133,205819,1,2,0:0:0:0:
243,134,205907,1,2,0:0:0:0:
140,71,206083,5,2,0:0:0:0:
152,72,206172,1,2,0:0:0:0:
164,73,206260,1,2,0:0:0:0:
78,168,206436,5,2,0:0:0:0:
76,155,206525,1,2,0:0:0:0:
74,143,206613,1,2,0:0:0:0:
178,203,206789,5,2,0:0:0:0:
176,216,206878,1,2,0:0:0:0:
174,228,206966,1,12,0:0:0:0:
15,304,207142,6,0,P|52:300|91:297,1,71.9999978027344,4|0,0:0|0:0,0:0:0:0:
277,377,207848,5,2,0:0:0:0:
265,380,207936,1,2,0:0:0:0:
253,383,208025,1,2,0:0:0:0:
327,301,208201,5,2,0:0:0:0:
315,298,208289,1,2,0:0:0:0:
303,295,208378,1,12,0:0:0:0:
422,312,208554,5,2,0:0:0:0:
434,315,208642,1,2,0:0:0:0:
446,318,208731,1,2,0:0:0:0:
372,236,208907,5,2,0:0:0:0:
384,233,208995,1,2,0:0:0:0:
396,230,209084,1,2,0:0:0:0:
259,233,209260,5,2,0:0:0:0:
256,221,209348,1,2,0:0:0:0:
280,189,209436,5,12,0:0:0:0:
256,185,209525,1,2,0:0:0:0:
232,181,209613,1,2,0:0:0:0:
208,177,209701,1,2,0:0:0:0:
178,203,209789,5,12,0:0:0:0:
171,171,209877,1,2,0:0:0:0:
164,139,209966,1,2,0:0:0:0:
157,107,210054,1,2,0:0:0:0:
184,78,210142,5,12,0:0:0:0:
144,72,210230,1,2,0:0:0:0:
103,66,210319,1,2,0:0:0:0:
63,61,210407,1,2,0:0:0:0:
23,57,210495,6,0,B|42:44|42:44|98:49,1,71.9999978027344,4|0,0:0|0:0,0:0:0:0:
256,227,211201,5,12,0:0:0:0:
287,220,211289,1,2,0:0:0:0:
318,213,211377,1,2,0:0:0:0:
218,108,211554,5,2,0:0:0:0:
205,137,211642,1,2,0:0:0:0:
193,166,211730,1,2,0:0:0:0:
335,142,211907,5,6,0:0:0:0:
318,115,211995,1,2,0:0:0:0:
302,88,212083,1,2,0:0:0:0:
256,227,212260,5,2,0:0:0:0:
287,220,212348,1,2,0:0:0:0:
318,213,212436,1,2,0:0:0:0:
218,108,212613,5,12,0:0:0:0:
205,137,212701,1,2,0:0:0:0:
193,166,212789,1,2,0:0:0:0:
335,142,212966,6,0,L|299:83,1,63.6000000970459,4|0,0:0|0:0,0:0:0:0:
235,274,213672,5,2,0:0:0:0:
203,278,213760,1,2,0:0:0:0:
171,282,213848,1,2,0:0:0:0:
68,177,214025,5,12,0:0:0:0:
89,200,214113,1,2,0:0:0:0:
111,224,214201,1,2,0:0:0:0:
80,366,214377,5,2,0:0:0:0:
86,335,214465,1,2,0:0:0:0:
93,303,214553,1,2,0:0:0:0:
327,252,214730,5,12,0:0:0:0:
223,180,214907,1,2,0:0:0:0:
220,168,214995,1,2,0:0:0:0:
217,156,215083,1,8,0:0:0:0:
314,83,215260,1,0,0:0:0:0:
235,274,215436,5,8,0:0:0:0:
113,163,215613,1,2,0:0:0:0:
223,180,215789,1,2,0:0:0:0:
223,180,215966,1,2,0:0:0:0:
94,343,216142,5,4,0:0:0:0:
116,334,216230,1,2,0:0:0:0:
140,333,216319,1,2,0:0:0:0:
163,338,216407,1,2,0:0:0:0:
202,303,216495,5,12,0:0:0:0:
224,310,216583,1,2,0:0:0:0:
248,312,216672,1,2,0:0:0:0:
271,308,216760,1,2,0:0:0:0:
293,300,216848,1,6,0:0:0:0:
315,292,216936,1,2,0:0:0:0:
339,289,217025,1,2,0:0:0:0:
362,291,217113,1,2,0:0:0:0:
409,311,217201,5,12,0:0:0:0:
392,293,217289,1,2,0:0:0:0:
382,271,217377,1,2,0:0:0:0:
377,248,217465,1,2,0:0:0:0:
378,224,217553,1,6,0:0:0:0:
386,201,217642,1,2,0:0:0:0:
400,182,217730,1,2,0:0:0:0:
418,166,217818,1,2,0:0:0:0:
469,175,217906,5,12,0:0:0:0:
447,185,217995,1,2,0:0:0:0:
423,187,218083,1,2,0:0:0:0:
399,183,218172,1,2,0:0:0:0:
377,172,218260,1,6,0:0:0:0:
354,164,218348,1,2,0:0:0:0:
330,162,218436,1,2,0:0:0:0:
306,166,218525,1,2,0:0:0:0:
284,213,218613,5,12,0:0:0:0:
287,216,218701,2,2,L|213:203,1,40,0|0,0:0|0:0,0:0:0:0:
93,187,218877,1,12,0:0:0:0:
159,146,218966,5,4,0:0:0:0:
167,168,219054,1,2,0:0:0:0:
169,191,219142,1,2,0:0:0:0:
164,214,219230,1,2,0:0:0:0:
129,253,219319,5,12,0:0:0:0:
150,243,219407,1,2,0:0:0:0:
174,241,219495,1,2,0:0:0:0:
197,248,219583,1,2,0:0:0:0:
216,263,219671,1,6,0:0:0:0:
228,283,219760,1,2,0:0:0:0:
232,307,219848,1,2,0:0:0:0:
227,330,219936,1,2,0:0:0:0:
190,368,220025,5,12,0:0:0:0:
212,359,220113,1,2,0:0:0:0:
235,351,220201,1,2,0:0:0:0:
258,346,220289,1,2,0:0:0:0:
282,343,220377,1,6,0:0:0:0:
306,342,220466,1,2,0:0:0:0:
330,344,220554,1,2,0:0:0:0:
354,347,220642,1,2,0:0:0:0:
402,364,220730,5,12,0:0:0:0:
407,340,220819,1,2,0:0:0:0:
412,316,220907,1,2,0:0:0:0:
417,292,220995,1,2,0:0:0:0:
422,268,221083,1,6,0:0:0:0:
471,252,221172,5,12,0:0:0:0:
467,228,221260,1,2,0:0:0:0:
464,204,221348,1,2,0:0:0:0:
421,174,221436,5,12,0:0:0:0:
424,177,221525,2,0,L|362:166,1,40,2|2,0:0|0:0,0:0:0:0:
220,176,221701,1,12,0:0:0:0:
286,220,221789,5,4,0:0:0:0:
294,197,221877,1,2,0:0:0:0:
298,173,221966,1,2,0:0:0:0:
293,149,222054,1,2,0:0:0:0:
257,110,222142,5,12,0:0:0:0:
279,118,222230,1,2,0:0:0:0:
303,120,222319,1,2,0:0:0:0:
326,117,222407,1,2,0:0:0:0:
348,109,222495,1,6,0:0:0:0:
370,102,222583,1,2,0:0:0:0:
394,101,222672,1,2,0:0:0:0:
417,105,222760,1,2,0:0:0:0:
459,135,222848,5,12,0:0:0:0:
441,150,222936,1,2,0:0:0:0:
428,171,223024,1,2,0:0:0:0:
422,194,223112,1,2,0:0:0:0:
423,218,223200,1,6,0:0:0:0:
431,240,223289,1,2,0:0:0:0:
445,260,223377,1,2,0:0:0:0:
465,274,223465,1,2,0:0:0:0:
512,253,223554,5,12,0:0:0:0:
488,250,223642,1,2,0:0:0:0:
464,248,223730,1,2,0:0:0:0:
440,246,223818,1,2,0:0:0:0:
416,244,223906,1,6,0:0:0:0:
392,241,223995,1,2,0:0:0:0:
368,239,224083,1,2,0:0:0:0:
344,237,224171,1,2,0:0:0:0:
292,230,224260,5,12,0:0:0:0:
295,233,224348,2,0,L|286:162,1,40,2|2,0:0|0:0,0:0:0:0:
314,19,224525,1,12,0:0:0:0:
356,88,224613,5,4,0:0:0:0:
332,94,224701,1,2,0:0:0:0:
308,96,224789,1,2,0:0:0:0:
284,90,224877,1,2,0:0:0:0:
247,127,224966,5,12,0:0:0:0:
224,117,225054,1,2,0:0:0:0:
200,114,225142,1,2,0:0:0:0:
176,117,225230,1,2,0:0:0:0:
154,127,225319,1,6,0:0:0:0:
132,137,225407,1,2,0:0:0:0:
108,142,225495,1,2,0:0:0:0:
84,142,225583,1,2,0:0:0:0:
34,123,225672,5,12,0:0:0:0:
32,146,225760,1,2,0:0:0:0:
30,169,225848,1,2,0:0:0:0:
28,192,225936,1,2,0:0:0:0:
9,241,226025,5,8,0:0:0:0:
48,236,226113,1,8,0:0:0:0:
87,231,226201,1,8,0:0:0:0:
126,226,226289,1,8,0:0:0:0:
149,272,226377,5,2,0:0:0:0:
170,255,226465,1,2,0:0:0:0:
192,237,226553,1,2,0:0:0:0:
214,221,226641,1,2,0:0:0:0:
249,259,226730,5,2,0:0:0:0:
260,233,226818,1,2,0:0:0:0:
270,207,226906,1,2,0:0:0:0:
281,181,226994,1,2,0:0:0:0:
330,198,227083,5,2,0:0:0:0:
328,186,227171,1,2,0:0:0:0:
326,174,227259,1,2,0:0:0:0:
324,162,227347,1,2,0:0:0:0:
390,116,227436,5,4,0:0:0:0:
394,139,227524,1,2,0:0:0:0:
399,163,227612,1,2,0:0:0:0:
404,186,227700,1,2,0:0:0:0:
452,205,227788,5,12,0:0:0:0:
455,208,227877,2,0,L|450:273,1,40,2|2,0:0|0:0,0:0:0:0:
305,299,228054,6,0,L|364:289,1,40,8|6,0:0|0:0,0:0:0:0:
227,355,228230,1,8,0:0:0:0:
230,358,228319,2,0,L|167:348,1,40,2|2,0:0|0:0,0:0:0:0:
47,366,228495,5,12,0:0:0:0:
57,344,228583,1,2,0:0:0:0:
63,319,228672,1,2,0:0:0:0:
62,296,228760,1,2,0:0:0:0:
55,272,228848,1,6,0:0:0:0:
46,249,228936,1,2,0:0:0:0:
42,225,229025,1,2,0:0:0:0:
44,201,229113,1,2,0:0:0:0:
79,161,229201,5,12,0:0:0:0:
96,177,229289,1,2,0:0:0:0:
118,187,229377,1,2,0:0:0:0:
141,188,229465,1,2,0:0:0:0:
164,182,229554,1,6,0:0:0:0:
184,168,229642,1,2,0:0:0:0:
198,149,229730,1,2,0:0:0:0:
204,126,229818,1,2,0:0:0:0:
189,76,229906,5,12,0:0:0:0:
212,71,229995,1,2,0:0:0:0:
235,66,230083,1,2,0:0:0:0:
258,62,230172,1,2,0:0:0:0:
326,20,230260,5,4,0:0:0:0:
319,42,230348,1,2,0:0:0:0:
317,65,230436,1,2,0:0:0:0:
320,88,230525,1,2,0:0:0:0:
343,134,230613,5,12,0:0:0:0:
346,137,230701,2,0,L|409:144,1,40,2|2,0:0|0:0,0:0:0:0:
292,244,230877,6,0,L|284:187,1,40,8|6,0:0|0:0,0:0:0:0:
367,292,231054,1,8,0:0:0:0:
370,295,231142,2,0,L|363:365,1,40,2|2,0:0|0:0,0:0:0:0:
222,360,231319,5,12,0:0:0:0:
222,360,231407,2,0,P|248:355|273:352,1,40,2|2,0:0|0:0,0:0:0:0:
103,341,231583,1,8,0:0:0:0:
150,319,231672,5,6,0:0:0:0:
154,295,231760,1,2,0:0:0:0:
158,271,231848,1,2,0:0:0:0:
162,247,231936,1,2,0:0:0:0:
90,209,232025,5,12,0:0:0:0:
93,212,232113,2,0,L|81:150,1,40,2|2,0:0|0:0,0:0:0:0:
232,126,232289,6,0,L|181:119,1,40,8|6,0:0|0:0,0:0:0:0:
279,203,232466,1,8,0:0:0:0:
282,206,232554,2,0,L|340:198,1,40,2|2,0:0|0:0,0:0:0:0:
427,64,232730,5,8,0:0:0:0:
391,102,232819,2,0,P|383:128|380:160,1,40,8|2,0:0|0:0,0:0:0:0:
440,290,232995,1,8,0:0:0:0:
478,220,233083,5,4,0:0:0:0:
454,212,233172,1,2,0:0:0:0:
430,211,233260,1,2,0:0:0:0:
406,217,233348,1,2,0:0:0:0:
370,254,233436,5,12,0:0:0:0:
347,262,233525,1,2,0:0:0:0:
323,262,233613,1,2,0:0:0:0:
299,257,233701,1,2,0:0:0:0:
277,247,233789,1,6,0:0:0:0:
255,237,233877,1,2,0:0:0:0:
231,231,233966,1,2,0:0:0:0:
207,231,234054,1,2,0:0:0:0:
175,272,234142,5,12,0:0:0:0:
196,282,234230,1,2,0:0:0:0:
220,282,234318,1,2,0:0:0:0:
241,271,234406,1,2,0:0:0:0:
255,252,234494,1,6,0:0:0:0:
260,229,234583,1,2,0:0:0:0:
254,206,234671,1,2,0:0:0:0:
238,188,234759,1,2,0:0:0:0:
187,182,234848,5,12,0:0:0:0:
210,179,234936,1,2,0:0:0:0:
234,177,235024,1,2,0:0:0:0:
258,175,235112,1,2,0:0:0:0:
282,173,235200,1,6,0:0:0:0:
306,171,235289,1,2,0:0:0:0:
330,169,235377,1,2,0:0:0:0:
354,167,235465,1,2,0:0:0:0:
405,162,235553,5,12,0:0:0:0:
408,165,235642,2,0,L|417:106,1,40,2|2,0:0|0:0,0:0:0:0:
386,319,235819,1,12,0:0:0:0:
344,252,235907,5,4,0:0:0:0:
366,243,235995,1,2,0:0:0:0:
389,240,236083,1,2,0:0:0:0:
412,247,236172,1,2,0:0:0:0:
451,280,236260,5,12,0:0:0:0:
440,258,236348,1,2,0:0:0:0:
434,234,236436,1,2,0:0:0:0:
434,209,236525,1,2,0:0:0:0:
441,186,236613,1,6,0:0:0:0:
449,163,236701,1,2,0:0:0:0:
453,139,236789,1,2,0:0:0:0:
449,115,236877,1,2,0:0:0:0:
412,77,236966,5,12,0:0:0:0:
388,73,237054,1,2,0:0:0:0:
364,69,237142,1,2,0:0:0:0:
340,65,237230,1,2,0:0:0:0:
291,43,237319,5,2,0:0:0:0:
284,66,237407,1,2,0:0:0:0:
277,89,237495,1,2,0:0:0:0:
225,93,237583,5,2,0:0:0:0:
232,116,237671,1,2,0:0:0:0:
239,139,237759,1,2,0:0:0:0:
289,126,237848,6,0,L|277:199,1,40,2|2,0:0|0:0,0:0:0:0:
121,289,238025,5,12,0:0:0:0:
152,281,238113,1,2,0:0:0:0:
183,273,238201,1,2,0:0:0:0:
157,214,238289,5,12,0:0:0:0:
188,222,238377,1,2,0:0:0:0:
219,230,238465,1,2,0:0:0:0:
195,290,238554,5,8,0:0:0:0:
242,281,238642,1,8,0:0:0:0:
289,272,238730,5,4,0:0:0:0:
284,295,238819,1,2,0:0:0:0:
279,318,238907,1,2,0:0:0:0:
274,341,238995,1,2,0:0:0:0:
270,364,239083,1,12,0:0:0:0:
352,214,239260,5,2,0:0:0:0:
333,199,239348,1,2,0:0:0:0:
310,190,239436,1,6,0:0:0:0:
285,188,239525,1,2,0:0:0:0:
261,193,239613,1,2,0:0:0:0:
239,204,239701,1,2,0:0:0:0:
219,218,239789,1,12,0:0:0:0:
195,224,239877,1,2,0:0:0:0:
170,226,239966,1,2,0:0:0:0:
146,221,240054,1,2,0:0:0:0:
125,208,240142,1,6,0:0:0:0:
109,189,240230,1,2,0:0:0:0:
99,166,240319,1,2,0:0:0:0:
95,142,240407,1,2,0:0:0:0:
99,118,240495,1,12,0:0:0:0:
237,74,240672,5,2,0:0:0:0:
215,85,240760,1,2,0:0:0:0:
191,90,240848,1,6,0:0:0:0:
79,0,241025,5,2,0:0:0:0:
100,10,241113,1,2,0:0:0:0:
118,27,241201,1,12,0:0:0:0:
201,261,241377,5,2,0:0:0:0:
248,251,241466,1,8,0:0:0:0:
294,241,241554,5,4,0:0:0:0:
270,235,241642,1,2,0:0:0:0:
246,230,241730,1,2,0:0:0:0:
222,224,241819,1,2,0:0:0:0:
198,219,241907,1,12,0:0:0:0:
366,151,242083,5,2,0:0:0:0:
374,173,242172,1,2,0:0:0:0:
374,196,242260,1,6,0:0:0:0:
247,100,242436,5,2,0:0:0:0:
247,77,242524,1,2,0:0:0:0:
255,55,242613,1,12,0:0:0:0:
467,0,242789,5,2,0:0:0:0:
449,16,242877,1,2,0:0:0:0:
429,29,242965,1,6,0:0:0:0:
406,37,243053,1,2,0:0:0:0:
383,41,243141,1,2,0:0:0:0:
359,41,243230,1,2,0:0:0:0:
335,36,243318,1,12,0:0:0:0:
290,166,243495,5,2,0:0:0:0:
266,169,243583,1,2,0:0:0:0:
242,172,243672,1,2,0:0:0:0:
196,147,243760,5,12,0:0:0:0:
189,170,243848,1,2,0:0:0:0:
182,193,243936,1,2,0:0:0:0:
130,202,244025,5,12,0:0:0:0:
137,225,244113,1,2,0:0:0:0:
144,248,244201,1,2,0:0:0:0:
190,259,244289,5,8,0:0:0:0:
176,305,244377,5,4,0:0:0:0:
199,300,244466,1,2,0:0:0:0:
222,295,244554,1,2,0:0:0:0:
245,290,244642,1,2,0:0:0:0:
268,285,244730,1,12,0:0:0:0:
409,345,244907,5,2,0:0:0:0:
395,325,244995,1,2,0:0:0:0:
387,302,245083,1,6,0:0:0:0:
385,277,245172,1,2,0:0:0:0:
389,253,245260,1,2,0:0:0:0:
400,232,245348,1,2,0:0:0:0:
412,211,245436,1,12,0:0:0:0:
422,189,245525,1,2,0:0:0:0:
424,165,245613,1,2,0:0:0:0:
417,141,245701,1,2,0:0:0:0:
405,119,245789,1,6,0:0:0:0:
387,103,245877,1,2,0:0:0:0:
364,93,245966,1,2,0:0:0:0:
340,90,246054,1,2,0:0:0:0:
316,92,246142,1,12,0:0:0:0:
240,215,246319,5,2,0:0:0:0:
256,197,246407,1,2,0:0:0:0:
268,176,246495,1,6,0:0:0:0:
207,45,246672,5,2,0:0:0:0:
212,68,246760,1,2,0:0:0:0:
222,90,246848,1,12,0:0:0:0:
131,226,247025,5,2,0:0:0:0:
83,219,247113,1,8,0:0:0:0:
35,212,247201,5,4,0:0:0:0:
41,235,247289,1,2,0:0:0:0:
47,258,247377,1,2,0:0:0:0:
53,281,247466,1,2,0:0:0:0:
59,304,247554,1,12,0:0:0:0:
223,339,247730,5,2,0:0:0:0:
203,342,247819,1,2,0:0:0:0:
183,345,247907,1,6,0:0:0:0:
302,263,248083,5,2,0:0:0:0:
322,266,248172,1,2,0:0:0:0:
342,269,248260,1,12,0:0:0:0:
209,216,248436,5,2,0:0:0:0:
205,196,248525,1,2,0:0:0:0:
166,167,248613,5,8,0:0:0:0:
213,170,248701,1,8,0:0:0:0:
260,173,248789,1,8,0:0:0:0:
307,176,248877,1,8,0:0:0:0:
331,134,248966,5,2,0:0:0:0:
350,160,249054,1,2,0:0:0:0:
369,186,249142,1,2,0:0:0:0:
388,211,249230,1,2,0:0:0:0:
436,207,249319,5,2,0:0:0:0:
430,230,249407,1,2,0:0:0:0:
424,253,249495,1,2,0:0:0:0:
419,276,249583,1,2,0:0:0:0:
461,298,249672,5,2,0:0:0:0:
446,304,249760,1,2,0:0:0:0:
432,311,249848,1,2,0:0:0:0:
417,318,249936,1,2,0:0:0:0:
373,337,250024,5,4,0:0:0:0:
396,342,250113,1,2,0:0:0:0:
419,347,250201,1,2,0:0:0:0:
442,352,250289,1,2,0:0:0:0:
465,357,250377,1,12,0:0:0:0:
302,384,250554,5,2,0:0:0:0:
292,362,250642,1,2,0:0:0:0:
289,338,250730,1,6,0:0:0:0:
291,313,250819,1,2,0:0:0:0:
301,291,250907,1,2,0:0:0:0:
317,273,250995,1,2,0:0:0:0:
333,256,251083,1,12,0:0:0:0:
347,236,251172,1,2,0:0:0:0:
351,212,251260,1,2,0:0:0:0:
351,188,251348,1,2,0:0:0:0:
343,165,251436,1,6,0:0:0:0:
327,146,251525,1,2,0:0:0:0:
309,129,251613,1,2,0:0:0:0:
286,121,251701,1,2,0:0:0:0:
262,119,251789,1,12,0:0:0:0:
157,44,251966,5,2,0:0:0:0:
163,67,252054,1,2,0:0:0:0:
175,88,252142,1,6,0:0:0:0:
170,218,252319,5,2,0:0:0:0:
185,199,252407,1,2,0:0:0:0:
195,178,252495,1,12,0:0:0:0:
323,310,252672,5,2,0:0:0:0:
370,318,252760,1,8,0:0:0:0:
417,326,252848,5,4,0:0:0:0:
410,303,252936,1,2,0:0:0:0:
403,279,253025,1,2,0:0:0:0:
396,256,253113,1,2,0:0:0:0:
389,233,253201,1,12,0:0:0:0:
485,126,253377,5,2,0:0:0:0:
470,144,253465,1,2,0:0:0:0:
455,163,253553,1,6,0:0:0:0:
316,121,253730,5,2,0:0:0:0:
338,128,253818,1,2,0:0:0:0:
361,135,253907,1,12,0:0:0:0:
267,243,254083,5,2,0:0:0:0:
244,251,254171,1,2,0:0:0:0:
220,253,254259,1,6,0:0:0:0:
197,249,254348,1,2,0:0:0:0:
173,242,254436,1,2,0:0:0:0:
149,242,254524,1,2,0:0:0:0:
126,249,254612,1,12,0:0:0:0:
226,169,254789,5,2,0:0:0:0:
222,145,254877,1,2,0:0:0:0:
217,120,254966,1,4,0:0:0:0:
188,76,255054,5,12,0:0:0:0:
211,71,255142,1,2,0:0:0:0:
234,66,255230,1,2,0:0:0:0:
224,14,255319,5,12,0:0:0:0:
247,19,255407,1,2,0:0:0:0:
270,24,255495,1,2,0:0:0:0:
275,71,255583,5,12,0:0:0:0:
321,61,255672,5,4,0:0:0:0:
317,84,255760,1,2,0:0:0:0:
313,107,255848,1,2,0:0:0:0:
309,130,255936,1,2,0:0:0:0:
305,153,256025,1,12,0:0:0:0:
421,281,256201,5,2,0:0:0:0:
400,268,256289,1,2,0:0:0:0:
376,262,256377,1,6,0:0:0:0:
351,265,256466,1,2,0:0:0:0:
330,276,256554,1,2,0:0:0:0:
313,292,256642,1,2,0:0:0:0:
301,312,256730,1,12,0:0:0:0:
282,327,256819,1,2,0:0:0:0:
259,334,256907,1,2,0:0:0:0:
235,334,256995,1,2,0:0:0:0:
211,327,257083,1,6,0:0:0:0:
192,310,257172,1,2,0:0:0:0:
179,289,257260,1,2,0:0:0:0:
174,265,257348,1,2,0:0:0:0:
176,241,257436,1,12,0:0:0:0:
109,171,257613,5,2,0:0:0:0:
127,154,257701,1,2,0:0:0:0:
149,144,257789,1,6,0:0:0:0:
180,51,257966,5,2,0:0:0:0:
203,58,258054,1,2,0:0:0:0:
223,72,258142,1,12,0:0:0:0:
306,235,258319,5,2,0:0:0:0:
353,227,258407,1,8,0:0:0:0:
400,219,258495,5,4,0:0:0:0:
391,241,258583,1,2,0:0:0:0:
382,263,258672,1,2,0:0:0:0:
373,285,258760,1,2,0:0:0:0:
365,307,258848,1,12,0:0:0:0:
254,171,259025,5,2,0:0:0:0:
277,165,259113,1,2,0:0:0:0:
299,159,259201,1,6,0:0:0:0:
202,266,259377,5,2,0:0:0:0:
179,260,259465,1,2,0:0:0:0:
157,254,259553,1,12,0:0:0:0:
81,112,259730,5,2,0:0:0:0:
86,135,259819,1,2,0:0:0:0:
54,176,259907,5,8,0:0:0:0:
101,171,259995,1,8,0:0:0:0:
148,166,260083,1,8,0:0:0:0:
196,161,260172,1,8,0:0:0:0:
182,152,260260,5,2,0:0:0:0:
177,167,260348,1,2,0:0:0:0:
172,182,260436,1,2,0:0:0:0:
167,197,260525,1,2,0:0:0:0:
144,243,260613,5,8,0:0:0:0:
188,224,260701,1,8,0:0:0:0:
235,224,260789,1,8,0:0:0:0:
278,244,260877,1,8,0:0:0:0:
305,283,260966,1,8,0:0:0:0:
337,318,261054,1,8,0:0:0:0:
381,335,261142,1,8,0:0:0:0:
428,332,261230,1,8,0:0:0:0:
493,289,261319,5,4,0:0:0:0:
493,289,261604,5,8,0:0:0:0:
479,227,261676,1,8,0:0:0:0:
465,166,261747,2,0,L|400:157,1,47.9999985351563,2|2,0:0|0:0,0:0:0:0:
338,48,261890,5,2,0:0:0:0:
319,51,261961,1,2,0:0:0:0:
299,54,262033,1,2,0:0:0:0:
280,57,262104,1,2,0:0:0:0:
203,69,262176,5,4,0:0:0:0:
203,69,262461,5,8,0:0:0:0:
189,130,262533,1,8,0:0:0:0:
176,190,262604,2,0,L|89:199,1,47.9999985351563,2|2,0:0|0:0,0:0:0:0:
266,172,262747,5,2,0:0:0:0:
284,176,262819,1,2,0:0:0:0:
302,180,262890,1,2,0:0:0:0:
320,184,262961,1,2,0:0:0:0:
395,202,263033,5,4,0:0:0:0:
395,202,263319,5,8,0:0:0:0:
405,263,263390,1,8,0:0:0:0:
415,324,263461,2,0,L|478:333,1,47.9999985351563,2|2,0:0|0:0,0:0:0:0:
330,306,263604,5,2,0:0:0:0:
311,312,263676,1,2,0:0:0:0:
293,318,263747,1,2,0:0:0:0:
274,324,263819,1,2,0:0:0:0:
216,346,263890,5,8,0:0:0:0:
155,330,263961,1,8,0:0:0:0:
94,314,264033,2,0,L|81:251,1,47.9999985351563,2|2,0:0|0:0,0:0:0:0:
188,152,264176,5,2,0:0:0:0:
191,155,264247,1,2,0:0:0:0:
194,158,264319,2,0,L|181:218,1,47.9999985351563,2|2,0:0|0:0,0:0:0:0:
30,99,264461,6,0,P|76:76|146:79,1,95.9999970703126,12|2,0:0|0:0,0:0:0:0:
348,163,264747,5,4,0:0:0:0:
348,163,265033,5,8,0:0:0:0:
408,149,265104,1,8,0:0:0:0:
469,135,265176,2,0,L|478:77,1,47.9999985351563,2|2,0:0|0:0,0:0:0:0:
453,212,265319,5,2,0:0:0:0:
457,230,265390,1,2,0:0:0:0:
461,248,265461,1,2,0:0:0:0:
465,266,265533,1,2,0:0:0:0:
488,338,265604,5,4,0:0:0:0:
488,338,265890,5,8,0:0:0:0:
426,331,265961,1,8,0:0:0:0:
363,324,266033,2,0,L|374:382,1,47.9999985351563,2|2,0:0|0:0,0:0:0:0:
307,243,266176,5,2,0:0:0:0:
288,247,266247,1,2,0:0:0:0:
269,251,266319,1,2,0:0:0:0:
250,255,266390,1,2,0:0:0:0:
175,273,266461,6,0,B|195:238|195:238|360:201,1,191.999994140625,4|6,0:0|0:0,0:0:0:0:
117,98,266890,1,12,0:0:0:0:
117,98,267033,2,0,P|89:140|88:195,1,95.9999970703126,6|0,0:0|0:0,0:0:0:0:
337,106,267319,2,0,L|320:6,1,95.9999970703126,6|0,0:0|0:0,0:0:0:0:
157,280,267604,5,6,0:0:0:0:
343,331,267747,1,8,0:0:0:0:
101,351,267890,5,6,0:0:0:0:
267,245,268033,1,8,0:0:0:0:
14,215,268176,5,4,0:0:0:0:
14,215,268461,5,8,0:0:0:0:
31,154,268533,1,8,0:0:0:0:
49,94,268604,2,0,L|141:83,1,47.9999985351563,2|2,0:0|0:0,0:0:0:0:
221,35,268747,5,2,0:0:0:0:
240,37,268819,1,2,0:0:0:0:
258,39,268890,1,2,0:0:0:0:
276,41,268961,1,2,0:0:0:0:
352,50,269033,5,4,0:0:0:0:
352,50,269319,5,8,0:0:0:0:
367,109,269390,1,8,0:0:0:0:
383,168,269461,2,0,L|460:176,1,47.9999985351563,2|2,0:0|0:0,0:0:0:0:
305,213,269604,5,2,0:0:0:0:
300,231,269676,1,2,0:0:0:0:
296,249,269747,1,2,0:0:0:0:
292,267,269819,1,2,0:0:0:0:
273,341,269890,5,4,0:0:0:0:
273,341,270176,5,8,0:0:0:0:
212,328,270247,1,8,0:0:0:0:
150,315,270319,2,0,L|159:373,1,47.9999985351563,2|2,0:0|0:0,0:0:0:0:
132,231,270461,5,2,0:0:0:0:
137,212,270533,1,2,0:0:0:0:
142,193,270604,1,2,0:0:0:0:
147,174,270676,1,2,0:0:0:0:
164,114,270747,5,8,0:0:0:0:
226,105,270819,1,8,0:0:0:0:
287,96,270890,2,0,L|299:32,1,47.9999985351563,2|2,0:0|0:0,0:0:0:0:
366,183,271033,5,2,0:0:0:0:
369,186,271104,1,2,0:0:0:0:
372,189,271176,2,0,L|365:135,1,47.9999985351563,2|2,0:0|0:0,0:0:0:0:
255,268,271319,6,0,L|268:163,1,95.9999970703126,12|2,0:0|0:0,0:0:0:0:
493,299,271604,5,4,0:0:0:0:
493,299,271890,5,8,0:0:0:0:
431,309,271961,1,8,0:0:0:0:
369,319,272033,2,0,L|313:304,1,47.9999985351563,2|2,0:0|0:0,0:0:0:0:
266,172,272176,5,2,0:0:0:0:
247,175,272247,1,2,0:0:0:0:
228,178,272319,1,2,0:0:0:0:
209,181,272390,1,2,0:0:0:0:
133,193,272461,5,4,0:0:0:0:
133,193,272747,5,8,0:0:0:0:
114,253,272819,1,8,0:0:0:0:
96,312,272890,2,0,L|28:320,1,47.9999985351563,2|2,0:0|0:0,0:0:0:0:
190,298,273033,5,2,0:0:0:0:
207,304,273104,1,2,0:0:0:0:
225,310,273176,1,2,0:0:0:0:
242,316,273247,1,2,0:0:0:0:
314,342,273319,6,0,P|267:271|314:153,1,191.999994140625,4|6,0:0|0:0,0:0:0:0:
512,133,273747,1,12,0:0:0:0:
512,133,273890,2,0,L|398:114,1,95.9999970703126,6|0,0:0|0:0,0:0:0:0:
159,74,274176,2,0,L|276:56,1,95.9999970703126,6|0,0:0|0:0,0:0:0:0:
366,249,274461,1,6,0:0:0:0:
180,214,274604,5,8,0:0:0:0:
165,152,274676,1,8,0:0:0:0:
150,91,274747,5,2,0:0:0:0:
141,108,274819,1,2,0:0:0:0:
132,124,274890,1,2,0:0:0:0:
123,140,274961,1,2,0:0:0:0:
76,203,275033,6,0,L|-2:189,3,47.9999985351563,4|0|2|0,0:0|0:0|0:0|0:0,0:0:0:0:
127,288,275319,5,6,0:0:0:0:
154,282,275390,1,8,0:0:0:0:
182,276,275461,1,2,0:0:0:0:
210,269,275533,1,8,0:0:0:0:
229,210,275604,5,6,0:0:0:0:
267,216,275676,1,8,0:0:0:0:
304,223,275747,1,2,0:0:0:0:
342,230,275819,1,8,0:0:0:0:
328,243,275890,5,6,0:0:0:0:
322,224,275961,1,8,0:0:0:0:
316,205,276033,1,2,0:0:0:0:
310,186,276104,1,8,0:0:0:0:
339,130,276176,5,6,0:0:0:0:
311,122,276247,1,8,0:0:0:0:
282,114,276319,1,2,0:0:0:0:
254,107,276390,1,8,0:0:0:0:
240,46,276461,5,6,0:0:0:0:
202,53,276533,1,8,0:0:0:0:
164,60,276604,1,2,0:0:0:0:
126,67,276676,1,8,0:0:0:0:
60,27,276747,5,4,0:0:0:0:
56,47,276819,1,8,0:0:0:0:
53,66,276890,1,2,0:0:0:0:
50,85,276961,1,8,0:0:0:0:
6,130,277033,5,6,0:0:0:0:
33,122,277104,1,8,0:0:0:0:
61,127,277176,1,2,0:0:0:0:
85,141,277247,1,8,0:0:0:0:
79,203,277319,5,6,0:0:0:0:
116,195,277390,1,8,0:0:0:0:
153,187,277461,1,2,0:0:0:0:
191,179,277533,1,8,0:0:0:0:
245,232,277604,5,8,0:0:0:0:
248,235,277676,1,8,0:0:0:0:
251,238,277747,2,0,L|330:245,1,47.9999985351563,2|2,0:0|0:0,0:0:0:0:
410,121,277890,5,8,0:0:0:0:
413,124,277961,1,8,0:0:0:0:
416,127,278033,2,0,L|364:187,1,47.9999985351563,2|2,0:0|0:0,0:0:0:0:
430,323,278176,5,8,0:0:0:0:
433,326,278247,1,8,0:0:0:0:
436,329,278319,2,0,L|415:252,1,47.9999985351563,2|2,0:0|0:0,0:0:0:0:
206,343,278461,6,0,L|271:355,3,47.9999985351563,4|0|2|0,0:0|0:0|0:0|0:0,0:0:0:0:
100,326,278747,5,6,0:0:0:0:
93,297,278819,1,8,0:0:0:0:
87,268,278890,1,2,0:0:0:0:
81,239,278961,1,8,0:0:0:0:
133,203,279033,5,6,0:0:0:0:
141,165,279104,1,8,0:0:0:0:
150,127,279176,1,2,0:0:0:0:
159,89,279247,1,8,0:0:0:0:
142,100,279319,5,6,0:0:0:0:
160,108,279390,1,8,0:0:0:0:
177,116,279461,1,2,0:0:0:0:
194,124,279533,1,8,0:0:0:0:
248,94,279604,5,6,0:0:0:0:
253,122,279676,1,8,0:0:0:0:
258,150,279747,1,2,0:0:0:0:
263,178,279819,1,8,0:0:0:0:
322,193,279890,5,6,0:0:0:0:
315,230,279961,1,8,0:0:0:0:
308,268,280033,1,2,0:0:0:0:
301,305,280104,1,8,0:0:0:0:
231,339,280176,5,4,0:0:0:0:
445,282,280319,1,8,0:0:0:0:
199,249,280461,5,6,0:0:0:0:
463,283,280604,1,8,0:0:0:0:
263,178,280747,5,6,0:0:0:0:
484,284,280890,1,8,0:0:0:0:
179,247,281033,5,6,0:0:0:0:
502,285,281176,1,8,0:0:0:0:
212,348,281319,5,6,0:0:0:0:
352,147,281461,5,8,0:0:0:0:
311,98,281533,1,8,0:0:0:0:
249,87,281604,1,8,0:0:0:0:
193,117,281676,1,8,0:0:0:0:
142,153,281747,1,8,0:0:0:0:
79,148,281819,1,8,0:0:0:0:
27,91,281890,6,0,L|19:35,3,47.9999985351563,4|0|2|0,0:0|0:0|0:0|0:0,0:0:0:0:
142,153,282176,5,6,0:0:0:0:
137,181,282247,1,8,0:0:0:0:
132,209,282319,1,2,0:0:0:0:
127,237,282390,1,8,0:0:0:0:
184,259,282461,5,6,0:0:0:0:
193,296,282533,1,8,0:0:0:0:
202,332,282604,1,2,0:0:0:0:
212,369,282676,1,8,0:0:0:0:
195,359,282747,5,6,0:0:0:0:
212,351,282819,1,8,0:0:0:0:
229,343,282890,1,2,0:0:0:0:
246,335,282961,1,8,0:0:0:0:
300,366,283033,5,6,0:0:0:0:
307,338,283104,1,8,0:0:0:0:
314,310,283176,1,2,0:0:0:0:
322,282,283247,1,8,0:0:0:0:
383,270,283319,5,6,0:0:0:0:
377,232,283390,1,8,0:0:0:0:
371,194,283461,1,2,0:0:0:0:
365,155,283533,1,8,0:0:0:0:
321,91,283604,5,4,0:0:0:0:
341,88,283676,1,8,0:0:0:0:
360,85,283747,1,2,0:0:0:0:
380,82,283819,1,8,0:0:0:0:
433,51,283890,5,6,0:0:0:0:
404,45,283961,1,8,0:0:0:0:
375,39,284033,1,2,0:0:0:0:
346,33,284104,1,8,0:0:0:0:
321,91,284176,5,6,0:0:0:0:
283,96,284247,1,8,0:0:0:0:
245,102,284318,1,2,0:0:0:0:
207,107,284390,1,8,0:0:0:0:
131,119,284461,5,8,0:0:0:0:
134,122,284533,1,8,0:0:0:0:
137,125,284604,2,0,L|122:65,1,47.9999985351563,2|2,0:0|0:0,0:0:0:0:
137,247,284747,5,8,0:0:0:0:
140,250,284819,1,8,0:0:0:0:
143,253,284890,2,0,L|102:299,1,47.9999985351563,2|2,0:0|0:0,0:0:0:0:
246,187,285033,5,8,0:0:0:0:
249,190,285105,1,8,0:0:0:0:
252,193,285176,2,0,L|313:199,1,47.9999985351563,2|2,0:0|0:0,0:0:0:0:
474,97,285319,6,0,L|488:23,3,47.9999985351563,4|0|2|0,0:0|0:0|0:0|0:0,0:0:0:0:
362,129,285604,5,6,0:0:0:0:
368,157,285676,1,8,0:0:0:0:
374,184,285747,1,2,0:0:0:0:
380,212,285819,1,8,0:0:0:0:
441,221,285890,5,6,0:0:0:0:
433,258,285961,1,8,0:0:0:0:
426,296,286033,1,2,0:0:0:0:
419,333,286104,1,8,0:0:0:0:
435,323,286176,5,6,0:0:0:0:
417,316,286247,1,8,0:0:0:0:
398,309,286319,1,2,0:0:0:0:
380,302,286390,1,8,0:0:0:0:
326,332,286461,5,6,0:0:0:0:
336,304,286533,1,8,0:0:0:0:
331,275,286604,1,2,0:0:0:0:
314,250,286676,1,8,0:0:0:0:
253,261,286747,5,6,0:0:0:0:
258,222,286819,1,8,0:0:0:0:
263,184,286890,1,2,0:0:0:0:
268,146,286961,1,8,0:0:0:0:
278,64,287033,6,0,B|245:88|245:88|223:268,1,191.999994140625,4|6,0:0|0:0,0:0:0:0:
462,67,287461,1,8,0:0:0:0:
462,67,287604,2,0,P|423:40|353:49,1,95.9999970703126,6|0,0:0|0:0,0:0:0:0:
100,138,287890,6,0,L|209:154,1,95.9999970703126,6|0,0:0|0:0,0:0:0:0:
399,117,288176,1,6,0:0:0:0:
252,325,288319,1,8,0:0:0:0:
252,325,288461,2,0,P|228:289|240:209,1,95.9999970703126,6|0,0:0|0:0,0:0:0:0:
478,47,288747,6,0,B|443:57|420:76|420:76|388:64|388:64|338:86|287:69,1,191.999994140625,4|6,0:0|0:0,0:0:0:0:
489,258,289176,1,8,0:0:0:0:
489,258,289319,2,0,L|504:146,1,95.9999970703126,6|0,0:0|0:0,0:0:0:0:
301,264,289604,6,0,L|323:381,1,95.9999970703126,6|0,0:0|0:0,0:0:0:0:
404,227,289890,1,6,0:0:0:0:
179,166,290033,1,8,0:0:0:0:
179,166,290176,2,0,B|155:125|155:125|171:63,1,95.9999970703126,6|0,0:0|0:0,0:0:0:0:
430,32,290461,5,12,0:0:0:0:
235,111,290604,1,2,0:0:0:0:
235,111,290747,2,0,L|343:125,1,95.9999970703126,6|0,0:0|0:0,0:0:0:0:
89,191,291033,2,0,B|59:235|59:235|76:286,1,95.9999970703126,6|0,0:0|0:0,0:0:0:0:
329,328,291319,5,12,0:0:0:0:
141,249,291461,1,2,0:0:0:0:
141,249,291604,2,0,L|250:239,1,95.9999970703126,6|0,0:0|0:0,0:0:0:0:
373,41,291890,2,0,P|342:75|330:137,1,95.9999970703126,6|0,0:0|0:0,0:0:0:0:
512,306,292176,6,0,B|460:274|466:219|466:219|421:212|379:228,1,191.999994140625,4|6,0:0|0:0,0:0:0:0:
170,367,292604,1,8,0:0:0:0:
170,367,292747,2,0,L|155:248,1,95.9999970703126,6|0,0:0|0:0,0:0:0:0:
37,64,293033,6,0,L|18:177,1,95.9999970703126,6|0,0:0|0:0,0:0:0:0:
173,256,293319,1,6,0:0:0:0:
209,47,293461,1,8,0:0:0:0:
209,47,293604,2,0,P|173:22|106:29,1,95.9999970703126,6|0,0:0|0:0,0:0:0:0:
320,325,293890,6,0,B|349:321|349:321|374:333|374:333|409:314|446:311|446:311|473:324|515:316,1,191.999994140625,4|6,0:0|0:0,0:0:0:0:
173,256,294319,1,8,0:0:0:0:
173,256,294461,2,0,P|150:211|163:152,1,95.9999970703126,6|0,0:0|0:0,0:0:0:0:
335,338,294747,6,0,L|213:356,1,95.9999970703126,6|0,0:0|0:0,0:0:0:0:
103,306,295033,1,6,0:0:0:0:
379,236,295176,1,8,0:0:0:0:
379,236,295319,2,0,B|403:195|403:195|380:138,1,95.9999970703126,6|0,0:0|0:0,0:0:0:0:
97,118,295604,5,12,0:0:0:0:
319,188,295747,1,2,0:0:0:0:
319,188,295890,2,0,L|208:199,1,95.9999970703126,6|0,0:0|0:0,0:0:0:0:
468,262,296176,2,0,B|498:305|498:305|478:368,1,95.9999970703126,6|0,0:0|0:0,0:0:0:0:
227,376,296461,5,12,0:0:0:0:
413,317,296604,1,2,0:0:0:0:
413,317,296747,2,0,L|305:307,1,95.9999970703126,6|0,0:0|0:0,0:0:0:0:
174,118,297033,2,0,P|215:165|223:212,1,95.9999970703126,6|0,0:0|0:0,0:0:0:0:
40,371,297319,6,0,B|52:339|78:320|78:320|48:287|53:253|53:253|77:228|85:177,1,191.999994140625,4|6,0:0|0:0,0:0:0:0:
260,83,297747,1,8,0:0:0:0:
260,83,297890,2,0,P|191:117|161:116,1,95.9999970703126,6|0,0:0|0:0,0:0:0:0:
379,9,298176,6,0,L|491:26,1,95.9999970703126,6|0,0:0|0:0,0:0:0:0:
188,30,298461,1,6,0:0:0:0:
414,122,298604,1,8,0:0:0:0:
414,122,298747,2,0,L|300:134,1,95.9999970703126,6|0,0:0|0:0,0:0:0:0:
183,364,299033,6,0,B|194:330|215:312|215:312|208:273|208:273|234:244|232:180,1,191.999994140625,4|6,0:0|0:0,0:0:0:0:
85,62,299461,1,8,0:0:0:0:
85,62,299604,2,0,P|128:109|174:119,1,95.9999970703126,6|0,0:0|0:0,0:0:0:0:
330,17,299890,5,8,0:0:0:0:
483,122,300033,1,8,0:0:0:0:
470,181,300104,1,8,0:0:0:0:
458,243,300176,1,8,0:0:0:0:
499,39,300319,1,8,0:0:0:0:
317,226,300461,5,2,0:0:0:0:
512,359,300604,1,2,0:0:0:0:
360,145,300747,6,0,B|324:128|282:133|256:159|256:159|242:145|226:138|226:138|244:114|292:95,1,191.999994140625,4|6,0:0|0:0,0:0:0:0:
204,308,301176,1,8,0:0:0:0:
204,308,301319,2,0,L|190:207,1,95.9999970703126,6|0,0:0|0:0,0:0:0:0:
422,79,301604,6,0,P|451:130|439:204,1,95.9999970703126,6|0,0:0|0:0,0:0:0:0:
309,247,301890,1,6,0:0:0:0:
159,50,302033,1,8,0:0:0:0:
159,50,302176,2,0,B|112:30|112:30|45:59,1,95.9999970703126,6|0,0:0|0:0,0:0:0:0:
18,293,302461,5,12,0:0:0:0:
115,111,302604,1,2,0:0:0:0:
115,111,302747,2,0,L|128:216,1,95.9999970703126,6|0,0:0|0:0,0:0:0:0:
248,41,303033,2,0,B|289:16|289:16|335:29,1,95.9999970703126,6|0,0:0|0:0,0:0:0:0:
406,280,303319,5,12,0:0:0:0:
301,98,303461,1,2,0:0:0:0:
301,98,303604,2,0,L|291:218,1,95.9999970703126,6|0,0:0|0:0,0:0:0:0:
132,290,303890,2,0,P|174:257|224:249,1,95.9999970703126,6|0,0:0|0:0,0:0:0:0:
494,315,304176,6,0,B|466:314|448:306|448:306|408:334|367:348|367:348|342:333|306:322,1,191.999994140625,4|6,0:0|0:0,0:0:0:0:
476,134,304604,1,8,0:0:0:0:
476,134,304747,2,0,L|495:244,1,95.9999970703126,6|0,0:0|0:0,0:0:0:0:
278,95,305033,6,0,L|294:-27,1,95.9999970703126,6|0,0:0|0:0,0:0:0:0:
407,65,305319,1,6,0:0:0:0:
152,144,305461,1,8,0:0:0:0:
152,144,305604,2,0,P|206:149|255:211,1,95.9999970703126,6|0,0:0|0:0,0:0:0:0:
318,326,305890,6,0,B|325:283|308:242|308:242|338:211|392:206|392:206|372:239,1,191.999994140625,4|6,0:0|0:0,0:0:0:0:
132,282,306319,1,8,0:0:0:0:
132,282,306461,2,0,L|249:299,1,95.9999970703126,6|0,0:0|0:0,0:0:0:0:
310,61,306747,5,8,0:0:0:0:
385,217,306890,1,8,0:0:0:0:
446,212,306961,1,8,0:0:0:0:
508,207,307033,1,8,0:0:0:0:
436,60,307176,1,8,0:0:0:0:
273,315,307319,5,2,0:0:0:0:
375,131,307461,1,2,0:0:0:0:
459,384,307604,6,0,B|433:369|433:369|406:365|406:365|376:338|376:338|327:346|276:315,1,191.999994140625,4|6,0:0|0:0,0:0:0:0:
37,250,308033,1,8,0:0:0:0:
37,250,308176,2,0,L|147:231,1,95.9999970703126,6|0,0:0|0:0,0:0:0:0:
332,165,308461,6,0,L|224:153,1,95.9999970703126,6|0,0:0|0:0,0:0:0:0:
331,35,308747,1,6,0:0:0:0:
399,245,308890,1,8,0:0:0:0:
399,245,309033,2,0,B|441:268|441:268|508:256,1,95.9999970703126,6|0,0:0|0:0,0:0:0:0:
512,18,309319,5,12,0:0:0:0:
449,192,309461,1,2,0:0:0:0:
449,192,309604,2,0,L|431:60,1,95.9999970703126,6|0,0:0|0:0,0:0:0:0:
356,325,309890,2,0,B|315:350|315:350|238:333,1,95.9999970703126,6|0,0:0|0:0,0:0:0:0:
203,89,310176,5,12,0:0:0:0:
300,270,310319,1,2,0:0:0:0:
300,270,310461,2,0,L|308:153,1,95.9999970703126,6|0,0:0|0:0,0:0:0:0:
109,295,310747,2,0,P|155:327|221:323,1,95.9999970703126,6|0,0:0|0:0,0:0:0:0:
486,201,311033,6,0,B|444:179|444:179|414:177|379:158|379:158|347:176|301:173,1,191.999994140625,4|6,0:0|0:0,0:0:0:0:
418,0,311461,1,8,0:0:0:0:
418,0,311604,2,0,L|432:99,1,95.9999970703126,6|0,0:0|0:0,0:0:0:0:
164,81,311890,6,0,P|205:53|286:46,1,95.9999970703126,6|0,0:0|0:0,0:0:0:0:
376,238,312176,1,6,0:0:0:0:
93,148,312319,1,8,0:0:0:0:
93,148,312461,2,0,L|77:35,1,95.9999970703126,6|0,0:0|0:0,0:0:0:0:
314,183,312747,6,0,B|284:224|294:269|312:289|312:289|291:300|291:300|280:325|253:343,1,191.999994140625,4|6,0:0|0:0,0:0:0:0:
470,251,313176,1,8,0:0:0:0:
470,251,313319,2,0,L|361:235,1,95.9999970703126,6|0,0:0|0:0,0:0:0:0:
181,207,313604,5,8,0:0:0:0:
184,210,313652,1,8,0:0:0:0:
187,213,313699,1,8,0:0:0:0:
190,216,313747,6,0,L|181:168,5,31.9999990234375,2|2|2|2|2|2,0:0|0:0|0:0|0:0|0:0|0:0,0:0:0:0:
112,148,314033,5,8,0:0:0:0:
199,108,314176,1,8,0:0:0:0:
286,68,314319,1,8,0:0:0:0:
346,276,314461,6,0,L|353:212,1,53.3333333333333,4|0,0:0|0:0,0:0:0:0:
181,332,314889,5,14,0:0:0:0:
184,335,314961,1,2,0:0:0:0:
187,338,315032,2,0,L|240:348,1,40.000001525879,2|2,0:0|0:0,0:0:0:0:
111,262,315175,5,6,0:0:0:0:
114,265,315246,1,2,0:0:0:0:
117,268,315317,2,0,L|59:278,1,40.000001525879,2|2,0:0|0:0,0:0:0:0:
201,207,315461,5,6,0:0:0:0:
204,210,315533,1,2,0:0:0:0:
207,213,315604,2,0,L|260:223,1,40.000001525879,2|2,0:0|0:0,0:0:0:0:
131,137,315747,5,14,0:0:0:0:
134,140,315818,1,2,0:0:0:0:
137,143,315890,2,0,L|79:153,1,40.000001525879,2|2,0:0|0:0,0:0:0:0:
224,92,316032,5,6,0:0:0:0:
255,97,316103,1,2,0:0:0:0:
286,102,316175,1,2,0:0:0:0:
317,107,316246,1,2,0:0:0:0:
348,112,316318,2,0,L|404:93,1,40.000001525879,2|2,0:0|0:0,0:0:0:0:
323,225,316461,5,6,0:0:0:0:
326,228,316532,1,2,0:0:0:0:
329,231,316603,2,0,L|314:180,1,40.000001525879,10|2,0:0|0:0,0:0:0:0:
393,313,316746,5,6,0:0:0:0:
365,330,316818,1,2,0:0:0:0:
333,336,316889,1,2,0:0:0:0:
300,333,316961,1,2,0:0:0:0:
270,320,317032,2,0,L|279:367,1,40.000001525879,2|2,0:0|0:0,0:0:0:0:
184,253,317175,5,6,0:0:0:0:
187,256,317246,1,2,0:0:0:0:
190,259,317318,2,0,L|200:203,1,40.000001525879,2|2,0:0|0:0,0:0:0:0:
385,99,317461,6,0,P|412:92|439:91,5,40.000001525879,12|2|2|2|2|2,0:0|0:0|0:0|0:0|0:0|0:0,0:0:0:0:
335,197,317889,5,4,0:0:0:0:
319,191,318032,1,2,0:0:0:0:
303,185,318175,1,2,0:0:0:0:
190,259,318318,1,12,0:0:0:0:
400,244,318461,2,0,B|420:210|420:210|403:147,1,80.0000030517579,2|0,0:0|0:0,0:0:0:0:
238,378,318746,6,0,P|277:374|333:371,1,80.0000030517579,6|0,0:0|0:0,0:0:0:0:
142,333,319032,1,6,0:0:0:0:
270,289,319175,1,8,0:0:0:0:
81,253,319318,2,0,P|42:250|-11:246,1,80.0000030517579,6|0,0:0|0:0,0:0:0:0:
284,178,319603,6,0,P|302:143|301:94,1,80.0000030517579,6|0,0:0|0:0,0:0:0:0:
103,51,319889,1,6,0:0:0:0:
228,10,320032,1,8,0:0:0:0:
125,157,320175,2,0,P|80:152|27:147,1,80.0000030517579,6|2,0:0|0:0,0:0:0:0:
34,143,320389,1,2,0:0:0:0:
25,134,320461,6,0,P|8:97|13:42,2,80.0000030517579,8|0|6,0:0|0:0|0:0,0:0:0:0:
217,229,320889,5,8,0:0:0:0:
74,259,321032,1,2,0:0:0:0:
74,259,321175,1,2,0:0:0:0:
220,122,321318,6,0,L|275:129,1,53.3333333333333,4|0,0:0|0:0,0:0:0:0:
461,27,321746,6,0,B|440:59|440:59|455:111,1,66.6666666666667,8|2,0:0|0:0,0:0:0:0:
504,235,321889,5,6,0:0:0:0:
507,238,321961,1,2,0:0:0:0:
510,241,322032,2,0,L|460:249,1,40.000001525879,2|2,0:0|0:0,0:0:0:0:
331,272,322175,5,6,0:0:0:0:
334,275,322246,1,2,0:0:0:0:
337,278,322318,2,0,L|387:286,1,40.000001525879,2|2,0:0|0:0,0:0:0:0:
289,176,322461,5,6,0:0:0:0:
257,181,322532,1,2,0:0:0:0:
225,186,322603,1,10,0:0:0:0:
193,192,322675,1,2,0:0:0:0:
161,198,322746,2,0,L|153:258,1,40.000001525879,2|2,0:0|0:0,0:0:0:0:
86,333,322889,5,6,0:0:0:0:
114,317,322961,1,2,0:0:0:0:
145,314,323032,1,2,0:0:0:0:
176,321,323103,1,2,0:0:0:0:
201,340,323175,1,2,0:0:0:0:
226,358,323246,1,2,0:0:0:0:
257,363,323318,1,2,0:0:0:0:
288,356,323389,1,2,0:0:0:0:
314,337,323461,1,10,0:0:0:0:
331,310,323532,1,2,0:0:0:0:
337,278,323603,2,0,L|327:230,1,40.000001525879,2|2,0:0|0:0,0:0:0:0:
355,112,323746,5,6,0:0:0:0:
340,140,323818,1,2,0:0:0:0:
318,162,323889,1,2,0:0:0:0:
289,176,323961,1,2,0:0:0:0:
257,182,324032,1,2,0:0:0:0:
225,178,324103,1,2,0:0:0:0:
195,164,324175,2,0,L|185:106,1,40.000001525879,2|2,0:0|0:0,0:0:0:0:
66,258,324318,6,0,B|99:251|99:251|140:271,5,66.6666666666667,8|2|6|2|2|2,0:0|0:0|0:0|0:0|0:0|0:0,0:0:0:0:
201,358,324746,6,0,L|279:349,1,66.6666666666667,4|0,0:0|0:0,0:0:0:0:
305,257,325175,5,10,0:0:0:0:
316,258,325246,1,2,0:0:0:0:
327,259,325318,1,2,0:0:0:0:
338,260,325389,1,2,0:0:0:0:
349,261,325461,1,2,0:0:0:0:
360,262,325532,1,2,0:0:0:0:
371,263,325603,6,0,L|387:322,5,40.000001525879,2|2|2|2|2|2,0:0|0:0|0:0|0:0|0:0|0:0,0:0:0:0:
444,217,326032,5,10,0:0:0:0:
446,201,326103,1,2,0:0:0:0:
449,185,326175,1,2,0:0:0:0:
452,169,326246,1,2,0:0:0:0:
455,153,326318,1,2,0:0:0:0:
458,137,326389,1,2,0:0:0:0:
461,121,326461,6,0,L|453:78,5,40.000001525879,2|2|2|2|2|2,0:0|0:0|0:0|0:0|0:0|0:0,0:0:0:0:
351,141,326889,5,10,0:0:0:0:
333,131,326961,1,2,0:0:0:0:
313,127,327032,1,2,0:0:0:0:
293,128,327103,1,2,0:0:0:0:
273,134,327175,1,2,0:0:0:0:
256,145,327246,1,2,0:0:0:0:
238,190,327318,5,2,0:0:0:0:
184,56,327461,1,8,0:0:0:0:
136,49,327532,1,8,0:0:0:0:
88,43,327603,1,8,0:0:0:0:
15,167,327746,5,8,0:0:0:0:
166,141,327889,1,2,0:0:0:0:
166,141,328032,1,2,0:0:0:0:
54,301,328175,6,0,L|0:294,1,53.3333333333333,4|0,0:0|0:0,0:0:0:0:
189,364,328603,5,14,0:0:0:0:
192,367,328675,1,2,0:0:0:0:
195,370,328746,2,0,L|262:360,1,40.000001525879,2|2,0:0|0:0,0:0:0:0:
329,240,328889,5,6,0:0:0:0:
360,244,328961,1,2,0:0:0:0:
391,248,329032,1,2,0:0:0:0:
422,252,329103,1,2,0:0:0:0:
453,256,329175,2,0,L|507:243,1,40.000001525879,2|2,0:0|0:0,0:0:0:0:
307,317,329318,5,6,0:0:0:0:
278,302,329389,1,2,0:0:0:0:
256,278,329461,1,10,0:0:0:0:
249,246,329532,1,2,0:0:0:0:
253,214,329603,1,2,0:0:0:0:
269,186,329675,1,2,0:0:0:0:
294,167,329746,2,0,L|365:161,1,40.000001525879,2|2,0:0|0:0,0:0:0:0:
172,219,329889,5,6,0:0:0:0:
140,214,329961,1,2,0:0:0:0:
108,209,330032,1,2,0:0:0:0:
76,204,330103,1,2,0:0:0:0:
43,200,330175,2,0,L|33:148,1,40.000001525879,2|2,0:0|0:0,0:0:0:0:
0,51,330318,5,14,0:0:0:0:
26,68,330389,1,2,0:0:0:0:
57,76,330461,1,2,0:0:0:0:
88,71,330532,1,2,0:0:0:0:
116,56,330603,1,2,0:0:0:0:
143,39,330675,1,2,0:0:0:0:
174,32,330746,1,2,0:0:0:0:
205,36,330818,1,2,0:0:0:0:
231,52,330889,2,0,L|240:118,1,40.000001525879,2|2,0:0|0:0,0:0:0:0:
256,214,331032,2,0,L|261:174,1,40.000001525879,6|2,0:0|0:0,0:0:0:0:
425,57,331175,6,0,P|446:52|473:50,3,40.000001525879,12|2|2|2,0:0|0:0|0:0|0:0,0:0:0:0:
352,96,331461,2,0,L|305:87,1,40.000001525879,6|2,0:0|0:0,0:0:0:0:
423,155,331603,5,2,0:0:0:0:
423,155,331746,1,2,0:0:0:0:
423,155,331889,1,2,0:0:0:0:
123,135,332032,6,0,L|114:43,1,80.0000030517579,12|2,0:0|0:0,0:0:0:0:
256,214,332318,2,0,L|265:122,1,80.0000030517579,4|2,0:0|0:0,0:0:0:0:
150,274,332603,5,0,0:0:0:0:
150,274,332746,1,2,0:0:0:0:
353,247,332889,6,0,L|362:155,1,80.0000030517579,12|2,0:0|0:0,0:0:0:0:
237,365,333175,2,0,L|228:273,1,80.0000030517579,4|2,0:0|0:0,0:0:0:0:
342,337,333461,1,0,0:0:0:0:
126,268,333603,6,0,L|117:176,1,80.0000030517579,6|8,0:0|0:0,0:0:0:0:
59,325,333889,1,2,0:0:0:0:
256,214,334032,5,6,0:0:0:0:
257,202,334103,1,2,0:0:0:0:
258,190,334174,1,8,0:0:0:0:
143,116,334318,5,0,0:0:0:0:
143,116,334461,1,6,0:0:0:0:
355,77,334603,5,8,0:0:0:0:
224,41,334746,1,2,0:0:0:0:
224,41,334889,1,2,0:0:0:0:
364,197,335032,6,0,L|429:191,1,53.3333333333333,4|0,0:0|0:0,0:0:0:0:
366,371,335461,5,14,0:0:0:0:
369,374,335532,1,2,0:0:0:0:
372,377,335603,2,0,L|313:371,1,40.000001525879,2|2,0:0|0:0,0:0:0:0:
176,335,335746,5,6,0:0:0:0:
179,338,335817,1,2,0:0:0:0:
182,341,335889,2,0,L|221:336,1,40.000001525879,2|2,0:0|0:0,0:0:0:0:
344,261,336032,5,6,0:0:0:0:
375,265,336103,1,2,0:0:0:0:
406,270,336175,1,2,0:0:0:0:
437,275,336246,1,2,0:0:0:0:
468,280,336318,2,0,L|476:322,1,40.000001525879,10|2,0:0|0:0,0:0:0:0:
417,192,336461,5,6,0:0:0:0:
399,165,336532,1,2,0:0:0:0:
394,133,336603,1,2,0:0:0:0:
403,102,336675,1,2,0:0:0:0:
424,78,336746,2,0,L|477:71,1,40.000001525879,2|2,0:0|0:0,0:0:0:0:
320,157,336889,5,6,0:0:0:0:
293,175,336961,1,2,0:0:0:0:
261,178,337032,1,2,0:0:0:0:
230,168,337103,1,2,0:0:0:0:
207,145,337175,1,10,0:0:0:0:
186,120,337246,1,2,0:0:0:0:
155,108,337318,1,2,0:0:0:0:
123,110,337389,1,2,0:0:0:0:
94,125,337461,1,2,0:0:0:0:
77,152,337532,1,2,0:0:0:0:
71,183,337603,2,0,L|80:237,1,40.000001525879,2|2,0:0|0:0,0:0:0:0:
198,296,337746,5,6,0:0:0:0:
201,299,337818,1,2,0:0:0:0:
204,302,337889,2,0,L|197:341,1,40.000001525879,2|2,0:0|0:0,0:0:0:0:
380,175,338032,6,0,B|350:155|350:155|307:157,5,66.6666666666667,8|2|2|2|2|2,0:0|0:0|0:0|0:0|0:0|0:0,0:0:0:0:
237,215,338461,6,0,L|169:220,1,66.6666666666667,4|0,0:0|0:0,0:0:0:0:
83,269,338889,5,10,0:0:0:0:
80,257,338961,1,2,0:0:0:0:
77,245,339032,1,2,0:0:0:0:
74,233,339103,1,2,0:0:0:0:
71,221,339175,1,2,0:0:0:0:
69,209,339246,1,2,0:0:0:0:
67,197,339318,6,0,L|2:188,5,40.000001525879,2|2|2|2|2|2,0:0|0:0|0:0|0:0|0:0|0:0,0:0:0:0:
146,120,339746,5,10,0:0:0:0:
161,117,339818,1,2,0:0:0:0:
176,114,339889,1,2,0:0:0:0:
191,111,339961,1,2,0:0:0:0:
206,108,340032,1,2,0:0:0:0:
221,106,340103,1,2,0:0:0:0:
237,104,340175,6,0,L|245:53,5,40.000001525879,2|2|2|2|2|2,0:0|0:0|0:0|0:0|0:0|0:0,0:0:0:0:
288,205,340603,5,10,0:0:0:0:
308,207,340675,1,2,0:0:0:0:
327,209,340746,1,2,0:0:0:0:
346,211,340818,1,2,0:0:0:0:
365,213,340889,1,2,0:0:0:0:
384,215,340961,1,2,0:0:0:0:
431,219,341032,5,2,0:0:0:0:
332,86,341175,1,8,0:0:0:0:
285,95,341246,1,8,0:0:0:0:
237,104,341318,1,8,0:0:0:0:
190,237,341461,5,8,0:0:0:0:
125,101,341603,1,2,0:0:0:0:
125,101,341746,1,2,0:0:0:0:
83,203,341889,5,6,0:0:0:0:
117,310,344461,5,4,0:0:0:0:
263,277,344603,1,8,0:0:0:0:
270,229,344675,1,8,0:0:0:0:
277,181,344746,1,8,0:0:0:0:
414,137,344889,5,8,0:0:0:0:
263,81,345032,1,2,0:0:0:0:
263,81,345175,1,2,0:0:0:0:
501,47,345318,6,0,L|428:56,1,66.6666666666667,4|0,0:0|0:0,0:0:0:0:
423,148,345746,5,2,0:0:0:0:
423,148,345889,2,0,L|345:138,1,69.3333301595054,2|2,0:0|0:0,0:0:0:0:
282,43,346175,1,8,0:0:0:0:
225,223,346318,6,0,P|226:192|232:139,1,69.3333301595054,2|0,0:0|0:0,0:0:0:0:
166,323,346603,2,0,P|142:270|127:198,1,119.999996337891,2|0,0:0|0:0,0:0:0:0:
255,311,347032,5,2,0:0:0:0:
255,311,347175,2,0,L|337:300,1,69.3333301595054,2|2,0:0|0:0,0:0:0:0:
326,304,347389,1,2,0:0:0:0:
329,307,347461,2,0,P|350:337|360:379,2,69.3333301595054,8|2|2,0:0|0:0|0:0,0:0:0:0:
332,310,347818,1,2,0:0:0:0:
335,313,347889,2,0,L|340:221,2,69.3333301595054,8|2|2,0:0|0:0|0:0,0:0:0:0:
241,172,348318,5,8,0:0:0:0:
315,155,348461,1,8,0:0:0:0:
389,138,348603,1,8,0:0:0:0:
218,98,348746,5,2,0:0:0:0:
207,95,348817,1,2,0:0:0:0:
197,93,348888,1,2,0:0:0:0:
187,90,348960,1,2,0:0:0:0:
177,88,349031,1,2,0:0:0:0:
177,88,349175,1,2,0:0:0:0:
315,155,349318,5,2,0:0:0:0:
304,158,349389,1,2,0:0:0:0:
294,160,349460,1,2,0:0:0:0:
284,163,349532,1,2,0:0:0:0:
274,165,349603,1,8,0:0:0:0:
274,165,349746,1,2,0:0:0:0:
387,63,349889,5,2,0:0:0:0:
376,60,349961,1,2,0:0:0:0:
366,58,350032,1,2,0:0:0:0:
356,55,350103,1,2,0:0:0:0:
346,53,350175,1,2,0:0:0:0:
346,53,350318,1,2,0:0:0:0:
454,181,350461,6,0,L|463:136,1,34.6666650797527,2|2,0:0|0:0,0:0:0:0:
457,267,350603,2,0,L|488:300,1,34.6666650797527,2|2,0:0|0:0,0:0:0:0:
377,227,350746,2,0,L|331:233,1,34.6666650797527,2|2,0:0|0:0,0:0:0:0:
238,252,350889,5,2,0:0:0:0:
238,252,351032,1,2,0:0:0:0:
238,252,351175,1,2,0:0:0:0:
142,108,351318,5,8,0:0:0:0:
87,219,351461,1,2,0:0:0:0:
87,219,351603,1,2,0:0:0:0:
232,122,351746,5,8,0:0:0:0:
60,76,351889,1,2,0:0:0:0:
60,76,352032,1,2,0:0:0:0:
302,36,352175,6,0,L|226:47,1,66.6666666666667,4|0,0:0|0:0,0:0:0:0:
220,133,352603,5,2,0:0:0:0:
220,133,352746,2,0,L|131:123,1,69.3333301595054,2|2,0:0|0:0,0:0:0:0:
299,219,353032,5,8,0:0:0:0:
366,172,353175,2,0,P|360:136|354:95,1,69.3333301595054,2|2,0:0|0:0,0:0:0:0:
506,285,353461,5,8,0:0:0:0:
436,241,353603,2,0,P|442:205|448:164,1,69.3333301595054,2|2,0:0|0:0,0:0:0:0:
230,328,353889,5,2,0:0:0:0:
230,328,354032,2,0,P|181:318|141:313,1,69.3333301595054,2|2,0:0|0:0,0:0:0:0:
164,318,354246,1,2,0:0:0:0:
167,321,354318,2,0,P|151:288|153:236,2,69.3333301595054,8|2|2,0:0|0:0|0:0,0:0:0:0:
170,324,354675,1,2,0:0:0:0:
173,327,354746,2,0,L|98:344,2,69.3333301595054,8|2|2,0:0|0:0|0:0,0:0:0:0:
405,276,355175,5,8,0:0:0:0:
414,200,355318,1,8,0:0:0:0:
424,124,355461,1,8,0:0:0:0:
302,267,355603,5,4,0:0:0:0:
303,277,355674,1,2,0:0:0:0:
304,287,355745,1,2,0:0:0:0:
305,297,355817,1,2,0:0:0:0:
307,308,355888,1,2,0:0:0:0:
307,308,356032,1,2,0:0:0:0:
414,200,356175,5,2,0:0:0:0:
413,210,356246,1,2,0:0:0:0:
412,220,356318,1,2,0:0:0:0:
411,230,356389,1,2,0:0:0:0:
409,241,356461,1,8,0:0:0:0:
409,241,356604,1,2,0:0:0:0:
303,130,356746,5,2,0:0:0:0:
304,140,356817,1,2,0:0:0:0:
305,150,356888,1,2,0:0:0:0:
306,160,356960,1,2,0:0:0:0:
308,171,357031,1,2,0:0:0:0:
308,171,357175,1,2,0:0:0:0:
488,71,357318,6,0,L|436:61,1,34.6666650797527,2|2,0:0|0:0,0:0:0:0:
350,48,357461,2,0,L|371:96,1,34.6666650797527,2|2,0:0|0:0,0:0:0:0:
410,171,357603,2,0,L|437:125,1,34.6666650797527,2|2,0:0|0:0,0:0:0:0:
302,267,357746,5,2,0:0:0:0:
302,267,357889,1,2,0:0:0:0:
302,267,358032,1,2,0:0:0:0:
178,149,358175,5,8,0:0:0:0:
303,130,358318,1,2,0:0:0:0:
303,130,358461,1,2,0:0:0:0:
171,242,358603,5,8,0:0:0:0:
106,89,358746,1,2,0:0:0:0:
106,89,358889,1,2,0:0:0:0:
69,326,359032,6,0,L|80:254,1,66.6666666666667,4|0,0:0|0:0,0:0:0:0:
161,226,359461,5,2,0:0:0:0:
161,226,359603,2,0,L|148:140,1,69.3333301595054,2|2,0:0|0:0,0:0:0:0:
32,116,359889,1,8,0:0:0:0:
289,72,360032,6,0,P|233:78|176:91,1,103.999995239258,2|0,0:0|0:0,0:0:0:0:
367,167,360318,2,0,P|329:158|229:151,1,119.999996337891,8|0,0:0|0:0,0:0:0:0:
355,257,360746,5,2,0:0:0:0:
355,257,360889,2,0,L|438:248,1,69.3333301595054,2|2,0:0|0:0,0:0:0:0:
426,252,361103,1,2,0:0:0:0:
429,255,361175,2,0,P|445:224|444:167,2,69.3333301595054,8|2|2,0:0|0:0|0:0,0:0:0:0:
432,258,361532,1,2,0:0:0:0:
435,261,361603,6,0,L|448:307,1,34.6666650797527,8|2,0:0|0:0,0:0:0:0:
335,247,361746,2,0,L|348:293,1,34.6666650797527,8|2,0:0|0:0,0:0:0:0:
232,240,361889,2,0,L|245:286,1,34.6666650797527,8|2,0:0|0:0,0:0:0:0:
285,163,362032,5,8,0:0:0:0:
279,122,362103,1,8,0:0:0:0:
268,130,362175,5,2,0:0:0:0:
281,133,362246,1,2,0:0:0:0:
294,136,362318,1,2,0:0:0:0:
307,139,362389,1,2,0:0:0:0:
354,146,362461,6,0,L|177:163,1,160.000006103516,4|2,0:0|0:0,0:0:0:0:
135,368,362889,1,8,0:0:0:0:
261,280,363032,5,2,0:0:0:0:
257,264,363103,1,2,0:0:0:0:
253,248,363175,1,8,0:0:0:0:
62,189,363318,1,2,0:0:0:0:
185,139,363461,1,8,0:0:0:0:
79,294,363603,6,0,P|28:289|-12:286,1,80.0000030517579,2|8,0:0|0:0,0:0:0:0:
188,156,363889,1,2,0:0:0:0:
192,171,363961,1,2,0:0:0:0:
196,186,364032,1,8,0:0:0:0:
88,68,364175,5,2,0:0:0:0:
48,208,364318,1,8,0:0:0:0:
174,72,364461,5,2,0:0:0:0:
37,221,364603,1,8,0:0:0:0:
253,114,364746,5,2,0:0:0:0:
268,117,364818,1,2,0:0:0:0:
283,120,364889,1,8,0:0:0:0:
415,66,365032,5,8,0:0:0:0:
407,79,365103,1,2,0:0:0:0:
401,94,365175,1,2,0:0:0:0:
397,109,365246,1,2,0:0:0:0:
395,125,365318,1,2,0:0:0:0:
395,140,365389,1,2,0:0:0:0:
374,183,365461,5,8,0:0:0:0:
327,193,365532,1,8,0:0:0:0:
335,179,365603,5,2,0:0:0:0:
342,193,365675,1,2,0:0:0:0:
349,207,365746,1,2,0:0:0:0:
356,221,365818,1,2,0:0:0:0:
375,264,365889,6,0,L|302:258,1,66.6666666666667,4|0,0:0|0:0,0:0:0:0:
257,334,366318,5,2,0:0:0:0:
257,334,366461,2,0,L|172:340,1,69.3333301595054,2|2,0:0|0:0,0:0:0:0:
69,228,366746,5,2,0:0:0:0:
65,248,366889,1,2,0:0:0:0:
61,268,367032,1,2,0:0:0:0:
218,154,367175,5,8,0:0:0:0:
218,154,367318,2,0,P|205:152|135:146,1,69.3333301595054,2|2,0:0|0:0,0:0:0:0:
301,251,367603,5,8,0:0:0:0:
304,254,367675,1,8,0:0:0:0:
307,257,367746,2,0,L|357:249,1,34.6666650797527,2|2,0:0|0:0,0:0:0:0:
414,162,367889,2,0,L|464:170,1,34.6666650797527,2|2,0:0|0:0,0:0:0:0:
300,117,368032,5,8,0:0:0:0:
303,120,368103,1,8,0:0:0:0:
306,123,368175,2,0,L|296:69,1,34.6666650797527,2|2,0:0|0:0,0:0:0:0:
191,49,368318,2,0,L|201:-5,1,34.6666650797527,2|2,0:0|0:0,0:0:0:0:
125,183,368461,6,0,B|99:197|99:197|61:194,2,60.0000022888184,8|8|8,0:0|0:0|0:0,0:0:0:0:
128,186,368742,1,2,0:0:0:0:
202,228,368836,2,0,L|211:156,1,60.0000022888184,2|2,0:0|0:0,0:0:0:0:
129,268,369023,2,0,L|136:327,1,60.0000022888184,2|2,0:0|0:0,0:0:0:0:
139,330,369211,1,2,0:0:0:0:
254,347,369315,6,0,P|311:335|373:331,1,106.666666666667,4|2,0:0|0:0,0:0:0:0:
359,331,369743,1,2,0:0:0:0:
273,256,369886,2,0,P|314:261|331:262,1,53.3333333333333,2|2,0:0|0:0,0:0:0:0:
126,126,370172,6,0,P|204:121|255:114,1,106.666666666667,8|2,0:0|0:0,0:0:0:0:
232,117,370600,1,2,0:0:0:0:
143,209,370743,2,0,P|180:212|209:216,1,53.3333333333333,2|2,0:0|0:0,0:0:0:0:
351,69,371029,6,0,P|378:71|476:85,1,106.666666666667,2|2,0:0|0:0,0:0:0:0:
456,81,371457,1,2,0:0:0:0:
380,165,371600,2,0,P|416:160|440:158,1,53.3333333333333,2|2,0:0|0:0,0:0:0:0:
116,304,371886,6,0,P|175:312|236:330,2,106.666666666667,8|2|2,0:0|0:0|0:0,0:0:0:0:
14,93,372743,6,0,P|77:86|142:82,1,106.666666666667,2|2,0:0|0:0,0:0:0:0:
120,82,373172,1,2,0:0:0:0:
58,171,373315,2,0,P|103:178|123:183,1,53.3333333333333,2|2,0:0|0:0,0:0:0:0:
312,314,373600,6,0,P|374:308|434:298,1,106.666666666667,8|2,0:0|0:0,0:0:0:0:
417,301,374029,1,2,0:0:0:0:
333,220,374172,2,0,P|377:227|400:229,1,53.3333333333333,2|2,0:0|0:0,0:0:0:0:
111,273,374457,6,0,P|169:267|238:263,1,106.666666666667,2|2,0:0|0:0,0:0:0:0:
71,182,374886,1,2,0:0:0:0:
71,182,375029,2,0,P|120:189|135:190,1,53.3333333333333,2|2,0:0|0:0,0:0:0:0:
307,62,375315,5,8,0:0:0:0:
354,155,375457,1,2,0:0:0:0:
367,153,375529,1,2,0:0:0:0:
380,151,375600,1,8,0:0:0:0:
430,239,375743,1,2,0:0:0:0:
440,65,375886,5,8,0:0:0:0:
257,213,376029,1,8,0:0:0:0:
479,329,376172,6,0,P|443:324|358:316,1,106.666666666667,4|2,0:0|0:0,0:0:0:0:
373,317,376600,1,2,0:0:0:0:
451,235,376743,2,0,P|432:237|387:245,1,53.3333333333333,2|2,0:0|0:0,0:0:0:0:
159,124,377029,6,0,P|112:118|41:113,1,106.666666666667,8|2,0:0|0:0,0:0:0:0:
52,113,377457,1,2,0:0:0:0:
135,201,377600,2,0,P|98:207|70:214,1,53.3333333333333,2|2,0:0|0:0,0:0:0:0:
315,328,377886,6,0,P|263:312|204:300,1,106.666666666667,2|2,0:0|0:0,0:0:0:0:
211,301,378315,1,2,0:0:0:0:
332,231,378457,2,0,P|314:233|277:242,1,53.3333333333333,2|2,0:0|0:0,0:0:0:0:
501,86,378743,6,0,P|441:105|397:126,2,106.666666666667,8|2|2,0:0|0:0|0:0,0:0:0:0:
149,175,379600,6,0,P|89:165|20:159,1,106.666666666667,2|2,0:0|0:0,0:0:0:0:
43,160,380029,1,2,0:0:0:0:
162,88,380172,2,0,P|143:90|105:97,1,53.3333333333333,2|2,0:0|0:0,0:0:0:0:
291,320,380457,6,0,P|238:325|173:336,1,106.666666666667,8|2,0:0|0:0,0:0:0:0:
185,333,380886,1,2,0:0:0:0:
245,244,381029,2,0,P|216:240|187:234,1,53.3333333333333,2|2,0:0|0:0,0:0:0:0:
474,117,381315,6,0,P|436:110|356:101,1,106.666666666667,2|2,0:0|0:0,0:0:0:0:
478,199,381743,1,2,0:0:0:0:
478,199,381886,2,0,P|437:206|404:213,1,53.3333333333333,2|2,0:0|0:0,0:0:0:0:
185,333,382172,5,8,0:0:0:0:
178,302,382243,1,8,0:0:0:0:
171,270,382315,1,8,0:0:0:0:
140,264,382386,5,2,0:0:0:0:
157,242,382457,1,2,0:0:0:0:
173,221,382528,1,2,0:0:0:0:
154,195,382600,5,2,0:0:0:0:
176,194,382671,1,2,0:0:0:0:
197,193,382742,1,2,0:0:0:0:
209,162,382815,5,2,0:0:0:0:
221,173,382886,1,2,0:0:0:0:
232,185,382957,1,2,0:0:0:0:
264,176,383029,5,4,0:0:0:0:
264,176,383172,2,0,P|304:168|347:164,1,61.3333345031739,2|2,0:0|0:0,0:0:0:0:
384,235,383457,1,0,0:0:0:0:
245,270,383600,2,0,P|275:275|306:284,1,61.3333345031739,2|2,0:0|0:0,0:0:0:0:
81,135,383886,6,0,P|115:126|159:118,2,61.3333345031739,8|2|2,0:0|0:0|0:0,0:0:0:0:
216,160,384315,1,2,0:0:0:0:
104,216,384457,2,0,P|141:226|172:236,1,61.3333345031739,2|2,0:0|0:0,0:0:0:0:
312,123,384743,5,2,0:0:0:0:
312,123,384886,2,0,P|346:115|388:106,1,61.3333345031739,2|2,0:0|0:0,0:0:0:0:
451,55,385172,1,2,0:0:0:0:
281,33,385315,2,0,P|325:38|356:45,1,61.3333345031739,2|2,0:0|0:0,0:0:0:0:
246,256,385600,6,0,P|199:245|114:234,2,122.666669006348,8|2|2,0:0|0:0|0:0,0:0:0:0:
177,279,386315,1,2,0:0:0:0:
69,160,386457,5,2,0:0:0:0:
69,160,386600,2,0,P|106:153|142:148,1,61.3333345031739,2|0,0:0|0:0,0:0:0:0:
197,102,386886,1,2,0:0:0:0:
54,59,387029,2,0,P|88:67|118:77,1,61.3333345031739,2|2,0:0|0:0,0:0:0:0:
323,243,387315,6,0,P|360:236|406:216,2,61.3333345031739,8|2|2,0:0|0:0|0:0,0:0:0:0:
449,259,387743,1,2,0:0:0:0:
335,323,387886,2,0,P|385:335|415:339,1,61.3333345031739,2|2,0:0|0:0,0:0:0:0:
224,175,388172,5,0,0:0:0:0:
224,175,388315,2,0,P|259:167|308:156,1,61.3333345031739,2|2,0:0|0:0,0:0:0:0:
326,93,388600,1,2,0:0:0:0:
181,70,388743,2,0,P|221:86|249:94,1,61.3333345031739,2|2,0:0|0:0,0:0:0:0:
166,300,389029,6,0,P|213:304|248:311,1,61.3333345031739,8|2,0:0|0:0,0:0:0:0:
44,244,389315,2,0,P|87:234|112:232,1,61.3333345031739,8|2,0:0|0:0,0:0:0:0:
315,189,389600,5,8,0:0:0:0:
265,375,389743,1,8,0:0:0:0:
450,256,389886,5,4,0:0:0:0:
450,256,390029,2,0,P|413:260|367:269,1,61.3333345031739,2|2,0:0|0:0,0:0:0:0:
314,208,390315,1,2,0:0:0:0:
448,175,390457,2,0,P|412:167|382:162,1,61.3333345031739,2|2,0:0|0:0,0:0:0:0:
173,325,390743,6,0,P|149:323|100:317,2,61.3333345031739,8|2|2,0:0|0:0|0:0,0:0:0:0:
85,255,391172,1,2,0:0:0:0:
220,201,391315,2,0,P|164:207|149:210,1,61.3333345031739,2|2,0:0|0:0,0:0:0:0:
394,61,391600,5,2,0:0:0:0:
394,61,391743,2,0,P|338:74|312:77,1,61.3333345031739,2|2,0:0|0:0,0:0:0:0:
261,130,392029,1,2,0:0:0:0:
402,184,392172,2,0,P|368:174|324:166,1,61.3333345031739,2|2,0:0|0:0,0:0:0:0:
141,323,392457,6,0,P|83:316|2:299,2,122.666669006348,8|2|2,0:0|0:0|0:0,0:0:0:0:
66,359,393172,1,2,0:0:0:0:
261,181,393315,6,0,P|210:172|125:160,1,122.666669006348,2|2,0:0|0:0,0:0:0:0:
278,95,393743,1,2,0:0:0:0:
278,95,393886,1,2,0:0:0:0:
465,299,394172,6,0,P|401:306|326:318,1,122.666669006348,8|2,0:0|0:0,0:0:0:0:
422,200,394600,1,2,0:0:0:0:
422,200,394743,1,2,0:0:0:0:
145,243,395029,6,0,P|82:254|0:260,1,122.666669006348,2|2,0:0|0:0,0:0:0:0:
196,311,395457,1,2,0:0:0:0:
196,311,395600,1,2,0:0:0:0:
367,178,395886,5,8,0:0:0:0:
374,137,395957,1,8,0:0:0:0:
381,95,396029,2,0,L|425:88,1,34.6666650797527,2|2,0:0|0:0,0:0:0:0:
274,113,396172,5,2,0:0:0:0:
277,116,396243,1,2,0:0:0:0:
280,119,396315,2,0,L|268:61,1,34.6666650797527,2|0,0:0|0:0,0:0:0:0:
367,178,396457,6,0,L|359:217,1,40,8|0,0:0|0:0,0:0:0:0:
297,273,396743,6,0,L|250:259,3,40,4|2|2|2,0:0|0:0|0:0|0:0,0:0:0:0:
164,335,397028,2,0,L|202:304,3,40,6|2|2|2,0:0|0:0|0:0|0:0,0:0:0:0:
187,189,397314,2,0,L|189:237,3,40,6|2|2|2,0:0|0:0|0:0|0:0,0:0:0:0:
287,139,397600,5,6,0:0:0:0:
287,135,397671,1,2,0:0:0:0:
288,131,397742,1,2,0:0:0:0:
289,127,397814,1,2,0:0:0:0:
289,123,397885,1,6,0:0:0:0:
290,119,397957,1,2,0:0:0:0:
291,115,398028,1,2,0:0:0:0:
291,111,398100,1,2,0:0:0:0:
292,107,398171,1,6,0:0:0:0:
293,103,398242,1,2,0:0:0:0:
294,99,398314,1,2,0:0:0:0:
294,95,398385,1,2,0:0:0:0:
295,91,398457,5,12,0:0:0:0:
291,93,398528,1,2,0:0:0:0:
288,95,398599,1,2,0:0:0:0:
285,98,398671,1,2,0:0:0:0:
282,101,398742,1,6,0:0:0:0:
280,104,398814,1,2,0:0:0:0:
277,107,398885,1,2,0:0:0:0:
275,110,398957,1,2,0:0:0:0:
272,113,399028,1,6,0:0:0:0:
270,117,399099,1,2,0:0:0:0:
268,120,399171,1,2,0:0:0:0:
267,124,399242,1,2,0:0:0:0:
265,128,399314,1,6,0:0:0:0:
264,131,399385,1,2,0:0:0:0:
262,135,399457,1,2,0:0:0:0:
261,139,399528,1,2,0:0:0:0:
261,143,399599,1,6,0:0:0:0:
260,147,399671,1,2,0:0:0:0:
259,151,399742,1,2,0:0:0:0:
259,155,399814,1,2,0:0:0:0:
259,159,399885,1,6,0:0:0:0:
259,163,399957,1,2,0:0:0:0:
260,167,400028,1,2,0:0:0:0:
260,171,400099,1,2,0:0:0:0:
261,175,400171,6,0,L|200:180,3,40,6|2|2|2,0:0|0:0|0:0|0:0,0:0:0:0:
288,278,400457,2,0,L|318:225,3,40,6|2|2|2,0:0|0:0|0:0|0:0,0:0:0:0:
187,244,400743,2,0,L|212:299,3,40,6|2|2|2,0:0|0:0|0:0|0:0,0:0:0:0:
115,182,401028,5,6,0:0:0:0:
111,179,401099,1,2,0:0:0:0:
108,177,401170,1,2,0:0:0:0:
104,176,401242,1,2,0:0:0:0:
100,175,401313,1,6,0:0:0:0:
96,176,401385,1,2,0:0:0:0:
92,176,401456,1,2,0:0:0:0:
88,177,401528,1,2,0:0:0:0:
84,179,401599,1,6,0:0:0:0:
81,181,401670,1,2,0:0:0:0:
78,183,401742,1,2,0:0:0:0:
76,187,401813,1,2,0:0:0:0:
73,190,401885,5,12,0:0:0:0:
72,186,401956,1,2,0:0:0:0:
71,182,402027,1,2,0:0:0:0:
71,178,402099,1,2,0:0:0:0:
70,174,402170,1,6,0:0:0:0:
70,170,402242,1,2,0:0:0:0:
69,166,402313,1,2,0:0:0:0:
69,162,402385,1,2,0:0:0:0:
68,158,402456,1,6,0:0:0:0:
68,154,402527,1,2,0:0:0:0:
67,150,402599,1,2,0:0:0:0:
67,146,402670,1,2,0:0:0:0:
66,142,402743,5,12,0:0:0:0:
65,145,402814,1,2,0:0:0:0:
64,149,402885,1,2,0:0:0:0:
64,153,402957,1,2,0:0:0:0:
63,157,403028,1,6,0:0:0:0:
63,161,403100,1,2,0:0:0:0:
62,165,403171,1,2,0:0:0:0:
62,169,403243,1,2,0:0:0:0:
61,173,403314,1,6,0:0:0:0:
61,177,403385,1,2,0:0:0:0:
60,181,403457,1,2,0:0:0:0:
60,185,403528,1,2,0:0:0:0:
59,189,403600,6,0,L|-8:198,3,40,4|2|2|2,0:0|0:0|0:0|0:0,0:0:0:0:
158,176,403885,2,0,L|190:116,3,40,6|2|2|2,0:0|0:0|0:0|0:0,0:0:0:0:
104,261,404171,2,0,L|134:321,3,40,6|2|2|2,0:0|0:0|0:0|0:0,0:0:0:0:
226,344,404457,5,6,0:0:0:0:
229,343,404528,1,2,0:0:0:0:
233,343,404599,1,2,0:0:0:0:
237,342,404671,1,2,0:0:0:0:
241,342,404742,1,6,0:0:0:0:
245,341,404814,1,2,0:0:0:0:
249,341,404885,1,2,0:0:0:0:
253,340,404957,1,2,0:0:0:0:
257,340,405028,1,6,0:0:0:0:
261,339,405099,1,2,0:0:0:0:
265,339,405171,1,2,0:0:0:0:
269,338,405242,1,2,0:0:0:0:
273,338,405314,5,12,0:0:0:0:
269,339,405385,1,2,0:0:0:0:
265,341,405456,1,2,0:0:0:0:
261,342,405528,1,2,0:0:0:0:
257,342,405599,1,6,0:0:0:0:
254,341,405671,1,2,0:0:0:0:
250,340,405742,1,2,0:0:0:0:
246,338,405814,1,2,0:0:0:0:
243,336,405885,1,6,0:0:0:0:
240,333,405956,1,2,0:0:0:0:
238,329,406028,1,2,0:0:0:0:
237,326,406099,1,2,0:0:0:0:
236,322,406171,1,6,0:0:0:0:
236,318,406242,1,2,0:0:0:0:
236,314,406314,1,2,0:0:0:0:
237,310,406385,1,2,0:0:0:0:
239,307,406456,1,6,0:0:0:0:
242,303,406528,1,2,0:0:0:0:
245,301,406599,1,2,0:0:0:0:
248,298,406671,1,2,0:0:0:0:
252,297,406742,1,6,0:0:0:0:
256,296,406814,1,2,0:0:0:0:
260,296,406885,1,2,0:0:0:0:
264,296,406956,1,2,0:0:0:0:
267,298,407028,6,0,L|257:244,3,40,6|2|2|2,0:0|0:0|0:0|0:0,0:0:0:0:
244,151,407314,2,0,L|293:173,3,40,6|2|2|2,0:0|0:0|0:0|0:0,0:0:0:0:
377,219,407600,2,0,L|329:246,3,40,6|2|2|2,0:0|0:0|0:0|0:0,0:0:0:0:
476,202,407885,5,6,0:0:0:0:
474,198,407956,1,2,0:0:0:0:
472,194,408027,1,2,0:0:0:0:
471,190,408099,1,2,0:0:0:0:
470,187,408170,1,6,0:0:0:0:
469,183,408242,1,2,0:0:0:0:
468,179,408313,1,2,0:0:0:0:
468,175,408385,1,2,0:0:0:0:
468,171,408456,1,6,0:0:0:0:
468,167,408527,1,2,0:0:0:0:
468,163,408599,1,2,0:0:0:0:
469,159,408670,1,2,0:0:0:0:
470,155,408743,5,12,0:0:0:0:
466,154,408814,1,2,0:0:0:0:
462,154,408885,1,2,0:0:0:0:
458,153,408957,1,2,0:0:0:0:
454,153,409028,1,6,0:0:0:0:
450,152,409100,1,2,0:0:0:0:
446,152,409171,1,2,0:0:0:0:
442,151,409243,1,2,0:0:0:0:
438,151,409314,1,6,0:0:0:0:
434,150,409385,1,2,0:0:0:0:
430,150,409457,1,2,0:0:0:0:
426,149,409528,1,2,0:0:0:0:
422,149,409600,5,12,0:0:0:0:
425,148,409671,1,2,0:0:0:0:
429,148,409742,1,2,0:0:0:0:
433,147,409814,1,2,0:0:0:0:
437,147,409885,1,6,0:0:0:0:
441,146,409957,1,2,0:0:0:0:
445,146,410028,1,2,0:0:0:0:
449,145,410100,1,2,0:0:0:0:
453,145,410171,1,6,0:0:0:0:
457,144,410242,1,2,0:0:0:0:
461,144,410314,1,2,0:0:0:0:
465,143,410385,1,2,0:0:0:0:
469,143,410457,6,0,L|478:86,3,40,4|2|2|2,0:0|0:0|0:0|0:0,0:0:0:0:
366,157,410743,2,0,L|314:182,3,40,6|2|2|2,0:0|0:0|0:0|0:0,0:0:0:0:
433,233,411028,2,0,L|483:260,3,40,6|2|2|2,0:0|0:0|0:0|0:0,0:0:0:0:
341,296,411314,5,12,0:0:0:0:
330,302,411385,1,2,0:0:0:0:
319,307,411456,1,2,0:0:0:0:
308,309,411528,1,2,0:0:0:0:
296,308,411599,1,6,0:0:0:0:
284,306,411671,1,2,0:0:0:0:
273,301,411743,1,2,0:0:0:0:
262,294,411814,1,2,0:0:0:0:
251,289,411885,1,6,0:0:0:0:
240,287,411957,1,2,0:0:0:0:
228,288,412028,1,2,0:0:0:0:
216,290,412100,1,2,0:0:0:0:
214,338,412172,5,6,0:0:0:0:
226,337,412243,1,2,0:0:0:0:
237,334,412314,1,2,0:0:0:0:
248,328,412386,1,2,0:0:0:0:
256,320,412457,1,6,0:0:0:0:
262,309,412529,1,2,0:0:0:0:
266,298,412600,1,2,0:0:0:0:
267,286,412672,1,2,0:0:0:0:
264,274,412743,1,6,0:0:0:0:
259,264,412814,1,2,0:0:0:0:
251,255,412886,1,2,0:0:0:0:
242,247,412957,1,2,0:0:0:0:
230,243,413028,5,12,0:0:0:0:
241,240,413099,1,2,0:0:0:0:
253,238,413170,1,2,0:0:0:0:
265,236,413242,1,2,0:0:0:0:
277,234,413313,1,6,0:0:0:0:
288,232,413385,1,2,0:0:0:0:
300,229,413456,1,2,0:0:0:0:
312,227,413528,1,2,0:0:0:0:
324,225,413599,1,6,0:0:0:0:
336,223,413670,1,2,0:0:0:0:
347,221,413742,1,2,0:0:0:0:
359,218,413813,1,2,0:0:0:0:
371,216,413885,6,0,L|380:163,3,40,6|2|2|2,0:0|0:0|0:0|0:0,0:0:0:0:
504,153,414171,2,0,L|451:162,3,40,6|2|2|2,0:0|0:0|0:0|0:0,0:0:0:0:
376,65,414457,2,0,L|414:102,3,40,6|2|2|2,0:0|0:0|0:0|0:0,0:0:0:0:
279,54,414743,5,12,0:0:0:0:
267,55,414814,1,2,0:0:0:0:
255,57,414885,1,2,0:0:0:0:
243,58,414957,1,2,0:0:0:0:
231,60,415028,1,6,0:0:0:0:
219,61,415100,1,2,0:0:0:0:
207,63,415171,1,2,0:0:0:0:
195,64,415243,1,2,0:0:0:0:
183,66,415314,1,6,0:0:0:0:
171,67,415385,1,2,0:0:0:0:
159,69,415457,1,2,0:0:0:0:
148,70,415528,1,2,0:0:0:0:
136,72,415600,5,12,0:0:0:0:
148,73,415671,1,2,0:0:0:0:
160,75,415742,1,2,0:0:0:0:
172,76,415814,1,2,0:0:0:0:
184,78,415885,1,6,0:0:0:0:
196,79,415957,1,2,0:0:0:0:
208,81,416028,1,2,0:0:0:0:
220,82,416100,1,2,0:0:0:0:
232,84,416171,1,6,0:0:0:0:
244,85,416242,1,2,0:0:0:0:
256,87,416314,1,2,0:0:0:0:
267,88,416385,1,2,0:0:0:0:
279,90,416457,5,12,0:0:0:0:
267,91,416528,1,0,0:0:0:0:
255,93,416600,1,0,0:0:0:0:
243,94,416671,1,0,0:0:0:0:
231,96,416743,1,4,0:0:0:0:
218,97,416814,1,0,0:0:0:0:
201,141,416885,5,8,0:0:0:0:
185,186,416957,1,8,0:0:0:0:
166,178,417028,5,2,0:0:0:0:
186,176,417100,1,2,0:0:0:0:
205,174,417171,1,2,0:0:0:0:
225,172,417243,1,2,0:0:0:0:
244,170,417314,6,0,L|235:216,3,40,4|2|2|2,0:0|0:0|0:0|0:0,0:0:0:0:
362,183,417600,2,0,L|329:149,3,40,6|2|2|2,0:0|0:0|0:0|0:0,0:0:0:0:
292,274,417885,2,0,L|338:266,3,40,6|2|2|2,0:0|0:0|0:0|0:0,0:0:0:0:
214,354,418171,5,12,0:0:0:0:
202,352,418242,1,2,0:0:0:0:
190,350,418313,1,2,0:0:0:0:
178,349,418385,1,2,0:0:0:0:
166,347,418456,1,6,0:0:0:0:
154,346,418528,1,2,0:0:0:0:
142,344,418599,1,2,0:0:0:0:
130,343,418671,1,2,0:0:0:0:
118,341,418742,1,6,0:0:0:0:
106,339,418813,1,2,0:0:0:0:
95,338,418885,1,2,0:0:0:0:
83,336,418956,1,2,0:0:0:0:
39,358,419028,5,6,0:0:0:0:
47,349,419099,1,2,0:0:0:0:
55,340,419170,1,2,0:0:0:0:
60,329,419242,1,2,0:0:0:0:
64,318,419313,1,6,0:0:0:0:
65,306,419385,1,2,0:0:0:0:
64,294,419456,1,2,0:0:0:0:
61,282,419528,1,2,0:0:0:0:
56,271,419599,1,6,0:0:0:0:
49,262,419670,1,2,0:0:0:0:
41,253,419742,1,2,0:0:0:0:
31,247,419813,1,2,0:0:0:0:
20,242,419885,5,12,0:0:0:0:
32,240,419956,1,2,0:0:0:0:
44,238,420027,1,2,0:0:0:0:
56,237,420099,1,2,0:0:0:0:
68,235,420170,1,6,0:0:0:0:
80,234,420242,1,2,0:0:0:0:
92,232,420313,1,2,0:0:0:0:
104,231,420385,1,2,0:0:0:0:
116,229,420456,1,6,0:0:0:0:
128,227,420527,1,2,0:0:0:0:
139,226,420599,1,2,0:0:0:0:
151,224,420670,1,2,0:0:0:0:
163,222,420743,6,0,L|171:171,3,40,6|2|2|2,0:0|0:0|0:0|0:0,0:0:0:0:
185,64,421028,2,0,L|222:99,3,40,6|2|2|2,0:0|0:0|0:0|0:0,0:0:0:0:
296,180,421314,2,0,L|245:189,3,40,6|2|2|2,0:0|0:0|0:0|0:0,0:0:0:0:
407,137,421600,5,12,0:0:0:0:
400,146,421671,1,2,0:0:0:0:
394,157,421742,1,2,0:0:0:0:
390,168,421814,1,2,0:0:0:0:
386,180,421885,1,6,0:0:0:0:
384,191,421957,1,2,0:0:0:0:
383,203,422028,1,2,0:0:0:0:
384,215,422100,1,2,0:0:0:0:
385,227,422171,1,6,0:0:0:0:
388,239,422242,1,2,0:0:0:0:
392,250,422314,1,2,0:0:0:0:
397,261,422385,1,2,0:0:0:0:
433,292,422457,5,8,0:0:0:0:
385,299,422528,1,8,0:0:0:0:
337,306,422600,2,0,L|328:359,1,40,2|2,0:0|0:0,0:0:0:0:
228,226,422743,5,2,0:0:0:0:
231,229,422814,1,2,0:0:0:0:
234,232,422885,2,0,L|276:225,1,40,2|2,0:0|0:0,0:0:0:0:
132,266,423028,5,2,0:0:0:0:
135,269,423100,1,2,0:0:0:0:
138,272,423171,2,0,L|74:263,1,40,2|2,0:0|0:0,0:0:0:0:
249,143,423314,5,8,0:0:0:0:
295,152,423385,1,8,0:0:0:0:
342,161,423457,2,0,L|354:210,1,40,2|2,0:0|0:0,0:0:0:0:
348,155,423600,2,0,L|360:204,1,40,2|2,0:0|0:0,0:0:0:0:
246,60,423743,5,8,0:0:0:0:
200,69,423814,1,8,0:0:0:0:
153,78,423885,2,0,L|141:127,1,40,2|2,0:0|0:0,0:0:0:0:
147,72,424028,2,2,L|135:121,1,40
35,249,424171,5,4,0:0:0:0:
53,241,424243,1,8,0:0:0:0:
72,237,424314,1,2,0:0:0:0:
91,240,424385,1,8,0:0:0:0:
110,246,424457,1,2,0:0:0:0:
126,257,424528,1,8,0:0:0:0:
138,272,424600,2,0,L|144:325,1,40,2|8,0:0|0:0,0:0:0:0:
213,202,424743,5,6,0:0:0:0:
232,198,424814,1,8,0:0:0:0:
252,195,424885,1,2,0:0:0:0:
272,192,424957,1,8,0:0:0:0:
291,188,425028,1,2,0:0:0:0:
311,185,425100,1,8,0:0:0:0:
331,182,425171,2,0,L|339:131,1,40,2|8,0:0|0:0,0:0:0:0:
301,269,425314,5,6,0:0:0:0:
301,288,425385,1,8,0:0:0:0:
308,307,425456,1,2,0:0:0:0:
319,324,425528,1,8,0:0:0:0:
335,336,425599,1,2,0:0:0:0:
353,344,425671,1,8,0:0:0:0:
373,346,425743,2,0,L|427:333,1,40,2|8,0:0|0:0,0:0:0:0:
225,306,425885,5,6,0:0:0:0:
205,308,425956,1,8,0:0:0:0:
185,310,426027,1,2,0:0:0:0:
165,313,426099,1,8,0:0:0:0:
145,315,426170,1,2,0:0:0:0:
125,317,426242,1,8,0:0:0:0:
105,320,426314,2,0,L|93:386,1,40,2|8,0:0|0:0,0:0:0:0:
173,236,426457,5,6,0:0:0:0:
183,218,426528,1,8,0:0:0:0:
188,199,426599,1,2,0:0:0:0:
187,179,426671,1,8,0:0:0:0:
180,160,426742,1,2,0:0:0:0:
168,144,426814,1,8,0:0:0:0:
157,127,426886,1,2,0:0:0:0:
150,107,426957,1,8,0:0:0:0:
149,88,427028,1,2,0:0:0:0:
155,68,427100,1,8,0:0:0:0:
166,51,427171,2,0,L|229:41,1,40,2|8,0:0|0:0,0:0:0:0:
300,122,427314,5,6,0:0:0:0:
319,125,427385,1,8,0:0:0:0:
338,129,427457,1,2,0:0:0:0:
357,132,427528,1,8,0:0:0:0:
376,136,427600,5,4,0:0:0:0:
356,139,427671,1,0,0:0:0:0:
336,142,427742,1,2,0:0:0:0:
316,146,427814,1,8,0:0:0:0:
297,149,427885,1,2,0:0:0:0:
277,152,427957,1,8,0:0:0:0:
257,156,428028,2,0,L|246:209,1,40,2|8,0:0|0:0,0:0:0:0:
168,290,428171,5,6,0:0:0:0:
184,279,428242,1,8,0:0:0:0:
203,273,428313,1,2,0:0:0:0:
223,274,428385,1,8,0:0:0:0:
242,280,428456,1,2,0:0:0:0:
258,292,428528,1,8,0:0:0:0:
270,308,428600,1,2,0:0:0:0:
280,325,428671,1,8,0:0:0:0:
294,338,428742,1,2,0:0:0:0:
313,346,428814,1,8,0:0:0:0:
332,349,428885,1,2,0:0:0:0:
352,345,428957,1,8,0:0:0:0:
370,336,429028,1,2,0:0:0:0:
384,322,429100,1,8,0:0:0:0:
395,305,429171,2,0,L|389:251,1,40,2|8,0:0|0:0,0:0:0:0:
414,161,429314,5,6,0:0:0:0:
399,175,429385,1,8,0:0:0:0:
383,186,429456,1,2,0:0:0:0:
364,192,429528,1,8,0:0:0:0:
344,192,429599,1,2,0:0:0:0:
325,187,429671,1,8,0:0:0:0:
308,177,429742,1,2,0:0:0:0:
295,161,429814,1,8,0:0:0:0:
285,144,429885,1,2,0:0:0:0:
283,124,429956,1,8,0:0:0:0:
284,104,430028,2,0,L|297:52,1,40,2|8,0:0|0:0,0:0:0:0:
199,153,430171,5,6,0:0:0:0:
179,156,430243,1,8,0:0:0:0:
159,159,430314,1,2,0:0:0:0:
139,162,430385,1,8,0:0:0:0:
119,165,430457,5,2,0:0:0:0:
103,210,430528,1,8,0:0:0:0:
87,255,430600,1,8,0:0:0:0:
71,300,430671,1,8,0:0:0:0:
64,289,430743,5,2,0:0:0:0:
75,286,430814,1,2,0:0:0:0:
86,283,430885,1,2,0:0:0:0:
97,280,430957,1,2,0:0:0:0:
140,301,431028,5,4,0:0:0:0:
158,294,431099,1,8,0:0:0:0:
178,292,431170,1,2,0:0:0:0:
198,295,431242,1,8,0:0:0:0:
216,304,431313,1,2,0:0:0:0:
231,317,431385,1,8,0:0:0:0:
242,334,431457,1,2,0:0:0:0:
252,350,431528,1,8,0:0:0:0:
266,364,431599,1,2,0:0:0:0:
284,373,431671,1,8,0:0:0:0:
304,378,431742,1,2,0:0:0:0:
323,377,431814,1,8,0:0:0:0:
342,370,431885,1,2,0:0:0:0:
358,357,431957,1,8,0:0:0:0:
369,340,432028,2,0,L|381:276,1,40,2|8,0:0|0:0,0:0:0:0:
281,217,432171,5,6,0:0:0:0:
278,197,432242,1,8,0:0:0:0:
275,177,432313,1,2,0:0:0:0:
273,157,432385,1,8,0:0:0:0:
270,137,432456,1,2,0:0:0:0:
268,117,432528,1,8,0:0:0:0:
265,97,432600,2,0,L|215:87,1,40,2|8,0:0|0:0,0:0:0:0:
364,151,432743,5,6,0:0:0:0:
383,151,432814,1,8,0:0:0:0:
402,145,432885,1,2,0:0:0:0:
418,133,432957,1,8,0:0:0:0:
430,117,433028,1,2,0:0:0:0:
435,98,433100,1,8,0:0:0:0:
435,78,433171,2,0,L|424:30,1,40,2|8,0:0|0:0,0:0:0:0:
377,226,433314,5,6,0:0:0:0:
375,245,433385,1,8,0:0:0:0:
373,265,433456,1,2,0:0:0:0:
371,285,433528,1,8,0:0:0:0:
369,305,433599,1,2,0:0:0:0:
367,325,433671,1,8,0:0:0:0:
365,345,433743,2,0,L|434:330,1,40,2|8,0:0|0:0,0:0:0:0:
276,271,433885,5,6,0:0:0:0:
258,261,433956,1,8,0:0:0:0:
239,255,434027,1,2,0:0:0:0:
219,256,434099,1,8,0:0:0:0:
200,261,434170,1,2,0:0:0:0:
183,271,434242,1,8,0:0:0:0:
169,286,434313,1,2,0:0:0:0:
159,303,434385,1,8,0:0:0:0:
161,323,434457,5,4,0:0:0:0:
172,306,434528,1,8,0:0:0:0:
176,287,434600,1,2,0:0:0:0:
173,267,434671,1,8,0:0:0:0:
163,250,434743,1,2,0:0:0:0:
148,237,434814,1,8,0:0:0:0:
132,224,434885,1,2,0:0:0:0:
121,207,434956,1,8,0:0:0:0:
117,188,435028,1,2,0:0:0:0:
120,168,435099,1,8,0:0:0:0:
130,151,435171,1,2,0:0:0:0:
145,138,435243,1,8,0:0:0:0:
163,129,435314,1,2,0:0:0:0:
183,129,435385,1,8,0:0:0:0:
201,134,435457,1,2,0:0:0:0:
218,144,435529,1,8,0:0:0:0:
232,157,435600,1,2,0:0:0:0:
247,169,435671,1,8,0:0:0:0:
265,176,435743,1,2,0:0:0:0:
284,177,435814,1,8,0:0:0:0:
303,174,435886,1,2,0:0:0:0:
321,166,435957,1,8,0:0:0:0:
336,153,436028,2,0,L|342:98,1,40,2|8,0:0|0:0,0:0:0:0:
289,254,436171,5,6,0:0:0:0:
286,273,436242,1,8,0:0:0:0:
288,293,436313,1,2,0:0:0:0:
294,312,436385,1,8,0:0:0:0:
305,329,436456,1,2,0:0:0:0:
319,343,436528,1,8,0:0:0:0:
337,353,436599,1,2,0:0:0:0:
356,358,436671,1,8,0:0:0:0:
376,360,436742,1,2,0:0:0:0:
395,356,436813,1,8,0:0:0:0:
413,348,436885,1,2,0:0:0:0:
429,336,436957,1,8,0:0:0:0:
473,352,437028,5,8,0:0:0:0:
466,304,437100,1,8,0:0:0:0:
459,256,437171,1,8,0:0:0:0:
452,208,437243,1,8,0:0:0:0:
462,213,437314,5,2,0:0:0:0:
451,217,437385,1,2,0:0:0:0:
440,222,437457,1,2,0:0:0:0:
429,227,437528,1,2,0:0:0:0:
397,263,437600,5,2,0:0:0:0:
386,259,437671,1,2,0:0:0:0:
375,254,437743,1,2,0:0:0:0:
364,249,437814,1,2,0:0:0:0:
292,214,437885,5,4,0:0:0:0:
