osu file format v14

[General]
AudioFilename: audio.mp3
AudioLeadIn: 0
PreviewTime: 42653
Countdown: 0
SampleSet: Normal
StackLeniency: 0.7
Mode: 0
LetterboxInBreaks: 0
WidescreenStoryboard: 1

[Editor]
Bookmarks: 44281,53755,56913,69544
DistanceSpacing: 0.5
BeatDivisor: 8
GridSize: 8
TimelineZoom: 3.399999

[Metadata]
Title:WiFi Tears
TitleUnicode:WiFi Tears
Artist:Slips & Slurs x Mihka!
ArtistUnicode:Slips & Slurs x Mihka!
Creator:R3K3M
Version:Insane
Source:
Tags:Dubstep Monstercat WiFi tears love Slips & Slurs CraEZy Renumi [ Pika ] DylanSan
BeatmapID:1152310
BeatmapSetID:539027

[Difficulty]
HPDrainRate:5
CircleSize:2.5
OverallDifficulty:7
ApproachRate:9.2
SliderMultiplier:1.8
SliderTickRate:1

[Events]
//Background and Video events
0,0,"771672.jpg",0,0
//Break Periods
//Storyboard Layer 0 (Background)
//Storyboard Layer 1 (Fail)
//Storyboard Layer 2 (Pass)
//Storyboard Layer 3 (Foreground)
//Storyboard Sound Samples

[TimingPoints]
6387,394.736842105263,4,2,1,50,1,0
12702,-114.942528735632,4,2,1,50,0,0
17439,-95.2380952380952,4,2,1,50,0,0
19018,-95.2380952380952,4,1,6,50,0,0
31650,-133.333333333333,4,2,1,50,0,0
37571,-76.9230769230769,4,2,1,50,0,0
42702,-66.6666666666667,4,2,1,50,0,0
42998,-66.6666666666667,4,2,1,5,0,0
43097,-66.6666666666667,4,2,1,50,0,0
43393,-66.6666666666667,4,2,1,5,0,0
43492,-66.6666666666667,4,2,1,50,0,0
43738,-66.6666666666667,4,2,1,5,0,0
43886,-76.9230769230769,4,2,1,50,0,0
44281,-66.6666666666667,4,2,4,50,0,1
44873,-50,4,2,4,50,0,1
45663,-50,4,2,4,50,0,1
49215,-50,4,2,4,50,0,1
49265,-50,4,2,4,5,0,1
49314,-50,4,2,4,50,0,1
49363,-50,4,2,4,5,0,1
49413,-50,4,2,4,50,0,1
49462,-50,4,2,4,50,0,1
49511,-50,4,2,4,50,0,1
49561,-50,4,2,4,5,0,1
49562,-50,4,2,4,5,0,1
49610,-50,4,2,4,50,0,1
49857,-50,4,2,4,5,0,1
49906,-50,4,2,4,50,0,1
49957,-50,4,2,4,5,0,1
50005,-50,4,2,4,50,0,1
50054,-50,4,2,4,5,0,1
50104,-50,4,2,4,50,0,1
50153,-50,4,2,4,5,0,1
50202,-50,4,2,4,50,0,1
50597,-50,4,2,4,50,0,1
50992,-50,4,2,4,50,0,1
51140,-50,4,2,4,5,0,1
51189,-50,4,2,4,50,0,1
51337,-50,4,2,4,5,0,1
51386,-50,4,2,4,50,0,1
51535,-50,4,2,4,5,0,1
51584,-50,4,2,4,50,0,1
51732,-50,4,2,4,5,0,1
51781,-50,4,2,4,50,0,1
53755,-66.6666666666667,4,2,1,60,0,0
53952,-133.333333333333,4,2,1,60,0,0
56913,-66.6666666666667,4,2,4,50,0,1
57702,-50,4,2,4,50,0,1
57850,-50,4,2,4,5,0,1
57900,-50,4,2,4,50,0,1
58048,-50,4,2,4,5,0,1
58097,-50,4,2,4,50,0,1
58245,-50,4,2,4,5,0,1
58294,-50,4,2,4,50,0,1
58442,-50,4,2,4,5,0,1
58492,-50,4,2,4,50,0,1
58689,-50,4,2,4,50,0,1
58738,-50,4,2,4,5,0,1
58788,-50,4,2,4,50,0,1
58837,-50,4,2,4,5,0,1
58886,-50,4,2,4,50,0,1
58936,-50,4,2,4,5,0,1
58985,-50,4,2,4,50,0,1
59035,-50,4,2,4,5,0,1
59084,-50,4,2,4,50,0,1
60959,-50,4,2,4,5,0,1
61058,-50,4,2,4,50,0,1
61156,-50,4,2,4,5,0,1
61255,-50,4,2,4,50,0,1
61354,-50,4,2,4,5,0,1
61452,-50,4,2,4,50,0,1
61502,-50,4,2,4,5,0,1
61551,-50,4,2,4,50,0,1
61600,-50,4,2,4,5,0,1
61847,-71.4285714285714,4,2,4,50,0,1
62834,-50,4,2,4,50,0,1
63821,-50,4,2,4,50,0,1
63969,-50,4,2,4,5,0,1
64018,-50,4,2,4,50,0,1
64166,-50,4,2,4,5,0,1
64215,-50,4,2,4,50,0,1
64363,-50,4,2,4,5,0,1
64413,-50,4,2,4,50,0,1
64561,-50,4,2,4,5,0,1
64610,-50,4,2,4,50,0,1
65005,-50,4,2,4,60,0,1
65992,-50,4,2,4,65,0,1
66386,-80.6451612903226,4,2,4,50,0,1
69544,-90.9090909090909,4,1,6,50,0,0

[Colours]
Combo1 : 121,121,157
Combo2 : 156,142,131
Combo3 : 167,166,112
Combo4 : 130,130,130
Combo5 : 147,176,115

[HitObjects]
80,48,6387,6,0,L|58:136,1,90,4|0,0:2|0:2,0:0:0:0:
159,99,6781,2,0,L|137:187,1,90,0|0,0:2|0:2,0:0:0:0:
267,57,7176,2,0,L|245:145,1,90,0|0,0:2|0:2,0:0:0:0:
346,108,7570,2,0,L|324:196,1,90,0|0,0:2|0:2,0:0:0:0:
281,318,7965,6,0,L|304:230,1,90,0|0,0:2|0:2,0:0:0:0:
200,270,8360,2,0,L|221:179,1,90,0|0,0:2|0:2,0:0:0:0:
106,274,8755,2,0,L|129:186,1,90,0|0,0:2|0:2,0:0:0:0:
25,226,9150,2,0,L|46:135,1,90,0|0,0:2|0:2,0:0:0:0:
230,24,9544,6,0,P|142:25|75:83,1,180,4|0,0:2|0:3,0:0:0:0:
216,192,10136,1,0,0:3:0:0:
425,108,10334,2,0,L|385:198,1,90,0|0,0:3|0:3,0:0:0:0:
470,226,10729,2,0,L|380:186,1,90,0|0,0:3|0:3,0:0:0:0:
351,271,11123,2,0,L|391:181,1,90,0|0,0:3|0:3,0:0:0:0:
305,152,11518,2,0,L|388:189,1,90,0|0,0:2|0:2,0:0:0:0:
386,187,11913,1,0,0:2:0:0:
331,311,12110,5,0,0:2:0:0:
204,260,12308,1,0,0:2:0:0:
255,133,12505,1,0,0:2:0:0:
386,187,12702,2,0,L|414:108,2,78.3000006571198,4|0|0,0:2|0:2|0:0,0:0:0:0:
248,27,13294,1,0,0:2:0:0:
232,175,13492,6,0,L|223:259,1,78.3000006571198,0|0,0:3|0:2,0:0:0:0:
287,297,13887,2,0,L|217:248,1,78.3000006571198,0|0,0:3|0:2,0:0:0:0:
149,279,14282,2,0,L|231:249,1,78.3000006571198,0|0,0:2|0:2,0:0:0:0:
377,190,14676,6,0,L|357:278,1,78.3000006571198,0|0,0:2|0:2,0:0:0:0:
422,313,15071,2,0,L|358:265,1,78.3000006571198,0|0,0:3|0:3,0:0:0:0:
287,297,15466,2,0,L|366:263,1,78.3000006571198,0|0,0:3|0:3,0:0:0:0:
467,222,15860,6,0,L|505:138,2,78.3000006571198,4|0|0,3:2|0:2|0:0,0:0:0:0:
319,56,16452,1,0,0:2:0:0:
298,190,16650,2,0,L|280:272,1,78.3000006571198,0|0,0:3|0:3,0:0:0:0:
162,308,17044,2,0,L|182:233,1,78.3000006571198
128,112,17439,6,0,B|200:64|200:64|242:90|242:90|123:124|109:377|419:374|411:166,1,637.8749805336,4|0,0:2|0:2,0:0:0:0:
384,32,19018,5,4,0:0:0:0:
285,198,19215,1,0,0:0:0:0:
415,175,19413,1,0,0:0:0:0:
239,99,19610,1,2,0:0:0:0:
368,56,19808,2,0,L|381:36,4,23.6249992790222,8|0|0|0|0,0:0|0:0|0:0|0:0|0:0,0:0:0:0:
335,285,20202,6,0,P|262:279|233:252,1,94.499997116089,4|0,0:0|0:0,0:0:0:0:
135,115,20597,1,2,0:0:0:0:
323,105,20794,1,0,0:0:0:0:
326,114,20893,1,0,0:0:0:0:
329,123,20992,1,4,0:0:0:0:
377,305,21189,5,0,0:0:0:0:
233,183,21386,1,8,0:0:0:0:
365,318,21584,1,0,0:0:0:0:
225,191,21781,1,2,0:0:0:0:
355,328,21979,1,0,0:0:0:0:
215,199,22176,2,0,P|248:111|323:56,1,188.999994232178,4|2,0:0|0:0,0:0:0:0:
360,200,22768,5,0,0:0:0:0:
360,32,22965,1,8,0:0:0:0:
192,32,23163,1,0,0:0:0:0:
182,201,23360,2,0,L|158:305,1,94.499997116089,4|0,0:0|0:0,0:0:0:0:
305,202,23755,1,4,0:0:0:0:
153,314,23952,1,0,0:0:0:0:
150,323,24051,1,0,0:0:0:0:
147,332,24150,1,0,0:0:0:0:
98,161,24347,6,0,P|195:135|195:135,1,94.499997116089,2|8,0:0|0:0,0:0:0:0:
294,271,24742,1,2,0:0:0:0:
360,112,24939,2,0,L|360:64,1,47.2499985580445,8|0,0:2|0:2,0:0:0:0:
452,83,25136,2,0,L|452:27,1,47.2499985580445,0|0,0:2|0:2,0:0:0:0:
443,178,25334,2,0,P|453:254|377:342,1,188.999994232178,4|2,0:1|0:1,0:0:0:0:
309,202,25926,6,0,L|245:290,1,94.499997116089,0|8,0:0|0:0,0:0:0:0:
122,202,26321,1,0,0:0:0:0:
206,77,26518,2,0,L|266:-7,1,94.499997116089,4|0,0:0|0:0,0:0:0:0:
410,23,26913,6,0,P|414:75|398:123,1,94.499997116089,4|0,0:0|0:0,0:0:0:0:
250,107,27308,2,0,P|245:154|254:199,1,94.499997116089,2|0,0:0|0:0,0:0:0:0:
405,202,27702,2,0,P|409:262|393:302,1,94.499997116089,8|0,0:0|0:0,0:0:0:0:
246,290,28097,1,2,0:0:0:0:
318,157,28294,1,0,0:0:0:0:
172,115,28492,6,0,L|111:204,1,94.499997116089,4|0,0:0|0:0,0:0:0:0:
268,213,28886,2,0,L|269:106,1,94.499997116089,2|0,0:0|0:0,0:0:0:0:
173,236,29281,6,0,L|110:319,1,94.499997116089,8|0,0:0|0:0,0:0:0:0:
268,307,29675,2,0,L|268:204,1,94.499997116089,2|0,0:0|0:0,0:0:0:0:
266,60,30071,1,12,0:0:0:0:
339,170,30268,1,0,0:0:0:0:
342,179,30367,1,0,0:0:0:0:
345,188,30466,1,8,0:0:0:0:
266,60,30663,1,0,0:0:0:0:
448,96,30860,2,0,P|448:144|419:205,1,94.499997116089,8|0,0:0|0:0,0:0:0:0:
311,278,31255,5,8,0:0:0:0:
212,129,31452,1,0,0:0:0:0:
337,187,31650,6,0,L|300:129,1,67.5000025749208,12|0,0:0|0:0,0:0:0:0:
118,126,32044,2,0,L|86:61,2,67.5000025749208,2|2|2,0:2|0:2|0:2,0:0:0:0:
299,112,32834,1,2,0:2:0:0:
411,220,33426,5,2,0:2:0:0:
332,293,33623,1,2,0:2:0:0:
248,160,34018,5,2,0:2:0:0:
384,96,34413,6,0,L|384:56,4,33.7500012874604,2|2|2|2|2,0:2|0:2|0:2|0:2|0:2,0:0:0:0:
241,73,35400,5,2,0:2:0:0:
126,150,35598,1,2,0:2:0:0:
373,270,35992,1,2,0:2:0:0:
368,128,36584,2,0,L|367:50,1,67.5000025749208,2|0,0:2|0:0,0:0:0:0:
247,61,37176,5,2,0:2:0:0:
201,93,37308,5,2,0:2:0:0:
167,137,37439,5,2,0:2:0:0:
144,192,37571,6,0,L|144:272,3,51.999997619629,2|0|0|0,0:2|0:0|0:0|0:0,0:0:0:0:
51,99,37965,6,0,L|35:171,1,58.4999973220826,14|0,0:2|0:0,0:0:0:0:
161,72,38162,2,0,L|161:144,1,58.4999973220826,10|0,0:2|0:2,0:0:0:0:
288,80,38360,2,0,L|288:152,1,58.4999973220826,10|0,0:2|0:2,0:0:0:0:
395,92,38557,2,0,L|411:148,1,58.4999973220826,10|0,0:2|0:2,0:0:0:0:
456,243,38755,6,0,L|440:179,1,58.4999973220826,10|0,0:2|0:2,0:0:0:0:
293,257,38952,2,0,L|293:193,1,58.4999973220826,8|0,0:2|0:2,0:0:0:0:
159,280,39150,2,0,L|162:208,1,58.4999973220826,10|0,0:2|0:2,0:0:0:0:
43,159,39347,2,0,L|79:137,2,29.2499986610413,10|0|0,0:2|0:2|0:2,0:0:0:0:
64,32,39544,6,0,L|40:96,1,58.4999973220826,14|0,0:2|0:2,0:0:0:0:
153,77,39741,2,0,L|153:149,1,58.4999973220826,10|0,0:2|0:2,0:0:0:0:
253,109,39939,2,0,L|253:181,1,58.4999973220826,10|0,0:2|0:2,0:0:0:0:
355,152,40136,2,0,L|363:216,1,58.4999973220826,10|0,0:2|0:2,0:0:0:0:
476,326,40334,6,0,L|460:270,1,58.4999973220826,10|0,0:2|0:2,0:0:0:0:
355,302,40531,2,0,L|304:246,1,58.4999973220826,10|0,0:2|0:2,0:0:0:0:
228,310,40729,2,0,L|166:271,1,58.4999973220826,10|0,0:2|0:2,0:0:0:0:
134,246,40926,2,0,L|94:269,2,29.2499986610413,10|2|2,0:2|0:2|0:2,0:0:0:0:
97,167,41123,5,14,0:2:0:0:
59,124,41221,1,2,0:2:0:0:
64,68,41320,1,10,0:2:0:0:
110,33,41419,1,2,0:2:0:0:
166,43,41517,1,0,0:0:0:0:
205,79,41617,1,2,0:2:0:0:
243,123,41715,1,10,0:2:0:0:
295,149,41814,1,2,0:2:0:0:
353,153,41913,5,14,0:2:0:0:
406,129,42011,1,2,0:2:0:0:
432,77,42109,1,14,0:2:0:0:
456,32,42208,1,0,0:0:0:0:
456,80,42308,1,14,0:2:0:0:
456,144,42406,1,2,0:2:0:0:
456,208,42505,1,14,0:2:0:0:
456,273,42604,1,2,0:2:0:0:
456,344,42702,6,0,B|417:330|417:330|399:357|360:362|321:343|321:343|329:270,1,202.500007724762,0|0,0:2|0:2,0:0:0:0:
344,192,43097,2,0,B|354:120|354:120|320:65|320:65|254:44,1,202.500007724762,0|0,0:2|0:2,0:0:0:0:
256,136,43492,2,0,B|229:196|229:196|196:179|196:179|160:193|160:193|135:243,1,168.750006437302,8|0,0:2|0:0,0:0:0:0:
216,344,43886,6,0,L|177:295,1,58.4999973220826,8|8,0:2|0:2,0:0:0:0:
191,150,44084,2,0,L|230:199,1,58.4999973220826,0|0,0:2|0:2,0:0:0:0:
309,228,44281,6,0,B|320:261|367:265|367:265|354:281|354:281|395:304|376:332,1,135.000005149842,6|0,3:2|0:2,0:0:0:0:
229,199,44676,1,2,0:2:0:0:
121,255,44873,2,0,B|118:219|140:190|140:190|140:172|127:152|127:152|148:115|146:70,3,180,2|10|2|2,3:2|3:2|3:2|3:2,0:0:0:0:
350,100,45663,1,0,0:2:0:0:
203,246,45860,1,4,0:2:0:0:
380,242,46058,2,0,B|357:214|357:214|336:207|336:207|312:168,1,90,0|0,0:2|0:2,0:0:0:0:
254,80,46255,2,0,B|211:96|211:96|192:154,1,90,0|0,0:2|0:2,0:0:0:0:
163,258,46453,2,0,B|195:292|195:292|256:280,1,90,2|0,0:2|0:2,0:0:0:0:
380,242,46650,6,0,B|380:186|380:186|357:168|380:146|380:146|380:47,3,180,10|2|2|2,2:2|2:2|2:2|2:2,0:0:0:0:
376,312,47439,2,0,P|299:332|291:183,1,270,0|0,0:0|0:2,0:0:0:0:
332,141,47834,6,0,L|217:115,1,90,0|0,0:2|0:0,0:0:0:0:
157,98,48032,2,0,L|264:126,1,90,2|0,3:2|0:0,0:0:0:0:
421,136,48229,6,0,L|310:141,1,90,10|0,3:2|0:0,0:0:0:0:
68,85,48426,2,0,L|177:101,1,90,2|0,3:2|0:0,0:0:0:0:
157,98,48623,2,0,L|118:190,1,90,2|0,3:2|0:0,0:0:0:0:
355,325,48821,2,0,L|394:232,1,90,2|0,0:2|0:2,0:0:0:0:
157,98,49018,1,6,0:2:0:0:
396,298,49215,6,0,L|426:264,1,45,2|0,0:2|0:0,0:0:0:0:
422,247,49314,2,0,L|439:205,1,45,2|0,0:2|0:0,0:0:0:0:
429,190,49412,2,0,L|442:147,1,45,2|0,0:2|0:0,0:0:0:0:
427,137,49511,2,0,L|424:92,1,45,2|0,0:2|0:0,0:0:0:0:
404,75,49610,1,2,0:2:0:0:
288,64,49808,6,0,L|224:64,1,45.0000017166138,10|2,3:2|0:2,0:0:0:0:
272,112,49907,2,0,L|216:112,1,45.0000017166138,2|2,0:2|0:2,0:0:0:0:
264,168,50005,2,0,L|200:168,1,45.0000017166138,2|2,0:2|0:2,0:0:0:0:
256,224,50104,2,0,L|200:224,1,45.0000017166138,2|2,0:2|0:2,0:0:0:0:
246,276,50203,1,8,3:2:0:0:
418,117,50400,5,0,3:2:0:0:
177,226,50597,2,0,B|113:204|113:204|152:162|152:162|127:73|184:17,1,270,4|0,0:2|0:0,0:0:0:0:
287,56,50991,6,0,P|237:121|259:161,1,135,0|0,0:2|0:0,0:0:0:0:
320,224,51189,2,0,B|342:184|342:184|392:184|433:128,1,135,2|2,3:2|3:2,0:0:0:0:
480,56,51386,2,0,P|523:134|504:192,1,135,10|2,3:2|3:2,0:0:0:0:
472,288,51584,2,0,B|458:328|458:328|382:235,1,135,2|2,3:2|3:2,0:0:0:0:
344,96,51781,2,0,L|248:191,1,135,0|0,3:2|3:2,0:0:0:0:
414,34,52176,1,0,0:0:0:0:
137,47,52373,5,0,0:0:0:0:
87,85,52471,1,0,0:0:0:0:
61,142,52570,1,0,0:0:0:0:
64,204,52669,1,0,0:0:0:0:
95,258,52767,1,0,0:0:0:0:
147,296,52867,2,0,L|190:317,4,45,2|2|10|0|2,3:2|3:2|3:2|0:0|0:2,0:0:0:0:
256,280,53162,1,2,0:2:0:0:
235,220,53261,1,2,0:2:0:0:
260,162,53360,1,2,3:2:0:0:
239,102,53459,1,2,3:2:0:0:
267,45,53558,2,0,P|319:43|307:159,1,180,10|8,3:2|3:2,0:0:0:0:
406,29,53952,5,0,3:2:0:0:
326,162,54150,2,0,L|263:101,1,67.5000025749208,0|2,0:0|0:2,0:0:0:0:
184,8,54544,1,8,3:2:0:0:
78,103,54742,1,2,3:2:0:0:
175,205,54939,2,0,L|238:266,1,67.5000025749208,2|2,3:2|0:2,0:0:0:0:
334,340,55334,1,8,3:2:0:0:
450,260,55531,6,0,B|482:228|482:228|482:132,1,135.000005149842,0|2,3:2|0:2,0:0:0:0:
279,148,56123,1,8,3:2:0:0:
450,260,56321,1,2,3:2:0:0:
400,64,56518,1,0,0:2:0:0:
393,83,56617,1,0,0:2:0:0:
385,101,56715,1,0,0:2:0:0:
312,276,56913,6,0,B|280:172|280:172|252:150,1,135.000005149842
109,50,57308,1,0,0:0:0:0:
137,321,57505,2,0,L|103:325,3,33.7500012874604,2|2|2|2,0:2|0:2|0:2|0:2,0:0:0:0:
148,285,57702,6,0,B|130:224|130:224|217:216,1,135,10|2,3:2|3:2,0:0:0:0:
300,208,57900,2,0,B|338:206|338:206|256:128,1,135,2|2,3:2|3:2,0:0:0:0:
191,77,58097,2,0,B|100:38|100:38|92:89,1,135,2|0,3:2|3:2,0:0:0:0:
112,154,58294,2,0,L|153:302,1,135,0|0,3:2|3:2,0:0:0:0:
163,328,58492,5,4,3:2:0:0:
296,284,58689,6,0,B|307:240,1,45,2|2,0:2|0:2,0:0:0:0:
348,301,58788,2,0,B|364:246,1,45,2|2,0:2|0:2,0:0:0:0:
402,316,58886,2,0,B|413:272,1,45,2|2,0:2|0:2,0:0:0:0:
459,329,58985,2,0,B|475:274,1,45,2|2,0:2|0:2,0:0:0:0:
485,242,59084,2,0,B|489:217|489:217|470:185,2,45,0|0|0,3:2|3:2|3:2,0:0:0:0:
344,173,59281,5,10,0:2:0:0:
162,210,59479,1,2,0:2:0:0:
237,98,59676,1,2,3:2:0:0:
274,285,59873,1,2,0:2:0:0:
400,155,60071,2,0,B|411:184|411:184|395:221|395:221|402:233|402:233|389:243|389:243|400:257|400:257|389:266|389:266|381:294|381:294|391:330,3,180,6|2|2|0,3:2|3:2|3:2|0:0,0:0:0:0:
193,24,60860,6,0,L|183:119,1,90,10|0,3:2|0:0,0:0:0:0:
240,226,61058,2,0,L|292:152,1,90,2|0,3:2|0:0,0:0:0:0:
368,81,61255,2,0,L|290:28,1,90,2|0,3:2|0:0,0:0:0:0:
230,27,61452,2,0,L|245:69,1,45,2|0,3:2|0:0,0:0:0:0:
209,75,61551,2,0,L|216:119,1,45,0|0,0:0|3:2,0:0:0:0:
191,145,61650,6,0,B|170:187|170:187|182:231,1,90,0|0,3:2|3:2,0:0:0:0:
203,316,61847,2,0,L|270:308,4,62.9999980773926,2|2|2|2|2,0:2|0:2|0:2|0:2|0:2,0:0:0:0:
149,322,62340,1,0,0:0:0:0:
111,282,62439,2,0,L|77:217,3,62.9999980773926,10|2|2|2,0:2|0:2|0:2|0:2,0:0:0:0:
164,167,62834,2,0,B|193:232|193:232|241:216|241:216|307:240,1,180,8|0,0:2|0:2,0:0:0:0:
480,256,63229,6,0,B|437:239|425:204|425:204|379:246|379:246|385:169|302:151,1,270,4|0,3:2|0:0,0:0:0:0:
308,152,63623,1,0,0:2:0:0:
74,277,63821,6,0,B|21:233|40:176|80:136|80:136,1,135,2|2,3:2|3:2,0:0:0:0:
111,80,64018,2,0,B|166:51|166:51|170:51|170:51|239:85,1,135,10|2,3:2|3:2,0:0:0:0:
312,119,64215,2,0,B|291:196|291:196|264:247,1,135,2|0,3:2|0:0,0:0:0:0:
209,315,64413,2,0,B|161:279|161:279|156:224|112:205,1,135,2|2,3:2|3:2,0:0:0:0:
193,105,64610,2,0,L|241:74,3,45,0|0|0|0,0:2|0:0|0:0|0:0,0:0:0:0:
265,59,64808,1,12,3:2:0:0:
432,40,65005,5,0,0:0:0:0:
432,67,65103,1,0,0:0:0:0:
432,94,65202,1,8,0:0:0:0:
432,121,65301,1,0,0:0:0:0:
432,148,65400,1,0,0:0:0:0:
433,192,65498,1,0,0:0:0:0:
412,240,65596,1,0,0:0:0:0:
365,266,65695,1,0,0:0:0:0:
313,257,65794,1,0,0:0:0:0:
277,218,65892,1,0,0:0:0:0:
290,174,65992,2,0,L|282:113,6,45
289,335,66386,6,0,P|317:300|306:232,1,111.59999557251,6|2,0:2|0:2,0:0:0:0:
289,189,66683,1,2,0:0:0:0:
261,140,66781,2,0,P|241:68|309:29,1,111.59999557251,2|2,0:2|0:2,0:0:0:0:
315,37,67077,1,2,0:0:0:0:
369,48,67176,2,0,P|391:97|367:145,1,111.59999557251,2|2,0:2|0:2,0:0:0:0:
324,182,67472,1,2,0:0:0:0:
277,212,67571,2,0,L|332:308,1,111.59999557251
96,171,67965,6,0,P|95:90|160:43,1,167.399993358765,0|0,0:2|0:2,0:0:0:0:
96,171,68360,2,0,P|152:113|232:125,1,167.399993358765,0|0,0:2|0:2,0:0:0:0:
96,171,68755,2,0,P|176:170|223:235,1,167.399993358765,0|0,0:2|0:2,0:0:0:0:
222,271,69150,2,0,P|217:298|201:320,1,56.25,8|0,0:2|0:2,0:0:0:0:
168,337,69347,1,0,0:0:0:0:
109,182,69544,5,4,0:0:0:0:
168,60,69742,1,0,0:0:0:0:
287,106,69939,2,0,P|317:162|325:202,1,99.0000030212403
295,345,70334,2,0,P|255:318|242:267,1,99.0000030212403,8|0,0:0|0:0,0:0:0:0:
158,238,70729,2,0,P|185:198|235:181,1,99.0000030212403,0|2,0:0|0:0,0:0:0:0:
263,103,71123,2,0,P|303:130|318:181,1,99.0000030212403,4|0,0:0|0:0,0:0:0:0:
313,283,71518,6,0,P|359:269|368:82,1,198.000006042481,0|8,0:0|0:0,0:0:0:0:
365,65,72110,1,0,0:0:0:0:
201,112,72308,2,0,L|220:172,2,49.5000015106202,8|2|0,0:0|0:0|0:0,0:0:0:0:
330,263,72702,2,0,P|334:214|306:175,1,99.0000030212403,4|0,0:0|0:0,0:0:0:0:
216,160,73097,2,0,P|258:183|306:174,1,99.0000030212403,0|0,0:0|0:0,0:0:0:0:
125,57,73492,5,8,0:0:0:0:
216,160,73689,1,0,0:0:0:0:
255,29,73886,1,0,0:0:0:0:
216,160,74084,1,2,0:0:0:0:
358,110,74281,2,0,L|358:230,1,99.0000030212403,4|0,0:0|0:0,0:0:0:0:
358,223,74577,1,0,0:0:0:0:
358,237,74676,1,0,0:0:0:0:
353,335,74873,6,0,P|306:315|274:276,1,99.0000030212403,2|8,0:0|0:0,0:0:0:0:
208,208,75268,1,0,0:0:0:0:
328,144,75465,1,8,0:0:0:0:
208,208,75663,1,2,0:0:0:0:
328,144,75860,2,0,B|136:88,1,198.000006042481,4|0,0:0|0:0,0:0:0:0:
24,40,76452,5,2,0:0:0:0:
236,52,76650,2,0,P|282:71|310:113,1,99.0000030212403,8|0,0:0|0:0,0:0:0:0:
319,228,77044,1,0,0:0:0:0:
231,139,77242,1,2,0:0:0:0:
309,320,77439,2,0,P|263:301|235:259,1,99.0000030212403,4|0,0:0|0:0,0:0:0:0:
309,320,77834,1,0,0:0:0:0:
232,139,78031,1,2,0:0:0:0:
384,152,78229,2,0,P|404:108|395:60,1,99.0000030212403,8|0,0:0|0:0,0:0:0:0:
252,72,78623,5,8,0:0:0:0:
371,72,78821,1,2,0:0:0:0:
252,72,79018,2,0,B|251:151|251:151|276:186|276:186|274:294,1,198.000006042481,4|0,0:0|0:0,0:0:0:0:
171,329,79610,1,0,0:0:0:0:
56,295,79808,6,0,P|32:243|56:177,1,99.0000030212403,8|0,0:0|0:0,0:0:0:0:
172,155,80202,2,0,P|152:208|88:238,1,99.0000030212403,0|2,0:0|0:0,0:0:0:0:
97,115,80597,2,0,P|139:76|209:78,1,99.0000030212403,4|0,0:0|0:0,0:0:0:0:
198,70,80893,1,0,0:0:0:0:
217,76,80992,1,0,0:0:0:0:
299,160,81189,5,0,0:0:0:0:
382,243,81386,2,0,P|332:280|267:280,1,99.0000030212403,8|0,0:0|0:0,0:0:0:0:
172,268,81781,1,0,0:0:0:0:
254,168,81979,1,0,0:0:0:0:
125,160,82176,2,0,L|101:106,6,49.5000015106202,0|0|0|0|0|0|0,0:0|0:0|0:0|0:0|0:0|0:0|0:0,0:0:0:0:
174,157,82867,1,0,0:0:0:0:
223,156,82965,2,0,L|273:270,2,99.0000030212403,0|0|0,0:0|0:0|0:0,0:0:0:0:
442,63,83558,6,0,B|442:219|442:219|408:253,1,198.000006042481,6|0,0:0|0:0,0:0:0:0:
300,291,84150,2,0,L|234:202,1,99.0000030212403,0|2,0:0|0:0,0:0:0:0:
170,116,84544,1,8,0:0:0:0:
120,224,84742,2,0,L|54:135,1,99.0000030212403,0|0,0:0|0:0,0:0:0:0:
170,116,85136,2,0,L|142:53,1,49.5000015106202
286,88,85334,2,0,P|332:100|260:191,1,198.000006042481,4|0,0:0|0:0,0:0:0:0:
120,224,85926,5,2,0:0:0:0:
76,343,86123,1,8,0:0:0:0:
216,225,86321,5,0,0:0:0:0:
260,348,86518,1,0,0:0:0:0:
291,157,86715,5,2,0:0:0:0:
448,328,86913,2,0,B|446:295|446:295|338:235,1,148.50000453186,4|0,0:0|0:0,0:0:0:0:
345,238,87308,1,0,0:0:0:0:
213,281,87505,1,0,0:0:0:0:
345,238,87702,2,0,B|318:225|318:225|208:285,1,148.50000453186,8|0,0:0|0:0,0:0:0:0:
213,281,88097,1,0,0:0:0:0:
400,168,88294,1,2,0:0:0:0:
137,350,88492,6,0,B|99:289|99:289|113:241|113:241|68:173,1,198.000006042481,4|0,0:0|0:0,0:0:0:0:
179,18,89084,1,2,0:0:0:0:
70,177,89281,2,0,P|125:261|125:261,1,99.0000030212403,8|0,0:0|0:0,0:0:0:0:
252,314,89676,1,0,0:0:0:0:
325,196,89873,1,2,0:0:0:0:
338,57,90071,2,0,B|264:68|264:68|198:180|198:180,1,198.000006042481,4|0,0:0|0:0,0:0:0:0:
114,282,90663,1,2,0:0:0:0:
243,330,90860,2,0,B|317:319|317:319|383:207|383:207,1,198.000006042481,8|0,0:0|0:0,0:0:0:0:
384,110,91452,5,2,0:0:0:0:
250,147,91650,2,0,L|250:43,1,99.0000030212403,4|0,0:0|0:0,0:0:0:0:
111,46,92044,2,0,L|12:46,1,99.0000030212403,0|2,0:0|0:0,0:0:0:0:
15,184,92439,2,0,L|15:287,1,99.0000030212403,8|0,0:0|0:0,0:0:0:0:
153,285,92833,2,0,L|252:285,1,99.0000030212403
394,190,93229,5,4,0:0:0:0:
147,117,93623,1,0,0:0:0:0:
401,78,94018,1,0,0:0:0:0:
188,224,94413,1,0,0:0:0:0:
263,120,94610,1,0,0:0:0:0:
324,231,94808,1,4,0:0:0:0:
256,192,95005,12,0,99741,0:0:0:0:
