osu file format v14

[General]
AudioFilename: audio.mp3
AudioLeadIn: 0
PreviewTime: 42653
Countdown: 0
SampleSet: Soft
StackLeniency: 0.3
Mode: 0
LetterboxInBreaks: 0
WidescreenStoryboard: 1

[Editor]
Bookmarks: 44281,53755,56913,69544
DistanceSpacing: 1.3
BeatDivisor: 4
GridSize: 8
TimelineZoom: 1.3

[Metadata]
Title:WiFi Tears
TitleUnicode:WiFi Tears
Artist:Slips & Slurs x Mihka!
ArtistUnicode:Slips & Slurs x Mihka!
Creator:R3K3M
Version:Easy
Source:
Tags:Dubstep Monstercat WiFi tears love Slips & Slurs CraEZy Renumi [ Pika ] DylanSan
BeatmapID:1152307
BeatmapSetID:539027

[Difficulty]
HPDrainRate:1
CircleSize:2
OverallDifficulty:2
ApproachRate:3
SliderMultiplier:0.7
SliderTickRate:1

[Events]
//Background and Video events
0,0,"771672.jpg",0,0
//Break Periods
2,31850,36131
2,53560,55473
2,66586,67984
//Storyboard Layer 0 (Background)
//Storyboard Layer 1 (Fail)
//Storyboard Layer 2 (Pass)
//Storyboard Layer 3 (Foreground)
//Storyboard Sound Samples

[TimingPoints]
6387,394.736842105263,4,2,1,50,1,0
19018,-100,4,1,6,65,0,0
37968,-100,4,2,3,65,0,0
42702,-100,4,2,4,65,0,0
44281,-100,4,2,4,65,0,1
53755,-100,4,2,4,65,0,0
56913,-100,4,2,4,65,0,1
66386,-100,4,2,4,65,0,0
69544,-100,4,1,6,80,0,0

[Colours]
Combo1 : 121,121,157
Combo2 : 156,142,131
Combo3 : 167,166,112
Combo4 : 130,130,130
Combo5 : 147,176,115

[HitObjects]
62,67,6387,6,0,P|46:189|333:237,1,490,4|0,0:2|0:2,0:0:0:0:
416,209,9544,6,0,B|391:137|290:127|250:198|250:198|201:135,1,280,4|0,0:2|0:3,0:0:0:0:
128,188,11518,6,0,L|181:256,1,70,0|0,0:2|0:2,0:0:0:0:
231,311,12308,1,0,0:2:0:0:
314,346,12702,6,0,B|366:324|366:324|443:114,1,280,4|0,0:2|0:2,0:0:0:0:
365,42,14676,2,0,L|310:187,1,140,0|0,0:2|0:3,0:0:0:0:
227,148,15860,2,0,L|276:17,1,140,4|0,3:2|0:3,0:0:0:0:
364,39,17044,1,0,0:0:0:0:
450,67,17439,6,0,L|401:198,1,140,4|0,3:2|0:3,0:0:0:0:
364,281,18623,1,0,0:0:0:0:
276,257,19018,6,0,L|325:126,1,140,4|8,0:0|0:0,0:0:0:0:
353,39,20202,1,4,0:0:0:0:
264,16,20597,2,0,L|238:81,2,70,2|4|8,0:0|0:0|0:0,0:0:0:0:
173,11,21781,1,2,0:0:0:0:
81,10,22176,6,0,L|31:141,1,140,4|8,0:0|0:0,0:0:0:0:
7,228,23360,1,4,0:0:0:0:
97,234,23755,2,0,P|188:193|198:93,1,210,4|4,0:0|0:1,0:0:0:0:
178,4,25334,5,4,0:0:0:0:
269,6,25729,2,0,L|406:33,1,140,2|4,0:1|0:0,0:0:0:0:
497,41,26913,6,0,L|447:171,1,140,4|8,0:0|0:0,0:0:0:0:
402,251,28097,1,2,0:0:0:0:
327,212,28492,6,0,L|311:140,1,70,12|8,0:0|0:0,0:0:0:0:
227,138,29281,2,0,L|212:207,1,70,12|8,0:0|0:0,0:0:0:0:
128,214,30071,2,0,L|113:145,1,70,12|8,0:0|0:0,0:0:0:0:
29,138,30860,2,0,L|9:205,1,70,12|8,0:0|0:0,0:0:0:0:
0,296,31650,1,4,0:0:0:0:
256,192,37571,12,0,41123,0:2:0:0:
96,48,42702,6,0,L|312:48,1,210,0|8,0:2|0:2,0:0:0:0:
400,56,44281,6,0,L|384:144,1,70,6|2,3:2|0:2,0:0:0:0:
296,136,45071,2,0,L|280:224,1,70,10|2,3:2|3:2,0:0:0:0:
270,294,45860,1,4,0:2:0:0:
186,257,46255,1,0,0:2:0:0:
128,186,46650,1,10,2:2:0:0:
296,176,47439,6,0,L|347:46,1,140,4|10,0:0|3:2,0:0:0:0:
432,72,48623,1,2,3:2:0:0:
400,157,49018,6,0,L|350:287,1,140,6|10,0:2|3:2,0:0:0:0:
264,264,50202,1,8,3:2:0:0:
178,230,50597,6,0,P|104:125|150:65,1,210,4|0,0:2|0:2,0:0:0:0:
199,140,52176,6,0,P|274:202|244:296,1,210,6|6,0:2|0:2,0:0:0:0:
65,88,56913,6,0,P|77:215|164:227,1,210,4|10,0:2|3:2,0:0:0:0:
136,144,58492,2,0,L|221:108,1,70,4|2,3:2|0:2,0:0:0:0:
264,184,59281,2,0,L|199:211,1,70,10|2,0:2|0:2,0:0:0:0:
155,281,60071,6,0,P|106:271|200:216,1,280
248,288,62044,2,0,L|339:257,1,70,2|2,0:2|0:2,0:0:0:0:
288,176,62834,1,0,0:0:0:0:
166,127,63229,5,4,3:2:0:0:
194,40,63623,2,0,L|260:62,1,70,0|10,0:2|3:2,0:0:0:0:
347,90,64413,1,2,3:2:0:0:
429,128,64808,2,0,P|465:221|394:289,1,210,4|10,3:2|3:3,0:0:0:0:
375,200,66386,5,0,0:0:0:0:
112,144,69544,5,4,0:0:0:0:
187,194,69939,1,0,0:0:0:0:
132,266,70334,2,0,L|196:314,1,70,8|0,0:0|0:0,0:0:0:0:
262,360,71123,5,4,0:0:0:0:
343,319,71517,1,0,0:0:0:0:
395,244,71912,1,8,0:0:0:0:
407,153,72307,1,8,0:0:0:0:
343,87,72702,6,0,L|293:217,1,140,4|8,0:0|0:0,0:0:0:0:
248,297,73886,1,0,0:0:0:0:
169,251,74281,1,4,0:0:0:0:
171,159,74676,2,0,L|311:159,1,140,0|8,0:0|0:0,0:0:0:0:
351,76,75861,6,0,P|402:195|284:249,1,280,4|4,0:0|0:0,0:0:0:0:
203,224,77834,1,0,0:0:0:0:
119,187,78229,2,0,L|169:56,1,140,8|4,0:0|0:0,0:0:0:0:
257,76,79413,5,0,0:0:0:0:
345,98,79808,2,0,L|415:119,2,70,8|0|4,0:0|0:0|0:0,0:0:0:0:
307,181,80992,1,0,0:0:0:0:
250,252,81386,1,8,0:0:0:0:
160,268,81781,1,0,0:0:0:0:
68,265,82176,2,0,P|16:175|45:77,1,210
124,36,83755,1,4,0:0:0:0:
215,36,84150,6,0,P|267:66|280:146,1,140
283,231,85334,2,0,L|155:292,1,140,4|8,0:0|0:0,0:0:0:0:
75,332,86518,1,0,0:0:0:0:
166,375,86914,6,0,B|185:343|193:255|89:231|89:231|80:199|80:199|28:221,1,280,4|4,0:0|0:0,0:0:0:0:
13,130,88886,1,0,0:0:0:0:
100,105,89282,2,0,L|100:33,1,70,8|0,0:0|0:0,0:0:0:0:
190,22,90072,2,0,B|301:66|194:169|308:186,1,210,4|0,0:0|0:0,0:0:0:0:
340,95,91650,2,0,P|365:116|332:267,1,210,4|0,0:0|0:0,0:0:0:0:
298,182,93229,2,0,B|240:213|240:213|229:290|229:290|158:325,1,210,4|0,0:0|0:0,0:0:0:0:
85,355,94808,1,0,0:0:0:0:
256,192,95202,12,0,102702,0:0:0:0:
