osu file format v14

[General]
AudioFilename: audio.mp3
AudioLeadIn: 0
PreviewTime: 42715
Countdown: 0
SampleSet: Soft
StackLeniency: 0.7
Mode: 0
LetterboxInBreaks: 0
WidescreenStoryboard: 1

[Editor]
Bookmarks: 6287,6288,44194,53572
DistanceSpacing: 0.8
BeatDivisor: 4
GridSize: 16
TimelineZoom: 1.100001

[Metadata]
Title:WiFi Tears
TitleUnicode:WiFi Tears
Artist:Slippy & Mihka!
ArtistUnicode:Slippy & Mihka!
Creator:KrissXL
Version:Insane
Source:
Tags:
BeatmapID:2120099
BeatmapSetID:1012885

[Difficulty]
HPDrainRate:6
CircleSize:4.5
OverallDifficulty:7
ApproachRate:9
SliderMultiplier:1.5
SliderTickRate:1

[Events]
//Background and Video events
0,0,"kkFk9Jg.png",0,0
//Break Periods
2,31632,36650
2,53934,55992
//Storyboard Layer 0 (Background)
//Storyboard Layer 1 (Fail)
//Storyboard Layer 2 (Pass)
//Storyboard Layer 3 (Foreground)
//Storyboard Layer 4 (Overlay)
//Storyboard Sound Samples

[TimingPoints]
50.8350348874672,394.736708360764,4,2,0,76,1,0
44261,-100,4,2,0,76,0,1
44853,-100,4,2,0,5,0,1
44952,-100,4,2,0,76,0,1
45050,-100,4,2,0,5,0,1
45149,-100,4,2,0,76,0,1
45247,-100,4,2,0,5,0,1
45346,-100,4,2,0,76,0,1
45445,-100,4,2,0,5,0,1
45543,-100,4,2,0,76,0,1
46530,-100,4,2,0,76,0,1
46629,-100,4,2,0,5,0,1
46728,-100,4,2,0,76,0,1
46826,-100,4,2,0,5,0,1
46925,-100,4,2,0,76,0,1
47024,-100,4,2,0,5,0,1
47122,-100,4,2,0,76,0,1
47221,-100,4,2,0,5,0,1
47320,-100,4,2,0,76,0,1
48010,-100,4,2,0,5,0,1
48109,-100,4,2,0,76,0,1
48208,-100,4,2,0,5,0,1
48307,-100,4,2,0,76,0,1
48405,-100,4,2,0,5,0,1
48504,-100,4,2,0,76,0,1
48603,-100,4,2,0,5,0,1
48701,-100,4,2,0,76,0,1
51168,-100,4,2,0,5,0,1
51267,-100,4,2,0,76,0,1
51366,-100,4,2,0,5,0,1
51464,-100,4,2,0,76,0,1
51563,-100,4,2,0,5,0,1
51662,-100,4,2,0,76,0,1
51760,-100,4,2,0,5,0,1
51859,-100,4,2,0,76,0,1
53636,-100,4,2,0,85,0,0
56892,-100,4,2,0,76,0,1
62813,-100,4,2,0,5,0,1
62911,-100,4,2,0,76,0,1
63010,-100,4,2,0,5,0,1
63109,-100,4,2,0,76,0,1
67156,-100,4,3,0,5,0,1
67352,-100,4,3,0,76,0,1
67451,-100,4,3,0,5,0,1
67648,-100,4,3,0,76,0,1
69524,-100,4,2,0,85,0,0

[Colours]
Combo1 : 240,30,125
Combo2 : 0,128,255
Combo3 : 115,240,30
Combo4 : 240,188,30

[HitObjects]
128,128,6366,6,0,B|224:32|256:64,1,150
252,61,7156,1,8,0:0:0:0:
368,112,7550,1,0,0:0:0:0:
416,144,7748,1,0,0:0:0:0:
440,192,7945,1,0,0:0:0:0:
432,304,8340,1,0,0:0:0:0:
344,344,8735,1,8,0:0:0:0:
232,336,9129,1,0,0:0:0:0:
176,304,9327,1,0,0:0:0:0:
56,280,9524,6,0,B|59:171|182:152|188:199,1,150
248,168,10313,1,8,0:0:0:0:
352,144,10708,1,0,0:0:0:0:
288,128,10906,1,0,0:0:0:0:
248,80,11103,1,0,0:0:0:0:
352,56,11498,1,8,0:0:0:0:
352,128,11695,1,8,0:0:0:0:
320,256,12090,1,0,0:0:0:0:
256,256,12287,1,8,0:0:0:0:
198,241,12485,1,0,0:0:0:0:
158,196,12682,1,8,0:0:0:0:
148,136,12879,1,0,0:0:0:0:
165,78,13077,1,0,0:0:0:0:
288,96,13471,5,0,0:0:0:0:
408,192,13866,1,0,0:0:0:0:
416,256,14063,1,0,0:0:0:0:
384,312,14261,1,8,0:0:0:0:
248,336,14656,1,0,0:0:0:0:
136,280,15050,1,0,0:0:0:0:
128,184,15445,1,0,0:0:0:0:
64,128,15642,1,0,0:0:0:0:
128,80,15840,6,0,L|288:80,3,150,8|0|0|0,0:0|0:0|0:0|0:0,0:0:0:0:
288,160,17419,1,8,0:0:0:0:
320,256,17813,1,0,0:0:0:0:
432,256,18208,1,0,0:0:0:0:
384,192,18603,1,8,0:0:0:0:
384,192,18800,1,8,0:0:0:0:
384,192,18998,1,4,0:0:0:0:
288,184,19392,5,0,0:0:0:0:
272,80,19787,1,0,0:0:0:0:
168,40,20182,1,8,0:0:0:0:
160,128,20379,1,0,0:0:0:0:
80,112,20577,1,0,0:0:0:0:
40,232,20971,1,0,0:0:0:0:
152,160,21366,1,0,0:0:0:0:
128,288,21761,1,8,0:0:0:0:
128,288,21958,1,0,0:0:0:0:
128,288,22156,6,0,P|224:320|256:320,1,75
224,320,22550,2,0,P|320:288|352:256,1,75
320,288,22945,2,0,P|352:192|352:160,1,75
352,192,23340,2,0,P|320:96|288:64,1,75,8|0,0:0|0:0,0:0:0:0:
256,128,23735,2,0,P|288:224|320:256,1,75
127,97,24129,6,0,L|230:62,2,75
127,97,24721,1,0,0:0:0:0:
192,192,24919,1,8,0:0:0:0:
256,256,25116,1,8,0:0:0:0:
320,192,25313,1,8,0:0:0:0:
256,128,25511,1,8,0:0:0:0:
256,192,25708,1,4,0:0:0:0:
192,64,26103,6,0,L|320:64,1,75
288,128,26498,2,0,L|192:128,1,75,8|0,0:0|0:0,0:0:0:0:
192,192,26892,2,0,L|288:192,1,75
288,256,27287,2,0,L|192:256,1,75
224,320,27682,2,0,L|320:320,1,75
288,192,28077,2,0,L|192:192,1,75,8|0,0:0|0:0,0:0:0:0:
160,64,28471,5,0,0:0:0:0:
256,128,28866,1,0,0:0:0:0:
352,64,29261,1,0,0:0:0:0:
352,160,29656,2,0,P|352:256|352:224,1,75,8|0,0:0|0:0,0:0:0:0:
352,320,30050,1,0,0:0:0:0:
160,320,30445,1,0,0:0:0:0:
96,192,30840,2,0,P|192:192|224:192,1,75
192,192,31235,1,0,0:0:0:0:
256,128,31432,1,4,0:0:0:0:
256,40,37550,5,0,0:0:0:0:
288,72,37649,1,0,0:0:0:0:
320,104,37748,1,0,0:0:0:0:
352,192,37945,5,0,0:0:0:0:
288,160,38142,1,8,0:0:0:0:
288,232,38340,1,0,0:0:0:0:
224,192,38537,1,8,0:0:0:0:
224,264,38735,1,0,0:0:0:0:
160,232,38932,1,8,0:0:0:0:
160,160,39129,1,0,0:0:0:0:
96,200,39327,1,8,0:0:0:0:
112,80,39524,5,0,0:0:0:0:
224,96,39721,1,8,0:0:0:0:
256,192,39919,1,0,0:0:0:0:
224,288,40116,1,8,0:0:0:0:
320,256,40313,1,0,0:0:0:0:
384,192,40511,1,8,0:0:0:0:
384,96,40708,1,0,0:0:0:0:
320,32,40906,1,8,0:0:0:0:
288,112,41103,5,0,0:0:0:0:
256,80,41202,1,0,0:0:0:0:
224,48,41300,1,8,0:0:0:0:
192,80,41399,1,0,0:0:0:0:
192,128,41498,1,8,0:0:0:0:
160,160,41596,1,0,0:0:0:0:
112,176,41695,1,8,0:0:0:0:
80,208,41794,1,0,0:0:0:0:
80,256,41892,1,8,0:0:0:0:
112,288,41991,1,0,0:0:0:0:
160,304,42090,1,4,0:0:0:0:
208,288,42188,1,0,0:0:0:0:
224,240,42287,1,4,0:0:0:0:
256,208,42386,1,0,0:0:0:0:
304,192,42485,1,4,0:0:0:0:
256,192,42682,12,0,44063,0:0:0:0:
256,192,44261,5,4,0:0:0:0:
256,192,44656,1,0,0:0:0:0:
256,96,44853,2,0,L|256:160,1,37.5
256,288,45050,2,0,L|256:224,1,37.5
192,160,45248,2,0,L|192:224,1,37.5
320,192,45445,2,0,L|320:128,1,37.5
160,240,45642,1,0,0:0:0:0:
112,208,45741,1,0,0:0:0:0:
112,160,45840,1,4,0:0:0:0:
160,96,46037,1,0,0:0:0:0:
197,80,46136,1,0,0:0:0:0:
242,92,46235,1,0,0:0:0:0:
288,128,46333,1,0,0:0:0:0:
288,176,46432,2,0,L|288:224,1,37.5
288,272,46629,2,0,L|224:272,1,37.5
240,336,46827,6,0,L|291:372,1,37.5
352,368,47024,2,0,L|384:336,1,37.5
448,288,47221,2,0,L|395:261,1,37.5
456,204,47419,6,0,L|456:108,1,75,4|0,0:0|0:0,0:0:0:0:
320,96,47813,5,0,0:0:0:0:
320,96,48011,2,0,L|320:160,1,37.5
256,96,48208,2,0,L|256:160,1,37.5
192,96,48406,2,0,L|192:160,1,37.5
128,96,48603,2,0,L|128:160,1,37.5
128,192,48800,2,0,L|224:192,1,75,0|4,0:0|0:0,0:0:0:0:
272,336,49195,5,0,0:0:0:0:
300,304,49294,1,0,0:0:0:0:
320,272,49392,1,0,0:0:0:0:
320,240,49491,1,0,0:0:0:0:
320,192,49590,2,0,L|251:191,1,37.5
224,192,49787,5,0,0:0:0:0:
192,224,49886,1,0,0:0:0:0:
176,256,49985,1,0,0:0:0:0:
176,288,50083,1,0,0:0:0:0:
176,320,50182,2,0,L|222:320,1,37.5
256,320,50379,2,0,L|320:320,1,37.5
384,320,50576,6,0,L|384:224,1,75,4|0,0:0|0:0,0:0:0:0:
446,92,50971,1,0,0:0:0:0:
446,92,51169,2,0,P|390:66|380:66,1,37.5
335,51,51366,2,0,L|294:51,1,37.5
211,55,51563,2,0,L|153:72,1,37.5
99,103,51761,2,0,P|76:143|77:150,1,37.5
48,208,51958,1,0,0:0:0:0:
48,256,52057,1,0,0:0:0:0:
64,288,52156,1,4,0:0:0:0:
160,320,52353,5,0,0:0:0:0:
192,288,52452,1,0,0:0:0:0:
224,320,52550,1,0,0:0:0:0:
256,288,52649,1,0,0:0:0:0:
288,320,52748,1,0,0:0:0:0:
336,304,52846,1,0,0:0:0:0:
368,272,52945,1,0,0:0:0:0:
384,224,53044,1,0,0:0:0:0:
384,176,53142,1,0,0:0:0:0:
368,128,53241,1,0,0:0:0:0:
336,96,53340,1,0,0:0:0:0:
288,64,53438,1,0,0:0:0:0:
240,64,53537,2,0,L|195:81,1,37.5
80,192,53734,5,0,0:0:0:0:
256,192,56892,5,4,0:0:0:0:
256,320,57090,1,0,0:0:0:0:
128,320,57287,1,0,0:0:0:0:
112,192,57485,2,0,L|160:192,2,25
208,192,57682,2,0,L|256:160,1,37.5
304,128,57879,2,0,L|352:160,1,37.5
352,224,58077,2,0,L|336:288,1,37.5
256,272,58273,1,0,0:0:0:0:
208,272,58372,1,0,0:0:0:0:
176,240,58471,1,4,0:0:0:0:
77,147,58669,5,0,0:0:0:0:
93,80,58767,1,0,0:0:0:0:
154,44,58866,1,0,0:0:0:0:
230,42,58965,1,0,0:0:0:0:
303,66,59063,2,0,L|373:45,1,37.5
414,139,59261,2,0,L|413:186,1,37.5
418,313,59458,2,0,L|371:313,1,37.5
225,312,59656,2,0,L|227:252,1,37.5
219,137,59853,2,0,L|266:137,1,37.5
370,53,60050,5,4,0:0:0:0:
437,160,60248,1,4,0:0:0:0:
402,298,60445,1,4,0:0:0:0:
293,340,60642,6,0,L|223:342,1,37.5
177,343,60840,2,0,L|115:343,1,37.5
129,251,61037,2,0,L|185:251,1,37.5
258,251,61235,2,0,L|317:251,1,37.5
192,144,61431,5,0,0:0:0:0:
208,96,61530,1,0,0:0:0:0:
256,80,61629,1,4,0:0:0:0:
414,96,61827,2,0,P|413:142|411:145,3,37.5
404,200,62221,2,0,L|392:253,1,37.5
348,315,62419,2,0,P|295:347|291:347,3,37.5
245,339,62813,2,0,L|190:339,1,37.5
120,342,63011,2,0,L|121:272,1,37.5
112,128,63207,5,0,0:0:0:0:
256,192,63603,5,0,0:0:0:0:
176,64,63800,6,0,L|224:64,1,37.5
336,64,63998,2,0,L|288:64,1,37.5
224,144,64195,2,0,L|160:144,1,37.5
288,144,64392,2,0,L|336:144,1,37.5
368,96,64589,1,0,0:0:0:0:
400,128,64688,1,0,0:0:0:0:
400,176,64787,1,4,0:0:0:0:
400,288,64985,5,0,0:0:0:0:
384,256,65083,1,0,0:0:0:0:
336,256,65182,1,0,0:0:0:0:
320,288,65281,1,0,0:0:0:0:
272,288,65379,1,0,0:0:0:0:
256,256,65478,1,0,0:0:0:0:
208,256,65577,1,0,0:0:0:0:
192,288,65675,1,0,0:0:0:0:
176,336,65774,1,0,0:0:0:0:
208,352,65873,1,0,0:0:0:0:
256,352,65971,1,0,0:0:0:0:
304,352,66070,1,0,0:0:0:0:
352,352,66169,1,0,0:0:0:0:
384,320,66267,1,0,0:0:0:0:
416,224,66366,6,0,P|432:176|416:144,1,75,4|0,0:0|0:0,0:0:0:0:
352,128,66761,2,0,P|336:160|352:208,1,75
336,256,67156,2,0,P|352:288|336:336,1,75
256,320,67452,2,0,P|240:272|256:224,1,75
176,224,67747,1,0,0:0:0:0:
144,128,67945,6,0,B|160:112|192:112|224:128,1,75
272,144,68340,2,0,B|288:144|320:160|336:192,1,75
352,240,68735,2,0,B|368:272|368:272|368:304|368:304|352:336,1,75
272,336,69129,2,0,L|192:336,2,75,0|0|4,0:0|0:0|0:0,0:0:0:0:
