osu file format v14

[General]
AudioFilename: audio.mp3
AudioLeadIn: 0
PreviewTime: 110494
Countdown: 0
SampleSet: None
StackLeniency: 0.9
Mode: 0
LetterboxInBreaks: 0
WidescreenStoryboard: 1
SamplesMatchPlaybackRate: 1

[Editor]
DistanceSpacing: 1.3
BeatDivisor: 12
GridSize: 4
TimelineZoom: 2.132001

[Metadata]
Title:The Devil In I
TitleUnicode:The Devil In I
Artist:Slipknot
ArtistUnicode:Slipknot
Creator:Our Arrival
Version:Answers
Source:
Tags:Thrash Metal Nu Answers Deathstream 2014
BeatmapID:1382386
BeatmapSetID:651910

[Difficulty]
HPDrainRate:6
CircleSize:4
OverallDifficulty:8
ApproachRate:9.6
SliderMultiplier:1.85
SliderTickRate:1

[Events]
//Background and Video events
0,0,"thumb-1920-256100.jpg",0,0
//Break Periods
//Storyboard Layer 0 (Background)
//Storyboard Layer 1 (Fail)
//Storyboard Layer 2 (Pass)
//Storyboard Layer 3 (Foreground)
//Storyboard Sound Samples

[TimingPoints]
15730,333.333333333333,4,3,0,100,1,0
15730,-125,4,3,0,100,0,0
25063,-117.647058823529,4,3,0,100,0,0
37396,-117.647058823529,4,3,0,80,0,0
37698,324.324324324324,4,2,0,100,1,0
37698,-100,4,3,0,60,0,0
42239,-100,4,3,0,50,0,0
44833,-142.857142857143,4,2,0,50,0,0
45482,-100,4,2,0,30,0,0
47454,324.324324324324,4,3,0,50,1,0
52643,-100,4,3,0,50,0,0
55257,324.324324324324,4,3,0,100,1,0
55257,-153.846153846153,4,3,0,60,0,0
56229,-100,4,3,0,65,0,0
57828,333.333333333333,4,2,0,100,1,0
57828,-100,4,2,0,5,0,0
61161,-200,4,3,0,30,0,0
65828,-200,4,3,0,40,0,0
89828,-200,4,3,0,80,0,0
110494,666.666666666667,4,1,0,80,1,0
110494,-166.666666666667,4,1,0,80,0,0
110660,-100,4,1,0,80,0,0
111185,324.324324324324,4,2,0,100,1,0
111185,-100,4,3,0,75,0,1
116374,324.324324324324,4,3,0,75,1,1
118968,-200,4,3,0,75,0,1
121563,324.324324324324,4,2,0,100,1,1
121563,-100,4,3,0,100,0,1
126751,324.324324324324,4,3,0,100,1,1
129345,-133.333333333333,4,3,0,100,0,0
131940,-100,4,3,0,100,0,0
133214,324.324324324324,4,3,0,100,1,0
137105,-125,4,3,0,100,0,0
138385,324.324324324324,4,3,0,100,1,0
138385,-125,4,3,0,100,0,0
140941,319.148936170213,4,3,0,100,1,0
142277,333.333333333333,4,2,0,5,1,0
145610,-200,4,3,0,45,0,0
160943,-200,4,3,0,100,0,0
184276,666.666666666667,4,3,0,100,1,0
184276,-200,4,3,0,100,0,0
184982,324.324324324324,4,3,0,100,1,1
184982,-100,4,3,0,100,0,1
192765,-166.666666666667,4,3,0,100,0,1
193414,-100,4,3,0,100,0,1
195360,324.324324324324,4,3,0,100,1,1
205414,-200,4,3,0,100,0,1
205708,324.324324324324,4,3,0,100,1,1
205708,-100,4,3,0,100,0,1
210852,320.855614973262,4,3,0,100,1,1
215985,322.58064516129,4,1,0,100,1,0
216147,-100,4,3,0,100,0,0
217930,-100,4,3,0,100,0,0
221134,324.324324324324,4,3,0,100,1,0
223728,-100,4,1,0,100,0,0
223809,-100,4,3,0,100,0,0
226323,329.67032967033,4,3,0,100,1,0
230279,-100,4,3,0,5,0,0
230315,329.67032967033,4,3,0,100,1,0
234291,319.148936170213,4,3,0,100,1,0
236874,329.67032967033,4,3,0,100,1,0
244760,324.324324324324,4,3,0,100,1,0
247354,666.666666666667,4,3,0,100,1,0
247354,-133.333333333333,4,3,0,100,0,0
249377,320.855614973262,4,3,0,100,1,0
250018,-100,4,3,0,100,0,1
255804,320.855614973262,4,3,0,100,1,1
260961,320.855614973262,4,3,0,100,1,1
270627,324.324324324324,4,3,0,100,1,1
271275,324.324324324324,4,3,0,100,1,1
276485,324.324324324324,4,3,0,100,1,1
281656,319.148936170213,4,3,0,100,1,0
286738,319.148936170213,4,3,0,100,1,0
291844,-100,4,1,0,100,0,0
292003,-100,4,3,0,100,0,0
299503,-100,4,1,0,100,0,0
299663,-100,4,3,0,100,0,0
302048,666.666666666667,4,3,0,100,1,0
302048,-133.333333333333,4,3,0,30,0,0

[Colours]
Combo1 : 157,0,157
Combo2 : 127,23,52
Combo3 : 0,0,145

[HitObjects]
424,92,15730,6,0,L|448:44,2,37,8|0|0,0:0|0:0|0:0,0:0:0:0:
356,188,16063,2,0,B|312:204|276:160|276:160,1,74
76,108,16396,2,0,L|36:76,2,37,8|0|0,0:0|0:0|0:0,0:0:0:0:
76,271,16730,2,0,B|108:319|168:303|168:303,1,74
360,328,17063,2,0,P|388:372|388:372,2,37,8|0|0,0:0|0:0|0:0,0:0:0:0:
275,161,17396,1,0,0:0:0:0:
397,102,17563,1,0,0:0:0:0:
204,56,17729,2,0,P|220:-4|220:-4,2,37,8|0|0,0:0|0:0|0:0,0:0:0:0:
76,240,18063,6,0,L|28:284,2,37,8|0|0,0:0|0:0|0:0,0:0:0:0:
237,138,18396,1,8,0:0:0:0:
211,246,18563,1,0,0:0:0:0:
395,329,18729,2,0,B|447:329|451:269|451:269,1,74
392,16,19063,1,8,0:0:0:0:
378,153,19229,1,0,0:0:0:0:
232,72,19396,2,0,B|188:92|204:160|204:160,1,74
304,248,19729,5,8,0:0:0:0:
184,348,19896,1,0,0:0:0:0:
104,224,20063,1,8,0:0:0:0:
156,27,20229,1,0,0:0:0:0:
229,217,20396,1,8,0:0:0:0:
58,106,20563,1,0,0:0:0:0:
262,95,20729,1,8,0:0:0:0:
164,268,20896,1,0,0:0:0:0:
316,308,21063,6,0,L|320:360,2,37,8|0|0,0:0|0:0|0:0,0:0:0:0:
449,267,21396,2,0,P|453:223|437:171,1,74
319,79,21729,1,8,0:0:0:0:
320,88,21813,1,0,0:0:0:0:
320,96,21896,1,0,0:0:0:0:
328,244,22063,2,0,B|280:272|232:248|232:248,1,74
112,172,22396,2,0,P|80:144|80:144,2,37,8|0|0,0:0|0:0|0:0,0:0:0:0:
152,280,22729,2,0,B|184:324|248:296,1,74
412,336,23063,6,0,P|436:384|436:384,2,37,8|0|0,0:0|0:0|0:0,0:0:0:0:
432,190,23396,1,8,0:0:0:0:
424,178,23479,1,0,0:0:0:0:
416,166,23563,1,0,0:0:0:0:
296,36,23729,1,8,0:0:0:0:
249,182,23896,1,0,0:0:0:0:
128,76,24063,6,0,B|128:160|96:176|96:176,1,74
80,348,24396,1,8,0:0:0:0:
92,352,24479,1,0,0:0:0:0:
108,356,24563,1,0,0:0:0:0:
216,352,24729,2,0,B|256:292|256:256,1,74
272,144,25063,5,8,0:0:0:0:
401,69,25229,1,0,0:0:0:0:
475,197,25396,1,8,0:0:0:0:
346,272,25563,1,0,0:0:0:0:
401,69,25729,1,8,0:0:0:0:
271,143,25896,1,0,0:0:0:0:
475,197,26063,1,8,0:0:0:0:
346,272,26229,1,0,0:0:0:0:
156,336,26396,5,8,0:0:0:0:
131,322,26479,1,0,0:0:0:0:
111,310,26563,1,0,0:0:0:0:
64,168,26729,2,0,B|108:124|156:128|156:128,1,78.6250014996529
292,80,27063,1,8,0:0:0:0:
328,88,27146,1,0,0:0:0:0:
360,96,27229,1,0,0:0:0:0:
480,224,27396,6,0,B|472:288|424:312|424:312,1,78.6250014996529
292,244,27729,1,8,0:0:0:0:
256,228,27813,1,0,0:0:0:0:
220,212,27896,1,0,0:0:0:0:
56,264,28063,2,0,B|76:344|112:360|112:360,1,78.6250014996529
288,344,28396,1,8,0:0:0:0:
316,340,28479,1,0,0:0:0:0:
344,332,28563,5,0,0:0:0:0:
356,184,28729,1,8,0:0:0:0:
328,172,28813,1,0,0:0:0:0:
300,160,28896,1,0,0:0:0:0:
48,72,29063,1,8,0:0:0:0:
104,232,29229,1,0,0:0:0:0:
236,328,29396,6,0,B|304:332|336:296|336:296,1,78.6250014996529
436,212,29729,1,8,0:0:0:0:
420,192,29813,1,0,0:0:0:0:
400,172,29896,1,0,0:0:0:0:
320,112,30063,2,0,B|248:88|212:128|212:128,1,78.6250014996529
104,232,30396,1,8,0:0:0:0:
312,312,30563,5,0,0:0:0:0:
357,93,30729,1,8,0:0:0:0:
220,272,30896,1,0,0:0:0:0:
421,170,31063,1,8,0:0:0:0:
195,174,31229,1,0,0:0:0:0:
400,268,31396,1,8,0:0:0:0:
257,94,31563,1,0,0:0:0:0:
280,192,31729,5,8,0:0:0:0:
276,220,31813,1,0,0:0:0:0:
272,248,31896,1,0,0:0:0:0:
96,268,32063,1,0,0:0:0:0:
236,344,32229,1,0,0:0:0:0:
140,156,32396,2,0,P|100:108|100:108,2,39.3125007498264,8|0|0,0:0|0:0|0:0,0:0:0:0:
248,232,32729,1,0,0:0:0:0:
252,108,32896,5,0,0:0:0:0:
424,40,33063,1,8,0:0:0:0:
428,64,33146,1,0,0:0:0:0:
432,84,33229,1,0,0:0:0:0:
456,176,33396,1,0,0:0:0:0:
400,272,33563,1,0,0:0:0:0:
284,152,33729,1,8,0:0:0:0:
284,136,33813,1,0,0:0:0:0:
284,120,33896,5,0,0:0:0:0:
201,180,34063,1,8,0:0:0:0:
201,196,34146,1,0,0:0:0:0:
201,212,34229,1,0,0:0:0:0:
156,364,34396,1,8,0:0:0:0:
72,256,34563,1,0,0:0:0:0:
56,116,34729,2,0,B|100:88|140:104|140:104,1,78.6250014996529
308,100,35063,1,8,0:0:0:0:
324,100,35146,1,0,0:0:0:0:
344,100,35229,5,0,0:0:0:0:
460,36,35396,1,8,0:0:0:0:
408,208,35563,1,0,0:0:0:0:
308,268,35729,5,8,0:0:0:0:
100,248,35896,1,0,0:0:0:0:
320,168,36063,5,8,0:0:0:0:
108,148,36229,1,0,0:0:0:0:
300,228,36396,5,8,0:0:0:0:
127,48,36563,1,0,0:0:0:0:
304,52,36729,5,8,0:0:0:0:
124,224,36896,1,0,0:0:0:0:
268,344,37063,2,0,P|396:324|408:288,1,157.250002999306,12|0,0:0|0:0,0:0:0:0:
424,64,37698,1,8,0:0:0:0:
332,212,37860,1,0,0:0:0:0:
249,58,38022,1,8,0:0:0:0:
157,206,38346,6,0,P|224:268|352:276,1,185,12|0,0:0|0:0,0:0:0:0:
476,184,38995,1,8,0:0:0:0:
272,48,39157,1,0,0:0:0:0:
77,273,39643,6,0,P|176:272|256:204,1,185,8|0,0:0|0:0,0:0:0:0:
396,184,40292,1,8,0:0:0:0:
304,36,40454,1,0,0:0:0:0:
221,190,40616,1,8,0:0:0:0:
77,105,40941,2,0,B|154:36|273:57|273:57,1,185,10|0,0:0|0:0,0:0:0:0:
404,128,41589,1,0,0:0:0:0:
336,32,41752,1,0,0:0:0:0:
176,160,42238,6,0,B|160:180|117:173,7,46.25,10|0|0|0|0|0|0|0,0:0|0:0|0:0|0:0|0:0|0:0|0:0|0:0,0:0:0:0:
96,176,42887,2,0,P|67:194|72:240,7,46.25,10|0|0|0|0|0|0|0,0:0|0:0|0:0|0:0|0:0|0:0|0:0|0:0,0:0:0:0:
84,224,43535,5,10,0:0:0:0:
104,244,43616,1,0,0:0:0:0:
124,264,43697,1,0,0:0:0:0:
144,276,43779,1,0,0:0:0:0:
172,284,43860,1,0,0:0:0:0:
200,284,43941,1,0,0:0:0:0:
224,276,44022,1,0,0:0:0:0:
244,264,44103,1,0,0:0:0:0:
256,244,44184,5,10,0:0:0:0:
268,264,44265,1,0,0:0:0:0:
292,280,44346,1,0,0:0:0:0:
316,280,44427,1,0,0:0:0:0:
344,272,44508,1,0,0:0:0:0:
364,264,44589,1,0,0:0:0:0:
384,248,44670,1,0,0:0:0:0:
400,228,44752,1,0,0:0:0:0:
408,212,44833,6,0,B|440:172|400:72|220:60,1,258.999992095948,10|0,0:0|0:0,0:0:0:0:
120,124,45806,2,0,B|56:176|56:208|64:260|96:316,1,185
296,320,46454,1,0,0:0:0:0:
424,212,46616,1,0,0:0:0:0:
256,164,46779,1,0,0:0:0:0:
384,56,46941,1,0,0:0:0:0:
144,92,47454,6,0,P|120:144|152:288,1,185,8|0,0:0|0:0,0:0:0:0:
392,288,48102,1,12,0:0:0:0:
168,205,48264,1,0,0:0:0:0:
352,52,48426,1,0,0:0:0:0:
64,84,48751,2,0,B|168:52|272:112|272:112,1,185,8|8,0:0|0:0,0:0:0:0:
456,252,49399,1,8,0:0:0:0:
392,112,49562,1,0,0:0:0:0:
132,76,50048,6,8,B|136:136|140:208|204:276,1,185
512,324,50697,1,12,0:0:0:0:
440,116,50859,1,0,0:0:0:0:
284,264,51021,1,8,0:0:0:0:
264,32,51345,2,8,B|156:60|128:112|96:132|88:160,1,185
100,336,51994,1,8,0:0:0:0:
296,252,52156,1,0,0:0:0:0:
340,160,52643,5,10,0:0:0:0:
329,115,52724,1,0,0:0:0:0:
298,81,52805,1,8,0:0:0:0:
258,59,52886,1,0,0:0:0:0:
213,48,52967,1,8,0:0:0:0:
167,47,53048,1,0,0:0:0:0:
124,58,53129,1,8,0:0:0:0:
92,88,53210,1,0,0:0:0:0:
64,124,53291,5,10,0:0:0:0:
82,167,53372,1,0,0:0:0:0:
104,208,53453,1,8,0:0:0:0:
130,246,53535,1,0,0:0:0:0:
160,281,53616,1,8,0:0:0:0:
195,311,53697,1,0,0:0:0:0:
236,326,53778,1,8,0:0:0:0:
284,332,53859,1,0,0:0:0:0:
328,328,53940,5,10,0:0:0:0:
344,288,54021,1,0,0:0:0:0:
360,245,54102,1,8,0:0:0:0:
343,205,54183,1,0,0:0:0:0:
300,188,54264,1,8,0:0:0:0:
256,188,54345,1,0,0:0:0:0:
216,200,54426,1,8,0:0:0:0:
173,218,54508,1,0,0:0:0:0:
128,220,54589,5,8,0:0:0:0:
120,176,54670,1,0,0:0:0:0:
128,132,54751,1,8,0:0:0:0:
149,93,54832,1,0,0:0:0:0:
189,69,54913,1,8,0:0:0:0:
233,73,54994,1,0,0:0:0:0:
273,89,55075,1,8,0:0:0:0:
313,113,55156,1,0,0:0:0:0:
353,133,55257,6,0,B|353:149|389:69|389:21,1,120.249994495392,10|0,0:0|0:0,0:0:0:0:
184,84,55905,1,0,0:0:0:0:
328,206,56229,2,0,B|364:282|344:362|272:402|272:402,1,185
152,244,56878,2,0,B|160:196|196:144|196:144,1,92.5
372,244,57202,1,0,0:0:0:0:
384,40,57365,1,0,0:0:0:0:
256,192,57828,12,8,60494,0:0:0:0:
188,116,61161,6,0,P|276:132|292:144,1,92.5
356,252,61827,1,0,0:0:0:0:
92,64,63161,5,0,0:0:0:0:
388,112,63827,2,0,B|348:188|336:220|264:272|256:260,1,185
84,256,65161,1,0,0:0:0:0:
296,132,65494,1,0,0:0:0:0:
78,73,65827,6,0,B|62:129|86:161|114:205|78:269|78:269,1,185
276,310,66827,2,0,B|324:242|300:206|308:154|292:126|292:126,1,185
147,217,67827,2,0,B|195:277|215:297|215:297,1,92.5
376,252,68494,1,0,0:0:0:0:
188,308,69161,6,0,P|184:252|208:204,1,92.5
356,136,69827,1,0,0:0:0:0:
368,188,71161,6,0,B|304:140|280:128|280:128,1,92.5
132,92,71827,2,0,B|132:168|172:280|172:280,1,185
384,336,73161,2,0,B|388:276|380:228|380:228,1,92.5
312,140,73827,5,10,0:0:0:0:
96,192,74494,1,0,0:0:0:0:
250,354,75161,1,0,0:0:0:0:
408,224,76161,5,8,0:0:0:0:
408,224,76494,2,0,B|400:156|376:140|276:128|268:112|268:112,1,185,8|0,0:0|0:0,0:0:0:0:
120,216,77827,2,0,B|160:264|228:288|312:264,1,185,0|0,0:0|0:0,0:0:0:0:
388,120,79161,5,10,0:0:0:0:
107,177,79827,1,0,0:0:0:0:
294,357,80494,1,0,0:0:0:0:
452,192,81161,6,0,B|432:140|392:108|392:108,1,92.5
268,56,81827,2,0,B|332:136|336:232|332:232,1,185,8|0,0:0|0:0,0:0:0:0:
152,282,83161,2,0,B|128:222|184:102|184:102,1,185
184,104,84494,5,10,0:0:0:0:
236,320,85161,1,0,0:0:0:0:
398,166,85827,2,0,B|408:100|304:40|304:40,1,185
128,88,87161,6,0,B|128:160|128:204|176:276|176:276,1,185
328,344,88161,2,0,B|376:296|368:272|368:224|360:164|360:164,1,185
272,68,89161,1,0,0:0:0:0:
152,272,89827,5,8,0:0:0:0:
424,164,90494,1,0,0:0:0:0:
168,56,91161,1,0,0:0:0:0:
276,220,91827,1,0,0:0:0:0:
368,56,92494,6,0,B|276:56|208:72|184:112|184:112,1,185,10|0,0:0|0:0,0:0:0:0:
336,360,93827,1,0,0:0:0:0:
404,64,95161,6,0,B|316:64|272:96|236:156|236:156,1,185,8|0,0:0|0:0,0:0:0:0:
88,340,96494,2,0,B|208:404|360:292|360:292,1,277.5
472,256,97827,6,0,B|456:192|444:160|416:140|392:116|364:92|364:92,1,185,8|8,0:0|0:0,0:0:0:0:
188,112,98827,1,8,0:0:0:0:
288,280,99161,2,0,B|220:280|184:260|140:232|148:180,1,185,8|0,0:0|0:0,0:0:0:0:
268,60,100494,1,8,0:0:0:0:
404,224,101161,5,0,0:0:0:0:
148,332,101827,2,0,B|140:276|212:168|212:168,1,185
368,303,103161,5,10,0:0:0:0:
312,48,103827,1,0,0:0:0:0:
119,225,104494,2,0,B|180:276|292:320|292:320,1,185
408,116,105827,6,0,B|320:88|232:140|232:140,1,185
108,280,107161,2,0,B|184:316|304:288|304:288|304:284,1,185
424,40,108494,1,0,0:0:0:0:
152,152,109161,1,0,0:0:0:0:
384,332,109827,1,0,0:0:0:0:
408,80,110494,6,0,P|376:72|360:72,1,27.7499991531372,8|0,0:0|0:0,0:0:0:0:
220,88,111185,6,0,B|136:192|252:284|252:284,1,185,8|0,0:0|0:0,0:0:0:0:
380,320,111671,1,0,0:0:0:0:
387,80,111833,1,8,0:0:0:0:
495,230,111995,1,0,0:0:0:0:
225,256,112157,1,8,0:0:0:0:
381,146,112320,1,0,0:0:0:0:
184,84,112482,2,0,L|236:196,1,92.5,8|0,0:0|0:0,0:0:0:0:
298,362,112806,5,12,0:0:0:0:
87,143,112968,1,0,0:0:0:0:
382,69,113130,1,12,0:0:0:0:
129,314,113293,1,0,0:0:0:0:
213,21,113455,1,12,0:0:0:0:
424,240,113617,1,0,0:0:0:0:
100,264,113779,2,0,B|128:204|168:164|168:164,1,92.5,12|0,0:0|0:0,0:0:0:0:
296,32,114103,5,8,0:0:0:0:
372,300,114266,1,0,0:0:0:0:
101,233,114428,1,8,0:0:0:0:
344,52,114590,1,0,0:0:0:0:
320,316,114752,1,8,0:0:0:0:
108,180,114914,1,0,0:0:0:0:
384,88,115076,6,0,B|408:144|392:270|392:270,1,185,8|0,0:0|0:0,0:0:0:0:
223,359,115563,1,0,0:0:0:0:
124,252,115725,2,0,B|110:195|143:160|143:160,1,92.5,8|0,0:0|0:0,0:0:0:0:
213,57,116049,2,0,B|228:20|304:35|304:35,1,92.5,8|0,0:0|0:0,0:0:0:0:
408,32,116374,5,10,0:0:0:0:
421,76,116455,1,0,0:0:0:0:
423,122,116536,1,8,0:0:0:0:
408,165,116617,1,0,0:0:0:0:
384,200,116698,1,8,0:0:0:0:
348,224,116779,1,0,0:0:0:0:
308,208,116860,1,8,0:0:0:0:
308,164,116941,1,0,0:0:0:0:
336,132,117022,5,10,0:0:0:0:
380,140,117103,1,0,0:0:0:0:
416,168,117184,1,8,0:0:0:0:
424,212,117265,1,0,0:0:0:0:
416,256,117346,1,8,0:0:0:0:
392,292,117428,1,0,0:0:0:0:
348,312,117509,1,8,0:0:0:0:
304,304,117590,1,0,0:0:0:0:
260,296,117671,5,10,0:0:0:0:
272,252,117752,1,0,0:0:0:0:
280,208,117833,1,8,0:0:0:0:
284,164,117914,1,0,0:0:0:0:
280,120,117995,1,8,0:0:0:0:
252,84,118076,1,0,0:0:0:0:
208,68,118157,1,8,0:0:0:0:
164,80,118238,1,0,0:0:0:0:
132,108,118319,5,10,0:0:0:0:
116,152,118401,1,0,0:0:0:0:
132,196,118482,1,8,0:0:0:0:
164,224,118563,1,0,0:0:0:0:
204,220,118644,1,8,0:0:0:0:
244,208,118725,1,0,0:0:0:0:
284,188,118806,1,8,0:0:0:0:
320,168,118887,1,0,0:0:0:0:
353,142,118968,6,0,B|412:111|437:178|437:178,1,92.5,10|0,0:0|0:0,0:0:0:0:
392,324,119455,1,0,0:0:0:0:
228,272,119617,2,0,B|228:228|244:184|244:184|248:168,1,92.5,8|0,0:0|0:0,0:0:0:0:
100,56,120265,1,8,0:0:0:0:
240,48,120428,2,0,B|284:60|296:72|296:72,1,46.25
476,152,120914,6,0,B|464:192|468:212|468:212,1,46.25,8|0,0:0|0:0,0:0:0:0:
448,304,121563,2,0,B|424:352|280:364|280:364,1,185,8|0,0:0|0:0,0:0:0:0:
88,276,122049,1,0,0:0:0:0:
304,252,122211,1,8,0:0:0:0:
116,148,122373,1,0,0:0:0:0:
204,348,122535,1,8,0:0:0:0:
424,280,122698,1,0,0:0:0:0:
336,84,122860,2,0,B|308:36|244:40|244:40|232:40,1,92.5,10|0,0:0|0:0,0:0:0:0:
96,120,123184,5,12,0:0:0:0:
360,304,123346,1,0,0:0:0:0:
272,40,123508,1,12,0:0:0:0:
184,308,123671,1,0,0:0:0:0:
109,143,123833,1,12,0:0:0:0:
320,136,123995,1,0,0:0:0:0:
140,312,124157,2,0,B|96:272|88:248|88:216|100:160|124:108,1,185,10|8,0:0|0:0,0:0:0:0:
360,208,124644,1,0,0:0:0:0:
272,48,124806,5,12,0:0:0:0:
192,304,124968,1,0,0:0:0:0:
411,224,125130,1,8,0:0:0:0:
168,174,125292,1,0,0:0:0:0:
302,325,125454,2,0,B|406:380|413:211|413:211,1,185,8|0,0:0|0:0,0:0:0:0:
403,108,125941,1,0,0:0:0:0:
326,139,126103,2,0,B|316:152|344:96|408:108,1,92.5,8|0,0:0|0:0,0:0:0:0:
391,244,126427,2,0,B|395:237|383:265|307:281,1,92.5,8|0,0:0|0:0,0:0:0:0:
214,361,126751,5,10,0:0:0:0:
168,350,126832,1,0,0:0:0:0:
130,326,126913,1,8,0:0:0:0:
103,288,126994,1,0,0:0:0:0:
88,245,127075,1,8,0:0:0:0:
81,199,127156,1,0,0:0:0:0:
81,152,127237,1,8,0:0:0:0:
86,107,127318,1,0,0:0:0:0:
105,65,127399,5,10,0:0:0:0:
151,64,127480,1,0,0:0:0:0:
195,78,127561,1,8,0:0:0:0:
228,109,127642,1,0,0:0:0:0:
240,153,127723,1,8,0:0:0:0:
234,199,127804,1,0,0:0:0:0:
217,242,127885,1,8,0:0:0:0:
192,281,127966,1,0,0:0:0:0:
147,280,128048,5,10,0:0:0:0:
122,242,128129,1,0,0:0:0:0:
128,197,128210,1,8,0:0:0:0:
153,158,128291,1,0,0:0:0:0:
188,127,128372,1,8,0:0:0:0:
227,102,128453,1,0,0:0:0:0:
269,83,128534,1,8,0:0:0:0:
312,68,128615,1,0,0:0:0:0:
358,62,128696,5,10,0:0:0:0:
376,105,128778,1,0,0:0:0:0:
390,148,128859,1,8,0:0:0:0:
373,190,128940,1,0,0:0:0:0:
334,214,129021,1,8,0:0:0:0:
289,226,129102,1,0,0:0:0:0:
243,231,129183,1,8,0:0:0:0:
197,232,129264,1,0,0:0:0:0:
156,230,129345,6,0,P|112:198|88:98,1,138.750005292893,10|0,0:0|0:0,0:0:0:0:
360,24,129994,2,0,B|412:44|432:80|432:80,1,69.3750026464463,8|0,0:0|0:0,0:0:0:0:
348,200,130318,1,8,0:0:0:0:
136,328,130642,1,8,0:0:0:0:
176,92,130967,2,0,B|200:32|248:48|248:48,1,69.3750026464463,8|0,0:0|0:0,0:0:0:0:
420,64,131291,1,8,0:0:0:0:
324,184,131453,2,0,B|324:240|280:272|280:272,1,69.3750026464463,0|8,0:0|0:0,0:0:0:0:
136,244,131778,1,0,0:0:0:0:
120,264,131859,1,0,0:0:0:0:
104,284,131940,6,0,B|136:332|184:344|184:344,1,92.5,8|0,0:0|0:0,0:0:0:0:
420,328,132264,2,0,B|472:296|436:212|436:216,1,92.5,8|0,0:0|0:0,0:0:0:0:
396,88,132588,1,8,0:0:0:0:
268,192,132751,2,0,B|260:272|232:272|236:272|236:276,1,92.5,0|8,0:0|0:0,0:0:0:0:
76,300,133075,1,0,0:0:0:0:
140,152,133214,2,0,B|124:76|144:56|144:56,1,92.5,8|0,0:0|0:0,0:0:0:0:
336,48,133538,1,8,0:0:0:0:
252,224,133700,1,0,0:0:0:0:
400,344,133862,6,0,B|468:324|472:280|472:280,1,92.5,8|0,0:0|0:0,0:0:0:0:
400,112,134186,1,8,0:0:0:0:
280,284,134349,1,0,0:0:0:0:
264,308,134430,1,0,0:0:0:0:
248,332,134511,2,0,B|184:304|176:252|176:252,1,92.5,8|0,0:0|0:0,0:0:0:0:
84,68,134835,1,8,0:0:0:0:
304,84,134997,1,0,0:0:0:0:
182,270,135159,2,0,B|144:232|134:198|152:164,1,92.5,8|0,0:0|0:0,0:0:0:0:
408,232,135484,2,0,B|428:308|360:328|360:328,1,92.5,8|0,0:0|0:0,0:0:0:0:
160,264,135808,5,8,0:0:0:0:
348,75,135970,1,0,0:0:0:0:
253,302,136132,1,8,0:0:0:0:
253,37,136295,1,0,0:0:0:0:
348,264,136457,1,8,0:0:0:0:
159,75,136619,1,0,0:0:0:0:
386,169,136781,1,8,0:0:0:0:
121,169,136943,1,0,0:0:0:0:
348,75,137105,5,8,0:0:0:0:
236,212,137268,2,0,B|240:268|248:304|248:304,1,74,0|8,0:0|0:0,0:0:0:0:
412,344,137592,1,0,0:0:0:0:
396,184,137754,2,0,B|388:116|376:96|360:96,1,74,8|0,0:0|0:0,0:0:0:0:
216,72,138078,1,8,0:0:0:0:
376,244,138241,1,0,0:0:0:0:
152,136,138385,2,0,P|116:192|112:224,1,74,8|0,0:0|0:0,0:0:0:0:
260,248,138709,2,0,B|296:196|296:160|296:160,1,74,8|0,0:0|0:0,0:0:0:0:
276,24,139033,1,8,0:0:0:0:
152,112,139195,5,8,0:0:0:0:
176,128,139276,1,0,0:0:0:0:
204,140,139357,1,8,0:0:0:0:
228,152,139439,1,0,0:0:0:0:
256,164,139520,1,8,0:0:0:0:
284,172,139601,1,0,0:0:0:0:
312,180,139682,2,0,B|360:200|388:224|388:224,1,74,8|0,0:0|0:0,0:0:0:0:
312,336,140006,2,0,P|272:352|232:340,1,74,8|0,0:0|0:0,0:0:0:0:
136,188,140330,1,8,0:0:0:0:
324,184,140493,1,0,0:0:0:0:
184,344,140655,6,0,B|116:328|92:304|92:304,1,74,8|0,0:0|0:0,0:0:0:0:
72,196,140941,1,12,0:0:0:0:
380,40,141100,1,0,0:0:0:0:
280,360,141260,1,12,0:0:0:0:
104,64,141419,1,0,0:0:0:0:
368,232,141579,1,12,0:0:0:0:
104,336,141738,1,0,0:0:0:0:
248,56,141898,2,0,B|304:72|328:112|328:112,1,92.5,12|0,0:0|0:0,0:0:0:0:
340,328,142217,1,10,0:0:0:0:
256,192,142277,12,0,144943,0:0:0:0:
140,64,145610,5,0,0:0:0:0:
228,328,146277,1,0,0:0:0:0:
384,88,147610,5,12,0:0:0:0:
100,196,148277,2,0,B|140:280|272:280|272:280,1,185
388,76,150277,6,0,B|336:56|232:68|212:104|212:104,1,185,8|0,0:0|0:0,0:0:0:0:
272,244,151277,1,8,0:0:0:0:
116,328,151610,2,0,B|184:352|264:352|316:320,1,185,12|0,0:0|0:0,0:0:0:0:
316,24,152943,1,8,0:0:0:0:
80,240,153610,1,0,0:0:0:0:
420,324,154277,1,0,0:0:0:0:
112,56,155610,5,10,0:0:0:0:
444,212,156277,1,0,0:0:0:0:
104,312,156943,1,0,0:0:0:0:
356,352,158276,6,0,B|232:360|188:272|188:272,1,185
144,92,159610,1,0,0:0:0:0:
464,300,160276,1,0,0:0:0:0:
84,144,160943,2,0,B|28:264|108:324|108:324,1,185,8|0,0:0|0:0,0:0:0:0:
340,328,161943,2,0,B|376:288|408:140|408:140,1,185,8|0,0:0|0:0,0:0:0:0:
204,88,162943,1,12,0:0:0:0:
104,276,163610,5,12,0:0:0:0:
432,168,164276,1,0,0:0:0:0:
140,60,164943,1,0,0:0:0:0:
148,36,166276,5,10,0:0:0:0:
480,280,166943,1,0,0:0:0:0:
108,368,167610,1,0,0:0:0:0:
168,84,168943,5,10,0:0:0:0:
428,288,169610,1,0,0:0:0:0:
160,348,170276,1,0,0:0:0:0:
160,100,171610,6,0,B|208:88|260:80|292:104|328:104|344:120|352:128,1,185,8|0,0:0|0:0,0:0:0:0:
480,332,172610,1,8,0:0:0:0:
236,328,172943,2,0,B|196:272|176:200|168:160|168:144|168:144,1,185,8|0,0:0|0:0,0:0:0:0:
356,52,174276,1,12,0:0:0:0:
400,264,174943,5,0,0:0:0:0:
152,160,175610,1,0,0:0:0:0:
120,368,176943,5,8,0:0:0:0:
436,172,177610,1,0,0:0:0:0:
76,40,178276,1,0,0:0:0:0:
164,76,179610,6,0,B|136:120|124:176|120:216|136:256|144:272,1,185,8|0,0:0|0:0,0:0:0:0:
348,320,180943,2,0,B|372:284|376:248|368:220|368:184|368:152|360:124|360:124,1,185,8|0,0:0|0:0,0:0:0:0:
144,72,181943,1,8,0:0:0:0:
148,276,182276,2,0,B|204:304|204:304,1,46.25,8|0,0:0|0:0,0:0:0:0:
328,328,182610,2,0,B|360:304|384:248|400:208|404:176|384:128|352:120|312:96,1,277.5,8|12,0:0|0:0,0:0:0:0:
160,248,184276,6,0,L|180:216,1,23.125,14|0,0:0|0:0,0:0:0:0:
304,48,184982,6,0,P|352:88|380:148,1,92.5,8|0,0:0|0:0,0:0:0:0:
376,316,185306,1,8,0:0:0:0:
164,256,185468,1,0,0:0:0:0:
312,128,185630,2,0,B|268:96|224:88|224:88,1,92.5,8|0,0:0|0:0,0:0:0:0:
152,236,185954,2,0,B|196:268|252:284,1,92.5,8|0,0:0|0:0,0:0:0:0:
424,304,186279,2,0,P|436:248|440:188,1,92.5,8|0,0:0|0:0,0:0:0:0:
316,72,186603,5,10,0:0:0:0:
96,176,186765,1,0,0:0:0:0:
296,320,186927,1,8,0:0:0:0:
64,328,187090,1,0,0:0:0:0:
308,168,187252,1,8,0:0:0:0:
64,44,187414,1,0,0:0:0:0:
176,264,187576,2,0,B|264:260|356:224,1,185,10|0,0:0|0:0,0:0:0:0:
36,140,188063,1,0,0:0:0:0:
272,24,188225,5,8,0:0:0:0:
400,216,188387,1,0,0:0:0:0:
160,356,188549,1,8,0:0:0:0:
36,140,188711,1,0,0:0:0:0:
272,24,188873,2,0,B|348:28|404:52|436:124|436:124,1,185,8|0,0:0|0:0,0:0:0:0:
488,292,189360,1,0,0:0:0:0:
344,296,189522,2,0,B|280:280|264:248|260:248,1,92.5,8|0,0:0|0:0,0:0:0:0:
116,180,189846,2,0,B|124:124|164:104|164:104,1,92.5,8|0,0:0|0:0,0:0:0:0:
260,48,190171,5,10,0:0:0:0:
303,31,190252,1,0,0:0:0:0:
349,26,190333,1,8,0:0:0:0:
392,41,190414,1,0,0:0:0:0:
426,72,190495,1,8,0:0:0:0:
446,113,190576,1,0,0:0:0:0:
449,159,190657,1,8,0:0:0:0:
419,192,190738,1,0,0:0:0:0:
374,204,190819,5,10,0:0:0:0:
329,198,190900,1,0,0:0:0:0:
287,178,190982,1,8,0:0:0:0:
251,149,191063,1,0,0:0:0:0:
218,118,191144,1,8,0:0:0:0:
182,89,191225,1,0,0:0:0:0:
140,69,191306,1,8,0:0:0:0:
100,64,191387,1,0,0:0:0:0:
72,96,191468,5,10,0:0:0:0:
81,140,191549,1,0,0:0:0:0:
100,182,191630,1,8,0:0:0:0:
123,222,191711,1,0,0:0:0:0:
152,258,191792,1,8,0:0:0:0:
187,288,191873,1,0,0:0:0:0:
229,306,191954,1,8,0:0:0:0:
275,306,192036,1,0,0:0:0:0:
313,281,192117,5,10,0:0:0:0:
317,238,192198,1,0,0:0:0:0:
304,194,192279,1,8,0:0:0:0:
284,152,192360,1,0,0:0:0:0:
252,119,192441,1,8,0:0:0:0:
222,89,192522,1,0,0:0:0:0:
190,61,192603,1,8,0:0:0:0:
154,37,192684,1,0,0:0:0:0:
112,40,192765,6,0,B|96:92|104:120,1,55.4999983062745,10|0,0:0|0:0,0:0:0:0:
112,244,193090,2,0,B|140:272|172:268|172:268,1,55.4999983062745,8|0,0:0|0:0,0:0:0:0:
416,240,193414,1,10,0:0:0:0:
288,72,193576,1,0,0:0:0:0:
208,252,193738,2,0,B|164:296|128:280|128:280|116:272,1,92.5,8|0,0:0|0:0,0:0:0:0:
64,176,194063,2,0,B|92:132|152:96|152:96,1,92.5,8|0,0:0|0:0,0:0:0:0:
248,112,194387,2,8,B|304:108|348:152|348:152,1,92.5,8|0,0:0|0:0,0:0:0:0:
428,264,194711,2,0,B|376:280|384:320|384:320,1,92.5,8|0,0:0|0:0,0:0:0:0:
228,344,195036,6,0,B|140:336|116:304|116:304,1,92.5,8|0,0:0|0:0,0:0:0:0:
52,176,195360,1,12,0:0:0:0:
252,228,195522,1,0,0:0:0:0:
304,36,195684,2,0,B|380:48|404:76|404:76,1,92.5,8|0,0:0|0:0,0:0:0:0:
440,316,196008,1,8,0:0:0:0:
208,340,196170,1,0,0:0:0:0:
296,152,196332,2,0,B|260:112|208:92|208:92,1,92.5,8|0,0:0|0:0,0:0:0:0:
68,252,196657,1,12,0:0:0:0:
288,340,196819,1,0,0:0:0:0:
432,76,196981,6,0,B|368:64|328:96|328:96,1,92.5,8|0,0:0|0:0,0:0:0:0:
96,164,197305,1,8,0:0:0:0:
200,352,197468,1,0,0:0:0:0:
311,168,197630,2,0,B|360:172|379:179|399:219|399:219,1,92.5,8|0,0:0|0:0,0:0:0:0:
288,364,197954,2,0,B|208:296|168:224|160:212,1,185,12|0,0:0|0:0,0:0:0:0:
96,56,198441,1,0,0:0:0:0:
288,72,198603,2,0,B|340:76|372:120|372:120|376:120,1,92.5,10|0,0:0|0:0,0:0:0:0:
388,280,198927,2,0,B|300:272|264:264|264:264,1,92.5,8|0,0:0|0:0,0:0:0:0:
68,160,199251,1,8,0:0:0:0:
248,48,199414,1,0,0:0:0:0:
244,220,199576,6,0,B|240:284|284:276|284:276,1,92.5,10|0,0:0|0:0,0:0:0:0:
428,184,199900,2,0,B|404:104|376:76|376:76,1,92.5,8|0,0:0|0:0,0:0:0:0:
248,40,200224,2,0,B|204:64|208:124|208:124,1,92.5,8|0,0:0|0:0,0:0:0:0:
184,256,200549,5,10,0:0:0:0:
196,300,200630,1,0,0:0:0:0:
222,338,200711,1,8,0:0:0:0:
260,364,200792,1,0,0:0:0:0:
304,377,200873,1,8,0:0:0:0:
350,378,200954,1,0,0:0:0:0:
396,372,201035,1,8,0:0:0:0:
428,336,201116,1,0,0:0:0:0:
452,296,201197,5,10,0:0:0:0:
460,252,201278,1,0,0:0:0:0:
464,208,201360,1,8,0:0:0:0:
468,164,201441,1,0,0:0:0:0:
456,124,201522,1,8,0:0:0:0:
424,92,201603,1,0,0:0:0:0:
370,84,201684,1,8,0:0:0:0:
324,81,201765,1,0,0:0:0:0:
278,83,201846,5,10,0:0:0:0:
304,124,201927,1,0,0:0:0:0:
336,160,202008,1,8,0:0:0:0:
368,196,202089,1,0,0:0:0:0:
380,244,202170,1,8,0:0:0:0:
376,292,202251,1,0,0:0:0:0:
352,332,202332,1,8,0:0:0:0:
312,352,202414,1,0,0:0:0:0:
268,344,202495,5,10,0:0:0:0:
276,296,202576,1,0,0:0:0:0:
284,248,202657,1,8,0:0:0:0:
292,200,202738,1,0,0:0:0:0:
300,152,202819,1,8,0:0:0:0:
260,168,202900,1,0,0:0:0:0:
220,196,202981,1,8,0:0:0:0:
184,228,203062,1,0,0:0:0:0:
152,260,203143,6,8,B|120:236|96:208|136:88|136:88,1,185,8|0,0:0|0:0,0:0:0:0:
308,252,203630,1,0,0:0:0:0:
360,60,203792,1,8,0:0:0:0:
204,232,203954,1,0,0:0:0:0:
448,264,204116,2,8,B|396:328|352:336|352:336,1,92.5,8|0,0:0|0:0,0:0:0:0:
112,308,204441,1,8,0:0:0:0:
236,100,204603,1,0,0:0:0:0:
352,320,204765,2,0,B|428:308|460:288|460:288,1,92.5,8|0,0:0|0:0,0:0:0:0:
460,132,205089,2,0,B|404:60|400:56|400:56,1,92.5,8|0,0:0|0:0,0:0:0:0:
196,68,205414,6,0,B|168:100|176:116|176:116,1,46.25,14|0,0:0|0:0,0:0:0:0:
328,296,205708,2,0,P|360:344|360:344,2,46.25,8|0|0,0:0|0:0|0:0,0:0:0:0:
92,188,206032,2,0,B|124:256|144:284|144:284,1,92.5
376,260,206356,2,0,L|424:292,2,46.25,8|0|0,0:0|0:0|0:0,0:0:0:0:
156,172,206680,1,0,0:0:0:0:
384,64,206843,1,0,0:0:0:0:
192,92,207005,2,0,P|128:64|128:64,2,46.25,8|0|0,0:0|0:0|0:0,0:0:0:0:
152,320,207329,1,0,0:0:0:0:
112,176,207491,5,0,0:0:0:0:
336,352,207653,1,8,0:0:0:0:
360,336,207735,1,0,0:0:0:0:
384,320,207816,1,0,0:0:0:0:
440,112,207978,2,0,P|484:68|484:68,2,46.25,8|0|0,0:0|0:0|0:0,0:0:0:0:
220,260,208302,1,10,0:0:0:0:
104,64,208464,1,0,0:0:0:0:
120,204,208626,2,0,P|76:252|76:252,2,46.25,8|0|0,0:0|0:0|0:0,0:0:0:0:
320,312,208951,1,8,0:0:0:0:
456,80,209113,5,0,0:0:0:0:
152,128,209275,2,0,P|104:92|104:92,2,46.25,8|0|0,0:0|0:0|0:0,0:0:0:0:
440,248,209599,1,8,0:0:0:0:
220,324,209762,1,0,0:0:0:0:
240,16,209924,1,8,0:0:0:0:
376,208,210086,1,0,0:0:0:0:
64,88,210248,1,8,0:0:0:0:
344,128,210410,1,0,0:0:0:0:
140,344,210572,2,0,B|184:372|257:328|257:328,1,92.5,8|0,0:0|0:0,0:0:0:0:
432,236,210852,5,8,0:0:0:0:
440,212,210932,1,0,0:0:0:0:
448,184,211012,1,0,0:0:0:0:
264,20,211172,1,0,0:0:0:0:
332,180,211333,1,0,0:0:0:0:
96,120,211493,1,8,0:0:0:0:
68,104,211573,1,0,0:0:0:0:
40,88,211654,5,0,0:0:0:0:
164,160,211814,1,0,0:0:0:0:
188,352,211974,1,0,0:0:0:0:
240,116,212135,1,8,0:0:0:0:
268,100,212215,1,0,0:0:0:0:
296,84,212295,5,0,0:0:0:0:
292,304,212456,1,0,0:0:0:0:
428,216,212616,1,0,0:0:0:0:
176,336,212777,1,8,0:0:0:0:
148,320,212857,1,0,0:0:0:0:
120,304,212937,1,0,0:0:0:0:
176,48,213097,1,8,0:0:0:0:
148,64,213177,1,0,0:0:0:0:
120,80,213257,5,0,0:0:0:0:
464,108,213418,2,0,B|476:196|472:236|472:236,1,92.5,8|0,0:0|0:0,0:0:0:0:
328,356,213739,1,0,0:0:0:0:
212,236,213900,1,0,0:0:0:0:
308,32,214060,1,8,0:0:0:0:
303,59,214140,1,0,0:0:0:0:
297,91,214220,1,0,0:0:0:0:
244,332,214381,2,0,B|184:312|164:272|164:272,1,92.5,8|0,0:0|0:0,0:0:0:0:
96,52,214702,5,8,0:0:0:0:
248,152,214862,1,0,0:0:0:0:
32,232,215023,1,8,0:0:0:0:
172,104,215183,1,0,0:0:0:0:
168,332,215343,1,8,0:0:0:0:
304,220,215504,1,0,0:0:0:0:
72,108,215664,1,8,0:0:0:0:
312,80,215825,1,0,0:0:0:0:
136,292,215985,2,0,B|116:232|128:184|128:184,1,92.5,2|0,0:0|0:0,0:0:0:0:
168,36,216307,6,0,P|240:48|260:64,1,92.5,8|0,0:0|0:0,0:0:0:0:
384,144,216630,2,0,B|376:200|364:248|364:248,1,92.5,8|0,0:0|0:0,0:0:0:0:
204,348,216952,1,8,0:0:0:0:
280,204,217114,1,0,0:0:0:0:
208,64,217275,2,0,B|160:120|160:168|160:168,1,92.5,8|0,0:0|0:0,0:0:0:0:
96,312,217597,2,0,B|172:304|216:284|216:284,1,92.5,8|0,0:0|0:0,0:0:0:0:
344,292,217918,1,8,0:0:0:0:
364,288,218000,1,0,0:0:0:0:
384,284,218081,5,0,0:0:0:0:
376,100,218242,1,8,0:0:0:0:
360,96,218323,1,0,0:0:0:0:
340,92,218404,1,0,0:0:0:0:
200,72,218565,2,0,B|208:124|172:188|172:188,1,92.5,8|0,0:0|0:0,0:0:0:0:
112,296,218888,2,0,B|168:348|200:336|200:336,1,92.5,8|0,0:0|0:0,0:0:0:0:
364,372,219210,2,0,B|412:292|404:264|404:264,1,92.5,8|0,0:0|0:0,0:0:0:0:
440,132,219533,2,0,P|392:104|344:108,1,92.5,8|0,0:0|0:0,0:0:0:0:
100,128,219855,5,8,0:0:0:0:
312,356,220017,1,0,0:0:0:0:
216,100,220178,1,8,0:0:0:0:
420,224,220339,1,0,0:0:0:0:
124,320,220501,1,8,0:0:0:0:
324,84,220662,1,0,0:0:0:0:
240,352,220823,1,8,0:0:0:0:
80,176,220985,1,0,0:0:0:0:
232,136,221134,6,0,P|284:96|284:96,2,46.25,8|0|0,0:0|0:0|0:0,0:0:0:0:
76,300,221458,1,0,0:0:0:0:
320,344,221620,1,0,0:0:0:0:
352,148,221782,1,8,0:0:0:0:
348,180,221863,1,0,0:0:0:0:
344,208,221944,5,0,0:0:0:0:
440,368,222106,1,0,0:0:0:0:
304,316,222269,1,0,0:0:0:0:
160,160,222431,1,8,0:0:0:0:
180,188,222512,1,0,0:0:0:0:
200,212,222593,1,0,0:0:0:0:
424,280,222755,1,0,0:0:0:0:
376,64,222917,1,0,0:0:0:0:
188,40,223079,1,8,0:0:0:0:
184,64,223161,1,0,0:0:0:0:
180,88,223242,5,0,0:0:0:0:
144,288,223404,1,8,0:0:0:0:
148,264,223485,1,0,0:0:0:0:
152,240,223566,1,0,0:0:0:0:
180,88,223728,2,0,B|124:72|124:72|124:76,1,46.25
316,48,223890,2,0,L|248:32,1,46.25
356,172,224052,2,0,P|300:156|300:156,1,46.25,8|0,0:0|0:0,0:0:0:0:
400,296,224215,2,0,P|348:276|348:276,1,46.25
280,356,224377,6,0,L|224:336,7,46.25,8|0|8|0|8|0|8|0,0:0|0:0|0:0|0:0|0:0|0:0|0:0|0:0,0:0:0:0:
244,292,225025,2,0,P|192:248|192:248,7,46.25,8|0|8|0|8|0|8|0,0:0|0:0|0:0|0:0|0:0|0:0|0:0|0:0,0:0:0:0:
180,240,225674,1,8,0:0:0:0:
32,276,225836,1,8,0:0:0:0:
68,36,225998,1,8,0:0:0:0:
200,176,226161,2,0,L|136:216,1,46.25,8|0,0:0|0:0,0:0:0:0:
120,180,226323,5,10,0:0:0:0:
119,133,226405,1,0,0:0:0:0:
138,91,226487,1,8,0:0:0:0:
174,64,226570,1,0,0:0:0:0:
218,52,226652,1,8,0:0:0:0:
264,58,226735,1,0,0:0:0:0:
299,87,226817,1,8,0:0:0:0:
302,131,226899,1,0,0:0:0:0:
277,169,226982,5,10,0:0:0:0:
246,204,227064,1,0,0:0:0:0:
222,243,227147,1,8,0:0:0:0:
223,288,227229,1,0,0:0:0:0:
259,315,227312,1,8,0:0:0:0:
305,322,227394,1,0,0:0:0:0:
349,313,227476,1,8,0:0:0:0:
382,281,227559,1,0,0:0:0:0:
402,239,227641,5,10,0:0:0:0:
412,196,227724,1,0,0:0:0:0:
412,149,227806,1,8,0:0:0:0:
397,106,227888,1,0,0:0:0:0:
365,74,227971,1,8,0:0:0:0:
325,50,228053,1,0,0:0:0:0:
283,31,228136,1,8,0:0:0:0:
238,19,228218,1,0,0:0:0:0:
193,18,228301,5,10,0:0:0:0:
150,35,228383,1,0,0:0:0:0:
115,65,228465,1,8,0:0:0:0:
94,106,228548,1,0,0:0:0:0:
88,152,228630,1,8,0:0:0:0:
95,197,228713,1,0,0:0:0:0:
112,240,228795,1,8,0:0:0:0:
139,278,228877,1,0,0:0:0:0:
180,293,228960,5,10,0:0:0:0:
218,268,229042,1,0,0:0:0:0:
249,233,229125,1,8,0:0:0:0:
275,196,229207,1,0,0:0:0:0:
298,156,229290,1,8,0:0:0:0:
327,120,229372,1,0,0:0:0:0:
370,111,229454,1,8,0:0:0:0:
404,142,229537,1,0,0:0:0:0:
423,184,229619,5,10,0:0:0:0:
432,229,229702,1,0,0:0:0:0:
430,275,229784,1,8,0:0:0:0:
410,316,229866,1,0,0:0:0:0:
376,348,229949,1,8,0:0:0:0:
329,350,230031,1,0,0:0:0:0:
283,345,230114,1,8,0:0:0:0:
236,336,230196,2,0,L|184:324,1,46.25
116,308,230315,6,0,P|48:300|48:300,1,46.25,10|0,0:0|0:0,0:0:0:0:
144,184,230479,6,0,P|80:168|80:168,1,46.25,10|0,0:0|0:0,0:0:0:0:
212,80,230644,6,0,P|144:32|144:32,1,46.25,10|0,0:0|0:0,0:0:0:0:
320,40,230809,6,0,P|292:-8|292:-8,1,46.25,10|0,0:0|0:0,0:0:0:0:
408,88,230974,5,10,0:0:0:0:
396,132,231056,1,0,0:0:0:0:
384,176,231139,1,8,0:0:0:0:
372,216,231221,1,0,0:0:0:0:
360,256,231304,1,8,0:0:0:0:
344,296,231386,1,0,0:0:0:0:
328,332,231468,2,0,L|256:296,1,46.25,8|0,0:0|0:0,0:0:0:0:
192,268,231633,5,10,0:0:0:0:
208,228,231716,1,0,0:0:0:0:
224,188,231798,1,8,0:0:0:0:
240,148,231880,1,0,0:0:0:0:
264,112,231963,1,8,0:0:0:0:
304,92,232045,1,0,0:0:0:0:
352,88,232128,1,8,0:0:0:0:
396,92,232210,1,0,0:0:0:0:
440,104,232293,5,10,0:0:0:0:
408,136,232375,1,0,0:0:0:0:
376,168,232457,1,8,0:0:0:0:
336,192,232540,1,0,0:0:0:0:
292,196,232622,1,8,0:0:0:0:
248,184,232705,1,0,0:0:0:0:
208,164,232787,1,8,0:0:0:0:
168,144,232869,1,0,0:0:0:0:
132,120,232952,5,10,0:0:0:0:
172,96,233034,1,0,0:0:0:0:
216,84,233117,1,8,0:0:0:0:
260,88,233199,1,0,0:0:0:0:
300,104,233282,1,8,0:0:0:0:
320,144,233364,1,0,0:0:0:0:
312,188,233446,1,8,0:0:0:0:
300,232,233529,1,0,0:0:0:0:
288,272,233611,6,0,B|236:272|192:260|192:260,1,92.5,10|0,0:0|0:0,0:0:0:0:
36,232,233941,2,0,B|64:168|116:132|116:132,1,92.5,8|0,0:0|0:0,0:0:0:0:
256,248,234271,5,8,0:0:0:0:
360,100,234450,2,0,P|392:56|392:56,2,46.25
256,248,234769,1,8,0:0:0:0:
152,100,234929,2,0,P|120:56|120:56,2,46.25
256,248,235248,1,8,0:0:0:0:
256,92,235408,2,0,P|256:32|256:32,2,46.25
256,248,235727,1,8,0:0:0:0:
256,120,235886,1,0,0:0:0:0:
256,88,235966,1,0,0:0:0:0:
256,60,236046,5,0,0:0:0:0:
108,96,236205,1,8,0:0:0:0:
182,290,236365,1,0,0:0:0:0:
376,215,236525,1,8,0:0:0:0:
302,21,236684,1,0,0:0:0:0:
236,142,236874,5,10,0:0:0:0:
207,106,236956,1,0,0:0:0:0:
170,78,237038,1,8,0:0:0:0:
125,69,237121,1,0,0:0:0:0:
84,89,237203,1,8,0:0:0:0:
60,128,237286,1,0,0:0:0:0:
52,173,237368,1,8,0:0:0:0:
62,218,237450,1,0,0:0:0:0:
89,255,237533,5,10,0:0:0:0:
129,276,237615,1,0,0:0:0:0:
175,272,237698,1,8,0:0:0:0:
211,243,237780,1,0,0:0:0:0:
238,206,237863,1,8,0:0:0:0:
262,166,237945,1,0,0:0:0:0:
286,127,238027,1,8,0:0:0:0:
318,93,238110,1,0,0:0:0:0:
357,104,238192,5,10,0:0:0:0:
371,148,238275,1,0,0:0:0:0:
371,194,238357,1,8,0:0:0:0:
362,239,238439,1,0,0:0:0:0:
340,276,238522,1,8,0:0:0:0:
295,279,238604,1,0,0:0:0:0:
254,258,238687,1,8,0:0:0:0:
224,223,238769,1,0,0:0:0:0:
205,181,238852,5,10,0:0:0:0:
199,135,238934,1,0,0:0:0:0:
208,90,239016,1,8,0:0:0:0:
236,54,239099,1,0,0:0:0:0:
278,36,239181,1,8,0:0:0:0:
323,40,239264,1,0,0:0:0:0:
363,63,239346,1,8,0:0:0:0:
391,100,239428,1,0,0:0:0:0:
404,144,239511,5,10,0:0:0:0:
360,132,239593,1,0,0:0:0:0:
316,120,239676,1,8,0:0:0:0:
272,108,239758,1,0,0:0:0:0:
228,96,239841,1,8,0:0:0:0:
184,96,239923,1,0,0:0:0:0:
152,124,240005,1,8,0:0:0:0:
136,164,240088,1,0,0:0:0:0:
167,199,240170,5,10,0:0:0:0:
211,195,240253,1,0,0:0:0:0:
255,187,240335,1,8,0:0:0:0:
299,175,240417,1,0,0:0:0:0:
343,167,240500,1,8,0:0:0:0:
387,175,240582,1,0,0:0:0:0:
419,203,240665,1,8,0:0:0:0:
443,239,240747,1,0,0:0:0:0:
451,283,240830,5,10,0:0:0:0:
411,267,240912,1,0,0:0:0:0:
371,251,240994,1,8,0:0:0:0:
327,247,241077,1,0,0:0:0:0:
283,247,241159,1,8,0:0:0:0:
239,251,241242,1,0,0:0:0:0:
195,259,241324,1,8,0:0:0:0:
151,271,241406,1,0,0:0:0:0:
107,283,241489,5,8,0:0:0:0:
257,139,241654,1,10,0:0:0:0:
331,347,241819,1,8,0:0:0:0:
107,283,241983,1,10,0:0:0:0:
227,175,242148,1,10,0:0:0:0:
239,131,242231,5,0,0:0:0:0:
267,99,242313,1,8,0:0:0:0:
311,87,242395,1,0,0:0:0:0:
359,87,242478,1,8,0:0:0:0:
395,119,242560,1,0,0:0:0:0:
427,155,242643,1,8,0:0:0:0:
431,199,242725,1,0,0:0:0:0:
419,239,242808,5,10,0:0:0:0:
398,280,242890,1,0,0:0:0:0:
366,313,242972,1,8,0:0:0:0:
323,326,243055,1,0,0:0:0:0:
285,301,243137,1,8,0:0:0:0:
276,259,243220,1,0,0:0:0:0:
271,213,243302,1,8,0:0:0:0:
259,168,243384,1,0,0:0:0:0:
251,127,243467,5,10,0:0:0:0:
223,90,243549,1,0,0:0:0:0:
179,78,243632,1,8,0:0:0:0:
134,88,243714,1,0,0:0:0:0:
123,127,243797,1,8,0:0:0:0:
138,170,243879,1,0,0:0:0:0:
162,210,243961,1,8,0:0:0:0:
200,234,244044,1,0,0:0:0:0:
244,239,244126,5,10,0:0:0:0:
285,249,244209,1,0,0:0:0:0:
318,280,244291,1,8,0:0:0:0:
317,322,244374,1,0,0:0:0:0:
293,356,244456,1,8,0:0:0:0:
250,347,244538,1,0,0:0:0:0:
213,327,244621,1,8,0:0:0:0:
144,188,244760,5,8,0:0:0:0:
388,212,244922,2,0,P|456:212|456:212,2,46.25
144,188,245246,1,8,0:0:0:0:
372,296,245408,2,0,P|428:320|428:320,2,46.25
144,188,245732,1,8,0:0:0:0:
380,104,245895,2,0,P|444:100|444:100,2,46.25
144,188,246219,1,8,0:0:0:0:
368,196,246381,1,0,0:0:0:0:
400,196,246462,1,0,0:0:0:0:
432,196,246543,5,0,0:0:0:0:
320,44,246705,1,8,0:0:0:0:
188,296,246868,1,0,0:0:0:0:
432,288,247030,1,8,0:0:0:0:
156,96,247192,1,0,0:0:0:0:
328,336,247354,2,0,B|424:332|508:192|424:52|308:52,1,416.250015878678,8|14,0:0|0:0,0:0:0:0:
112,40,250018,6,0,B|116:92|116:92,1,46.25,8|0,0:0|0:0,0:0:0:0:
128,236,250179,1,0,0:0:0:0:
368,320,250660,2,0,B|408:240|396:204|396:204,1,92.5,8|0,0:0|0:0,0:0:0:0:
356,48,250981,2,0,B|292:24|236:40|236:40,1,92.5,8|0,0:0|0:0,0:0:0:0:
80,144,251302,1,8,0:0:0:0:
176,320,251462,1,0,0:0:0:0:
281,149,251622,2,0,B|304:208|356:208|356:208,1,92.5,8|0,0:0|0:0,0:0:0:0:
468,52,251943,1,8,0:0:0:0:
216,72,252104,5,0,0:0:0:0:
376,268,252264,2,0,B|344:328|320:344|320:344,1,92.5,8|0,0:0|0:0,0:0:0:0:
64,288,252585,2,0,B|88:212|128:176|128:176,1,92.5,8|0,0:0|0:0,0:0:0:0:
196,60,252906,1,8,0:0:0:0:
276,256,253066,1,0,0:0:0:0:
406,89,253227,2,0,B|448:192|392:296|392:296,1,185,12|0,0:0|0:0,0:0:0:0:
184,356,253708,5,0,0:0:0:0:
232,136,253868,2,0,B|244:76|300:32|300:32,1,92.5,8|0,0:0|0:0,0:0:0:0:
424,168,254189,2,0,B|408:216|344:240|344:240,1,92.5,8|0,0:0|0:0,0:0:0:0:
124,216,254510,2,0,B|132:280|168:304|168:304,1,92.5,10|0,0:0|0:0,0:0:0:0:
360,323,254831,2,8,B|380:267|351:209|351:209,1,92.5,8|0,0:0|0:0,0:0:0:0:
256,120,255152,2,0,B|252:64|172:44|172:44,1,92.5,8|0,0:0|0:0,0:0:0:0:
76,188,255473,2,0,B|120:240|160:240|160:240,1,92.5,8|0,0:0|0:0,0:0:0:0:
348,248,255804,5,10,0:0:0:0:
390,231,255884,1,0,0:0:0:0:
424,200,255964,1,8,0:0:0:0:
424,156,256044,1,0,0:0:0:0:
386,135,256124,1,8,0:0:0:0:
341,145,256205,1,0,0:0:0:0:
303,171,256285,1,8,0:0:0:0:
270,204,256365,1,0,0:0:0:0:
240,239,256445,5,10,0:0:0:0:
195,243,256525,1,0,0:0:0:0:
189,199,256606,1,8,0:0:0:0:
205,156,256686,1,0,0:0:0:0:
229,117,256766,1,8,0:0:0:0:
258,80,256846,1,0,0:0:0:0:
290,48,256926,1,8,0:0:0:0:
326,18,257007,1,0,0:0:0:0:
372,13,257087,5,10,0:0:0:0:
375,59,257167,1,0,0:0:0:0:
372,105,257247,1,8,0:0:0:0:
356,148,257328,1,0,0:0:0:0:
321,175,257408,1,8,0:0:0:0:
275,170,257488,1,0,0:0:0:0:
235,148,257568,1,8,0:0:0:0:
199,118,257648,1,0,0:0:0:0:
156,105,257729,5,10,0:0:0:0:
137,146,257809,1,0,0:0:0:0:
146,191,257889,1,8,0:0:0:0:
177,224,257969,1,0,0:0:0:0:
218,246,258049,1,8,0:0:0:0:
262,258,258130,1,0,0:0:0:0:
308,262,258210,1,8,0:0:0:0:
354,254,258290,1,0,0:0:0:0:
396,241,258370,6,0,B|412:165|376:65|376:65,1,185,10|8,0:0|0:0,0:0:0:0:
264,76,258852,1,0,0:0:0:0:
248,116,258932,1,0,0:0:0:0:
232,152,259012,2,0,B|192:208|160:220|160:220,1,92.5,8|0,0:0|0:0,0:0:0:0:
48,324,259333,2,8,B|108:360|152:364|152:364,1,92.5,8|0,0:0|0:0,0:0:0:0:
340,352,259654,1,8,0:0:0:0:
392,168,259814,1,0,0:0:0:0:
192,224,259975,2,0,B|152:172|148:108|148:108|152:108,1,92.5,8|0,0:0|0:0,0:0:0:0:
264,36,260295,2,0,P|320:56|320:56,1,46.25,10|0,0:0|0:0,0:0:0:0:
464,132,260456,1,0,0:0:0:0:
308,344,260961,6,0,B|232:316|200:288|192:276,1,92.5,8|0,0:0|0:0,0:0:0:0:
96,176,261281,2,0,B|144:120|196:132|196:132,1,92.5,8|0,0:0|0:0,0:0:0:0:
304,72,261602,1,8,0:0:0:0:
352,288,261763,1,0,0:0:0:0:
140,221,261923,1,8,0:0:0:0:
392,296,262083,2,0,B|448:216|444:196|444:196,1,92.5,0|8,0:0|0:0,0:0:0:0:
380,80,262404,1,0,0:0:0:0:
284,184,262565,2,0,B|260:248|216:296|216:296,1,92.5,8|0,0:0|0:0,0:0:0:0:
72,240,262886,6,0,B|52:176|80:128|80:128,1,92.5,8|0,0:0|0:0,0:0:0:0:
296,148,263206,1,8,0:0:0:0:
72,200,263367,1,0,0:0:0:0:
292,236,263527,2,0,B|232:288|196:296|196:296,1,92.5,8|0,0:0|0:0,0:0:0:0:
84,264,263848,1,8,0:0:0:0:
256,72,264009,1,0,0:0:0:0:
363,276,264169,2,0,B|432:224|440:184|440:184,1,92.5,8|0,0:0|0:0,0:0:0:0:
408,72,264490,2,0,B|352:48|312:60|312:60,1,92.5,8|0,0:0|0:0,0:0:0:0:
144,76,264811,5,8,0:0:0:0:
220,272,264971,1,0,0:0:0:0:
352,109,265132,2,0,B|392:160|396:188|396:188,1,92.5,8|0,0:0|0:0,0:0:0:0:
251,316,265452,2,0,B|236:308|272:340|340:304,1,92.5,8|0,0:0|0:0,0:0:0:0:
144,200,265773,2,0,B|160:136|204:120|204:120,1,92.5,8|0,0:0|0:0,0:0:0:0:
284,216,266094,5,10,0:0:0:0:
329,211,266174,1,0,0:0:0:0:
368,187,266255,1,8,0:0:0:0:
388,146,266335,1,0,0:0:0:0:
378,102,266415,1,8,0:0:0:0:
341,76,266495,1,0,0:0:0:0:
313,95,266575,1,8,0:0:0:0:
324,140,266656,1,0,0:0:0:0:
336,185,266736,5,10,0:0:0:0:
346,230,266816,1,0,0:0:0:0:
349,276,266896,1,8,0:0:0:0:
332,318,266977,1,0,0:0:0:0:
290,336,267057,1,8,0:0:0:0:
245,330,267137,1,0,0:0:0:0:
207,304,267217,1,8,0:0:0:0:
172,273,267297,1,0,0:0:0:0:
141,239,267378,5,10,0:0:0:0:
116,200,267458,1,0,0:0:0:0:
98,158,267538,1,8,0:0:0:0:
93,112,267618,1,0,0:0:0:0:
119,79,267698,1,8,0:0:0:0:
163,94,267779,1,0,0:0:0:0:
200,121,267859,1,8,0:0:0:0:
237,149,267939,1,0,0:0:0:0:
277,173,268019,5,10,0:0:0:0:
320,156,268100,1,0,0:0:0:0:
328,112,268180,1,8,0:0:0:0:
300,76,268260,1,0,0:0:0:0:
256,64,268340,1,8,0:0:0:0:
212,72,268420,1,0,0:0:0:0:
176,96,268501,1,8,0:0:0:0:
144,128,268581,1,0,0:0:0:0:
132,172,268661,6,0,B|144:216|200:260|200:260,1,92.5,10|0,0:0|0:0,0:0:0:0:
352,312,268982,1,8,0:0:0:0:
184,248,269142,1,0,0:0:0:0:
320,144,269303,2,0,B|328:76|288:36|288:36,1,92.5,8|0,0:0|0:0,0:0:0:0:
184,248,269624,2,0,B|176:316|216:356|216:356,1,92.5,8|0,0:0|0:0,0:0:0:0:
372,212,269944,2,0,B|312:172|272:164|272:164,1,92.5,8|0,0:0|0:0,0:0:0:0:
120,120,270265,1,8,0:0:0:0:
156,272,270426,1,0,0:0:0:0:
336,296,270627,6,0,P|344:228|344:228,1,46.25,10|0,0:0|0:0,0:0:0:0:
352,92,270789,2,0,B|280:60|136:104|136:104,1,185
60,224,271275,2,0,B|64:300|144:304|152:292,1,92.5,8|0,0:0|0:0,0:0:0:0:
252,236,271599,2,0,B|248:160|168:156|160:168,1,92.5,8|0,0:0|0:0,0:0:0:0:
44,88,271923,1,8,0:0:0:0:
176,0,272085,1,0,0:0:0:0:
200,168,272247,2,0,B|248:116|312:132|312:132,1,92.5,8|0,0:0|0:0,0:0:0:0:
460,144,272572,2,0,B|460:228|408:324|408:324,1,185,8|8,0:0|0:0,0:0:0:0:
224,288,273058,5,0,0:0:0:0:
336,152,273220,1,8,0:0:0:0:
163,124,273383,1,0,0:0:0:0:
224,288,273545,2,0,P|304:320|320:300,1,92.5,8|0,0:0|0:0,0:0:0:0:
276,152,273869,2,0,P|332:156|360:184,1,92.5,8|0,0:0|0:0,0:0:0:0:
436,324,274193,1,8,0:0:0:0:
280,332,274356,1,0,0:0:0:0:
357,179,274518,2,0,P|377:99|373:75,1,92.5,8|0,0:0|0:0,0:0:0:0:
216,64,274842,6,0,P|188:132|188:172,1,92.5,8|0,0:0|0:0,0:0:0:0:
176,300,275166,2,0,B|248:332|284:320|284:320,1,92.5,8|0,0:0|0:0,0:0:0:0:
416,284,275491,1,8,0:0:0:0:
264,320,275653,1,0,0:0:0:0:
316,172,275815,2,8,B|280:116|256:100|256:100,1,92.5,8|0,0:0|0:0,0:0:0:0:
112,152,276139,2,0,B|116:208|144:244|144:244|148:248,1,92.5,8|0,0:0|0:0,0:0:0:0:
296,304,276485,5,10,0:0:0:0:
341,297,276566,1,0,0:0:0:0:
380,273,276647,1,8,0:0:0:0:
409,237,276728,1,0,0:0:0:0:
428,195,276809,1,8,0:0:0:0:
440,150,276890,1,0,0:0:0:0:
446,104,276971,1,8,0:0:0:0:
437,60,277052,1,0,0:0:0:0:
393,61,277133,5,10,0:0:0:0:
360,92,277214,1,0,0:0:0:0:
349,136,277295,1,8,0:0:0:0:
350,183,277376,1,0,0:0:0:0:
355,229,277457,1,8,0:0:0:0:
360,275,277539,1,0,0:0:0:0:
363,321,277620,1,8,0:0:0:0:
339,352,277701,1,0,0:0:0:0:
294,343,277782,5,10,0:0:0:0:
251,325,277863,1,0,0:0:0:0:
209,304,277944,1,8,0:0:0:0:
170,278,278025,1,0,0:0:0:0:
128,258,278106,1,8,0:0:0:0:
88,233,278187,1,0,0:0:0:0:
67,191,278268,1,8,0:0:0:0:
77,146,278349,1,0,0:0:0:0:
119,128,278430,5,10,0:0:0:0:
164,140,278512,1,0,0:0:0:0:
207,154,278593,1,8,0:0:0:0:
246,178,278674,1,0,0:0:0:0:
272,215,278755,1,8,0:0:0:0:
270,261,278836,1,0,0:0:0:0:
263,306,278917,1,8,0:0:0:0:
222,327,278998,1,0,0:0:0:0:
175,328,279079,6,10,B|119:312|100:261|100:261,1,92.5,10|0,0:0|0:0,0:0:0:0:
96,104,279403,1,8,0:0:0:0:
224,216,279566,1,0,0:0:0:0:
264,56,279728,2,0,B|328:24|384:32|384:32,1,92.5,8|0,0:0|0:0,0:0:0:0:
288,168,280052,2,0,B|368:136|388:136|388:136|392:136,1,92.5,8|0,0:0|0:0,0:0:0:0:
436,288,280376,1,8,0:0:0:0:
288,268,280539,1,0,0:0:0:0:
128,320,280701,2,0,B|80:248|96:208|96:208,1,92.5,8|0,0:0|0:0,0:0:0:0:
136,72,281025,2,0,B|248:36|248:80|248:80,1,92.5,8|0,0:0|0:0,0:0:0:0:
392,128,281512,5,0,0:0:0:0:
408,156,281593,1,0,0:0:0:0:
424,184,281656,2,0,B|400:236|376:276|376:276,1,92.5,8|0,0:0|0:0,0:0:0:0:
192,268,281975,1,8,0:0:0:0:
280,116,282134,1,0,0:0:0:0:
380,268,282294,2,0,B|308:320|276:320|276:320|280:320,1,92.5,8|0,0:0|0:0,0:0:0:0:
120,288,282613,2,0,B|72:248|116:180|116:180,1,92.5,8|0,0:0|0:0,0:0:0:0:
168,64,282932,1,8,0:0:0:0:
256,192,283092,5,0,0:0:0:0:
424,176,283251,2,0,B|436:232|368:264|368:264,1,92.5,8|0,0:0|0:0,0:0:0:0:
224,340,283570,1,8,0:0:0:0:
132,212,283730,1,8,0:0:0:0:
136,168,283810,1,0,0:0:0:0:
144,128,283890,1,8,0:0:0:0:
160,88,283969,1,0,0:0:0:0:
180,48,284049,1,8,0:0:0:0:
216,16,284129,1,0,0:0:0:0:
260,4,284209,6,0,B|304:40|324:104|324:104,1,92.5,8|0,0:0|0:0,0:0:0:0:
364,228,284528,1,8,0:0:0:0:
208,196,284687,1,0,0:0:0:0:
252,336,284847,2,0,B|312:336|356:312|356:312,1,92.5,8|0,0:0|0:0,0:0:0:0:
428,192,285166,2,0,B|384:148|340:136|340:136,1,92.5,8|0,0:0|0:0,0:0:0:0:
116,160,285485,5,8,0:0:0:0:
236,316,285645,1,0,0:0:0:0:
288,160,285804,1,8,0:0:0:0:
96,288,285964,1,0,0:0:0:0:
192,100,286124,1,8,0:0:0:0:
300,296,286283,1,0,0:0:0:0:
104,116,286443,2,0,B|92:184|152:232|152:232,1,92.5,8|0,0:0|0:0,0:0:0:0:
217,318,286738,2,0,B|277:318|317:238,1,92.5,8|0,0:0|0:0,0:0:0:0:
325,118,287057,1,8,0:0:0:0:
179,182,287216,5,0,0:0:0:0:
181,33,287376,1,8,0:0:0:0:
309,48,287535,1,0,0:0:0:0:
344,71,287615,1,0,0:0:0:0:
374,99,287695,1,8,0:0:0:0:
440,221,287855,2,0,B|417:261|363:289|364:289|365:289,1,92.5,0|8,0:0|0:0,0:0:0:0:
207,272,288174,1,0,0:0:0:0:
298,133,288333,1,8,0:0:0:0:
374,284,288493,1,0,0:0:0:0:
258,105,288652,6,0,B|195:67|136:57|136:57,1,92.5,8|0,0:0|0:0,0:0:0:0:
89,187,288972,1,8,0:0:0:0:
299,49,289131,1,0,0:0:0:0:
338,278,289291,2,0,B|279:337|251:326|251:326,1,92.5,8|0,0:0|0:0,0:0:0:0:
132,277,289610,1,8,0:0:0:0:
119,277,289690,1,0,0:0:0:0:
108,277,289769,1,0,0:0:0:0:
132,147,289929,2,0,B|169:73|212:60|212:60,1,92.5,8|0,0:0|0:0,0:0:0:0:
220,222,290248,6,0,B|234:186|302:122|302:122,1,92.5,8|0,0:0|0:0,0:0:0:0:
411,40,290567,1,8,0:0:0:0:
374,257,290727,1,0,0:0:0:0:
208,121,290886,1,8,0:0:0:0:
278,321,291046,1,0,0:0:0:0:
402,126,291206,1,8,0:0:0:0:
182,271,291365,1,0,0:0:0:0:
200,46,291525,2,0,B|263:59|292:82|292:82|295:95,1,92.5,8|0,0:0|0:0,0:0:0:0:
397,195,291844,1,2,0:0:0:0:
245,225,292003,5,0,0:0:0:0:
288,78,292163,2,0,P|373:86|385:104,1,92.5,8|0,0:0|0:0,0:0:0:0:
280,200,292482,2,0,B|330:240|377:202|377:202|377:199,1,92.5,8|0,0:0|0:0,0:0:0:0:
360,334,292801,2,0,B|303:370|259:302|259:302,1,92.5,8|0,0:0|0:0,0:0:0:0:
123,239,293120,1,8,0:0:0:0:
328,266,293280,2,0,B|368:201|367:146|367:146,1,92.5,0|8,0:0|0:0,0:0:0:0:
237,48,293599,1,0,0:0:0:0:
190,209,293759,1,8,0:0:0:0:
362,180,293918,5,8,0:0:0:0:
347,137,293998,1,0,0:0:0:0:
317,102,294078,1,8,0:0:0:0:
282,72,294158,1,0,0:0:0:0:
244,46,294238,1,8,0:0:0:0:
203,24,294317,1,0,0:0:0:0:
155,13,294397,2,0,B|116:53|97:97|105:81,1,92.5,8|0,0:0|0:0,0:0:0:0:
128,285,294716,2,0,B|185:331|219:327|239:324,1,92.5,8|0,0:0|0:0,0:0:0:0:
265,189,295035,2,0,B|212:143|178:148|178:148,1,92.5,8|0,0:0|0:0,0:0:0:0:
310,75,295355,6,0,B|255:40|214:33|214:33,1,92.5,8|0,0:0|0:0,0:0:0:0:
100,233,295674,1,10,0:0:0:0:
350,191,295833,1,0,0:0:0:0:
111,52,295993,1,8,0:0:0:0:
205,326,296152,5,0,0:0:0:0:
384,158,296312,1,8,0:0:0:0:
78,239,296472,1,0,0:0:0:0:
337,337,296631,1,8,0:0:0:0:
218,77,296791,1,0,0:0:0:0:
126,317,296950,6,0,B|161:375|240:329|240:329,1,92.5,8|0,0:0|0:0,0:0:0:0:
415,293,297269,1,8,0:0:0:0:
270,150,297429,1,0,0:0:0:0:
207,342,297589,2,0,B|163:289|163:238|163:238,1,92.5,8|0,0:0|0:0,0:0:0:0:
166,68,297908,1,8,0:0:0:0:
346,160,298067,1,0,0:0:0:0:
165,259,298227,2,0,B|120:231|116:184|116:184,1,92.5,8|0,0:0|0:0,0:0:0:0:
95,65,298546,5,8,0:0:0:0:
99,63,298626,1,0,0:0:0:0:
103,61,298706,1,0,0:0:0:0:
230,55,298865,2,0,B|279:83|279:129|279:129,1,92.5,8|0,0:0|0:0,0:0:0:0:
272,291,299184,1,0,0:0:0:0:
226,153,299503,5,0,0:0:0:0:
139,329,299663,1,0,0:0:0:0:
35,161,299823,2,0,B|28:105|71:54|71:54,1,92.5,8|0,0:0|0:0,0:0:0:0:
195,41,300142,2,0,B|267:41|376:105|376:105,1,185,8|8,0:0|0:0,0:0:0:0:
218,224,300620,5,0,0:0:0:0:
411,264,300780,1,8,0:0:0:0:
124,316,300940,1,0,0:0:0:0:
300,182,301099,1,8,0:0:0:0:
263,342,301259,1,0,0:0:0:0:
229,27,301418,2,0,B|174:80|185:128|185:128,1,92.5,8|0,0:0|0:0,0:0:0:0:
344,237,301738,2,0,B|388:176|376:109|376:109,1,92.5,8|0,0:0|0:0,0:0:0:0:
256,192,302048,12,0,307381,0:0:0:0:
194,82,308048,6,0,B|134:158|176:242|176:242,1,138.750005292893
348,286,310048,2,0,B|388:241|403:150|403:150|403:149,1,138.750005292893
242,93,311048,2,0,B|188:153|194:229|194:229,1,138.750005292893
363,345,312048,1,0,0:0:0:0:
454,195,312381,1,0,0:0:0:0:
276,191,312714,1,0,0:0:0:0:
138,68,313381,6,0,B|106:122|117:218|117:218,1,138.750005292893
268,335,314381,1,0,0:0:0:0:
298,140,314714,1,0,0:0:0:0:
116,202,315048,1,0,0:0:0:0:
145,32,315381,2,0,B|241:40|269:93|269:93,1,138.750005292893
332,262,316714,1,0,0:0:0:0:
186,336,317381,2,0,P|139:311|130:266,1,69.3750026464463
152,184,318048,1,0,0:0:0:0:
299,84,318714,6,0,B|377:141|406:204|406:204,1,138.750005292893
276,280,320048,1,0,0:0:0:0:
136,200,320381,1,0,0:0:0:0:
261,131,320714,2,0,B|316:159|375:243|375:243,1,138.750005292893
250,308,321714,2,0,B|195:276|162:266|154:199|154:199,1,138.750005292893
215,69,322714,1,0,0:0:0:0:
289,202,323048,1,0,0:0:0:0:
365,69,323381,1,0,0:0:0:0:
414,222,324048,6,0,B|355:264|269:295|269:295|268:295,1,138.750005292893
105,77,326048,1,0,0:0:0:0:
375,75,326714,2,0,B|404:130|377:228|377:228,1,138.750005292893
217,288,328048,1,0,0:0:0:0:
114,152,328381,1,0,0:0:0:0:
290,138,328714,1,0,0:0:0:0:
332,318,329381,2,0,B|238:303|201:269|201:269|186:269,1,138.750005292893
232,70,331381,6,0,B|175:108|186:198|186:198|184:200,1,138.750005292893
315,87,332381,2,0,P|330:141|303:220,1,138.750005292893
157,309,333381,1,0,0:0:0:0:
397,343,333714,1,0,0:0:0:0:
289,68,334048,1,0,0:0:0:0:
256,192,334381,12,0,338048,0:0:0:0:
