osu file format v14

[General]
AudioFilename: 04. The Devil In I 192.mp3
AudioLeadIn: 0
PreviewTime: 107810
Countdown: 1
SampleSet: Normal
StackLeniency: 0.7
Mode: 0
LetterboxInBreaks: 1
WidescreenStoryboard: 0

[Editor]
DistanceSpacing: 0.9
BeatDivisor: 4
GridSize: 16
TimelineZoom: 1

[Metadata]
Title:The Devil In I
TitleUnicode:The Devil In I
Artist:Slipknot
ArtistUnicode:Slipknot
Creator:Kyshiro
Version:Demon
Source:
Tags:
BeatmapID:996924
BeatmapSetID:465651

[Difficulty]
HPDrainRate:4
CircleSize:4.3
OverallDifficulty:9.2
ApproachRate:9.5
SliderMultiplier:1.8
SliderTickRate:1

[Events]
//Background and Video events
0,0,"maxresdefault-(2).jpg",0,0
//Break Periods
//Storyboard Layer 0 (Background)
//Storyboard Layer 1 (Fail)
//Storyboard Layer 2 (Pass)
//Storyboard Layer 3 (Foreground)
//Storyboard Sound Samples

[TimingPoints]
31,333.333333333333,4,2,0,5,1,0
13364,-100,4,1,0,60,0,0
33364,325.20325203252,4,1,0,60,1,0
37185,-100,4,2,0,5,0,0
37266,-100,4,1,0,60,0,0
39786,-100,4,2,0,5,0,0
39868,-100,4,1,0,60,0,0
44990,-100,4,2,0,5,0,0
45071,-100,4,1,0,60,0,0
46941,-100,4,2,0,5,0,0
47022,-100,4,1,0,60,0,0
47591,-100,4,2,0,5,0,0
47672,-100,4,1,0,60,0,0
50193,-100,4,2,0,5,0,0
50274,-100,4,1,0,60,0,0
55393,-100,4,2,0,5,0,0
55477,666.666666666667,4,2,0,35,1,0
55477,-100,4,2,0,35,0,0
66060,-100,4,2,0,5,0,0
66143,-100,4,2,0,35,0,0
67476,-80.6451612903226,4,2,0,35,0,0
87476,-71.4285714285714,4,2,0,35,0,0
108810,323.921610970145,4,1,0,60,1,0
108810,-83.3333333333333,4,1,0,60,0,1
110915,-100,4,1,0,60,0,1
111401,-83.3333333333333,4,1,0,60,0,1
118527,-83.3333333333333,4,1,0,60,0,0
118689,-133.333333333333,4,1,0,60,0,0
119013,-133.333333333333,4,1,0,60,0,0
119175,-83.3333333333333,4,1,0,60,0,1
121280,-100,4,1,0,60,0,1
121766,-83.3333333333333,4,1,0,60,0,1
129540,322.58064516129,4,1,0,60,1,0
139914,666.666666666667,4,1,0,60,1,0
141211,-100,4,2,0,35,0,0
182594,324.324324324324,4,1,0,60,1,0
182594,-83.3333333333333,4,1,0,60,0,1
184702,-100,4,1,0,60,0,1
185188,-83.3333333333333,4,1,0,60,0,1
192323,-83.3333333333333,4,1,0,60,0,0
192485,-133.333333333333,4,1,0,60,0,0
192972,-83.3333333333333,4,1,0,60,0,1
195080,-100,4,1,0,60,0,1
195566,-83.3333333333333,4,1,0,60,0,1
203350,320.855614973262,4,1,0,60,1,0
218753,324.324324324324,4,1,0,60,1,0
223942,331.491712707182,4,1,0,60,1,0
223942,-64.5161290322581,4,1,0,60,0,0
231897,326.086956521739,4,1,0,60,1,0
234505,327.296530656775,4,1,0,60,1,0
234505,-60.6060606060606,4,1,0,60,0,0
244978,331.491712707182,4,2,0,5,1,0
247629,-100,4,1,0,60,0,0
248298,321.285140562249,4,1,0,60,1,0
248298,-83.3333333333333,4,1,0,60,0,1
250386,-100,4,1,0,60,0,1
250868,-83.3333333333333,4,1,0,60,0,1
257936,-83.3333333333333,4,1,0,60,0,0
258097,-133.333333333333,4,1,0,60,0,0
258579,-83.3333333333333,4,1,0,60,0,1
260667,-100,4,1,0,60,0,1
261149,-83.3333333333333,4,1,0,60,0,1
263708,322.615334982256,4,1,0,60,1,1
263708,-83.3333333333333,4,1,0,60,0,1
268224,-133.333333333333,4,1,0,60,0,0
268893,324.324324324324,4,1,0,60,1,0
268893,-83.3333333333333,4,1,0,60,0,1
271001,-100,4,1,0,60,0,1
271487,-83.3333333333333,4,1,0,60,0,1
279279,317.460317460317,4,1,0,60,1,0
286898,322.58064516129,4,1,0,60,1,0
289456,317.460317460317,4,1,0,60,1,0
294535,324.324324324324,4,1,0,60,1,0
299724,665.188470066519,4,1,0,60,1,0
310367,-100,4,2,0,5,0,0

[Colours]
Combo1 : 227,204,238
Combo2 : 255,145,148
Combo3 : 176,211,255
Combo4 : 244,227,193

[HitObjects]
256,192,8031,12,0,13031,0:0:0:0:
201,113,13365,5,0,0:0:0:0:
201,113,13448,1,0,0:0:0:0:
201,113,13531,1,0,0:0:0:0:
302,163,13698,1,0,0:0:0:0:
128,196,13865,1,0,0:0:0:0:
298,56,14031,5,0,0:0:0:0:
298,56,14115,1,0,0:0:0:0:
298,56,14198,1,0,0:0:0:0:
201,113,14365,1,0,0:0:0:0:
381,131,14531,1,0,0:0:0:0:
276,262,14698,5,0,0:0:0:0:
276,262,14781,1,0,0:0:0:0:
276,262,14865,1,0,0:0:0:0:
287,145,15031,1,0,0:0:0:0:
259,369,15198,1,0,0:0:0:0:
391,333,15365,5,0,0:0:0:0:
391,333,15448,1,0,0:0:0:0:
391,333,15531,1,0,0:0:0:0:
189,268,15698,1,0,0:0:0:0:
189,268,15781,1,0,0:0:0:0:
189,268,15865,1,0,0:0:0:0:
473,155,16031,5,0,0:0:0:0:
473,155,16115,1,0,0:0:0:0:
473,155,16198,1,0,0:0:0:0:
338,78,16365,1,0,0:0:0:0:
483,42,16531,1,0,0:0:0:0:
210,112,16698,5,0,0:0:0:0:
210,112,16781,1,0,0:0:0:0:
210,112,16865,1,0,0:0:0:0:
102,60,17031,1,0,0:0:0:0:
310,168,17198,1,0,0:0:0:0:
128,254,17365,6,0,L|112:152,1,90
23,221,17698,1,0,0:0:0:0:
233,260,17865,1,0,0:0:0:0:
98,298,18031,2,0,P|166:289|260:342,1,180
13,343,18531,1,0,0:0:0:0:
142,165,18698,5,0,0:0:0:0:
142,165,18781,1,0,0:0:0:0:
142,165,18865,1,0,0:0:0:0:
29,186,19031,1,0,0:0:0:0:
208,249,19198,1,0,0:0:0:0:
297,75,19365,1,0,0:0:0:0:
297,75,19448,1,0,0:0:0:0:
297,75,19531,1,0,0:0:0:0:
400,114,19698,1,0,0:0:0:0:
225,153,19865,1,0,0:0:0:0:
478,255,20031,5,0,0:0:0:0:
478,255,20115,1,0,0:0:0:0:
478,255,20198,1,0,0:0:0:0:
366,329,20365,1,0,0:0:0:0:
273,238,20531,1,0,0:0:0:0:
50,330,20698,5,0,0:0:0:0:
50,330,20781,1,0,0:0:0:0:
50,330,20865,1,0,0:0:0:0:
195,126,21031,1,0,0:0:0:0:
195,126,21115,1,0,0:0:0:0:
195,126,21198,1,0,0:0:0:0:
20,157,21365,5,0,0:0:0:0:
20,157,21448,1,0,0:0:0:0:
20,157,21531,1,0,0:0:0:0:
135,241,21698,1,0,0:0:0:0:
291,198,21865,1,0,0:0:0:0:
12,273,22031,5,0,0:0:0:0:
12,273,22115,1,0,0:0:0:0:
12,273,22198,1,0,0:0:0:0:
245,299,22365,1,0,0:0:0:0:
141,167,22531,1,0,0:0:0:0:
340,82,22698,6,0,L|301:167,2,90
423,164,23198,1,0,0:0:0:0:
124,200,23365,2,0,L|217:190,2,90
156,94,23865,1,0,0:0:0:0:
293,258,24031,5,0,0:0:0:0:
293,258,24115,1,0,0:0:0:0:
293,258,24198,1,0,0:0:0:0:
181,302,24365,1,0,0:0:0:0:
366,339,24531,1,0,0:0:0:0:
420,127,24698,5,0,0:0:0:0:
420,127,24781,1,0,0:0:0:0:
420,127,24865,1,0,0:0:0:0:
461,230,25031,1,0,0:0:0:0:
379,23,25198,1,0,0:0:0:0:
294,165,25365,5,0,0:0:0:0:
294,165,25448,1,0,0:0:0:0:
294,165,25531,1,0,0:0:0:0:
187,79,25698,1,0,0:0:0:0:
420,127,25865,1,0,0:0:0:0:
164,202,26031,5,0,0:0:0:0:
164,202,26115,1,0,0:0:0:0:
164,202,26198,1,0,0:0:0:0:
400,258,26365,1,0,0:0:0:0:
400,258,26448,1,0,0:0:0:0:
400,258,26531,1,0,0:0:0:0:
189,348,26698,5,0,0:0:0:0:
189,348,26781,1,0,0:0:0:0:
189,348,26865,1,0,0:0:0:0:
276,258,27031,1,0,0:0:0:0:
65,283,27198,1,0,0:0:0:0:
141,108,27364,5,0,0:0:0:0:
141,108,27448,1,0,0:0:0:0:
141,108,27531,1,0,0:0:0:0:
96,193,27698,1,0,0:0:0:0:
184,23,27864,1,0,0:0:0:0:
339,114,28031,6,0,L|235:111,1,90
442,114,28364,1,0,0:0:0:0:
141,108,28531,1,0,0:0:0:0:
271,287,28698,2,0,B|292:247|292:247|292:201,1,90
120,23,29031,2,0,B|120:67|120:67|141:107,1,90
292,36,29364,5,0,0:0:0:0:
292,36,29448,1,0,0:0:0:0:
292,36,29531,1,0,0:0:0:0:
398,82,29698,1,0,0:0:0:0:
230,125,29864,1,0,0:0:0:0:
512,182,30031,5,0,0:0:0:0:
512,182,30114,1,0,0:0:0:0:
512,182,30198,1,0,0:0:0:0:
314,229,30364,1,0,0:0:0:0:
437,289,30531,1,0,0:0:0:0:
230,326,30698,5,0,0:0:0:0:
230,326,30781,1,0,0:0:0:0:
230,326,30864,1,0,0:0:0:0:
181,217,31031,1,0,0:0:0:0:
124,375,31198,1,0,0:0:0:0:
235,124,31364,5,0,0:0:0:0:
235,124,31448,1,0,0:0:0:0:
235,124,31531,1,0,0:0:0:0:
83,205,31698,1,0,0:0:0:0:
83,205,31781,1,0,0:0:0:0:
83,205,31864,1,0,0:0:0:0:
317,263,32031,5,0,0:0:0:0:
317,263,32114,1,0,0:0:0:0:
317,263,32198,1,0,0:0:0:0:
194,304,32364,1,0,0:0:0:0:
396,346,32531,1,0,0:0:0:0:
441,149,32698,5,0,0:0:0:0:
441,149,32781,1,0,0:0:0:0:
441,149,32864,1,0,0:0:0:0:
497,241,33031,1,0,0:0:0:0:
380,61,33198,1,0,0:0:0:0:
296,236,33364,1,0,0:0:0:0:
38,87,34664,6,0,P|105:75|194:148,1,180
89,186,35152,1,0,0:0:0:0:
299,222,35315,1,0,0:0:0:0:
299,222,35477,1,0,0:0:0:0:
172,306,35640,1,0,0:0:0:0:
172,306,35803,1,0,0:0:0:0:
179,101,35965,6,0,L|188:212,1,90
85,42,36290,2,0,P|166:74|268:55,1,180
432,279,36778,2,0,B|441:239|454:206|454:206|415:172|415:172|444:134|444:80,1,225
443,81,37266,6,0,L|346:66,1,90
319,280,37591,2,0,L|333:183,1,90
219,113,37916,1,0,0:0:0:0:
219,113,38079,1,0,0:0:0:0:
436,181,38242,1,0,0:0:0:0:
436,181,38404,1,0,0:0:0:0:
206,226,38567,6,0,P|143:225|92:211,1,90
303,133,38892,2,0,P|326:210|317:319,1,180
17,248,39380,2,0,B|51:226|69:193|69:193|130:239|209:225,1,225
271,181,39868,6,0,L|291:126,7,45
190,120,40518,2,0,L|174:77,7,45
266,34,41168,5,0,0:0:0:0:
306,54,41250,1,0,0:0:0:0:
350,57,41331,1,0,0:0:0:0:
390,37,41412,1,0,0:0:0:0:
434,28,41494,1,0,0:0:0:0:
471,52,41575,1,0,0:0:0:0:
474,96,41656,1,0,0:0:0:0:
441,127,41737,1,0,0:0:0:0:
418,166,41819,1,0,0:0:0:0:
416,210,41900,1,0,0:0:0:0:
450,238,41981,1,0,0:0:0:0:
492,222,42063,1,0,0:0:0:0:
499,177,42144,1,0,0:0:0:0:
463,150,42225,1,0,0:0:0:0:
418,166,42307,1,0,0:0:0:0:
374,175,42388,1,0,0:0:0:0:
329,177,42469,6,0,P|278:172|235:160,1,90
53,247,42794,2,0,P|104:242|147:230,1,90
125,34,43120,2,0,L|131:132,1,90
251,267,43445,1,0,0:0:0:0:
251,267,43770,5,0,0:0:0:0:
415,223,43933,1,0,0:0:0:0:
232,156,44095,1,0,0:0:0:0:
396,112,44258,1,0,0:0:0:0:
351,323,44420,1,0,0:0:0:0:
187,140,44583,2,0,P|255:113|206:197,1,225
232,156,45071,5,0,0:0:0:0:
232,156,45721,2,0,L|329:162,1,90
506,225,46046,2,0,L|409:231,1,90
266,243,46372,5,0,0:0:0:0:
450,143,46534,1,0,0:0:0:0:
160,104,46697,2,0,P|217:114|303:86,1,135
321,70,47022,1,0,0:0:0:0:
21,190,47185,2,0,P|88:175|228:248,1,225
305,165,47672,6,0,P|361:144|409:137,1,90
222,241,47998,2,0,P|178:231|136:214,1,90
203,107,48323,1,0,0:0:0:0:
324,279,48485,1,0,0:0:0:0:
203,107,48648,2,0,P|199:53|209:13,1,90
314,72,48973,5,0,0:0:0:0:
88,130,49136,1,0,0:0:0:0:
307,162,49298,2,0,P|225:146|151:210,1,180
216,384,49786,2,0,B|277:355|277:355|229:327|229:327|259:301|259:301|245:233,1,225
335,241,50274,6,0,L|390:245,7,45
478,110,50924,1,0,0:0:0:0:
444,141,51006,1,0,0:0:0:0:
403,160,51087,1,0,0:0:0:0:
358,166,51168,1,0,0:0:0:0:
312,160,51250,1,0,0:0:0:0:
273,138,51331,1,0,0:0:0:0:
240,106,51412,1,0,0:0:0:0:
221,64,51494,1,0,0:0:0:0:
211,20,51575,6,0,P|204:44|188:73,7,45
86,49,52225,1,0,0:0:0:0:
113,84,52307,1,0,0:0:0:0:
118,128,52388,1,0,0:0:0:0:
102,170,52469,1,0,0:0:0:0:
71,203,52550,1,0,0:0:0:0:
43,239,52632,1,0,0:0:0:0:
41,283,52713,1,0,0:0:0:0:
55,325,52794,1,0,0:0:0:0:
88,355,52876,6,0,L|180:346,1,90
357,284,53201,2,0,L|265:275,1,90
316,168,53526,1,0,0:0:0:0:
280,370,53689,1,0,0:0:0:0:
165,205,53851,2,0,P|156:146|163:107,1,90
274,57,54177,6,0,L|369:45,1,90
106,160,54502,2,0,L|11:148,1,90
276,222,54827,1,0,0:0:0:0:
148,283,54990,2,0,P|225:254|341:343,1,225
344,360,55477,5,0,0:0:0:0:
335,327,56143,1,0,0:0:0:0:
335,290,56810,1,0,0:0:0:0:
345,255,57477,1,0,0:0:0:0:
80,99,58143,5,0,0:0:0:0:
113,111,58810,1,0,0:0:0:0:
148,111,59476,1,0,0:0:0:0:
182,101,60143,1,0,0:0:0:0:
342,137,60476,2,0,L|297:147,1,45
443,183,60810,5,0,0:0:0:0:
435,199,61476,1,0,0:0:0:0:
430,216,62143,1,0,0:0:0:0:
427,233,62810,1,0,0:0:0:0:
275,283,63143,2,0,L|328:292,1,45
138,308,63476,6,0,P|111:274|114:132,1,180
244,118,64476,2,0,P|271:152|268:294,1,180
165,81,65476,2,0,L|337:85,1,157.5
363,84,66143,5,0,0:0:0:0:
117,153,66810,2,0,P|111:233|139:293,1,135
214,313,67476,2,0,B|320:284|320:284|394:307,2,167.399993358765
129,83,68810,2,0,P|87:165|214:112,2,334.79998671753
444,47,71476,5,0,0:0:0:0:
332,113,72143,2,0,P|323:166|355:278,1,167.399993358765
440,330,72810,2,0,P|370:313|268:330,2,167.399993358765
211,249,74143,6,0,P|163:238|98:241,1,111.59999557251
331,167,74810,2,0,P|379:156|444:159,1,111.59999557251
214,17,75476,2,0,B|237:174|237:174|176:121,1,223.19999114502
188,131,76810,5,0,0:0:0:0:
351,210,77476,2,0,P|397:212|506:151,1,167.399993358765
406,105,78143,2,0,L|229:82,2,167.399993358765
73,159,79476,6,0,P|185:152|269:229,1,223.19999114502
220,356,80476,2,0,P|108:363|24:286,1,223.19999114502
154,229,81476,1,0,0:0:0:0:
337,174,81810,2,0,L|273:166,1,55.799997786255
451,129,82143,5,0,0:0:0:0:
223,95,82476,2,0,L|285:84,1,55.799997786255
120,47,82810,2,0,P|104:100|108:180,1,111.59999557251
289,247,83476,2,0,L|458:228,2,167.399993358765
208,126,84810,6,0,L|39:107,2,167.399993358765
277,84,85976,2,0,P|331:96|437:49,1,167.399993358765
136,40,86810,2,0,L|97:221,1,167.399993358765
74,295,87476,5,0,0:0:0:0:
74,295,88143,1,0,0:0:0:0:
162,338,88476,2,0,P|216:327|306:162,1,251.999992309571
204,168,89476,2,0,P|239:286|350:338,1,251.999992309571
350,338,90810,5,0,0:0:0:0:
443,262,91143,2,0,B|466:183|466:183|436:97|436:97|459:8,1,251.999992309571
350,17,92143,2,0,B|330:93|330:93|360:179|360:179|337:258,1,251.999992309571
337,258,93476,5,0,0:0:0:0:
337,258,94143,2,0,P|278:264|205:239,1,125.999996154785
123,281,94643,2,0,L|111:147,1,125.999996154785
101,70,95143,1,0,0:0:0:0:
288,190,95476,6,0,L|271:381,2,188.999994232178
413,51,96810,2,0,L|424:176,1,125.999996154785
122,193,97476,2,0,L|110:318,1,125.999996154785
256,122,98143,5,0,0:0:0:0:
256,122,98810,1,0,0:0:0:0:
128,114,99143,2,0,B|124:157|139:195|169:224|201:240|201:240|181:339,1,251.999992309571
330,335,100143,2,0,B|311:240|311:240|343:224|373:195|388:157|384:114,1,251.999992309571
384,113,101476,5,0,0:0:0:0:
285,35,101810,2,0,P|222:90|62:84,1,251.999992309571
41,206,102810,2,0,P|56:249|69:329,1,125.999996154785
185,229,103476,6,0,P|196:165|264:59,2,188.999994232178
455,229,104810,2,0,P|389:158|395:272,2,251.999992309571
255,316,106476,1,0,0:0:0:0:
256,192,106810,12,0,108143,0:0:0:0:
39,142,108810,6,0,B|87:143|118:169|118:169|164:141|164:141|196:160|239:155,1,215.999993408203
222,41,109295,1,0,0:0:0:0:
393,95,109457,2,0,B|419:143|419:143|419:198,1,107.999996704102
250,340,109781,2,0,B|250:286|250:286|276:238,1,107.999996704102
375,315,110105,5,0,0:0:0:0:
146,258,110267,1,0,0:0:0:0:
375,315,110429,2,0,L|485:305,1,107.999996704102
303,127,110753,1,0,0:0:0:0:
511,300,110915,2,0,B|454:294|454:294|405:304|405:304|330:294,1,180
399,49,111401,6,0,P|424:96|421:164,1,107.999996704102
208,207,111725,2,0,P|183:160|186:92,1,107.999996704102
303,127,112049,1,0,0:0:0:0:
81,181,112211,1,0,0:0:0:0:
303,127,112373,2,0,L|179:107,1,107.999996704102
391,220,112697,6,0,L|515:200,1,107.999996704102
268,240,113020,1,0,0:0:0:0:
268,240,113344,1,0,0:0:0:0:
379,302,113506,2,0,B|308:268|243:300|243:300|210:318|168:310,1,215.999993408203
34,169,113992,5,0,0:0:0:0:
78,149,114073,1,0,0:0:0:0:
126,141,114154,1,0,0:0:0:0:
174,148,114235,1,0,0:0:0:0:
220,163,114316,1,0,0:0:0:0:
259,190,114397,1,0,0:0:0:0:
304,206,114478,1,0,0:0:0:0:
352,200,114559,1,0,0:0:0:0:
395,178,114640,2,0,P|414:162|432:131,7,53.9999983520508
315,88,115288,5,0,0:0:0:0:
281,123,115369,1,0,0:0:0:0:
270,170,115450,1,0,0:0:0:0:
279,217,115531,1,0,0:0:0:0:
306,257,115612,1,0,0:0:0:0:
260,240,115693,1,0,0:0:0:0:
211,237,115774,1,0,0:0:0:0:
165,254,115855,1,0,0:0:0:0:
118,268,115936,2,0,P|81:265|52:254,7,53.9999983520508
113,168,116584,6,0,P|112:112|88:49,1,107.999996704102
255,124,116908,2,0,P|235:227|268:334,1,215.999993408203
351,249,117393,1,0,0:0:0:0:
431,332,117555,2,0,P|459:272|459:227,1,107.999996704102
313,32,117879,5,0,0:0:0:0:
131,95,118041,1,0,0:0:0:0:
387,208,118203,1,0,0:0:0:0:
205,271,118365,1,0,0:0:0:0:
259,150,118527,5,0,0:0:0:0:
421,285,118689,2,0,L|446:135,1,135.000005149842
335,342,119175,6,0,P|263:351|135:276,1,215.999993408203
234,172,119661,1,0,0:0:0:0:
85,53,119823,2,0,L|103:174,1,107.999996704102
201,358,120147,2,0,L|216:251,1,107.999996704102
283,69,120471,6,0,P|365:52|466:152,1,215.999993408203
347,172,120957,1,0,0:0:0:0:
449,244,121119,1,0,0:0:0:0:
164,270,121280,2,0,B|284:297|284:297|345:278,1,180
58,200,121766,6,0,P|37:271|47:314,1,107.999996704102
175,151,122090,2,0,P|179:97|159:47,1,107.999996704102
34,81,122414,1,0,0:0:0:0:
293,120,122576,1,0,0:0:0:0:
142,232,122738,2,0,L|159:345,1,107.999996704102
293,120,123062,6,0,L|309:13,1,107.999996704102
436,92,123386,1,0,0:0:0:0:
436,92,123710,1,0,0:0:0:0:
171,150,123872,2,0,P|256:143|364:218,1,215.999993408203
72,264,124358,5,0,0:0:0:0:
35,232,124439,1,0,0:0:0:0:
13,188,124520,1,0,0:0:0:0:
11,139,124601,1,0,0:0:0:0:
25,92,124682,2,0,P|41:64|69:35,3,53.9999983520508
126,121,125006,1,0,0:0:0:0:
173,131,125087,1,0,0:0:0:0:
220,119,125168,1,0,0:0:0:0:
258,89,125249,1,0,0:0:0:0:
280,46,125330,2,0,L|342:61,3,53.9999983520508
456,27,125653,5,0,0:0:0:0:
425,64,125734,1,0,0:0:0:0:
409,110,125815,1,0,0:0:0:0:
412,158,125896,1,0,0:0:0:0:
437,199,125977,1,0,0:0:0:0:
456,243,126058,1,0,0:0:0:0:
441,289,126139,1,0,0:0:0:0:
399,314,126220,1,0,0:0:0:0:
350,309,126301,1,0,0:0:0:0:
320,270,126382,1,0,0:0:0:0:
317,221,126463,1,0,0:0:0:0:
352,187,126544,1,0,0:0:0:0:
399,197,126625,1,0,0:0:0:0:
408,244,126706,1,0,0:0:0:0:
369,273,126787,1,0,0:0:0:0:
320,270,126868,1,0,0:0:0:0:
280,242,126949,6,0,P|215:238|171:253,1,107.999996704102
84,364,127273,2,0,B|136:308|136:308|157:160,1,215.999993408203
22,258,127759,1,0,0:0:0:0:
236,340,127921,2,0,L|347:324,1,107.999996704102
268,112,128245,5,0,0:0:0:0:
420,253,128407,1,0,0:0:0:0:
304,226,128569,1,0,0:0:0:0:
466,52,128731,1,0,0:0:0:0:
500,165,128893,1,0,0:0:0:0:
350,25,129055,1,0,0:0:0:0:
350,25,129379,1,0,0:0:0:0:
350,25,129460,1,0,0:0:0:0:
350,25,129540,6,0,P|289:39|249:42,1,90
77,123,129862,2,0,P|121:128|165:139,1,90
268,252,130185,1,0,0:0:0:0:
268,252,130346,1,0,0:0:0:0:
408,149,130507,1,0,0:0:0:0:
408,149,130669,1,0,0:0:0:0:
268,252,130830,6,0,L|161:238,1,90
408,149,131152,2,0,L|515:135,1,90
263,108,131475,1,0,0:0:0:0:
405,283,131636,2,0,P|334:271|231:339,1,180
228,362,132040,5,0,0:0:0:0:
228,362,132120,1,0,0:0:0:0:
160,168,132281,1,0,0:0:0:0:
7,278,132443,2,0,P|49:292|111:291,1,90
59,89,132765,2,0,L|68:182,1,90
200,358,133088,2,0,L|208:268,1,90
367,42,133410,5,0,0:0:0:0:
347,266,133572,1,0,0:0:0:0:
163,138,133733,1,0,0:0:0:0:
204,120,133814,1,0,0:0:0:0:
247,112,133894,1,0,0:0:0:0:
291,121,133975,1,0,0:0:0:0:
332,138,134056,1,0,0:0:0:0:
137,274,134217,1,0,0:0:0:0:
28,194,134378,1,0,0:0:0:0:
456,186,134540,1,0,0:0:0:0:
347,266,134701,1,0,0:0:0:0:
240,183,134862,5,0,0:0:0:0:
354,32,135023,2,0,L|344:147,1,90
252,354,135346,2,0,L|244:264,1,90
117,57,135669,1,0,0:0:0:0:
117,57,135830,1,0,0:0:0:0:
15,166,135991,6,0,P|79:201|201:179,1,180
267,69,136475,1,0,0:0:0:0:
469,207,136636,1,0,0:0:0:0:
331,350,136798,1,0,0:0:0:0:
328,305,136878,1,0,0:0:0:0:
325,260,136959,1,0,0:0:0:0:
322,214,137040,1,0,0:0:0:0:
319,168,137120,1,0,0:0:0:0:
288,201,137201,1,0,0:0:0:0:
258,234,137281,5,0,0:0:0:0:
168,143,137443,1,0,0:0:0:0:
418,50,137604,2,0,L|406:157,1,90
289,85,137927,1,0,0:0:0:0:
461,249,138088,1,0,0:0:0:0:
267,64,138249,1,0,0:0:0:0:
482,269,138410,1,0,0:0:0:0:
279,318,138572,5,0,0:0:0:0:
229,339,138652,1,0,0:0:0:0:
177,324,138733,1,0,0:0:0:0:
160,272,138814,1,0,0:0:0:0:
183,223,138894,1,0,0:0:0:0:
233,203,138975,1,0,0:0:0:0:
265,159,139056,1,0,0:0:0:0:
252,106,139136,1,0,0:0:0:0:
209,72,139217,1,0,0:0:0:0:
155,81,139298,1,0,0:0:0:0:
124,125,139378,1,0,0:0:0:0:
454,228,139914,5,0,0:0:0:0:
159,172,141247,6,0,B|136:86|136:86|97:61,2,135
63,235,142580,2,0,P|116:276|225:261,1,180
293,174,143580,2,0,P|378:154|452:201,1,180
360,264,144580,1,0,0:0:0:0:
360,264,145247,5,0,0:0:0:0:
360,264,145914,1,0,0:0:0:0:
204,258,146580,2,0,L|350:239,2,135
436,159,147914,6,0,L|302:141,2,135
488,227,149080,1,0,0:0:0:0:
418,278,149247,2,0,P|407:318|411:374,1,90
302,141,149914,2,0,P|304:96|293:52,1,90
26,77,150580,6,0,B|74:118|74:118|196:104,1,180
106,23,151580,1,0,0:0:0:0:
278,39,151914,2,0,P|295:77|277:170,2,135
375,188,153247,6,0,P|321:163|309:257,1,180
122,63,154247,2,0,P|176:38|188:132,1,180
96,160,155247,1,0,0:0:0:0:
96,160,155913,5,0,0:0:0:0:
96,160,156580,1,0,0:0:0:0:
168,213,156913,1,0,0:0:0:0:
248,173,157247,2,0,P|301:172|348:191,1,90
409,147,157747,2,0,L|436:4,1,135
190,114,158580,6,0,L|215:246,2,135
43,209,159913,2,0,B|84:229|84:229|134:221,1,90
370,151,160580,2,0,B|329:131|329:131|279:139,1,90
452,339,161247,6,0,P|489:304|401:270,1,180
290,224,162247,2,0,P|253:189|341:155,1,180
450,135,163247,2,0,P|463:94|382:46,1,135
321,80,163913,6,0,P|293:87|157:37,1,180
0,212,164913,2,0,P|88:215|163:169,1,180
359,312,165913,2,0,P|297:308|233:268,1,135
274,196,166580,6,0,B|335:179|335:179|384:200|384:200|447:182,1,180
393,91,167580,1,0,0:0:0:0:
165,142,167913,2,0,P|153:202|179:269,2,135
57,38,169247,6,0,P|70:68|69:127,1,90
255,322,169913,2,0,P|252:277|267:235,1,90
408,159,170580,1,0,0:0:0:0:
501,233,170913,2,0,P|456:269|327:249,1,180
367,6,171913,6,0,B|423:56|423:56|407:171,1,180
149,116,172913,2,0,L|338:94,1,180
174,210,173913,2,0,L|76:200,1,90
13,283,174580,5,0,0:0:0:0:
13,283,175247,1,0,0:0:0:0:
87,344,175580,2,0,P|128:350|225:259,1,180
308,141,176580,2,0,P|301:183|320:237,1,90
411,175,177247,5,0,0:0:0:0:
382,70,177580,2,0,P|345:48|284:40,1,90
241,98,178080,2,0,L|147:86,1,90
74,127,178580,2,0,P|57:185|66:275,1,135
155,311,179247,2,0,B|243:284|243:337|331:311,1,180
286,215,180247,5,0,0:0:0:0:
256,192,180414,12,0,181914,0:0:0:0:
71,92,182594,6,0,P|127:74|255:169,1,215.999993408203
136,197,183080,1,0,0:0:0:0:
238,267,183242,2,0,L|347:253,1,107.999996704102
128,312,183566,2,0,L|19:298,1,107.999996704102
130,91,183891,6,0,P|142:156|133:205,1,107.999996704102
22,151,184215,1,0,0:0:0:0:
227,135,184377,1,0,0:0:0:0:
36,44,184539,1,0,0:0:0:0:
135,196,184702,2,0,L|157:14,1,180
512,137,185188,6,0,B|468:169|468:169|414:169,1,107.999996704102
229,96,185512,2,0,B|273:64|273:64|327:64,1,107.999996704102
177,210,185837,1,0,0:0:0:0:
83,111,185999,1,0,0:0:0:0:
192,226,186161,1,0,0:0:0:0:
67,94,186323,1,0,0:0:0:0:
20,271,186485,5,0,0:0:0:0:
182,111,186648,1,0,0:0:0:0:
238,330,186810,1,0,0:0:0:0:
238,330,187134,1,0,0:0:0:0:
176,231,187296,2,0,P|232:292|372:276,1,215.999993408203
330,9,187783,5,0,0:0:0:0:
288,34,187864,1,0,0:0:0:0:
260,74,187945,1,0,0:0:0:0:
245,120,188026,1,0,0:0:0:0:
245,168,188107,2,0,P|251:201|268:236,3,53.9999983520508
318,156,188431,1,0,0:0:0:0:
335,201,188512,1,0,0:0:0:0:
369,236,188593,1,0,0:0:0:0:
412,258,188674,1,0,0:0:0:0:
459,267,188755,2,0,P|492:266|529:256,3,53.9999983520508
472,150,189080,5,0,0:0:0:0:
434,119,189161,1,0,0:0:0:0:
385,115,189242,1,0,0:0:0:0:
341,137,189323,1,0,0:0:0:0:
311,175,189404,1,0,0:0:0:0:
265,192,189485,1,0,0:0:0:0:
216,185,189566,1,0,0:0:0:0:
177,155,189648,1,0,0:0:0:0:
168,107,189729,2,0,L|162:51,3,53.9999983520508
97,174,190053,2,0,L|91:227,3,53.9999983520508
155,292,190377,5,0,0:0:0:0:
155,292,190539,1,0,0:0:0:0:
268,176,190702,2,0,B|374:139|374:212|480:176,1,215.999993408203
426,82,191188,1,0,0:0:0:0:
323,271,191350,1,0,0:0:0:0:
208,88,191512,1,0,0:0:0:0:
323,271,191675,6,0,L|310:378,1,107.999996704102
439,189,191999,2,0,L|426:81,1,107.999996704102
310,13,192323,5,0,0:0:0:0:
169,153,192485,2,0,L|327:139,1,135.000005149842
204,39,192972,6,0,P|138:39|96:60,1,107.999996704102
154,319,193296,2,0,B|192:285|192:285|148:262|148:262|167:235|167:235|169:147,1,215.999993408203
65,197,193783,1,0,0:0:0:0:
276,253,193945,1,0,0:0:0:0:
40,227,194107,1,0,0:0:0:0:
300,222,194269,6,0,L|424:210,1,107.999996704102
329,9,194594,2,0,L|341:132,1,107.999996704102
465,101,194918,1,0,0:0:0:0:
243,297,195080,2,0,P|266:193|237:120,1,180
378,237,195566,6,0,P|375:292|394:342,1,107.999996704102
139,312,195891,2,0,P|194:315|244:296,1,107.999996704102
168,151,196215,1,0,0:0:0:0:
291,203,196377,1,0,0:0:0:0:
68,239,196539,1,0,0:0:0:0:
154,72,196702,1,0,0:0:0:0:
191,295,196864,5,0,0:0:0:0:
191,295,197026,1,0,0:0:0:0:
291,203,197188,2,0,P|297:135|279:84,1,107.999996704102
188,154,197512,1,0,0:0:0:0:
370,255,197675,2,0,P|320:228|185:313,1,215.999993408203
20,130,198161,6,0,L|11:74,7,53.9999983520508
92,175,198810,2,0,L|83:228,7,53.9999983520508
155,119,199458,5,0,0:0:0:0:
192,87,199539,1,0,0:0:0:0:
240,78,199621,1,0,0:0:0:0:
286,92,199702,1,0,0:0:0:0:
315,130,199783,1,0,0:0:0:0:
354,158,199864,1,0,0:0:0:0:
402,158,199945,1,0,0:0:0:0:
444,134,200026,1,0,0:0:0:0:
467,91,200107,1,0,0:0:0:0:
433,55,200188,1,0,0:0:0:0:
385,46,200270,1,0,0:0:0:0:
339,60,200351,1,0,0:0:0:0:
310,98,200432,1,0,0:0:0:0:
271,126,200513,1,0,0:0:0:0:
223,126,200594,1,0,0:0:0:0:
181,102,200675,1,0,0:0:0:0:
158,59,200756,5,0,0:0:0:0:
19,107,200918,1,0,0:0:0:0:
128,185,201080,2,0,L|112:302,1,107.999996704102
237,358,201404,1,0,0:0:0:0:
237,358,201566,1,0,0:0:0:0:
330,196,201729,2,0,P|331:136|310:87,1,107.999996704102
213,161,202053,5,0,0:0:0:0:
449,198,202215,1,0,0:0:0:0:
280,30,202377,1,0,0:0:0:0:
319,267,202539,1,0,0:0:0:0:
426,53,202702,1,0,0:0:0:0:
338,142,202864,1,0,0:0:0:0:
338,142,203188,1,0,0:0:0:0:
338,142,203269,1,0,0:0:0:0:
338,142,203350,5,0,0:0:0:0:
198,204,203510,1,0,0:0:0:0:
321,292,203670,1,0,0:0:0:0:
220,80,203831,1,0,0:0:0:0:
407,225,203991,5,0,0:0:0:0:
407,225,204071,1,0,0:0:0:0:
407,225,204152,1,0,0:0:0:0:
215,303,204312,1,0,0:0:0:0:
279,193,204472,1,0,0:0:0:0:
83,277,204633,5,0,0:0:0:0:
83,277,204713,1,0,0:0:0:0:
83,277,204793,1,0,0:0:0:0:
6,171,204954,1,0,0:0:0:0:
196,222,205114,1,0,0:0:0:0:
139,66,205275,5,0,0:0:0:0:
139,66,205355,1,0,0:0:0:0:
139,66,205435,1,0,0:0:0:0:
328,169,205595,1,0,0:0:0:0:
328,169,205676,1,0,0:0:0:0:
328,169,205756,1,0,0:0:0:0:
150,273,205916,5,0,0:0:0:0:
150,273,205997,1,0,0:0:0:0:
150,273,206077,1,0,0:0:0:0:
219,356,206237,1,0,0:0:0:0:
38,293,206398,1,0,0:0:0:0:
190,174,206558,5,0,0:0:0:0:
190,174,206638,1,0,0:0:0:0:
190,174,206718,1,0,0:0:0:0:
58,175,206879,1,0,0:0:0:0:
289,254,207039,1,0,0:0:0:0:
229,54,207200,5,0,0:0:0:0:
150,285,207360,1,0,0:0:0:0:
346,180,207521,2,0,L|390:172,2,30
299,188,207681,2,0,L|251:178,2,45
354,62,208002,5,0,0:0:0:0:
253,260,208162,1,0,0:0:0:0:
478,248,208323,1,0,0:0:0:0:
239,128,208483,5,0,0:0:0:0:
239,128,208563,1,0,0:0:0:0:
239,128,208644,1,0,0:0:0:0:
333,182,208804,1,0,0:0:0:0:
160,206,208964,1,0,0:0:0:0:
425,235,209125,5,0,0:0:0:0:
425,235,209205,1,0,0:0:0:0:
425,235,209285,1,0,0:0:0:0:
337,294,209446,1,0,0:0:0:0:
512,177,209606,1,0,0:0:0:0:
315,98,209767,5,0,0:0:0:0:
315,98,209847,1,0,0:0:0:0:
315,98,209927,1,0,0:0:0:0:
432,88,210087,1,0,0:0:0:0:
268,193,210248,1,0,0:0:0:0:
437,256,210408,5,0,0:0:0:0:
437,256,210489,1,0,0:0:0:0:
437,256,210569,1,0,0:0:0:0:
144,180,210729,1,0,0:0:0:0:
144,180,210809,1,0,0:0:0:0:
144,180,210890,1,0,0:0:0:0:
336,41,211050,5,0,0:0:0:0:
336,41,211130,1,0,0:0:0:0:
336,41,211210,1,0,0:0:0:0:
273,251,211371,2,0,L|262:291,2,30
223,309,211531,2,0,L|232:361,2,45
372,232,211852,1,0,0:0:0:0:
189,166,212013,2,0,L|182:136,5,30
261,186,212333,5,0,0:0:0:0:
46,112,212494,1,0,0:0:0:0:
88,331,212654,1,0,0:0:0:0:
135,210,212815,1,0,0:0:0:0:
387,210,212975,5,0,0:0:0:0:
172,284,213136,1,0,0:0:0:0:
172,284,213216,1,0,0:0:0:0:
172,284,213296,1,0,0:0:0:0:
214,65,213456,1,0,0:0:0:0:
261,186,213617,5,0,0:0:0:0:
261,186,213697,1,0,0:0:0:0:
261,186,213777,1,0,0:0:0:0:
137,159,213938,1,0,0:0:0:0:
338,91,214098,1,0,0:0:0:0:
296,296,214259,5,0,0:0:0:0:
296,296,214339,1,0,0:0:0:0:
296,296,214419,1,0,0:0:0:0:
400,314,214579,1,0,0:0:0:0:
187,271,214740,1,0,0:0:0:0:
356,183,214900,5,0,0:0:0:0:
356,183,214980,1,0,0:0:0:0:
356,183,215060,1,0,0:0:0:0:
252,201,215220,1,0,0:0:0:0:
465,158,215381,1,0,0:0:0:0:
327,44,215542,1,0,0:0:0:0:
286,16,215622,1,0,0:0:0:0:
236,18,215702,1,0,0:0:0:0:
200,53,215783,1,0,0:0:0:0:
196,102,215863,1,0,0:0:0:0:
171,144,215943,1,0,0:0:0:0:
129,170,216023,1,0,0:0:0:0:
79,173,216104,1,0,0:0:0:0:
34,152,216184,5,0,0:0:0:0:
96,65,216344,1,0,0:0:0:0:
233,231,216505,1,0,0:0:0:0:
171,144,216665,1,0,0:0:0:0:
340,202,216825,5,0,0:0:0:0:
340,202,216906,1,0,0:0:0:0:
340,202,216986,1,0,0:0:0:0:
133,231,217146,1,0,0:0:0:0:
249,313,217307,1,0,0:0:0:0:
241,107,217467,6,0,L|231:209,1,90
123,79,217788,2,0,L|117:47,5,30
74,134,218109,5,0,0:0:0:0:
305,168,218269,1,0,0:0:0:0:
246,41,218430,1,0,0:0:0:0:
212,272,218590,1,0,0:0:0:0:
411,192,218753,5,0,0:0:0:0:
411,192,218834,1,0,0:0:0:0:
411,192,218915,1,0,0:0:0:0:
205,156,219077,1,0,0:0:0:0:
322,84,219239,1,0,0:0:0:0:
281,304,219401,5,0,0:0:0:0:
281,304,219482,1,0,0:0:0:0:
281,304,219563,1,0,0:0:0:0:
302,198,219725,1,0,0:0:0:0:
366,377,219888,1,0,0:0:0:0:
176,340,220050,5,0,0:0:0:0:
176,340,220131,1,0,0:0:0:0:
176,340,220212,1,0,0:0:0:0:
378,272,220374,1,0,0:0:0:0:
196,221,220536,1,0,0:0:0:0:
383,168,220698,5,0,0:0:0:0:
383,168,220780,1,0,0:0:0:0:
383,168,220861,1,0,0:0:0:0:
117,232,221023,1,0,0:0:0:0:
117,232,221104,1,0,0:0:0:0:
117,232,221185,1,0,0:0:0:0:
435,293,221347,5,0,0:0:0:0:
408,310,221428,1,0,0:0:0:0:
376,314,221509,1,0,0:0:0:0:
345,305,221590,1,0,0:0:0:0:
324,281,221671,1,0,0:0:0:0:
296,265,221753,1,0,0:0:0:0:
265,259,221834,1,0,0:0:0:0:
233,262,221915,1,0,0:0:0:0:
206,278,221996,5,0,0:0:0:0:
178,301,222077,1,0,0:0:0:0:
142,309,222158,1,0,0:0:0:0:
106,303,222239,1,0,0:0:0:0:
78,279,222320,1,0,0:0:0:0:
68,239,222401,1,0,0:0:0:0:
83,201,222482,1,0,0:0:0:0:
117,180,222563,1,0,0:0:0:0:
140,147,222644,5,0,0:0:0:0:
155,104,222725,1,0,0:0:0:0:
145,59,222807,1,0,0:0:0:0:
108,33,222888,1,0,0:0:0:0:
63,38,222969,1,0,0:0:0:0:
29,74,223050,1,0,0:0:0:0:
33,123,223131,1,0,0:0:0:0:
74,149,223212,1,0,0:0:0:0:
122,141,223293,5,0,0:0:0:0:
163,114,223374,1,0,0:0:0:0:
211,104,223455,1,0,0:0:0:0:
260,105,223536,1,0,0:0:0:0:
307,117,223617,1,0,0:0:0:0:
351,139,223698,1,0,0:0:0:0:
386,174,223780,1,0,0:0:0:0:
405,219,223861,1,0,0:0:0:0:
415,266,223942,6,0,L|405:343,1,69.7500005321503
298,186,224107,2,0,L|308:109,1,69.7500005321503
171,247,224273,2,0,L|161:324,1,69.7500005321503
54,167,224438,2,0,L|64:90,1,69.7500005321503
179,41,224604,5,0,0:0:0:0:
222,63,224687,1,0,0:0:0:0:
270,68,224770,1,0,0:0:0:0:
316,53,224853,1,0,0:0:0:0:
356,25,224936,1,0,0:0:0:0:
336,69,225019,1,0,0:0:0:0:
334,117,225102,1,0,0:0:0:0:
349,163,225185,1,0,0:0:0:0:
383,196,225267,5,0,0:0:0:0:
398,242,225350,1,0,0:0:0:0:
386,289,225433,1,0,0:0:0:0:
349,321,225516,1,0,0:0:0:0:
300,318,225599,2,0,P|291:288|297:244,3,69.7500005321503
222,157,225930,6,0,P|226:191|216:224,3,69.7500005321503
148,276,226262,1,0,0:0:0:0:
99,280,226345,1,0,0:0:0:0:
53,262,226428,1,0,0:0:0:0:
22,223,226511,1,0,0:0:0:0:
14,175,226593,6,0,L|18:102,1,69.7500005321503
152,153,226759,2,0,L|225:157,1,69.7500005321503
175,288,226925,2,0,L|171:361,1,69.7500005321503
312,331,227091,2,0,L|385:335,1,69.7500005321503
479,261,227256,5,0,0:0:0:0:
493,214,227339,1,0,0:0:0:0:
485,165,227422,1,0,0:0:0:0:
451,129,227505,1,0,0:0:0:0:
402,121,227588,1,0,0:0:0:0:
356,138,227671,1,0,0:0:0:0:
327,177,227754,1,0,0:0:0:0:
282,197,227837,1,0,0:0:0:0:
233,192,227919,5,0,0:0:0:0:
204,152,228002,1,0,0:0:0:0:
235,114,228085,1,0,0:0:0:0:
280,132,228168,1,0,0:0:0:0:
278,180,228251,1,0,0:0:0:0:
306,219,228334,1,0,0:0:0:0:
354,224,228417,1,0,0:0:0:0:
396,200,228500,1,0,0:0:0:0:
418,157,228582,6,0,P|419:108|412:77,1,69.7500005321503
216,231,228748,2,0,P|215:280|222:311,1,69.7500005321503
256,83,228914,2,0,P|257:34|250:3,1,69.7500005321503
54,157,229080,2,0,P|53:206|60:237,1,69.7500005321503
127,329,229245,5,0,0:0:0:0:
170,307,229328,1,0,0:0:0:0:
218,300,229411,1,0,0:0:0:0:
265,310,229494,1,0,0:0:0:0:
307,334,229577,1,0,0:0:0:0:
355,338,229660,1,0,0:0:0:0:
397,314,229743,1,0,0:0:0:0:
419,271,229825,1,0,0:0:0:0:
411,222,229908,6,0,P|405:182|414:145,3,69.7500005321503
332,81,230240,2,0,P|337:115|331:149,3,69.7500005321503
245,215,230571,5,0,0:0:0:0:
197,225,230654,1,0,0:0:0:0:
149,212,230737,1,0,0:0:0:0:
109,183,230820,1,0,0:0:0:0:
92,136,230903,1,0,0:0:0:0:
74,181,230986,1,0,0:0:0:0:
25,185,231069,1,0,0:0:0:0:
0,146,231151,1,0,0:0:0:0:
20,101,231234,5,0,0:0:0:0:
68,98,231317,1,0,0:0:0:0:
92,136,231400,1,0,0:0:0:0:
138,150,231483,1,0,0:0:0:0:
185,139,231566,2,0,P|214:110|228:70,3,69.7500005321503
145,65,231897,5,0,0:0:0:0:
307,23,232060,5,0,0:0:0:0:
312,72,232141,1,0,0:0:0:0:
318,120,232223,1,0,0:0:0:0:
323,168,232304,1,0,0:0:0:0:
329,217,232386,1,0,0:0:0:0:
199,127,232549,5,0,0:0:0:0:
194,166,232630,1,0,0:0:0:0:
190,205,232712,1,0,0:0:0:0:
186,244,232793,1,0,0:0:0:0:
181,283,232875,1,0,0:0:0:0:
307,23,233038,5,0,0:0:0:0:
311,54,233119,1,0,0:0:0:0:
314,85,233201,1,0,0:0:0:0:
317,117,233282,1,0,0:0:0:0:
321,148,233364,1,0,0:0:0:0:
199,127,233527,5,0,0:0:0:0:
195,151,233608,1,0,0:0:0:0:
193,176,233690,1,0,0:0:0:0:
190,202,233772,1,0,0:0:0:0:
187,227,233853,1,0,0:0:0:0:
69,162,234016,5,0,0:0:0:0:
320,190,234179,1,0,0:0:0:0:
177,301,234342,1,0,0:0:0:0:
208,40,234505,5,0,0:0:0:0:
256,22,234586,1,0,0:0:0:0:
307,29,234668,1,0,0:0:0:0:
352,54,234750,1,0,0:0:0:0:
384,95,234832,1,0,0:0:0:0:
384,147,234914,1,0,0:0:0:0:
368,196,234995,1,0,0:0:0:0:
383,245,235077,1,0,0:0:0:0:
426,274,235159,6,0,P|465:281|503:273,1,74.2500007081032
293,157,235323,2,0,P|286:196|294:234,1,74.2500007081032
193,312,235486,2,0,P|154:319|116:311,1,74.2500007081032
38,217,235650,1,0,0:0:0:0:
26,181,235732,1,0,0:0:0:0:
15,145,235814,5,0,0:0:0:0:
62,165,235896,1,0,0:0:0:0:
113,162,235977,1,0,0:0:0:0:
153,128,236059,1,0,0:0:0:0:
201,108,236141,1,0,0:0:0:0:
251,119,236223,1,0,0:0:0:0:
286,156,236305,1,0,0:0:0:0:
298,205,236386,1,0,0:0:0:0:
280,253,236468,6,0,L|291:334,3,74.2500007081032
383,251,236796,2,0,L|392:177,3,74.2500007081032
465,85,237123,5,0,0:0:0:0:
416,104,237205,1,0,0:0:0:0:
363,101,237287,1,0,0:0:0:0:
318,75,237368,1,0,0:0:0:0:
288,31,237450,1,0,0:0:0:0:
238,15,237532,1,0,0:0:0:0:
186,21,237614,1,0,0:0:0:0:
141,47,237696,1,0,0:0:0:0:
118,93,237777,6,0,P|116:145|130:186,1,74.2500007081032
314,189,237941,2,0,P|269:161|227:152,1,74.2500007081032
130,304,238105,2,0,P|176:279|204:247,1,74.2500007081032
226,67,238268,2,0,P|193:107|181:149,1,74.2500007081032
274,263,238432,5,0,0:0:0:0:
317,290,238514,1,0,0:0:0:0:
369,287,238596,1,0,0:0:0:0:
415,263,238678,1,0,0:0:0:0:
438,217,238759,1,0,0:0:0:0:
438,164,238841,1,0,0:0:0:0:
409,120,238923,1,0,0:0:0:0:
363,94,239005,1,0,0:0:0:0:
310,93,239087,6,0,P|266:103|226:101,3,74.2500007081032
152,175,239414,2,0,P|189:175|224:184,3,74.2500007081032
95,303,239741,5,0,0:0:0:0:
53,270,239823,1,0,0:0:0:0:
29,223,239905,1,0,0:0:0:0:
23,171,239987,1,0,0:0:0:0:
36,120,240069,1,0,0:0:0:0:
69,80,240150,1,0,0:0:0:0:
115,56,240232,2,0,P|163:49|211:51,1,74.2500007081032
319,25,240396,5,0,0:0:0:0:
292,69,240478,1,0,0:0:0:0:
292,120,240559,1,0,0:0:0:0:
322,162,240641,1,0,0:0:0:0:
344,209,240723,1,0,0:0:0:0:
337,260,240805,1,0,0:0:0:0:
300,296,240887,2,0,P|269:307|218:305,1,74.2500007081032
246,188,241050,5,0,0:0:0:0:
293,165,241132,1,0,0:0:0:0:
344,172,241214,1,0,0:0:0:0:
386,202,241296,1,0,0:0:0:0:
438,201,241378,1,0,0:0:0:0:
474,164,241460,1,0,0:0:0:0:
477,112,241541,1,0,0:0:0:0:
440,74,241623,1,0,0:0:0:0:
388,77,241705,6,0,L|304:65,3,74.2500007081032
213,148,242032,2,0,L|297:136,3,74.2500007081032
215,42,242360,1,0,0:0:0:0:
56,95,242523,1,0,0:0:0:0:
33,141,242605,1,0,0:0:0:0:
30,193,242687,1,0,0:0:0:0:
51,240,242769,1,0,0:0:0:0:
93,270,242851,1,0,0:0:0:0:
183,174,243014,5,0,0:0:0:0:
193,130,243096,1,0,0:0:0:0:
216,91,243178,1,0,0:0:0:0:
251,64,243260,1,0,0:0:0:0:
292,48,243342,1,0,0:0:0:0:
310,182,243505,5,0,0:0:0:0:
318,218,243587,1,0,0:0:0:0:
338,249,243669,1,0,0:0:0:0:
368,270,243751,1,0,0:0:0:0:
403,280,243832,1,0,0:0:0:0:
460,143,243996,5,0,0:0:0:0:
456,113,244078,1,0,0:0:0:0:
444,85,244160,1,0,0:0:0:0:
424,62,244242,1,0,0:0:0:0:
397,49,244323,1,0,0:0:0:0:
367,46,244405,1,0,0:0:0:0:
338,53,244487,1,0,0:0:0:0:
312,68,244569,1,0,0:0:0:0:
291,90,244651,1,0,0:0:0:0:
268,109,244733,1,0,0:0:0:0:
241,120,244814,1,0,0:0:0:0:
211,122,244896,1,0,0:0:0:0:
184,116,244978,1,0,0:0:0:0:
256,192,245060,12,0,246303,0:0:0:0:
91,98,247629,5,0,0:0:0:0:
91,98,248298,6,0,B|134:94|166:115|166:115|211:55|292:55,1,215.999993408203
274,181,248779,1,0,0:0:0:0:
479,111,248940,2,0,L|366:122,1,107.999996704102
126,167,249261,2,0,L|239:178,1,107.999996704102
47,201,249583,5,0,0:0:0:0:
307,140,249743,1,0,0:0:0:0:
153,73,249904,1,0,0:0:0:0:
207,269,250065,1,0,0:0:0:0:
307,140,250225,1,0,0:0:0:0:
47,201,250386,2,0,B|33:258|33:258|61:315|61:315|43:371,1,180
250,227,250868,6,0,P|179:228|138:244,1,107.999996704102
321,317,251189,2,0,P|372:332|426:330,1,107.999996704102
377,110,251510,2,0,L|359:228,1,107.999996704102
161,347,251832,2,0,L|144:240,1,107.999996704102
256,287,252153,5,0,0:0:0:0:
40,198,252314,1,0,0:0:0:0:
275,298,252474,2,0,P|331:301|386:281,1,107.999996704102
314,176,252795,1,0,0:0:0:0:
448,352,252956,2,0,P|414:258|446:144,1,215.999993408203
291,33,253438,6,0,L|308:104,7,53.9999983520508
198,137,254081,2,0,L|210:84,7,53.9999983520508
146,32,254723,5,0,0:0:0:0:
104,18,254804,1,0,0:0:0:0:
62,28,254884,1,0,0:0:0:0:
32,59,254964,1,0,0:0:0:0:
23,101,255044,1,0,0:0:0:0:
38,141,255125,1,0,0:0:0:0:
74,163,255205,1,0,0:0:0:0:
108,189,255285,1,0,0:0:0:0:
110,232,255366,1,0,0:0:0:0:
83,266,255446,1,0,0:0:0:0:
40,270,255526,1,0,0:0:0:0:
4,244,255607,1,0,0:0:0:0:
2,201,255687,1,0,0:0:0:0:
30,168,255767,1,0,0:0:0:0:
74,163,255848,1,0,0:0:0:0:
115,175,255928,1,0,0:0:0:0:
158,173,256008,6,0,L|268:150,1,107.999996704102
365,119,256330,1,0,0:0:0:0:
226,295,256651,6,0,L|116:272,1,107.999996704102
19,241,256973,1,0,0:0:0:0:
353,71,257293,6,0,L|376:181,1,107.999996704102
407,278,257615,1,0,0:0:0:0:
273,188,257775,1,0,0:0:0:0:
458,85,257936,5,0,0:0:0:0:
236,29,258097,2,0,P|182:48|101:45,1,135.000005149842
0,229,258579,6,0,B|105:191|105:266|211:229,1,215.999993408203
158,127,259061,1,0,0:0:0:0:
305,31,259221,2,0,L|283:145,1,107.999996704102
407,343,259542,2,0,L|386:236,1,107.999996704102
405,117,259864,5,0,0:0:0:0:
273,248,260024,1,0,0:0:0:0:
131,138,260185,2,0,P|117:75|127:26,1,107.999996704102
231,78,260506,1,0,0:0:0:0:
27,182,260667,2,0,P|106:168|197:217,1,180
249,324,261149,6,0,B|240:282|207:256|207:256|241:217|241:217|219:182|220:138,1,215.999993408203
338,147,261631,1,0,0:0:0:0:
153,335,261791,2,0,L|38:321,1,107.999996704102
311,257,262113,2,0,L|426:243,1,107.999996704102
175,106,262434,6,0,L|189:221,1,107.999996704102
52,181,262755,1,0,0:0:0:0:
460,121,263077,1,0,0:0:0:0:
365,59,263237,2,0,P|345:124|290:41,1,215.999993408203
402,227,263708,5,0,0:0:0:0:
390,270,263788,1,0,0:0:0:0:
354,297,263869,1,0,0:0:0:0:
311,310,263949,1,0,0:0:0:0:
266,307,264030,1,0,0:0:0:0:
224,289,264111,1,0,0:0:0:0:
198,251,264191,1,0,0:0:0:0:
187,207,264272,1,0,0:0:0:0:
195,162,264353,2,0,P|205:132|222:107,7,53.9999983520508
302,189,264998,5,0,0:0:0:0:
267,218,265079,1,0,0:0:0:0:
223,229,265159,1,0,0:0:0:0:
178,230,265240,1,0,0:0:0:0:
134,218,265321,1,0,0:0:0:0:
97,190,265401,1,0,0:0:0:0:
69,154,265482,1,0,0:0:0:0:
61,109,265563,1,0,0:0:0:0:
65,64,265643,2,0,P|73:32|83:12,7,53.9999983520508
156,74,266288,6,0,L|269:61,1,107.999996704102
439,172,266611,2,0,L|325:159,1,107.999996704102
396,67,266934,1,0,0:0:0:0:
225,151,267095,1,0,0:0:0:0:
377,254,267256,2,0,P|379:310|356:362,1,107.999996704102
271,288,267579,5,0,0:0:0:0:
486,253,267740,1,0,0:0:0:0:
246,296,267901,2,0,L|128:278,1,107.999996704102
209,176,268224,5,0,0:0:0:0:
74,42,268385,2,0,L|80:188,1,135.000005149842
378,128,268893,6,0,P|294:156|189:93,1,215.999993408203
299,25,269379,1,0,0:0:0:0:
491,100,269541,2,0,B|491:157|491:157|458:213,1,107.999996704102
383,343,269865,2,0,B|357:299|357:299|357:242,1,107.999996704102
185,113,270190,6,0,P|254:85|381:151,1,215.999993408203
269,207,270676,1,0,0:0:0:0:
480,119,270838,1,0,0:0:0:0:
269,207,271001,2,0,B|254:267|254:267|275:312|275:312|259:381,1,180
82,335,271487,6,0,L|202:325,1,107.999996704102
450,268,271811,2,0,L|330:258,1,107.999996704102
411,153,272136,1,0,0:0:0:0:
387,369,272298,1,0,0:0:0:0:
411,153,272460,2,0,P|410:90|392:43,1,107.999996704102
175,128,272784,6,0,P|226:111|279:111,1,107.999996704102
303,233,273109,1,0,0:0:0:0:
303,233,273433,1,0,0:0:0:0:
158,240,273595,2,0,L|131:21,1,215.999993408203
49,155,274082,5,0,0:0:0:0:
44,203,274163,1,0,0:0:0:0:
39,251,274244,1,0,0:0:0:0:
34,299,274325,1,0,0:0:0:0:
28,347,274406,2,0,L|93:333,3,53.9999983520508
151,285,274730,1,0,0:0:0:0:
194,305,274811,1,0,0:0:0:0:
243,303,274893,1,0,0:0:0:0:
287,282,274974,1,0,0:0:0:0:
316,243,275055,2,0,L|379:275,3,53.9999983520508
452,235,275379,5,0,0:0:0:0:
478,194,275460,1,0,0:0:0:0:
478,145,275541,1,0,0:0:0:0:
452,103,275622,1,0,0:0:0:0:
408,80,275703,1,0,0:0:0:0:
360,87,275784,1,0,0:0:0:0:
321,117,275865,1,0,0:0:0:0:
277,140,275947,1,0,0:0:0:0:
229,150,276028,1,0,0:0:0:0:
181,139,276109,1,0,0:0:0:0:
140,112,276190,1,0,0:0:0:0:
110,73,276271,1,0,0:0:0:0:
102,25,276352,2,0,L|161:7,3,53.9999983520508
28,64,276676,6,0,L|16:177,1,107.999996704102
228,231,277001,2,0,P|118:215|33:287,1,215.999993408203
154,342,277487,1,0,0:0:0:0:
291,341,277649,2,0,L|420:322,1,107.999996704102
303,112,277974,6,0,L|322:241,1,107.999996704102
421,182,278298,1,0,0:0:0:0:
196,108,278460,1,0,0:0:0:0:
411,63,278622,1,0,0:0:0:0:
206,228,278784,1,0,0:0:0:0:
206,228,279109,1,0,0:0:0:0:
206,228,279190,1,0,0:0:0:0:
206,228,279271,5,0,0:0:0:0:
57,187,279437,1,0,0:0:0:0:
149,24,279596,2,0,L|159:127,1,90
196,343,279913,2,0,L|204:253,1,90
309,309,280231,1,0,0:0:0:0:
94,286,280390,1,0,0:0:0:0:
328,314,280548,6,0,P|379:308|421:288,1,90
325,112,280866,2,0,P|342:153|346:198,1,90
230,243,281183,1,0,0:0:0:0:
114,127,281342,1,0,0:0:0:0:
152,139,281421,1,0,0:0:0:0:
192,138,281501,1,0,0:0:0:0:
229,123,281580,1,0,0:0:0:0:
259,96,281659,1,0,0:0:0:0:
280,61,281739,1,0,0:0:0:0:
290,22,281818,5,0,0:0:0:0:
170,20,281977,1,0,0:0:0:0:
363,107,282136,2,0,P|379:160|374:207,1,90
172,176,282453,2,0,L|266:166,1,90
89,257,282771,2,0,L|-5:247,1,90
58,147,283088,5,0,0:0:0:0:
194,278,283247,1,0,0:0:0:0:
204,129,283405,2,0,L|211:88,5,30
156,190,283723,1,0,0:0:0:0:
293,231,283882,1,0,0:0:0:0:
48,279,284040,1,0,0:0:0:0:
184,337,284199,1,0,0:0:0:0:
23,273,284358,6,0,P|9:216|14:177,1,90
225,197,284675,2,0,L|130:214,1,90
5,79,284993,2,0,L|100:96,1,90
341,61,285310,2,0,P|260:79|175:32,1,180
450,7,285786,5,0,0:0:0:0:
490,112,285945,2,0,L|501:210,1,90
351,169,286263,1,0,0:0:0:0:
408,284,286421,1,0,0:0:0:0:
374,306,286501,1,0,0:0:0:0:
334,313,286580,1,0,0:0:0:0:
294,307,286659,1,0,0:0:0:0:
257,288,286739,1,0,0:0:0:0:
218,276,286818,1,0,0:0:0:0:
178,280,286898,6,0,P|121:289|79:278,1,90
123,150,287220,2,0,L|130:180,2,30
89,125,287381,2,0,L|92:74,2,45
206,13,287704,1,0,0:0:0:0:
291,101,287865,2,0,L|325:94,5,30
383,129,288188,5,0,0:0:0:0:
254,199,288349,1,0,0:0:0:0:
380,247,288510,2,0,L|373:343,1,90
489,288,288833,1,0,0:0:0:0:
250,323,288994,1,0,0:0:0:0:
250,323,289075,1,0,0:0:0:0:
250,323,289156,1,0,0:0:0:0:
489,288,289317,1,0,0:0:0:0:
250,323,289456,6,0,L|158:307,1,90
243,138,289773,2,0,P|243:193|230:231,1,90
37,156,290090,2,0,P|80:168|124:166,1,90
157,50,290408,1,0,0:0:0:0:
344,136,290567,1,0,0:0:0:0:
194,209,290725,6,0,L|202:312,1,90
344,136,291043,2,0,L|350:46,1,90
461,100,291360,1,0,0:0:0:0:
235,72,291519,1,0,0:0:0:0:
199,91,291598,1,0,0:0:0:0:
158,93,291678,1,0,0:0:0:0:
120,79,291757,1,0,0:0:0:0:
136,115,291836,1,0,0:0:0:0:
142,155,291916,1,0,0:0:0:0:
143,195,291995,6,0,P|131:253|116:293,1,90
256,120,292313,2,0,P|241:77|233:33,1,90
445,213,292630,2,0,L|352:202,1,90
120,281,292948,2,0,L|213:270,1,90
147,169,293265,5,0,0:0:0:0:
317,299,293424,1,0,0:0:0:0:
292,137,293582,2,0,L|286:173,5,30
247,224,293900,1,0,0:0:0:0:
399,162,294059,1,0,0:0:0:0:
180,162,294217,1,0,0:0:0:0:
449,233,294376,1,0,0:0:0:0:
301,102,294535,6,0,P|296:44|306:2,1,90
180,162,294859,2,0,P|186:206|181:250,1,90
0,75,295183,2,0,L|105:85,1,90
358,188,295507,2,0,L|253:198,1,90
89,212,295832,5,0,0:0:0:0:
258,288,295994,1,0,0:0:0:0:
74,203,296156,2,0,P|63:141|68:101,1,90
155,283,296480,2,0,P|156:327|146:371,1,90
36,309,296805,1,0,0:0:0:0:
459,222,297129,5,0,0:0:0:0:
66,112,297778,1,0,0:0:0:0:
421,64,298264,6,0,L|428:98,3,30
284,213,298589,2,0,L|291:165,6,45
182,50,299237,1,0,0:0:0:0:
456,220,299724,1,0,0:0:0:0:
256,192,299890,12,0,310367,0:0:0:0:
