osu file format v14

[General]
AudioFilename: audio.mp3
AudioLeadIn: 0
PreviewTime: 85784
Countdown: 0
SampleSet: Normal
StackLeniency: 0.4
Mode: 3
LetterboxInBreaks: 0
SpecialStyle: 0
WidescreenStoryboard: 1

[Editor]
DistanceSpacing: 1.3
BeatDivisor: 4
GridSize: 32
TimelineZoom: 2.5

[Metadata]
Title:Sulfur
TitleUnicode:Sulfur
Artist:Slipknot
ArtistUnicode:Slipknot
Creator:puxtu
Version:Suffocation
Source:
Tags:All Hope is Gone rock metal
BeatmapID:1683849
BeatmapSetID:799421

[Difficulty]
HPDrainRate:9
CircleSize:4
OverallDifficulty:9
ApproachRate:9.6
SliderMultiplier:1.4
SliderTickRate:1

[Events]
//Background and Video events
0,0,"fantastika-art-lava-suschestvo.jpg",0,0
//Break Periods
//Storyboard Layer 0 (Background)
//Storyboard Layer 1 (Fail)
//Storyboard Layer 2 (Pass)
//Storyboard Layer 3 (Foreground)
//Storyboard Layer 4 (Overlay)
//Storyboard Sound Samples

[TimingPoints]
260,342.857142857143,4,1,1,50,1,0
260,-83.3333333333333,4,1,1,50,0,0
431,591.133004926108,4,1,1,50,1,0
431,-48.3091787439614,4,1,1,50,0,0
1022,318.302387267905,4,1,1,50,1,0
1022,-90.0900900900901,4,1,1,50,0,0
3568,315.789473684211,4,1,1,50,1,0
3568,-90.0900900900901,4,1,1,50,0,0
4831,317.460317460318,4,1,1,50,1,0
4831,-90.0900900900901,4,1,1,50,0,0
6100,318.302387267905,4,1,1,50,1,0
6100,-90.0900900900901,4,1,1,50,0,0
7373,322.58064516129,4,1,1,50,1,0
7373,-88.495575221239,4,1,1,50,0,0
7856,311.688311688312,4,1,1,50,1,0
7856,-91.743119266055,4,1,1,50,0,0
8167,320.855614973262,4,1,1,50,1,0
8167,-89.2857142857143,4,1,1,50,0,0
8648,315.789473684211,4,1,1,50,1,0
8648,-90.0900900900901,4,1,1,50,0,0
9911,317.460317460318,4,1,1,50,1,0
9911,-90.0900900900901,4,1,1,50,0,0
11180,300,4,1,1,50,1,0
11180,-95.2380952380952,4,1,1,50,0,0
30380,285.714285714286,4,1,1,50,1,0
30380,-100,4,1,1,50,0,0
57808,300,4,1,1,50,1,0
57808,-95.2380952380952,4,1,1,50,0,0
66208,303.030303030303,4,1,1,50,1,0
66208,-94.3396226415094,4,1,1,50,0,0
67420,287.081339712919,4,1,1,50,1,0
67420,-100,4,1,1,50,0,0
76606,286.396181384248,4,1,1,50,1,0
76606,-100,4,1,1,50,0,0
84625,289.855072463768,4,1,1,50,1,0
84625,-99.009900990099,4,1,1,50,0,0
85784,285.714285714286,4,1,1,50,1,1
85784,-100,4,1,1,50,0,1
104069,314.13612565445,4,1,1,50,1,0
104069,-90.9090909090909,4,1,1,50,0,0
105325,338.983050847457,4,1,1,50,1,0
105325,-84.0336134453782,4,1,1,50,0,0
105833,342.857142857143,4,1,1,50,1,0
105833,-83.3333333333333,4,1,1,50,0,0
106004,285.714285714286,4,1,1,50,1,0
106004,-100,4,1,1,50,0,0
106575,312.5,4,1,1,50,1,0
106575,-91.743119266055,4,1,1,50,0,0
109075,297.029702970297,4,1,1,50,1,0
109075,-96.1538461538461,4,1,1,50,0,0
118579,285.714285714286,4,1,1,50,1,0
118579,-100,4,1,1,50,0,0
136864,284.36018957346,4,1,1,50,1,1
136864,-100,4,1,1,50,0,1
155063,258.620689655172,4,1,1,50,1,0
155063,-109.89010989011,4,1,1,50,0,0
175752,255.31914893617,4,1,1,50,1,0
175752,-112.359550561798,4,1,1,50,0,0
179837,291.26213592233,4,1,1,50,1,0
179837,-98.0392156862745,4,1,1,50,0,0
180128,253.164556962025,4,1,1,50,1,0
180128,-112.359550561798,4,1,1,50,0,0
180634,266.666666666666,4,1,1,50,1,0
180634,-107.52688172043,4,1,1,50,0,0
180900,256.410256410256,4,1,1,50,1,0
180900,-111.111111111111,4,1,1,50,0,0
181412,246.913580246913,4,1,1,50,1,0
181412,-116.279069767442,4,1,1,50,0,0
181905,265.486725663717,4,1,1,50,1,0
181905,-107.52688172043,4,1,1,50,0,0
182170,256.410256410256,4,1,1,50,1,0
182170,-111.111111111111,4,1,1,50,0,0
182682,262.008733624454,4,1,1,50,1,0
182682,-108.695652173913,4,1,1,50,0,0
182944,252.100840336134,4,1,1,50,1,0
182944,-113.636363636364,4,1,1,50,0,0
183448,255.31914893617,4,1,1,50,1,0
183448,-112.359550561798,4,1,1,50,0,0
185490,257.510729613734,4,1,1,50,1,0
185490,-111.111111111111,4,1,1,50,0,0
186005,281.690140845071,4,1,1,50,1,0
186005,-101.010101010101,4,1,1,50,0,0
186286,250,4,1,1,50,1,0
186286,-113.636363636364,4,1,1,50,0,0
187161,285.714285714286,4,1,1,50,1,0
187161,-100,4,1,1,50,0,0
187303,260.869565217391,4,1,1,50,1,0
187303,-109.89010989011,4,1,1,50,0,0
188085,275.229357798165,4,1,1,50,1,1
188085,-104.166666666667,4,1,1,50,0,1
204598,-104.166666666667,4,1,1,50,0,0
205699,-104.166666666667,4,1,1,50,0,1
223314,272.727272727273,4,1,1,50,1,0
223314,-105.263157894737,4,1,1,50,0,0
224404,260.869565217392,4,1,1,50,1,0
224404,-109.89010989011,4,1,1,50,0,0
225447,263.157894736843,4,1,1,50,1,0
225447,-108.695652173913,4,1,1,50,0,0
226499,255.31914893617,4,1,1,50,1,0
226499,-112.359550561798,4,1,1,50,0,0
227520,259.740259740259,4,1,1,50,1,0
227520,-109.89010989011,4,1,1,50,0,0
228558,257.510729613733,4,1,1,50,1,0
228558,-111.111111111111,4,1,1,50,0,0
229588,260.86956521739,4,1,1,50,1,0
229588,-109.89010989011,4,1,1,50,0,0
230631,249.999999999999,4,1,1,50,1,0
230631,-114.942528735632,4,1,1,50,0,0
231631,260.86956521739,4,1,1,50,1,0
231631,-109.89010989011,4,1,1,50,0,0
232674,249.999999999999,4,1,1,50,1,0
232674,-114.942528735632,4,1,1,50,0,0
233674,260.86956521739,4,1,1,50,1,0
233674,-109.89010989011,4,1,1,50,0,0
234717,249.999999999999,4,1,1,50,1,0
234717,-114.942528735632,4,1,1,50,0,0
235717,260.86956521739,4,1,1,50,1,0
235717,-109.89010989011,4,1,1,50,0,0
236760,241.935483870966,4,1,1,50,1,0
236760,-117.647058823529,4,1,1,50,0,0
237243,263.15789473684,4,1,1,50,1,0
237243,-108.695652173913,4,1,1,50,0,0
237769,260.869565217389,4,1,1,50,1,0
237769,-109.89010989011,4,1,1,50,0,0
238290,256.410256410254,4,1,1,50,1,0
238290,-111.111111111111,4,1,1,50,0,0
238802,254.237288135591,4,1,1,50,1,0
238802,-112.359550561798,4,1,1,50,0,0
238929,324.324324324324,4,1,1,50,1,0
238929,-87.719298245614,4,1,1,50,0,0
239091,259.740259740259,4,1,1,50,1,0
239091,-109.89010989011,4,1,1,50,0,0
239870,289.855072463768,4,1,1,50,1,0
239870,-99.009900990099,4,1,1,50,0,1
240304,240,4,1,1,50,1,1
240304,-119.047619047619,4,1,1,50,0,1
240424,292.682926829268,4,1,1,50,1,1
240424,-98.0392156862745,4,1,1,50,0,1
240716,256.410256410256,4,1,1,50,1,1
240716,-111.111111111111,4,1,1,50,0,1
241100,265.486725663717,4,1,1,50,1,1
241100,-107.52688172043,4,1,1,50,0,1
241365,250,4,1,1,50,1,1
241365,-113.636363636364,4,1,1,50,0,1
241490,287.081339712919,4,1,1,50,1,1
241490,-100,4,1,1,50,0,1
241777,253.164556962025,4,1,1,50,1,1
241777,-112.359550561798,4,1,1,50,0,1
242030,272.727272727273,4,1,1,50,1,1
242030,-105.263157894737,4,1,1,50,0,1
242439,266.666666666667,4,1,1,50,1,1
242439,-107.52688172043,4,1,1,50,0,1
243239,269.058295964126,4,1,1,50,1,1
243239,-106.382978723404,4,1,1,50,0,1
243508,244.897959183673,4,1,1,50,1,1
243508,-116.279069767442,4,1,1,50,0,1
243630,280.373831775701,4,1,1,50,1,1
243630,-102.040816326531,4,1,1,50,0,1
243910,260.869565217391,4,1,1,50,1,1
243910,-109.89010989011,4,1,1,50,0,1
244170,280.373831775701,4,1,1,50,1,1
244170,-102.040816326531,4,1,1,50,0,1
244590,255.31914893617,4,1,1,50,1,1
244590,-112.359550561798,4,1,1,50,0,1
244717,275.229357798165,4,1,1,50,1,1
244717,-104.166666666667,4,1,1,50,0,1
244992,267.857142857143,4,1,1,50,1,1
244992,-106.382978723404,4,1,1,50,0,1
245393,270.27027027027,4,1,1,50,1,1
245393,-105.263157894737,4,1,1,50,0,1
245663,240,4,1,1,50,1,1
245663,-119.047619047619,4,1,1,50,0,1
245783,266.666666666667,4,1,1,50,1,1
245783,-107.52688172043,4,1,1,50,0,1
246316,271.493212669683,4,1,1,50,1,1
246316,-105.263157894737,4,1,1,50,0,1
246858,262.008733624454,4,1,1,50,1,1
246858,-108.695652173913,4,1,1,50,0,1
247513,270.27027027027,4,1,1,50,1,1
247513,-105.263157894737,4,1,1,50,0,1
247783,263.157894736842,4,1,1,50,1,1
247783,-108.695652173913,4,1,1,50,0,1
247914,275.229357798165,4,1,1,50,1,1
247914,-104.166666666667,4,1,1,50,0,1
248189,247.933884297521,4,1,1,50,1,1
248189,-114.942528735632,4,1,1,50,0,1
248436,287.081339712919,4,1,1,50,1,1
248436,-100,4,1,1,50,0,1
248866,247.933884297521,4,1,1,50,1,1
248866,-114.942528735632,4,1,1,50,0,1
248989,281.69014084507,4,1,1,50,1,1
248989,-101.010101010101,4,1,1,50,0,1
249270,272.727272727273,4,1,1,50,1,1
249270,-105.263157894737,4,1,1,50,0,1
249679,255.31914893617,4,1,1,50,1,1
249679,-112.359550561798,4,1,1,50,0,1
249934,246.913580246914,4,1,1,50,1,1
249934,-116.279069767442,4,1,1,50,0,1
250057,257.510729613734,4,1,1,50,1,1
250057,-111.111111111111,4,1,1,50,0,1
250314,253.164556962025,4,1,1,50,1,1
250314,-112.359550561798,4,1,1,50,0,1
250567,276.497695852535,4,1,1,50,1,1
250567,-103.092783505155,4,1,1,50,0,1
250981,270.27027027027,4,1,1,50,1,1
250981,-105.263157894737,4,1,1,50,0,1
251116,267.857142857143,4,1,1,50,1,1
251116,-106.382978723404,4,1,1,50,0,1
251383,279.06976744186,4,1,1,50,1,1
251383,-102.040816326531,4,1,1,50,0,1
251801,270.27027027027,4,1,1,50,1,1
251801,-105.263157894737,4,1,1,50,0,1
252071,240,4,1,1,50,1,1
252071,-119.047619047619,4,1,1,50,0,1
252191,267.857142857142,4,1,1,50,1,1
252191,-106.382978723404,4,1,1,50,0,1
252726,277.777777777778,4,1,1,50,1,1
252726,-103.092783505155,4,1,1,50,0,1
253142,272.727272727273,4,1,1,50,1,1
253142,-105.263157894737,4,1,1,50,0,1
253550,260.869565217391,4,1,1,50,1,1
253550,-109.89010989011,4,1,1,50,0,1
253941,266.666666666667,4,1,1,50,1,1
253941,-107.52688172043,4,1,1,50,0,1
254207,240,4,1,1,50,1,1
254207,-119.047619047619,4,1,1,50,0,1
254327,260.869565217391,4,1,1,50,1,1
254327,-109.89010989011,4,1,1,50,0,1
254848,281.69014084507,4,1,1,50,1,1
254848,-101.010101010101,4,1,1,50,0,1
255270,244.897959183673,4,1,1,50,1,1
255270,-116.279069767442,4,1,1,50,0,1
255392,270.27027027027,4,1,1,50,1,1
255392,-105.263157894737,4,1,1,50,0,1
255662,257.510729613734,4,1,1,50,1,1
255662,-111.111111111111,4,1,1,50,0,1
255919,240,4,1,1,50,1,1
255919,-119.047619047619,4,1,1,50,0,1
256039,254.237288135593,4,1,1,50,1,1
256039,-112.359550561798,4,1,1,50,0,1
256928,277.777777777778,4,1,1,50,1,0
256928,-103.092783505155,4,1,1,50,0,0
257344,264.31718061674,4,1,1,50,1,0
257344,-107.52688172043,4,1,1,50,0,0
257740,257.510729613734,4,1,1,50,1,0
257740,-111.111111111111,4,1,1,50,0,0
258512,284.36018957346,4,1,1,50,1,0
258512,-100,4,1,1,50,0,0
258796,242.914979757085,4,1,1,50,1,0
258796,-117.647058823529,4,1,1,50,0,0
259038,276.497695852535,4,1,1,50,1,0
259038,-103.092783505155,4,1,1,50,0,0
259867,243.90243902439,4,1,1,50,1,0
259867,-117.647058823529,4,1,1,50,0,0
260110,297.029702970297,4,1,1,50,1,0
260110,-96.1538461538461,4,1,1,50,0,0
260258,256.410256410256,4,1,1,50,1,0
260258,-111.111111111111,4,1,1,50,0,0
260514,243.90243902439,4,1,1,50,1,0
260514,-117.647058823529,4,1,1,50,0,0
260635,270.27027027027,4,1,1,50,1,0
260635,-105.263157894737,4,1,1,50,0,0
261175,269.058295964126,4,1,1,50,1,0
261175,-106.382978723404,4,1,1,50,0,0
261982,250,4,1,1,50,1,0
261982,-113.636363636364,4,1,1,50,0,0
262232,256.410256410256,4,1,1,50,1,0
262232,-111.111111111111,4,1,1,50,0,0
262360,267.857142857143,4,1,1,50,1,0
262360,-106.382978723404,4,1,1,50,0,0
262627,250,4,1,1,50,1,0
262627,-113.636363636364,4,1,1,50,0,0
262752,279.06976744186,4,1,1,50,1,0
262752,-102.040816326531,4,1,1,50,0,0
263031,260.869565217391,4,1,1,50,1,0
263031,-109.89010989011,4,1,1,50,0,0
263291,266.666666666667,4,1,1,50,1,0
263291,-107.52688172043,4,1,1,50,0,0
263691,259.74025974026,4,1,1,50,1,0
263691,-109.89010989011,4,1,1,50,0,0
264340,279.06976744186,4,1,1,50,1,0
264340,-102.040816326531,4,1,1,50,0,0
264479,260.869565217391,4,1,1,50,1,0
264479,-109.89010989011,4,1,1,50,0,0
264609,222.222222222222,4,1,1,50,1,0
264609,-128.205128205128,4,1,1,50,0,0
264720,260.869565217391,4,1,1,50,1,0
264720,-109.89010989011,4,1,1,50,0,0
264850,244.897959183673,4,1,1,50,1,0
264850,-116.279069767442,4,1,1,50,0,0
264972,222.222222222222,4,1,1,50,1,0
264972,-128.205128205128,4,1,1,50,0,0
265083,250,4,1,1,50,1,0
265083,-113.636363636364,4,1,1,50,0,0
265333,277.777777777778,4,1,1,50,1,0
265333,-103.092783505155,4,1,1,50,0,0
265749,246.913580246914,4,1,1,50,1,0
265749,-116.279069767442,4,1,1,50,0,0
266119,235.294117647059,4,1,1,50,1,0
266119,-121.951219512195,4,1,1,50,0,0
266354,279.06976744186,4,1,1,50,1,0
266354,-102.040816326531,4,1,1,50,0,0
266493,258.620689655172,4,1,1,50,1,0
266493,-109.89010989011,4,1,1,50,0,0
266751,240,4,1,1,50,1,0
266751,-119.047619047619,4,1,1,50,0,0
266871,269.058295964126,4,1,1,50,1,0
266871,-106.382978723404,4,1,1,50,0,0
267140,252.100840336134,4,1,1,50,1,0
267140,-113.636363636364,4,1,1,50,0,0
267392,280.373831775701,4,1,1,50,1,0
267392,-102.040816326531,4,1,1,50,0,0
267812,265.486725663717,4,1,1,50,1,0
267812,-107.52688172043,4,1,1,50,0,0
268210,240,4,1,1,50,1,0
268210,-119.047619047619,4,1,1,50,0,0
268450,266.666666666667,4,1,1,50,1,0
268450,-107.52688172043,4,1,1,50,0,0
268850,250,4,1,1,50,1,0
268850,-113.636363636364,4,1,1,50,0,0
268975,267.857142857143,4,1,1,50,1,0
268975,-106.382978723404,4,1,1,50,0,0
269242,259.740259740259,4,1,1,50,1,0
269242,-109.89010989011,4,1,1,50,0,0
269501,270.27027027027,4,1,1,50,1,0
269501,-105.263157894737,4,1,1,50,0,0
270311,240,4,1,1,50,1,0
270311,-119.047619047619,4,1,1,50,0,0
270551,257.510729613734,4,1,1,50,1,0
270551,-111.111111111111,4,1,1,50,0,0
270937,244.897959183673,4,1,1,50,1,0
270937,-116.279069767442,4,1,1,50,0,0
271059,284.36018957346,4,1,1,50,1,0
271059,-100,4,1,1,50,0,0
271343,250,4,1,1,50,1,0
271343,-113.636363636364,4,1,1,50,0,0
271593,269.058295964126,4,1,1,50,1,0
271593,-106.382978723404,4,1,1,50,0,0
271862,287.081339712919,4,1,1,50,1,0
271862,-100,4,1,1,50,0,0
272005,255.31914893617,4,1,1,50,1,0
272005,-112.359550561798,4,1,1,50,0,0
272260,253.164556962025,4,1,1,50,1,0
272260,-112.359550561798,4,1,1,50,0,0
272639,275.229357798165,4,1,1,50,1,0
272639,-104.166666666667,4,1,1,50,0,0
272776,250,4,1,1,50,1,0
272776,-113.636363636364,4,1,1,50,0,0
273026,244.897959183673,4,1,1,50,1,0
273026,-116.279069767442,4,1,1,50,0,0
273148,255.31914893617,4,1,1,50,1,0
273148,-112.359550561798,4,1,1,50,0,0

[HitObjects]
448,192,260,5,0,0:0:0:0:
320,192,317,1,0,0:0:0:0:
192,192,374,1,0,0:0:0:0:
64,192,431,1,0,0:0:0:0:
448,192,431,128,0,1022:0:0:0:0:
192,192,1022,1,4,0:0:0:0:
320,192,1022,1,2,0:0:0:0:
64,192,1022,128,0,2295:0:0:0:0:
320,192,1658,1,2,0:0:0:0:
448,192,2295,1,2,0:0:0:0:
192,192,2295,1,4,0:0:0:0:
320,192,2295,128,0,2931:0:0:0:0:
64,192,2931,1,8,0:0:0:0:
192,192,2931,1,0,0:0:0:0:
320,192,3011,1,0,0:0:0:0:
448,192,3011,1,8,0:0:0:0:
192,192,3090,1,0,0:0:0:0:
64,192,3568,1,0,0:0:0:0:
192,192,3568,1,4,0:0:0:0:
320,192,3568,128,2,4199:0:0:0:0:
192,192,4199,1,4,0:0:0:0:
448,192,4199,1,0,0:0:0:0:
64,192,4199,128,2,4831:0:0:0:0:
448,192,4831,1,0,0:0:0:0:
320,192,4831,1,8,3:0:0:0:
192,192,4910,1,0,0:0:0:0:
64,192,4989,1,0,0:0:0:0:
448,192,4989,1,8,3:0:0:0:
320,192,5069,1,0,0:0:0:0:
64,192,5148,1,8,3:0:0:0:
192,192,5148,1,0,0:0:0:0:
320,192,5227,1,0,0:0:0:0:
64,192,5307,1,0,0:0:0:0:
448,192,5307,1,8,3:0:0:0:
192,192,5386,1,0,0:0:0:0:
320,192,5465,1,0,0:0:0:0:
448,192,5465,1,8,3:0:0:0:
192,192,5545,1,0,0:0:0:0:
64,192,5624,1,0,0:0:0:0:
448,192,5624,1,8,3:0:0:0:
320,192,5704,1,0,0:0:0:0:
64,192,5783,1,8,3:0:0:0:
192,192,5783,1,0,0:0:0:0:
320,192,5862,1,0,0:0:0:0:
64,192,5942,1,0,0:0:0:0:
448,192,5942,1,8,3:0:0:0:
192,192,6021,1,0,0:0:0:0:
448,192,6100,1,2,0:0:0:0:
320,192,6100,1,4,0:0:0:0:
64,192,6100,128,0,7373:0:0:0:0:
192,192,6736,1,2,0:0:0:0:
448,192,7373,1,2,0:0:0:0:
192,192,7373,1,4,0:0:0:0:
320,192,7373,128,0,7856:0:0:0:0:
64,192,7856,1,0,0:0:0:0:
192,192,7959,1,0,0:0:0:0:
320,192,8011,1,0,0:0:0:0:
448,192,8011,1,8,0:0:0:0:
192,192,8063,1,0,0:0:0:0:
64,192,8063,1,8,0:0:0:0:
448,192,8167,1,0,0:0:0:0:
320,192,8648,1,4,0:0:0:0:
64,192,8648,1,0,0:0:0:0:
192,192,8648,128,2,9279:0:0:0:0:
448,192,9279,1,2,0:0:0:0:
320,192,9279,1,4,0:0:0:0:
64,192,9279,128,0,9911:0:0:0:0:
320,192,9911,1,0,0:0:0:0:
448,192,9911,1,8,0:0:0:0:
192,192,9990,1,0,0:0:0:0:
64,192,9990,1,8,0:0:0:0:
448,192,10069,1,0,0:0:0:0:
64,192,10149,1,0,0:0:0:0:
320,192,10228,1,0,0:0:0:0:
448,192,10228,1,8,3:0:0:0:
192,192,10307,1,0,0:0:0:0:
64,192,10307,1,8,3:0:0:0:
320,192,10387,1,0,0:0:0:0:
192,192,10466,1,0,0:0:0:0:
320,192,10545,1,0,0:0:0:0:
448,192,10545,1,8,3:0:0:0:
192,192,10625,1,0,0:0:0:0:
64,192,10625,1,8,3:0:0:0:
448,192,10704,1,0,0:0:0:0:
64,192,10784,1,0,0:0:0:0:
448,192,10863,1,8,3:0:0:0:
320,192,10863,1,0,0:0:0:0:
64,192,10942,1,8,3:0:0:0:
192,192,10942,1,0,0:0:0:0:
320,192,11022,1,0,0:0:0:0:
192,192,11101,1,0,0:0:0:0:
320,192,11180,1,0,0:0:0:0:
448,192,11180,1,8,0:0:0:0:
64,192,11180,1,4,0:0:0:0:
192,192,11480,1,0,0:0:0:0:
448,192,11480,1,0,0:0:0:0:
64,192,11555,1,0,0:0:0:0:
320,192,11630,1,0,0:0:0:0:
448,192,11705,1,0,0:0:0:0:
192,192,11780,1,8,0:0:0:0:
64,192,11780,1,8,0:0:0:0:
320,192,11780,1,0,0:0:0:0:
448,192,11855,1,0,0:0:0:0:
192,192,11930,1,0,0:0:0:0:
64,192,12005,1,0,0:0:0:0:
448,192,12080,1,0,0:0:0:0:
192,192,12080,1,0,0:0:0:0:
320,192,12155,1,0,0:0:0:0:
192,192,12230,1,0,0:0:0:0:
448,192,12305,1,0,0:0:0:0:
320,192,12380,1,0,0:0:0:0:
64,192,12380,1,8,0:0:0:0:
192,192,12380,1,8,0:0:0:0:
448,192,12455,1,0,0:0:0:0:
64,192,12530,1,0,0:0:0:0:
320,192,12605,1,0,0:0:0:0:
192,192,12680,1,0,0:0:0:0:
448,192,12680,1,0,0:0:0:0:
64,192,12755,1,0,0:0:0:0:
192,192,12830,1,0,0:0:0:0:
320,192,12905,1,0,0:0:0:0:
448,192,12980,1,8,0:0:0:0:
64,192,12980,1,0,0:0:0:0:
192,192,12980,1,8,0:0:0:0:
320,192,13055,1,0,0:0:0:0:
448,192,13130,1,0,0:0:0:0:
64,192,13205,1,0,0:0:0:0:
192,192,13280,1,0,0:0:0:0:
448,192,13280,1,0,0:0:0:0:
320,192,13355,1,0,0:0:0:0:
64,192,13430,1,0,0:0:0:0:
192,192,13505,1,0,0:0:0:0:
448,192,13580,1,8,0:0:0:0:
320,192,13580,1,8,0:0:0:0:
64,192,13580,1,0,0:0:0:0:
192,192,13655,1,0,0:0:0:0:
320,192,13730,1,0,0:0:0:0:
448,192,13805,1,0,0:0:0:0:
320,192,13880,1,0,0:0:0:0:
64,192,13880,1,0,0:0:0:0:
192,192,13955,1,0,0:0:0:0:
64,192,14030,1,0,0:0:0:0:
448,192,14105,1,0,0:0:0:0:
320,192,14180,1,8,0:0:0:0:
64,192,14180,1,8,0:0:0:0:
192,192,14180,1,0,0:0:0:0:
448,192,14255,1,0,0:0:0:0:
64,192,14330,1,0,0:0:0:0:
192,192,14405,1,0,0:0:0:0:
64,192,14480,1,0,0:0:0:0:
448,192,14480,1,0,0:0:0:0:
320,192,14555,1,0,0:0:0:0:
192,192,14630,1,0,0:0:0:0:
448,192,14705,1,0,0:0:0:0:
320,192,14780,1,0,0:0:0:0:
64,192,14780,1,8,0:0:0:0:
192,192,14780,1,8,0:0:0:0:
448,192,14855,1,0,0:0:0:0:
320,192,14930,1,0,0:0:0:0:
64,192,15005,1,0,0:0:0:0:
192,192,15080,1,0,0:0:0:0:
448,192,15080,1,0,0:0:0:0:
320,192,15155,1,0,0:0:0:0:
64,192,15230,1,0,0:0:0:0:
192,192,15305,1,0,0:0:0:0:
320,192,15380,1,8,0:0:0:0:
64,192,15380,1,0,0:0:0:0:
448,192,15380,1,8,0:0:0:0:
192,192,15455,1,0,0:0:0:0:
320,192,15530,1,0,0:0:0:0:
64,192,15605,1,0,0:0:0:0:
192,192,15680,1,0,0:0:0:0:
448,192,15680,1,0,0:0:0:0:
320,192,15755,1,0,0:0:0:0:
64,192,15830,1,0,0:0:0:0:
320,192,15905,1,0,0:0:0:0:
448,192,15980,1,0,0:0:0:0:
64,192,15980,1,8,0:0:0:0:
192,192,15980,1,8,0:0:0:0:
320,192,16055,1,0,0:0:0:0:
192,192,16130,1,0,0:0:0:0:
448,192,16205,1,0,0:0:0:0:
64,192,16280,1,0,0:0:0:0:
192,192,16280,1,0,0:0:0:0:
448,192,16355,1,0,0:0:0:0:
320,192,16430,1,0,0:0:0:0:
192,192,16505,1,0,0:0:0:0:
448,192,16580,1,0,0:0:0:0:
64,192,16580,1,8,0:0:0:0:
320,192,16580,1,8,0:0:0:0:
192,192,16655,1,0,0:0:0:0:
320,192,16730,1,0,0:0:0:0:
64,192,16805,1,0,0:0:0:0:
448,192,16880,1,0,0:0:0:0:
192,192,16880,1,0,0:0:0:0:
320,192,16955,1,0,0:0:0:0:
192,192,17030,1,0,0:0:0:0:
320,192,17105,1,0,0:0:0:0:
448,192,17180,1,0,0:0:0:0:
64,192,17180,1,8,0:0:0:0:
192,192,17180,1,8,0:0:0:0:
320,192,17255,1,0,0:0:0:0:
448,192,17330,1,0,0:0:0:0:
64,192,17405,1,0,0:0:0:0:
192,192,17480,1,0,0:0:0:0:
448,192,17480,1,0,0:0:0:0:
320,192,17555,1,0,0:0:0:0:
192,192,17630,1,0,0:0:0:0:
64,192,17705,1,0,0:0:0:0:
320,192,17780,1,8,0:0:0:0:
448,192,17780,1,0,0:0:0:0:
192,192,17780,1,8,0:0:0:0:
64,192,17855,1,0,0:0:0:0:
192,192,17930,1,0,0:0:0:0:
448,192,18005,1,0,0:0:0:0:
320,192,18080,1,0,0:0:0:0:
64,192,18080,1,0,0:0:0:0:
192,192,18155,1,0,0:0:0:0:
320,192,18230,1,0,0:0:0:0:
448,192,18305,1,0,0:0:0:0:
64,192,18380,1,0,0:0:0:0:
192,192,18380,1,8,0:0:0:0:
320,192,18380,1,8,0:0:0:0:
448,192,18455,1,0,0:0:0:0:
320,192,18530,1,0,0:0:0:0:
192,192,18605,1,0,0:0:0:0:
64,192,18680,1,0,0:0:0:0:
448,192,18680,1,0,0:0:0:0:
192,192,18755,1,0,0:0:0:0:
320,192,18830,1,0,0:0:0:0:
448,192,18905,1,0,0:0:0:0:
320,192,18980,1,8,0:0:0:0:
64,192,18980,1,8,0:0:0:0:
192,192,18980,1,0,0:0:0:0:
448,192,19055,1,0,0:0:0:0:
320,192,19130,1,0,0:0:0:0:
192,192,19205,1,0,0:0:0:0:
64,192,19280,1,8,0:0:0:0:
320,192,19280,1,8,0:0:0:0:
448,192,19280,1,0,0:0:0:0:
320,192,19430,1,0,0:0:0:0:
192,192,19430,1,0,0:0:0:0:
448,192,19505,1,0,0:0:0:0:
192,192,19580,1,0,0:0:0:0:
64,192,19580,1,8,0:0:0:0:
320,192,19655,1,0,0:0:0:0:
448,192,19655,1,8,0:0:0:0:
192,192,19730,1,0,0:0:0:0:
64,192,19730,1,8,0:0:0:0:
320,192,19805,1,0,0:0:0:0:
448,192,19805,1,8,0:0:0:0:
192,192,19880,1,0,0:0:0:0:
64,192,19880,1,0,0:0:0:0:
320,192,19955,1,0,0:0:0:0:
64,192,20030,1,0,0:0:0:0:
448,192,20105,1,0,0:0:0:0:
192,192,20180,1,0,0:0:0:0:
320,192,20180,1,0,0:0:0:0:
448,192,20255,1,0,0:0:0:0:
64,192,20330,1,0,0:0:0:0:
192,192,20405,1,0,0:0:0:0:
320,192,20480,1,0,0:0:0:0:
448,192,20480,1,8,0:0:0:0:
64,192,20480,1,2,0:0:0:0:
192,192,20630,1,0,0:0:0:0:
448,192,20630,1,0,0:0:0:0:
320,192,20705,1,0,0:0:0:0:
448,192,20780,1,0,0:0:0:0:
192,192,20780,1,8,0:0:0:0:
64,192,20780,1,4,0:0:0:0:
64,192,21080,1,8,0:0:0:0:
320,192,21080,1,0,0:0:0:0:
448,192,21080,1,8,0:0:0:0:
192,192,21155,1,0,0:0:0:0:
320,192,21230,1,0,0:0:0:0:
64,192,21305,1,0,0:0:0:0:
192,192,21380,1,0,0:0:0:0:
320,192,21380,1,8,0:0:0:0:
448,192,21380,1,8,0:0:0:0:
64,192,21455,1,0,0:0:0:0:
192,192,21530,1,0,0:0:0:0:
448,192,21605,1,0,0:0:0:0:
64,192,21680,1,0,0:0:0:0:
320,192,21680,1,8,0:0:0:0:
192,192,21680,1,8,0:0:0:0:
448,192,21755,1,0,0:0:0:0:
320,192,21830,1,0,0:0:0:0:
64,192,21905,1,0,0:0:0:0:
320,192,21980,1,8,0:0:0:0:
192,192,21980,1,0,0:0:0:0:
448,192,21980,1,8,0:0:0:0:
64,192,22055,1,0,0:0:0:0:
320,192,22130,1,0,0:0:0:0:
192,192,22205,1,0,0:0:0:0:
448,192,22280,1,8,0:0:0:0:
320,192,22280,1,0,0:0:0:0:
64,192,22280,1,8,0:0:0:0:
192,192,22355,1,0,0:0:0:0:
448,192,22430,1,0,0:0:0:0:
320,192,22505,1,0,0:0:0:0:
64,192,22580,1,8,0:0:0:0:
192,192,22580,1,8,0:0:0:0:
448,192,22580,1,0,0:0:0:0:
320,192,22655,1,0,0:0:0:0:
64,192,22730,1,0,0:0:0:0:
192,192,22805,1,0,0:0:0:0:
448,192,22880,1,8,0:0:0:0:
320,192,22880,1,0,0:0:0:0:
64,192,22880,1,8,0:0:0:0:
192,192,22955,1,0,0:0:0:0:
448,192,23030,1,0,0:0:0:0:
320,192,23105,1,0,0:0:0:0:
448,192,23180,1,8,0:0:0:0:
64,192,23180,1,0,0:0:0:0:
192,192,23180,1,8,0:0:0:0:
320,192,23255,1,0,0:0:0:0:
192,192,23330,1,0,0:0:0:0:
64,192,23405,1,0,0:0:0:0:
320,192,23480,1,8,0:0:0:0:
192,192,23480,1,0,0:0:0:0:
448,192,23480,1,8,0:0:0:0:
64,192,23555,1,0,0:0:0:0:
192,192,23630,1,0,0:0:0:0:
320,192,23705,1,0,0:0:0:0:
64,192,23780,1,8,0:0:0:0:
192,192,23780,1,0,0:0:0:0:
448,192,23780,1,8,0:0:0:0:
320,192,23855,1,0,0:0:0:0:
192,192,23930,1,0,0:0:0:0:
448,192,24005,1,0,0:0:0:0:
192,192,24080,1,8,0:0:0:0:
64,192,24080,1,0,0:0:0:0:
320,192,24080,1,8,0:0:0:0:
448,192,24155,1,0,0:0:0:0:
320,192,24230,1,0,0:0:0:0:
64,192,24305,1,0,0:0:0:0:
320,192,24380,1,8,0:0:0:0:
192,192,24380,1,0,0:0:0:0:
448,192,24380,1,8,0:0:0:0:
64,192,24455,1,0,0:0:0:0:
192,192,24530,1,0,0:0:0:0:
320,192,24605,1,0,0:0:0:0:
448,192,24680,1,8,0:0:0:0:
192,192,24680,1,0,0:0:0:0:
64,192,24680,1,8,0:0:0:0:
320,192,24755,1,0,0:0:0:0:
448,192,24830,1,0,0:0:0:0:
64,192,24905,1,0,0:0:0:0:
320,192,24980,1,8,0:0:0:0:
192,192,24980,1,8,0:0:0:0:
448,192,24980,1,0,0:0:0:0:
64,192,25055,1,0,0:0:0:0:
192,192,25130,1,0,0:0:0:0:
448,192,25205,1,0,0:0:0:0:
320,192,25280,1,0,0:0:0:0:
64,192,25280,1,8,0:0:0:0:
192,192,25280,1,8,0:0:0:0:
448,192,25355,1,0,0:0:0:0:
64,192,25430,1,0,0:0:0:0:
320,192,25505,1,0,0:0:0:0:
448,192,25580,1,8,0:0:0:0:
64,192,25580,1,0,0:0:0:0:
192,192,25580,1,8,0:0:0:0:
320,192,25655,1,0,0:0:0:0:
448,192,25730,1,0,0:0:0:0:
192,192,25805,1,0,0:0:0:0:
64,192,25880,1,8,0:0:0:0:
320,192,25880,1,8,0:0:0:0:
448,192,25880,1,0,0:0:0:0:
192,192,25955,1,0,0:0:0:0:
320,192,26030,1,0,0:0:0:0:
192,192,26105,1,0,0:0:0:0:
320,192,26180,1,8,0:0:0:0:
64,192,26180,1,0,0:0:0:0:
448,192,26180,1,8,0:0:0:0:
192,192,26255,1,0,0:0:0:0:
64,192,26330,1,0,0:0:0:0:
448,192,26405,1,0,0:0:0:0:
192,192,26480,1,8,0:0:0:0:
64,192,26480,1,0,0:0:0:0:
320,192,26480,1,8,0:0:0:0:
448,192,26555,1,0,0:0:0:0:
320,192,26630,1,0,0:0:0:0:
64,192,26705,1,0,0:0:0:0:
320,192,26780,1,8,0:0:0:0:
192,192,26780,1,0,0:0:0:0:
448,192,26780,1,8,0:0:0:0:
64,192,26855,1,0,0:0:0:0:
192,192,26930,1,0,0:0:0:0:
448,192,27005,1,0,0:0:0:0:
320,192,27080,1,0,0:0:0:0:
64,192,27080,1,8,0:0:0:0:
192,192,27080,1,8,0:0:0:0:
448,192,27155,1,0,0:0:0:0:
320,192,27230,1,0,0:0:0:0:
64,192,27305,1,0,0:0:0:0:
320,192,27380,1,8,0:0:0:0:
192,192,27380,1,8,0:0:0:0:
448,192,27380,1,0,0:0:0:0:
64,192,27455,1,0,0:0:0:0:
320,192,27530,1,0,0:0:0:0:
192,192,27605,1,0,0:0:0:0:
448,192,27680,1,8,0:0:0:0:
320,192,27680,1,0,0:0:0:0:
64,192,27680,1,8,0:0:0:0:
192,192,27755,1,0,0:0:0:0:
448,192,27830,1,0,0:0:0:0:
320,192,27905,1,0,0:0:0:0:
64,192,27980,1,0,0:0:0:0:
192,192,27980,1,8,0:0:0:0:
448,192,27980,1,8,0:0:0:0:
320,192,28055,1,0,0:0:0:0:
192,192,28130,1,0,0:0:0:0:
64,192,28205,1,0,0:0:0:0:
320,192,28280,1,8,0:0:0:0:
192,192,28280,1,0,0:0:0:0:
448,192,28280,1,8,0:0:0:0:
64,192,28355,1,0,0:0:0:0:
448,192,28430,1,0,0:0:0:0:
320,192,28505,1,0,0:0:0:0:
192,192,28580,1,0,0:0:0:0:
448,192,28580,1,8,0:0:0:0:
64,192,28580,1,0,0:0:0:0:
320,192,28730,1,0,0:0:0:0:
64,192,28730,1,0,0:0:0:0:
192,192,28805,1,0,0:0:0:0:
64,192,28880,1,0,0:0:0:0:
320,192,28880,1,8,0:0:0:0:
448,192,28880,1,4,0:0:0:0:
192,192,29030,1,0,0:0:0:0:
64,192,29105,1,0,0:0:0:0:
320,192,29180,1,0,0:0:0:0:
448,192,29180,1,8,0:0:0:0:
192,192,29255,1,0,0:0:0:0:
64,192,29255,1,8,0:0:0:0:
320,192,29330,1,0,0:0:0:0:
448,192,29330,1,8,0:0:0:0:
192,192,29405,1,0,0:0:0:0:
64,192,29405,1,8,0:0:0:0:
320,192,29480,1,0,0:0:0:0:
448,192,29480,1,0,0:0:0:0:
192,192,29555,1,0,0:0:0:0:
320,192,29630,1,0,0:0:0:0:
64,192,29705,1,0,0:0:0:0:
448,192,29780,1,0,0:0:0:0:
192,192,29780,1,0,0:0:0:0:
320,192,29855,1,0,0:0:0:0:
192,192,29930,1,0,0:0:0:0:
448,192,30005,1,0,0:0:0:0:
320,192,30080,1,0,0:0:0:0:
64,192,30080,1,8,0:0:0:0:
192,192,30080,1,0,0:0:0:0:
64,192,30380,1,0,0:0:0:0:
192,192,30380,1,4,0:0:0:0:
448,192,30380,1,2,0:0:0:0:
320,192,30665,1,2,0:0:0:0:
64,192,30665,1,2,0:0:0:0:
320,192,30808,1,2,0:0:0:0:
192,192,30951,1,2,0:0:0:0:
192,192,31094,1,2,0:0:0:0:
320,192,31237,1,2,0:0:0:0:
448,192,31237,1,2,0:0:0:0:
320,192,31380,1,2,0:0:0:0:
64,192,31522,128,2,31808:0:0:0:0:
448,192,31808,1,2,0:0:0:0:
192,192,31808,1,2,0:0:0:0:
448,192,31951,1,2,0:0:0:0:
64,192,32094,1,2,0:0:0:0:
64,192,32237,1,2,0:0:0:0:
320,192,32380,1,2,0:0:0:0:
448,192,32380,1,2,0:0:0:0:
320,192,32522,1,2,0:0:0:0:
192,192,32665,128,2,32951:0:0:0:0:
320,192,32951,1,2,0:0:0:0:
64,192,32951,1,2,0:0:0:0:
320,192,33094,1,2,0:0:0:0:
64,192,33237,1,2,0:0:0:0:
64,192,33380,1,2,0:0:0:0:
448,192,33522,1,2,0:0:0:0:
320,192,33522,1,2,0:0:0:0:
448,192,33665,1,2,0:0:0:0:
192,192,33808,128,2,34094:0:0:0:0:
320,192,34094,1,2,0:0:0:0:
448,192,34094,1,2,0:0:0:0:
320,192,34237,1,2,0:0:0:0:
192,192,34380,1,2,0:0:0:0:
192,192,34522,1,2,0:0:0:0:
448,192,34665,1,2,0:0:0:0:
64,192,34665,1,2,0:0:0:0:
448,192,34808,1,2,0:0:0:0:
64,192,34951,128,2,35237:0:0:0:0:
320,192,35237,1,2,0:0:0:0:
448,192,35237,1,2,0:0:0:0:
192,192,35380,1,2,0:0:0:0:
192,192,35522,1,2,0:0:0:0:
64,192,35665,1,2,0:0:0:0:
64,192,35808,1,2,0:0:0:0:
448,192,35808,1,2,0:0:0:0:
320,192,35951,1,2,0:0:0:0:
192,192,36094,128,2,36380:0:0:0:0:
64,192,36380,1,2,0:0:0:0:
448,192,36380,1,2,0:0:0:0:
448,192,36522,1,2,0:0:0:0:
192,192,36665,1,2,0:0:0:0:
192,192,36808,1,2,0:0:0:0:
64,192,36951,1,2,0:0:0:0:
320,192,36951,1,2,0:0:0:0:
64,192,37094,1,2,0:0:0:0:
320,192,37237,1,8,3:0:0:0:
448,192,37237,1,0,0:0:0:0:
192,192,37380,1,8,3:0:0:0:
64,192,37380,1,0,0:0:0:0:
320,192,37451,1,8,3:0:0:0:
448,192,37522,1,8,3:0:0:0:
64,192,37522,1,0,0:0:0:0:
448,192,37665,1,8,3:0:0:0:
192,192,37665,1,0,0:0:0:0:
320,192,37808,1,8,3:0:0:0:
448,192,37808,1,0,0:0:0:0:
192,192,37951,1,8,3:0:0:0:
448,192,37951,1,0,0:0:0:0:
64,192,38094,1,8,3:0:0:0:
448,192,38094,1,0,0:0:0:0:
320,192,38237,1,8,3:0:0:0:
64,192,38237,1,0,0:0:0:0:
64,192,38380,1,8,3:0:0:0:
192,192,38380,1,0,0:0:0:0:
320,192,38522,1,8,3:0:0:0:
64,192,38522,1,0,0:0:0:0:
448,192,38665,1,0,0:0:0:0:
64,192,38665,1,8,3:0:0:0:
448,192,38808,1,8,3:0:0:0:
192,192,38808,1,0,0:0:0:0:
448,192,38951,1,8,3:0:0:0:
320,192,38951,1,0,0:0:0:0:
192,192,39094,1,8,3:0:0:0:
448,192,39094,1,0,0:0:0:0:
448,192,39237,1,8,0:0:0:0:
320,192,39237,1,2,0:0:0:0:
64,192,39237,1,0,0:0:0:0:
320,192,39380,1,2,0:0:0:0:
448,192,39380,1,8,0:0:0:0:
64,192,39380,1,0,0:0:0:0:
64,192,39522,1,0,0:0:0:0:
192,192,39522,1,4,0:0:0:0:
448,192,39522,1,2,0:0:0:0:
320,192,39665,1,2,0:0:0:0:
192,192,39665,1,0,0:0:0:0:
320,192,39808,1,2,0:0:0:0:
448,192,39808,1,8,0:0:0:0:
64,192,39808,1,0,0:0:0:0:
320,192,39951,1,2,0:0:0:0:
64,192,39951,1,0,0:0:0:0:
192,192,40094,1,0,0:0:0:0:
448,192,40094,1,2,0:0:0:0:
192,192,40237,1,2,0:0:0:0:
64,192,40237,1,0,0:0:0:0:
64,192,40380,1,0,0:0:0:0:
448,192,40380,1,8,0:0:0:0:
320,192,40380,1,2,0:0:0:0:
192,192,40522,1,0,0:0:0:0:
448,192,40522,1,2,0:0:0:0:
320,192,40665,1,2,0:0:0:0:
64,192,40665,1,0,0:0:0:0:
448,192,40808,1,0,0:0:0:0:
320,192,40808,1,2,0:0:0:0:
320,192,40951,1,2,0:0:0:0:
64,192,40951,1,8,0:0:0:0:
192,192,40951,1,0,0:0:0:0:
448,192,41094,1,2,0:0:0:0:
64,192,41094,1,0,0:0:0:0:
192,192,41237,1,0,0:0:0:0:
320,192,41237,1,2,0:0:0:0:
320,192,41380,1,2,0:0:0:0:
64,192,41380,1,0,0:0:0:0:
192,192,41522,1,0,0:0:0:0:
448,192,41522,1,8,0:0:0:0:
320,192,41522,1,2,0:0:0:0:
64,192,41665,1,0,0:0:0:0:
320,192,41665,1,2,0:0:0:0:
448,192,41808,1,2,0:0:0:0:
192,192,41808,1,0,0:0:0:0:
192,192,41951,1,0,0:0:0:0:
320,192,41951,1,2,0:0:0:0:
64,192,42094,1,2,0:0:0:0:
448,192,42094,1,8,0:0:0:0:
192,192,42094,1,0,0:0:0:0:
320,192,42237,1,2,0:0:0:0:
448,192,42237,1,0,0:0:0:0:
192,192,42380,1,0,0:0:0:0:
320,192,42380,1,2,0:0:0:0:
320,192,42522,1,2,0:0:0:0:
64,192,42522,1,0,0:0:0:0:
192,192,42665,1,0,0:0:0:0:
448,192,42665,1,8,0:0:0:0:
64,192,42665,1,2,0:0:0:0:
192,192,42808,1,0,0:0:0:0:
320,192,42808,1,2,0:0:0:0:
448,192,42951,1,2,0:0:0:0:
64,192,42951,1,0,0:0:0:0:
448,192,43094,1,0,0:0:0:0:
320,192,43094,1,2,0:0:0:0:
64,192,43237,1,2,0:0:0:0:
320,192,43237,1,8,0:0:0:0:
192,192,43237,1,0,0:0:0:0:
448,192,43380,1,2,0:0:0:0:
192,192,43380,1,0,0:0:0:0:
64,192,43522,1,0,0:0:0:0:
320,192,43522,1,2,0:0:0:0:
192,192,43665,1,2,0:0:0:0:
64,192,43665,1,0,0:0:0:0:
192,192,43808,1,0,0:0:0:0:
448,192,43808,1,8,0:0:0:0:
320,192,43808,1,2,0:0:0:0:
64,192,43951,1,0,0:0:0:0:
448,192,43951,1,2,0:0:0:0:
320,192,44094,1,2,0:0:0:0:
192,192,44094,1,4,0:0:0:0:
64,192,44094,1,0,0:0:0:0:
64,192,44237,1,0,0:0:0:0:
320,192,44237,1,2,0:0:0:0:
320,192,44380,1,2,0:0:0:0:
448,192,44380,1,8,0:0:0:0:
192,192,44380,1,0,0:0:0:0:
448,192,44522,1,2,0:0:0:0:
64,192,44522,1,0,0:0:0:0:
192,192,44665,1,0,0:0:0:0:
320,192,44665,1,2,0:0:0:0:
320,192,44808,1,2,0:0:0:0:
448,192,44808,1,0,0:0:0:0:
192,192,44951,1,0,0:0:0:0:
448,192,44951,1,8,0:0:0:0:
64,192,44951,1,2,0:0:0:0:
192,192,45094,1,0,0:0:0:0:
320,192,45094,1,2,0:0:0:0:
320,192,45237,1,2,0:0:0:0:
64,192,45237,1,0,0:0:0:0:
448,192,45380,1,0,0:0:0:0:
320,192,45380,1,2,0:0:0:0:
64,192,45522,1,2,0:0:0:0:
448,192,45522,1,8,0:0:0:0:
192,192,45522,1,0,0:0:0:0:
320,192,45665,1,2,0:0:0:0:
64,192,45665,1,0,0:0:0:0:
192,192,45808,1,0,0:0:0:0:
448,192,45808,1,2,0:0:0:0:
320,192,45951,1,2,0:0:0:0:
192,192,45951,1,0,0:0:0:0:
192,192,46094,1,0,0:0:0:0:
448,192,46094,1,8,0:0:0:0:
64,192,46094,1,2,0:0:0:0:
64,192,46237,1,0,0:0:0:0:
320,192,46237,1,2,0:0:0:0:
448,192,46380,1,2,0:0:0:0:
64,192,46380,1,0,0:0:0:0:
192,192,46522,1,0,0:0:0:0:
320,192,46522,1,2,0:0:0:0:
64,192,46665,1,2,0:0:0:0:
448,192,46665,1,8,0:0:0:0:
320,192,46665,1,0,0:0:0:0:
192,192,46808,1,2,0:0:0:0:
64,192,46808,1,0,0:0:0:0:
64,192,46951,1,0,0:0:0:0:
448,192,46951,1,2,0:0:0:0:
320,192,47094,1,2,0:0:0:0:
192,192,47094,1,0,0:0:0:0:
192,192,47237,1,0,0:0:0:0:
448,192,47237,1,8,0:0:0:0:
64,192,47237,1,2,0:0:0:0:
448,192,47380,1,0,0:0:0:0:
320,192,47380,1,2,0:0:0:0:
320,192,47522,1,2,0:0:0:0:
64,192,47522,1,0,0:0:0:0:
192,192,47665,1,0,0:0:0:0:
64,192,47665,1,2,0:0:0:0:
64,192,47808,1,2,0:0:0:0:
448,192,47808,1,8,0:0:0:0:
192,192,47808,1,0,0:0:0:0:
448,192,47951,1,2,0:0:0:0:
320,192,47951,1,0,0:0:0:0:
192,192,48094,1,0,0:0:0:0:
320,192,48094,1,2,0:0:0:0:
64,192,48094,1,8,0:0:0:0:
448,192,48237,1,2,0:0:0:0:
64,192,48237,1,0,0:0:0:0:
192,192,48380,1,0,0:0:0:0:
448,192,48380,1,8,0:0:0:0:
320,192,48380,1,2,0:0:0:0:
192,192,48522,1,0,0:0:0:0:
448,192,48522,1,8,0:0:0:0:
320,192,48522,1,2,0:0:0:0:
64,192,48665,1,2,0:0:0:0:
448,192,48665,1,4,0:0:0:0:
192,192,48665,1,0,0:0:0:0:
64,192,48808,1,0,0:0:0:0:
320,192,48808,1,2,0:0:0:0:
192,192,48951,1,0,0:0:0:0:
448,192,48951,1,8,0:0:0:0:
320,192,48951,1,2,0:0:0:0:
64,192,49094,1,0,0:0:0:0:
448,192,49094,1,2,0:0:0:0:
320,192,49237,1,2,0:0:0:0:
64,192,49237,1,0,0:0:0:0:
192,192,49380,1,0,0:0:0:0:
320,192,49380,1,2,0:0:0:0:
64,192,49522,1,2,0:0:0:0:
448,192,49522,1,8,0:0:0:0:
192,192,49522,1,0,0:0:0:0:
448,192,49665,1,2,0:0:0:0:
192,192,49665,1,0,0:0:0:0:
64,192,49808,1,0,0:0:0:0:
320,192,49808,1,2,0:0:0:0:
320,192,49951,1,2,0:0:0:0:
192,192,49951,1,0,0:0:0:0:
192,192,50094,1,0,0:0:0:0:
448,192,50094,1,8,0:0:0:0:
320,192,50094,1,2,0:0:0:0:
64,192,50237,1,0,0:0:0:0:
448,192,50237,1,2,0:0:0:0:
320,192,50380,1,2,0:0:0:0:
64,192,50380,1,0,0:0:0:0:
448,192,50522,1,0,0:0:0:0:
320,192,50522,1,2,0:0:0:0:
64,192,50665,1,2,0:0:0:0:
448,192,50665,1,8,0:0:0:0:
192,192,50665,1,0,0:0:0:0:
64,192,50808,1,2,0:0:0:0:
192,192,50808,1,0,0:0:0:0:
64,192,50951,1,0,0:0:0:0:
448,192,50951,1,2,0:0:0:0:
320,192,51094,1,2,0:0:0:0:
192,192,51094,1,0,0:0:0:0:
64,192,51237,1,0,0:0:0:0:
448,192,51237,1,8,0:0:0:0:
320,192,51237,1,2,0:0:0:0:
192,192,51380,1,0,0:0:0:0:
320,192,51380,1,2,0:0:0:0:
448,192,51522,1,2,0:0:0:0:
192,192,51522,1,0,0:0:0:0:
64,192,51665,1,0,0:0:0:0:
320,192,51665,1,2,0:0:0:0:
320,192,51808,1,2,0:0:0:0:
448,192,51808,1,8,0:0:0:0:
192,192,51808,1,0,0:0:0:0:
192,192,51951,1,2,0:0:0:0:
64,192,51951,1,0,0:0:0:0:
64,192,52094,1,0,0:0:0:0:
448,192,52094,1,2,0:0:0:0:
320,192,52237,1,2,0:0:0:0:
192,192,52237,1,0,0:0:0:0:
192,192,52380,1,0,0:0:0:0:
448,192,52380,1,8,0:0:0:0:
64,192,52380,1,2,0:0:0:0:
448,192,52522,1,0,0:0:0:0:
320,192,52522,1,2,0:0:0:0:
448,192,52665,1,2,0:0:0:0:
192,192,52665,1,0,0:0:0:0:
192,192,52808,1,0,0:0:0:0:
320,192,52808,1,2,0:0:0:0:
64,192,52951,1,2,0:0:0:0:
192,192,52951,1,8,0:0:0:0:
320,192,52951,1,0,0:0:0:0:
192,192,53094,1,0,0:0:0:0:
64,192,53094,1,2,0:0:0:0:
320,192,53237,1,2,0:0:0:0:
448,192,53237,1,4,0:0:0:0:
64,192,53237,1,0,0:0:0:0:
192,192,53380,1,0,0:0:0:0:
448,192,53380,1,2,0:0:0:0:
192,192,53522,1,0,0:0:0:0:
320,192,53522,1,8,0:0:0:0:
64,192,53522,1,2,0:0:0:0:
192,192,53665,1,0,0:0:0:0:
448,192,53665,1,2,0:0:0:0:
320,192,53808,1,2,0:0:0:0:
448,192,53808,1,0,0:0:0:0:
192,192,53951,1,0,0:0:0:0:
64,192,53951,1,2,0:0:0:0:
320,192,54094,1,2,0:0:0:0:
448,192,54094,1,8,0:0:0:0:
192,192,54094,1,0,0:0:0:0:
448,192,54237,1,2,0:0:0:0:
64,192,54237,1,0,0:0:0:0:
192,192,54380,1,0,0:0:0:0:
320,192,54380,1,2,0:0:0:0:
448,192,54522,1,2,0:0:0:0:
192,192,54522,1,0,0:0:0:0:
64,192,54665,1,0,0:0:0:0:
448,192,54665,1,8,0:0:0:0:
320,192,54665,1,2,0:0:0:0:
192,192,54808,1,0,0:0:0:0:
320,192,54808,1,2,0:0:0:0:
448,192,54951,1,2,0:0:0:0:
320,192,54951,1,0,0:0:0:0:
192,192,55094,1,0,0:0:0:0:
64,192,55094,1,2,0:0:0:0:
320,192,55237,1,2,0:0:0:0:
448,192,55237,1,8,0:0:0:0:
192,192,55237,1,0,0:0:0:0:
448,192,55380,1,2,0:0:0:0:
64,192,55380,1,0,0:0:0:0:
192,192,55522,1,0,0:0:0:0:
320,192,55522,1,2,0:0:0:0:
448,192,55665,1,2,0:0:0:0:
192,192,55665,1,0,0:0:0:0:
320,192,55808,1,0,0:0:0:0:
448,192,55808,1,8,0:0:0:0:
64,192,55808,1,2,0:0:0:0:
192,192,55951,1,0,0:0:0:0:
320,192,55951,1,2,0:0:0:0:
448,192,56094,1,2,0:0:0:0:
192,192,56094,1,0,0:0:0:0:
64,192,56237,1,0,0:0:0:0:
320,192,56237,1,2,0:0:0:0:
320,192,56380,1,2,0:0:0:0:
448,192,56380,1,8,0:0:0:0:
192,192,56380,1,0,0:0:0:0:
448,192,56522,1,2,0:0:0:0:
64,192,56522,1,0,0:0:0:0:
64,192,56665,1,0,0:0:0:0:
192,192,56665,1,8,0:0:0:0:
320,192,56737,1,8,0:0:0:0:
448,192,56737,1,0,0:0:0:0:
192,192,56808,1,0,0:0:0:0:
448,192,56880,1,0,0:0:0:0:
192,192,56951,1,0,0:0:0:0:
64,192,56951,1,0,0:0:0:0:
320,192,57022,1,0,0:0:0:0:
64,192,57094,1,0,0:0:0:0:
192,192,57165,1,0,0:0:0:0:
320,192,57237,1,0,0:0:0:0:
448,192,57237,1,0,0:0:0:0:
64,192,57308,1,0,0:0:0:0:
192,192,57380,1,0,0:0:0:0:
64,192,57451,1,0,0:0:0:0:
320,192,57522,1,0,0:0:0:0:
448,192,57522,1,0,0:0:0:0:
192,192,57594,1,0,0:0:0:0:
320,192,57665,1,0,0:0:0:0:
64,192,57737,1,0,0:0:0:0:
192,192,57808,1,0,0:0:0:0:
320,192,57808,1,8,0:0:0:0:
448,192,57808,1,4,0:0:0:0:
320,192,58108,1,0,0:0:0:0:
448,192,58108,1,0,0:0:0:0:
192,192,58183,1,0,0:0:0:0:
320,192,58258,1,0,0:0:0:0:
64,192,58333,1,0,0:0:0:0:
192,192,58408,1,0,0:0:0:0:
448,192,58408,1,8,0:0:0:0:
320,192,58408,1,8,0:0:0:0:
64,192,58483,1,0,0:0:0:0:
448,192,58558,1,0,0:0:0:0:
192,192,58633,1,0,0:0:0:0:
64,192,58708,1,0,0:0:0:0:
320,192,58708,1,0,0:0:0:0:
448,192,58783,1,0,0:0:0:0:
320,192,58858,1,0,0:0:0:0:
64,192,58933,1,0,0:0:0:0:
192,192,59008,1,0,0:0:0:0:
448,192,59008,1,8,0:0:0:0:
320,192,59008,1,8,0:0:0:0:
64,192,59083,1,0,0:0:0:0:
192,192,59158,1,0,0:0:0:0:
448,192,59233,1,0,0:0:0:0:
320,192,59308,1,0,0:0:0:0:
64,192,59308,1,0,0:0:0:0:
192,192,59383,1,0,0:0:0:0:
64,192,59458,1,0,0:0:0:0:
320,192,59533,1,0,0:0:0:0:
192,192,59608,1,8,0:0:0:0:
448,192,59608,1,0,0:0:0:0:
64,192,59608,1,8,0:0:0:0:
320,192,59683,1,0,0:0:0:0:
64,192,59758,1,0,0:0:0:0:
448,192,59833,1,0,0:0:0:0:
64,192,59908,1,0,0:0:0:0:
320,192,59908,1,0,0:0:0:0:
192,192,59983,1,0,0:0:0:0:
448,192,60058,1,0,0:0:0:0:
320,192,60133,1,0,0:0:0:0:
64,192,60208,1,0,0:0:0:0:
192,192,60208,1,8,0:0:0:0:
448,192,60208,1,8,0:0:0:0:
320,192,60283,1,0,0:0:0:0:
64,192,60358,1,0,0:0:0:0:
192,192,60433,1,0,0:0:0:0:
64,192,60508,1,0,0:0:0:0:
448,192,60508,1,0,0:0:0:0:
320,192,60583,1,0,0:0:0:0:
192,192,60658,1,0,0:0:0:0:
64,192,60733,1,0,0:0:0:0:
192,192,60808,1,0,0:0:0:0:
448,192,60808,1,8,0:0:0:0:
320,192,60808,1,8,0:0:0:0:
64,192,60883,1,0,0:0:0:0:
192,192,60958,1,0,0:0:0:0:
448,192,61033,1,0,0:0:0:0:
320,192,61108,1,0,0:0:0:0:
64,192,61108,1,0,0:0:0:0:
192,192,61183,1,0,0:0:0:0:
320,192,61258,1,0,0:0:0:0:
448,192,61333,1,0,0:0:0:0:
192,192,61408,1,0,0:0:0:0:
320,192,61408,1,8,0:0:0:0:
64,192,61408,1,8,0:0:0:0:
448,192,61483,1,0,0:0:0:0:
192,192,61558,1,0,0:0:0:0:
448,192,61633,1,0,0:0:0:0:
320,192,61708,1,0,0:0:0:0:
64,192,61708,1,0,0:0:0:0:
192,192,61783,1,0,0:0:0:0:
320,192,61858,1,0,0:0:0:0:
192,192,61933,1,0,0:0:0:0:
320,192,62008,1,8,0:0:0:0:
448,192,62008,1,8,0:0:0:0:
64,192,62008,1,0,0:0:0:0:
192,192,62083,1,0,0:0:0:0:
64,192,62158,1,0,0:0:0:0:
448,192,62233,1,0,0:0:0:0:
320,192,62308,1,0,0:0:0:0:
64,192,62308,1,0,0:0:0:0:
192,192,62383,1,0,0:0:0:0:
448,192,62458,1,0,0:0:0:0:
320,192,62533,1,0,0:0:0:0:
64,192,62608,1,0,0:0:0:0:
192,192,62608,1,8,0:0:0:0:
448,192,62608,1,8,0:0:0:0:
320,192,62683,1,0,0:0:0:0:
64,192,62758,1,0,0:0:0:0:
192,192,62833,1,0,0:0:0:0:
448,192,62908,1,0,0:0:0:0:
320,192,62908,1,0,0:0:0:0:
64,192,62983,1,0,0:0:0:0:
320,192,63058,1,0,0:0:0:0:
192,192,63133,1,0,0:0:0:0:
64,192,63208,1,0,0:0:0:0:
448,192,63208,1,8,0:0:0:0:
320,192,63208,1,8,0:0:0:0:
192,192,63283,1,0,0:0:0:0:
64,192,63358,1,0,0:0:0:0:
448,192,63433,1,0,0:0:0:0:
64,192,63508,1,0,0:0:0:0:
320,192,63508,1,0,0:0:0:0:
192,192,63583,1,0,0:0:0:0:
320,192,63658,1,0,0:0:0:0:
64,192,63733,1,0,0:0:0:0:
192,192,63808,1,0,0:0:0:0:
448,192,63808,1,8,0:0:0:0:
320,192,63808,1,8,0:0:0:0:
64,192,63883,1,0,0:0:0:0:
192,192,63958,1,0,0:0:0:0:
448,192,64033,1,0,0:0:0:0:
320,192,64108,1,0,0:0:0:0:
64,192,64108,1,0,0:0:0:0:
192,192,64183,1,0,0:0:0:0:
320,192,64258,1,0,0:0:0:0:
64,192,64333,1,0,0:0:0:0:
192,192,64408,1,8,0:0:0:0:
448,192,64408,1,0,0:0:0:0:
320,192,64408,1,8,0:0:0:0:
64,192,64483,1,0,0:0:0:0:
192,192,64558,1,0,0:0:0:0:
448,192,64633,1,0,0:0:0:0:
320,192,64708,1,0,0:0:0:0:
64,192,64708,1,0,0:0:0:0:
192,192,64783,1,0,0:0:0:0:
64,192,64858,1,0,0:0:0:0:
192,192,64933,1,0,0:0:0:0:
64,192,65008,1,0,0:0:0:0:
320,192,65008,1,8,0:0:0:0:
448,192,65008,1,8,0:0:0:0:
192,192,65083,1,0,0:0:0:0:
320,192,65158,1,0,0:0:0:0:
192,192,65233,1,0,0:0:0:0:
64,192,65308,1,0,0:0:0:0:
448,192,65308,1,0,0:0:0:0:
320,192,65383,1,0,0:0:0:0:
192,192,65458,1,0,0:0:0:0:
64,192,65533,1,0,0:0:0:0:
192,192,65608,1,0,0:0:0:0:
448,192,65608,1,8,0:0:0:0:
320,192,65608,1,2,0:0:0:0:
64,192,65758,1,0,0:0:0:0:
320,192,65758,1,0,0:0:0:0:
192,192,65833,1,0,0:0:0:0:
64,192,65908,1,0,0:0:0:0:
320,192,65908,1,8,0:0:0:0:
448,192,65908,1,2,0:0:0:0:
192,192,66058,1,0,0:0:0:0:
448,192,66058,1,0,0:0:0:0:
64,192,66133,1,0,0:0:0:0:
320,192,66208,1,0,0:0:0:0:
448,192,66208,1,8,0:0:0:0:
192,192,66208,1,2,0:0:0:0:
448,192,66359,1,8,0:0:0:0:
320,192,66359,1,0,0:0:0:0:
64,192,66435,1,0,0:0:0:0:
192,192,66435,1,8,0:0:0:0:
448,192,66511,1,8,0:0:0:0:
320,192,66511,1,0,0:0:0:0:
192,192,66662,1,0,0:0:0:0:
64,192,66662,1,2,0:0:0:0:
448,192,66662,1,8,0:0:0:0:
448,192,66814,1,8,0:0:0:0:
64,192,66814,1,2,0:0:0:0:
192,192,66814,1,0,0:0:0:0:
320,192,66965,1,0,0:0:0:0:
64,192,66965,1,2,0:0:0:0:
448,192,66965,1,8,0:0:0:0:
448,192,67117,1,8,0:0:0:0:
64,192,67117,1,2,0:0:0:0:
320,192,67117,1,0,0:0:0:0:
320,192,67268,1,0,0:0:0:0:
192,192,67268,1,2,0:0:0:0:
448,192,67268,1,8,0:0:0:0:
448,192,67420,1,4,0:0:0:0:
320,192,67420,1,0,0:0:0:0:
192,192,67420,128,2,67707:0:0:0:0:
64,192,67707,1,2,0:0:0:0:
448,192,67707,1,0,0:0:0:0:
320,192,67850,1,0,0:0:0:0:
192,192,67850,1,2,0:0:0:0:
320,192,67994,1,0,0:0:0:0:
64,192,67994,1,2,0:0:0:0:
448,192,67994,1,8,0:0:0:0:
64,192,68137,1,2,0:0:0:0:
192,192,68137,1,0,0:0:0:0:
320,192,68281,1,0,0:0:0:0:
448,192,68281,1,2,0:0:0:0:
64,192,68424,1,2,0:0:0:0:
448,192,68424,1,0,0:0:0:0:
320,192,68568,1,0,0:0:0:0:
64,192,68568,128,2,68855:0:0:0:0:
192,192,68855,1,2,0:0:0:0:
320,192,68855,1,0,0:0:0:0:
448,192,68998,1,0,0:0:0:0:
64,192,68998,1,2,0:0:0:0:
192,192,69142,1,8,0:0:0:0:
64,192,69142,1,2,0:0:0:0:
320,192,69142,1,0,0:0:0:0:
448,192,69286,1,2,0:0:0:0:
320,192,69286,1,0,0:0:0:0:
192,192,69357,1,0,0:0:0:0:
320,192,69429,1,0,0:0:0:0:
64,192,69429,1,2,0:0:0:0:
448,192,69429,1,8,0:0:0:0:
448,192,69573,1,8,0:0:0:0:
64,192,69573,1,2,0:0:0:0:
320,192,69573,1,0,0:0:0:0:
192,192,69716,1,0,0:0:0:0:
64,192,69716,1,2,0:0:0:0:
448,192,69716,128,4,70003:0:0:0:0:
320,192,70003,1,2,0:0:0:0:
64,192,70003,1,0,0:0:0:0:
192,192,70147,1,0,0:0:0:0:
448,192,70147,1,2,0:0:0:0:
192,192,70290,1,0,0:0:0:0:
320,192,70290,1,2,0:0:0:0:
64,192,70290,1,8,0:0:0:0:
448,192,70434,1,2,0:0:0:0:
320,192,70434,1,0,0:0:0:0:
192,192,70577,1,0,0:0:0:0:
64,192,70577,1,2,0:0:0:0:
448,192,70721,1,2,0:0:0:0:
64,192,70721,1,0,0:0:0:0:
192,192,70864,1,0,0:0:0:0:
448,192,70864,128,2,71152:0:0:0:0:
320,192,71152,1,2,0:0:0:0:
192,192,71152,1,0,0:0:0:0:
64,192,71295,1,0,0:0:0:0:
448,192,71295,1,2,0:0:0:0:
320,192,71439,1,8,0:0:0:0:
448,192,71439,1,2,0:0:0:0:
192,192,71439,1,0,0:0:0:0:
64,192,71582,1,2,0:0:0:0:
320,192,71582,1,0,0:0:0:0:
192,192,71726,1,0,0:0:0:0:
448,192,71726,1,2,0:0:0:0:
64,192,71726,1,8,0:0:0:0:
64,192,71869,1,8,0:0:0:0:
448,192,71869,1,2,0:0:0:0:
192,192,71869,1,0,0:0:0:0:
320,192,72013,1,0,0:0:0:0:
448,192,72013,1,2,0:0:0:0:
64,192,72013,128,4,72300:0:0:0:0:
192,192,72300,1,0,0:0:0:0:
448,192,72300,1,2,0:0:0:0:
320,192,72443,1,2,0:0:0:0:
64,192,72443,1,0,0:0:0:0:
320,192,72587,1,8,0:0:0:0:
448,192,72587,1,2,0:0:0:0:
192,192,72587,1,0,0:0:0:0:
64,192,72731,1,0,0:0:0:0:
448,192,72731,1,2,0:0:0:0:
64,192,72874,1,2,0:0:0:0:
192,192,72874,1,0,0:0:0:0:
320,192,73018,1,0,0:0:0:0:
448,192,73018,1,2,0:0:0:0:
192,192,73161,1,0,0:0:0:0:
448,192,73161,128,2,73448:0:0:0:0:
64,192,73448,1,0,0:0:0:0:
192,192,73448,1,2,0:0:0:0:
320,192,73592,1,2,0:0:0:0:
192,192,73592,1,0,0:0:0:0:
64,192,73735,1,0,0:0:0:0:
448,192,73735,1,2,0:0:0:0:
320,192,73735,1,8,0:0:0:0:
192,192,73879,1,0,0:0:0:0:
448,192,73879,1,2,0:0:0:0:
320,192,73951,1,0,0:0:0:0:
64,192,74022,1,8,0:0:0:0:
448,192,74022,1,2,0:0:0:0:
192,192,74022,1,0,0:0:0:0:
192,192,74166,1,0,0:0:0:0:
448,192,74166,1,2,0:0:0:0:
64,192,74166,1,8,0:0:0:0:
64,192,74309,1,4,0:0:0:0:
448,192,74309,1,2,0:0:0:0:
320,192,74309,128,0,74597:0:0:0:0:
64,192,74597,1,2,0:0:0:0:
192,192,74597,1,0,0:0:0:0:
192,192,74740,1,0,0:0:0:0:
320,192,74740,1,2,0:0:0:0:
192,192,74884,1,0,0:0:0:0:
448,192,74884,1,2,0:0:0:0:
64,192,74884,1,8,0:0:0:0:
448,192,75027,1,2,0:0:0:0:
320,192,75027,1,0,0:0:0:0:
192,192,75171,1,0,0:0:0:0:
64,192,75171,1,2,0:0:0:0:
448,192,75314,1,2,0:0:0:0:
64,192,75314,1,0,0:0:0:0:
192,192,75458,1,0,0:0:0:0:
448,192,75458,1,2,0:0:0:0:
320,192,75458,1,8,0:0:0:0:
64,192,75601,1,0,0:0:0:0:
192,192,75601,1,8,3:0:0:0:
448,192,75673,1,8,3:0:0:0:
320,192,75745,1,8,3:0:0:0:
192,192,75745,1,0,0:0:0:0:
64,192,75888,1,0,0:0:0:0:
448,192,75888,1,2,0:0:0:0:
320,192,75888,1,8,0:0:0:0:
448,192,76032,1,2,0:0:0:0:
64,192,76032,1,0,0:0:0:0:
320,192,76032,1,8,0:0:0:0:
64,192,76175,1,2,0:0:0:0:
320,192,76175,1,8,0:0:0:0:
448,192,76175,1,0,0:0:0:0:
192,192,76319,1,0,0:0:0:0:
64,192,76319,1,2,0:0:0:0:
320,192,76463,1,2,0:0:0:0:
448,192,76463,1,0,0:0:0:0:
64,192,76606,1,4,0:0:0:0:
192,192,76606,1,0,0:0:0:0:
320,192,76606,128,2,76892:0:0:0:0:
448,192,76892,1,2,0:0:0:0:
64,192,76892,1,0,0:0:0:0:
192,192,77035,1,0,0:0:0:0:
320,192,77035,1,2,0:0:0:0:
448,192,77178,1,2,0:0:0:0:
192,192,77178,1,0,0:0:0:0:
64,192,77178,1,8,0:0:0:0:
320,192,77321,1,0,0:0:0:0:
448,192,77321,1,2,0:0:0:0:
192,192,77465,1,0,0:0:0:0:
64,192,77465,1,2,0:0:0:0:
64,192,77608,1,0,0:0:0:0:
448,192,77608,1,2,0:0:0:0:
192,192,77751,1,0,0:0:0:0:
448,192,77751,128,2,78037:0:0:0:0:
320,192,78037,1,2,0:0:0:0:
192,192,78037,1,0,0:0:0:0:
64,192,78181,1,0,0:0:0:0:
448,192,78181,1,2,0:0:0:0:
320,192,78324,1,8,0:0:0:0:
448,192,78324,1,2,0:0:0:0:
192,192,78324,1,0,0:0:0:0:
64,192,78467,1,2,0:0:0:0:
192,192,78467,1,0,0:0:0:0:
320,192,78539,1,0,0:0:0:0:
192,192,78610,1,0,0:0:0:0:
448,192,78610,1,2,0:0:0:0:
64,192,78610,1,8,0:0:0:0:
64,192,78753,1,8,0:0:0:0:
448,192,78753,1,2,0:0:0:0:
192,192,78753,1,0,0:0:0:0:
320,192,78897,1,0,0:0:0:0:
448,192,78897,1,2,0:0:0:0:
64,192,78897,128,4,79183:0:0:0:0:
192,192,79183,1,2,0:0:0:0:
448,192,79183,1,0,0:0:0:0:
320,192,79326,1,0,0:0:0:0:
64,192,79326,1,2,0:0:0:0:
320,192,79469,1,0,0:0:0:0:
192,192,79469,1,2,0:0:0:0:
448,192,79469,1,8,0:0:0:0:
64,192,79613,1,2,0:0:0:0:
192,192,79613,1,0,0:0:0:0:
320,192,79756,1,0,0:0:0:0:
448,192,79756,1,2,0:0:0:0:
64,192,79899,1,2,0:0:0:0:
448,192,79899,1,0,0:0:0:0:
320,192,80042,1,0,0:0:0:0:
64,192,80042,128,2,80329:0:0:0:0:
192,192,80329,1,2,0:0:0:0:
320,192,80329,1,0,0:0:0:0:
448,192,80472,1,0,0:0:0:0:
64,192,80472,1,2,0:0:0:0:
192,192,80615,1,8,0:0:0:0:
64,192,80615,1,2,0:0:0:0:
320,192,80615,1,0,0:0:0:0:
448,192,80758,1,2,0:0:0:0:
192,192,80758,1,0,0:0:0:0:
320,192,80901,1,0,0:0:0:0:
64,192,80901,1,2,0:0:0:0:
448,192,80901,1,8,0:0:0:0:
448,192,81045,1,8,0:0:0:0:
64,192,81045,1,2,0:0:0:0:
320,192,81045,1,0,0:0:0:0:
192,192,81188,1,0,0:0:0:0:
64,192,81188,1,2,0:0:0:0:
448,192,81188,128,4,81474:0:0:0:0:
320,192,81474,1,0,0:0:0:0:
64,192,81474,1,2,0:0:0:0:
192,192,81617,1,2,0:0:0:0:
448,192,81617,1,0,0:0:0:0:
192,192,81761,1,8,0:0:0:0:
64,192,81761,1,2,0:0:0:0:
320,192,81761,1,0,0:0:0:0:
448,192,81904,1,0,0:0:0:0:
64,192,81904,1,2,0:0:0:0:
448,192,82047,1,2,0:0:0:0:
320,192,82047,1,0,0:0:0:0:
192,192,82190,1,0,0:0:0:0:
64,192,82190,1,2,0:0:0:0:
320,192,82333,1,0,0:0:0:0:
64,192,82333,128,2,82620:0:0:0:0:
448,192,82620,1,0,0:0:0:0:
320,192,82620,1,2,0:0:0:0:
192,192,82763,1,2,0:0:0:0:
320,192,82763,1,0,0:0:0:0:
448,192,82906,1,0,0:0:0:0:
64,192,82906,1,2,0:0:0:0:
192,192,82906,1,8,0:0:0:0:
320,192,83049,1,0,0:0:0:0:
192,192,83049,1,2,0:0:0:0:
448,192,83193,1,8,0:0:0:0:
64,192,83193,1,2,0:0:0:0:
320,192,83193,1,0,0:0:0:0:
320,192,83336,1,0,0:0:0:0:
64,192,83336,1,2,0:0:0:0:
448,192,83336,1,8,0:0:0:0:
448,192,83479,1,4,0:0:0:0:
64,192,83479,1,2,0:0:0:0:
192,192,83479,128,0,83765:0:0:0:0:
448,192,83765,1,2,0:0:0:0:
320,192,83765,1,0,0:0:0:0:
320,192,83909,1,0,0:0:0:0:
192,192,83909,1,2,0:0:0:0:
320,192,84052,1,0,0:0:0:0:
64,192,84052,1,2,0:0:0:0:
448,192,84052,1,8,0:0:0:0:
64,192,84195,1,2,0:0:0:0:
192,192,84195,1,0,0:0:0:0:
320,192,84338,1,0,0:0:0:0:
448,192,84338,1,2,0:0:0:0:
64,192,84481,1,2,0:0:0:0:
448,192,84481,1,0,0:0:0:0:
64,192,84625,1,0,0:0:0:0:
192,192,84625,1,8,0:0:0:0:
320,192,84697,1,8,0:0:0:0:
448,192,84697,1,0,0:0:0:0:
192,192,84769,1,0,0:0:0:0:
64,192,84842,1,0,0:0:0:0:
320,192,84914,1,0,0:0:0:0:
192,192,84914,1,0,0:0:0:0:
448,192,84987,1,0,0:0:0:0:
192,192,85059,1,0,0:0:0:0:
64,192,85132,1,0,0:0:0:0:
320,192,85204,1,8,0:0:0:0:
448,192,85204,1,0,0:0:0:0:
192,192,85277,1,8,0:0:0:0:
64,192,85277,1,0,0:0:0:0:
448,192,85349,1,0,0:0:0:0:
320,192,85422,1,0,0:0:0:0:
192,192,85494,1,8,0:0:0:0:
64,192,85494,1,2,0:0:0:0:
448,192,85494,1,0,0:0:0:0:
64,192,85784,1,2,0:0:0:0:
320,192,85784,1,4,0:0:0:0:
448,192,85784,128,0,86212:0:0:0:0:
192,192,86212,1,2,0:0:0:0:
320,192,86212,1,0,0:0:0:0:
192,192,86355,1,2,0:0:0:0:
64,192,86355,1,0,0:0:0:0:
448,192,86355,1,8,0:0:0:0:
320,192,86498,1,0,0:0:0:0:
64,192,86498,1,2,0:0:0:0:
320,192,86641,1,4,0:0:0:0:
448,192,86641,1,0,0:0:0:0:
192,192,86641,128,2,87069:0:0:0:0:
320,192,87069,1,8,0:0:0:0:
448,192,87069,1,0,0:0:0:0:
64,192,87069,1,2,0:0:0:0:
64,192,87212,1,2,0:0:0:0:
320,192,87212,1,0,0:0:0:0:
192,192,87355,1,2,0:0:0:0:
448,192,87355,1,0,0:0:0:0:
64,192,87498,1,2,0:0:0:0:
192,192,87498,1,0,0:0:0:0:
320,192,87498,1,8,0:0:0:0:
64,192,87641,1,2,0:0:0:0:
448,192,87641,1,0,0:0:0:0:
192,192,87784,1,2,0:0:0:0:
320,192,87784,1,0,0:0:0:0:
320,192,87926,1,8,0:0:0:0:
448,192,87926,1,0,0:0:0:0:
64,192,87926,1,2,0:0:0:0:
448,192,88069,1,0,0:0:0:0:
192,192,88069,1,4,0:0:0:0:
64,192,88069,128,2,88498:0:0:0:0:
448,192,88498,1,2,0:0:0:0:
320,192,88498,1,0,0:0:0:0:
320,192,88641,1,8,0:0:0:0:
64,192,88641,1,0,0:0:0:0:
192,192,88641,1,2,0:0:0:0:
64,192,88926,1,2,0:0:0:0:
448,192,88926,1,0,0:0:0:0:
320,192,89212,1,0,0:0:0:0:
192,192,89212,1,2,0:0:0:0:
448,192,89212,1,8,0:0:0:0:
64,192,89355,1,8,3:0:0:0:
448,192,89355,1,0,0:0:0:0:
192,192,89426,1,8,3:0:0:0:
320,192,89498,1,0,0:0:0:0:
64,192,89498,1,8,3:0:0:0:
320,192,89641,1,0,0:0:0:0:
192,192,89641,1,8,3:0:0:0:
64,192,89784,1,8,3:0:0:0:
448,192,89784,1,0,0:0:0:0:
192,192,89926,1,0,0:0:0:0:
64,192,89926,1,8,3:0:0:0:
448,192,90069,1,8,3:0:0:0:
320,192,90069,1,0,0:0:0:0:
320,192,90212,1,0,0:0:0:0:
64,192,90212,1,8,3:0:0:0:
448,192,90355,1,2,0:0:0:0:
192,192,90355,1,4,0:0:0:0:
64,192,90355,128,0,90784:0:0:0:0:
320,192,90784,1,2,0:0:0:0:
192,192,90784,1,0,0:0:0:0:
320,192,90926,1,2,0:0:0:0:
448,192,90926,1,0,0:0:0:0:
64,192,90926,1,8,0:0:0:0:
192,192,91069,1,0,0:0:0:0:
448,192,91069,1,2,0:0:0:0:
192,192,91212,1,4,0:0:0:0:
64,192,91212,1,0,0:0:0:0:
320,192,91212,128,2,91641:0:0:0:0:
192,192,91641,1,8,0:0:0:0:
64,192,91641,1,0,0:0:0:0:
448,192,91641,1,2,0:0:0:0:
448,192,91784,1,2,0:0:0:0:
192,192,91784,1,0,0:0:0:0:
320,192,91926,1,2,0:0:0:0:
64,192,91926,1,0,0:0:0:0:
448,192,92069,1,2,0:0:0:0:
320,192,92069,1,0,0:0:0:0:
192,192,92069,1,8,0:0:0:0:
448,192,92212,1,2,0:0:0:0:
64,192,92212,1,0,0:0:0:0:
320,192,92355,1,2,0:0:0:0:
192,192,92355,1,0,0:0:0:0:
192,192,92498,1,8,0:0:0:0:
64,192,92498,1,0,0:0:0:0:
448,192,92498,1,2,0:0:0:0:
64,192,92641,1,0,0:0:0:0:
320,192,92641,1,4,0:0:0:0:
448,192,92641,128,2,93069:0:0:0:0:
64,192,93069,1,2,0:0:0:0:
320,192,93069,1,0,0:0:0:0:
192,192,93141,1,0,0:0:0:0:
64,192,93212,1,8,0:0:0:0:
448,192,93212,1,0,0:0:0:0:
320,192,93212,1,2,0:0:0:0:
448,192,93498,1,2,0:0:0:0:
64,192,93498,1,0,0:0:0:0:
192,192,93784,1,0,0:0:0:0:
448,192,93784,1,2,0:0:0:0:
64,192,93784,1,8,0:0:0:0:
448,192,93926,1,8,0:0:0:0:
320,192,93926,1,0,0:0:0:0:
192,192,93998,1,8,0:0:0:0:
64,192,93998,1,0,0:0:0:0:
320,192,94069,1,0,0:0:0:0:
448,192,94069,1,8,0:0:0:0:
192,192,94212,1,0,0:0:0:0:
448,192,94212,1,8,0:0:0:0:
64,192,94212,1,2,0:0:0:0:
448,192,94355,1,8,0:0:0:0:
64,192,94355,1,2,0:0:0:0:
192,192,94355,1,0,0:0:0:0:
320,192,94498,1,0,0:0:0:0:
448,192,94498,1,8,0:0:0:0:
64,192,94498,1,2,0:0:0:0:
320,192,94641,1,8,0:0:0:0:
448,192,94641,1,0,0:0:0:0:
64,192,94641,1,2,0:0:0:0:
192,192,94784,1,0,0:0:0:0:
64,192,94784,1,8,0:0:0:0:
320,192,94784,1,2,0:0:0:0:
64,192,94926,1,2,0:0:0:0:
320,192,94926,1,4,0:0:0:0:
448,192,94926,128,0,95355:0:0:0:0:
192,192,95355,1,2,0:0:0:0:
320,192,95355,1,0,0:0:0:0:
192,192,95498,1,2,0:0:0:0:
64,192,95498,1,0,0:0:0:0:
448,192,95498,1,8,0:0:0:0:
320,192,95641,1,0,0:0:0:0:
192,192,95641,1,2,0:0:0:0:
64,192,95784,128,2,96212:0:0:0:0:
320,192,95784,1,4,0:0:0:0:
448,192,95784,1,0,0:0:0:0:
320,192,96212,1,8,0:0:0:0:
448,192,96212,1,0,0:0:0:0:
192,192,96212,1,2,0:0:0:0:
64,192,96355,1,2,0:0:0:0:
320,192,96355,1,0,0:0:0:0:
192,192,96498,1,2,0:0:0:0:
448,192,96498,1,0,0:0:0:0:
64,192,96641,1,2,0:0:0:0:
192,192,96641,1,0,0:0:0:0:
320,192,96641,1,8,0:0:0:0:
64,192,96784,1,2,0:0:0:0:
448,192,96784,1,0,0:0:0:0:
192,192,96926,1,2,0:0:0:0:
448,192,96926,1,0,0:0:0:0:
320,192,97069,1,8,0:0:0:0:
192,192,97069,1,0,0:0:0:0:
64,192,97069,1,2,0:0:0:0:
448,192,97212,1,0,0:0:0:0:
320,192,97212,1,4,0:0:0:0:
64,192,97212,128,2,97641:0:0:0:0:
448,192,97641,1,2,0:0:0:0:
192,192,97641,1,0,0:0:0:0:
320,192,97784,1,8,0:0:0:0:
64,192,97784,1,0,0:0:0:0:
192,192,97784,1,2,0:0:0:0:
64,192,98069,1,2,0:0:0:0:
448,192,98069,1,0,0:0:0:0:
320,192,98355,1,0,0:0:0:0:
192,192,98355,1,2,0:0:0:0:
448,192,98355,1,8,0:0:0:0:
64,192,98498,1,8,3:0:0:0:
448,192,98498,1,0,0:0:0:0:
192,192,98569,1,8,3:0:0:0:
320,192,98641,1,0,0:0:0:0:
64,192,98641,1,8,3:0:0:0:
320,192,98784,1,0,0:0:0:0:
192,192,98784,1,8,3:0:0:0:
64,192,98926,1,8,3:0:0:0:
192,192,98926,1,0,0:0:0:0:
448,192,99069,1,0,0:0:0:0:
64,192,99069,1,8,3:0:0:0:
448,192,99212,1,8,3:0:0:0:
192,192,99212,1,0,0:0:0:0:
320,192,99355,1,0,0:0:0:0:
64,192,99355,1,8,3:0:0:0:
448,192,99498,1,2,0:0:0:0:
192,192,99498,1,4,0:0:0:0:
320,192,99498,128,0,99926:0:0:0:0:
64,192,99926,1,2,0:0:0:0:
192,192,99926,1,0,0:0:0:0:
320,192,100069,1,2,0:0:0:0:
448,192,100069,1,0,0:0:0:0:
64,192,100069,1,8,0:0:0:0:
192,192,100212,1,0,0:0:0:0:
320,192,100212,1,2,0:0:0:0:
192,192,100355,1,4,0:0:0:0:
64,192,100355,1,0,0:0:0:0:
448,192,100355,128,2,100784:0:0:0:0:
192,192,100784,1,8,0:0:0:0:
64,192,100784,1,0,0:0:0:0:
320,192,100784,1,2,0:0:0:0:
448,192,100926,1,2,0:0:0:0:
192,192,100926,1,0,0:0:0:0:
320,192,101069,1,2,0:0:0:0:
64,192,101069,1,0,0:0:0:0:
448,192,101212,1,2,0:0:0:0:
320,192,101212,1,0,0:0:0:0:
192,192,101212,1,8,0:0:0:0:
448,192,101355,1,2,0:0:0:0:
64,192,101355,1,0,0:0:0:0:
320,192,101498,1,2,0:0:0:0:
192,192,101498,1,0,0:0:0:0:
192,192,101641,1,8,0:0:0:0:
64,192,101641,1,0,0:0:0:0:
448,192,101641,1,2,0:0:0:0:
64,192,101784,1,0,0:0:0:0:
320,192,101784,1,4,0:0:0:0:
448,192,101784,128,2,102212:0:0:0:0:
64,192,102212,1,2,0:0:0:0:
192,192,102212,1,0,0:0:0:0:
64,192,102355,1,8,0:0:0:0:
448,192,102355,1,0,0:0:0:0:
320,192,102355,1,2,0:0:0:0:
448,192,102641,1,2,0:0:0:0:
64,192,102641,1,0,0:0:0:0:
64,192,102926,1,0,0:0:0:0:
320,192,102926,1,8,3:0:0:0:
448,192,102998,1,0,0:0:0:0:
192,192,102998,1,8,3:0:0:0:
320,192,103069,1,0,0:0:0:0:
192,192,103141,1,0,0:0:0:0:
64,192,103212,1,0,0:0:0:0:
320,192,103212,1,8,3:0:0:0:
448,192,103284,1,0,0:0:0:0:
192,192,103284,1,8,3:0:0:0:
320,192,103355,1,0,0:0:0:0:
192,192,103426,1,0,0:0:0:0:
64,192,103498,1,0,0:0:0:0:
320,192,103498,1,8,3:0:0:0:
448,192,103569,1,0,0:0:0:0:
192,192,103569,1,8,3:0:0:0:
320,192,103641,1,0,0:0:0:0:
192,192,103712,1,0,0:0:0:0:
64,192,103784,1,0,0:0:0:0:
320,192,103784,1,8,3:0:0:0:
448,192,103855,1,0,0:0:0:0:
192,192,103855,1,8,3:0:0:0:
320,192,103926,1,0,0:0:0:0:
192,192,103998,1,0,0:0:0:0:
64,192,104069,1,0,0:0:0:0:
320,192,104069,1,8,0:0:0:0:
448,192,104069,128,4,105325:0:0:0:0:
192,192,104697,1,2,0:0:0:0:
320,192,105325,1,2,0:0:0:0:
192,192,105325,1,4,0:0:0:0:
64,192,105325,128,0,106575:0:0:0:0:
192,192,105833,1,0,0:0:0:0:
320,192,105890,1,0,0:0:0:0:
192,192,105947,1,0,0:0:0:0:
320,192,106004,1,0,0:0:0:0:
192,192,106575,1,0,0:0:0:0:
448,192,106575,1,2,0:0:0:0:
320,192,106575,128,4,107200:0:0:0:0:
64,192,107200,1,4,0:0:0:0:
448,192,107200,1,2,0:0:0:0:
192,192,107200,128,0,107825:0:0:0:0:
320,192,107825,1,8,0:0:0:0:
448,192,107825,1,0,0:0:0:0:
64,192,107903,1,0,0:0:0:0:
192,192,107903,1,8,0:0:0:0:
448,192,107981,1,0,0:0:0:0:
320,192,108059,1,0,0:0:0:0:
192,192,108137,1,0,0:0:0:0:
448,192,108137,1,0,0:0:0:0:
64,192,108215,1,0,0:0:0:0:
320,192,108293,1,0,0:0:0:0:
448,192,108371,1,0,0:0:0:0:
64,192,108450,1,0,0:0:0:0:
192,192,108450,1,0,0:0:0:0:
320,192,108528,1,0,0:0:0:0:
192,192,108606,1,0,0:0:0:0:
448,192,108684,1,0,0:0:0:0:
320,192,108762,1,0,0:0:0:0:
192,192,108762,1,8,0:0:0:0:
64,192,108762,1,2,0:0:0:0:
320,192,109075,1,8,0:0:0:0:
192,192,109075,1,0,0:0:0:0:
448,192,109075,1,8,0:0:0:0:
64,192,109149,1,0,0:0:0:0:
320,192,109223,1,0,0:0:0:0:
192,192,109297,1,0,0:0:0:0:
64,192,109372,1,8,0:0:0:0:
320,192,109372,1,0,0:0:0:0:
448,192,109372,1,8,0:0:0:0:
192,192,109446,1,0,0:0:0:0:
448,192,109520,1,0,0:0:0:0:
192,192,109594,1,0,0:0:0:0:
448,192,109669,1,8,0:0:0:0:
64,192,109669,1,8,0:0:0:0:
320,192,109669,1,0,0:0:0:0:
192,192,109743,1,0,0:0:0:0:
64,192,109817,1,0,0:0:0:0:
320,192,109891,1,0,0:0:0:0:
192,192,109966,1,8,0:0:0:0:
64,192,109966,1,8,0:0:0:0:
448,192,109966,1,0,0:0:0:0:
320,192,110040,1,0,0:0:0:0:
448,192,110114,1,0,0:0:0:0:
64,192,110188,1,0,0:0:0:0:
320,192,110263,1,8,0:0:0:0:
448,192,110263,1,0,0:0:0:0:
192,192,110263,1,8,0:0:0:0:
64,192,110337,1,0,0:0:0:0:
448,192,110411,1,0,0:0:0:0:
320,192,110485,1,0,0:0:0:0:
192,192,110560,1,0,0:0:0:0:
64,192,110560,1,8,0:0:0:0:
448,192,110560,1,8,0:0:0:0:
320,192,110634,1,0,0:0:0:0:
64,192,110708,1,0,0:0:0:0:
320,192,110782,1,0,0:0:0:0:
64,192,110857,1,8,0:0:0:0:
448,192,110857,1,8,0:0:0:0:
192,192,110857,1,0,0:0:0:0:
320,192,110931,1,0,0:0:0:0:
448,192,111005,1,0,0:0:0:0:
64,192,111079,1,0,0:0:0:0:
192,192,111154,1,8,0:0:0:0:
448,192,111154,1,8,0:0:0:0:
320,192,111154,1,0,0:0:0:0:
64,192,111228,1,0,0:0:0:0:
192,192,111302,1,0,0:0:0:0:
320,192,111376,1,0,0:0:0:0:
64,192,111451,1,8,0:0:0:0:
448,192,111451,1,0,0:0:0:0:
192,192,111451,1,8,0:0:0:0:
320,192,111525,1,0,0:0:0:0:
448,192,111599,1,0,0:0:0:0:
320,192,111674,1,0,0:0:0:0:
448,192,111748,1,8,0:0:0:0:
192,192,111748,1,0,0:0:0:0:
64,192,111748,1,8,0:0:0:0:
320,192,111822,1,0,0:0:0:0:
64,192,111896,1,0,0:0:0:0:
192,192,111971,1,0,0:0:0:0:
320,192,112045,1,8,0:0:0:0:
448,192,112045,1,8,0:0:0:0:
64,192,112045,1,0,0:0:0:0:
192,192,112119,1,0,0:0:0:0:
320,192,112193,1,0,0:0:0:0:
192,192,112268,1,0,0:0:0:0:
320,192,112342,1,8,0:0:0:0:
448,192,112342,1,8,0:0:0:0:
64,192,112342,1,0,0:0:0:0:
192,192,112416,1,0,0:0:0:0:
64,192,112490,1,0,0:0:0:0:
448,192,112565,1,0,0:0:0:0:
192,192,112639,1,8,0:0:0:0:
64,192,112639,1,0,0:0:0:0:
320,192,112639,1,8,0:0:0:0:
448,192,112713,1,0,0:0:0:0:
320,192,112787,1,0,0:0:0:0:
64,192,112862,1,0,0:0:0:0:
192,192,112936,1,8,0:0:0:0:
320,192,112936,1,0,0:0:0:0:
448,192,112936,1,8,0:0:0:0:
64,192,113010,1,0,0:0:0:0:
448,192,113084,1,0,0:0:0:0:
192,192,113159,1,0,0:0:0:0:
64,192,113233,1,8,0:0:0:0:
320,192,113233,1,0,0:0:0:0:
448,192,113233,1,8,0:0:0:0:
192,192,113307,1,0,0:0:0:0:
448,192,113381,1,0,0:0:0:0:
320,192,113456,1,0,0:0:0:0:
64,192,113530,1,8,0:0:0:0:
192,192,113530,1,0,0:0:0:0:
448,192,113530,1,8,0:0:0:0:
320,192,113604,1,0,0:0:0:0:
64,192,113678,1,0,0:0:0:0:
192,192,113753,1,0,0:0:0:0:
64,192,113827,1,8,0:0:0:0:
320,192,113827,1,0,0:0:0:0:
448,192,113827,1,8,0:0:0:0:
192,192,113901,1,0,0:0:0:0:
448,192,113975,1,0,0:0:0:0:
320,192,114050,1,0,0:0:0:0:
64,192,114124,1,8,0:0:0:0:
192,192,114124,1,0,0:0:0:0:
448,192,114124,1,8,0:0:0:0:
320,192,114198,1,0,0:0:0:0:
64,192,114273,1,0,0:0:0:0:
320,192,114347,1,0,0:0:0:0:
64,192,114421,1,8,0:0:0:0:
192,192,114421,1,0,0:0:0:0:
448,192,114421,1,8,0:0:0:0:
320,192,114495,1,0,0:0:0:0:
448,192,114570,1,0,0:0:0:0:
192,192,114644,1,0,0:0:0:0:
320,192,114718,1,8,0:0:0:0:
64,192,114718,1,0,0:0:0:0:
448,192,114718,1,8,0:0:0:0:
192,192,114792,1,0,0:0:0:0:
64,192,114867,1,0,0:0:0:0:
448,192,114941,1,0,0:0:0:0:
320,192,115015,1,8,0:0:0:0:
64,192,115015,1,0,0:0:0:0:
192,192,115015,1,8,0:0:0:0:
448,192,115089,1,0,0:0:0:0:
320,192,115164,1,0,0:0:0:0:
64,192,115238,1,0,0:0:0:0:
192,192,115312,1,8,0:0:0:0:
448,192,115312,1,8,0:0:0:0:
320,192,115312,1,0,0:0:0:0:
64,192,115386,1,0,0:0:0:0:
448,192,115461,1,0,0:0:0:0:
192,192,115535,1,0,0:0:0:0:
448,192,115609,1,8,0:0:0:0:
320,192,115609,1,0,0:0:0:0:
64,192,115609,1,8,0:0:0:0:
192,192,115683,1,0,0:0:0:0:
448,192,115758,1,0,0:0:0:0:
320,192,115832,1,0,0:0:0:0:
192,192,115906,1,0,0:0:0:0:
64,192,115906,1,8,0:0:0:0:
448,192,115906,1,8,0:0:0:0:
320,192,115980,1,0,0:0:0:0:
64,192,116055,1,0,0:0:0:0:
192,192,116129,1,0,0:0:0:0:
448,192,116203,1,8,0:0:0:0:
320,192,116203,1,0,0:0:0:0:
64,192,116203,1,8,0:0:0:0:
192,192,116277,1,0,0:0:0:0:
64,192,116352,1,0,0:0:0:0:
320,192,116426,1,0,0:0:0:0:
192,192,116500,1,8,0:0:0:0:
448,192,116500,1,0,0:0:0:0:
64,192,116500,1,8,0:0:0:0:
320,192,116575,1,0,0:0:0:0:
64,192,116649,1,0,0:0:0:0:
448,192,116723,1,0,0:0:0:0:
320,192,116797,1,8,0:0:0:0:
64,192,116797,1,0,0:0:0:0:
192,192,116797,1,8,0:0:0:0:
448,192,116872,1,0,0:0:0:0:
320,192,116946,1,0,0:0:0:0:
64,192,117020,1,0,0:0:0:0:
448,192,117094,1,8,0:0:0:0:
192,192,117094,1,0,0:0:0:0:
320,192,117169,1,0,0:0:0:0:
192,192,117243,1,0,0:0:0:0:
448,192,117317,1,0,0:0:0:0:
64,192,117391,1,0,0:0:0:0:
192,192,117391,1,8,0:0:0:0:
448,192,117466,1,0,0:0:0:0:
320,192,117466,1,8,0:0:0:0:
192,192,117540,1,0,0:0:0:0:
64,192,117614,1,0,0:0:0:0:
320,192,117688,1,8,3:0:0:0:
448,192,117688,1,0,0:0:0:0:
192,192,117763,1,0,0:0:0:0:
64,192,117837,1,0,0:0:0:0:
448,192,117911,1,0,0:0:0:0:
64,192,117985,1,8,0:0:0:0:
320,192,117985,1,0,0:0:0:0:
192,192,118060,1,0,0:0:0:0:
64,192,118134,1,0,0:0:0:0:
320,192,118208,1,0,0:0:0:0:
64,192,118282,1,8,0:0:0:0:
192,192,118282,1,2,0:0:0:0:
448,192,118282,1,0,0:0:0:0:
64,192,118431,1,8,0:0:0:0:
192,192,118431,1,2,0:0:0:0:
448,192,118431,1,0,0:0:0:0:
448,192,118579,1,0,0:0:0:0:
320,192,118579,1,4,0:0:0:0:
64,192,118579,1,2,0:0:0:0:
192,192,118721,1,2,0:0:0:0:
320,192,118721,1,0,0:0:0:0:
192,192,118864,1,2,0:0:0:0:
64,192,118864,1,8,0:0:0:0:
448,192,118864,1,0,0:0:0:0:
192,192,119007,1,2,0:0:0:0:
448,192,119007,1,0,0:0:0:0:
320,192,119150,1,0,0:0:0:0:
64,192,119150,1,2,0:0:0:0:
320,192,119293,1,2,0:0:0:0:
448,192,119293,1,0,0:0:0:0:
448,192,119436,1,0,0:0:0:0:
64,192,119436,1,8,0:0:0:0:
192,192,119436,1,2,0:0:0:0:
320,192,119579,1,0,0:0:0:0:
64,192,119579,1,2,0:0:0:0:
192,192,119721,1,2,0:0:0:0:
448,192,119721,1,0,0:0:0:0:
64,192,119864,1,0,0:0:0:0:
192,192,119864,1,2,0:0:0:0:
192,192,120007,1,2,0:0:0:0:
448,192,120007,1,8,0:0:0:0:
320,192,120007,1,0,0:0:0:0:
64,192,120150,1,2,0:0:0:0:
448,192,120150,1,0,0:0:0:0:
320,192,120293,1,0,0:0:0:0:
192,192,120293,1,2,0:0:0:0:
192,192,120436,1,2,0:0:0:0:
448,192,120436,1,0,0:0:0:0:
320,192,120579,1,0,0:0:0:0:
64,192,120579,1,8,0:0:0:0:
192,192,120579,1,2,0:0:0:0:
448,192,120721,1,0,0:0:0:0:
192,192,120721,1,2,0:0:0:0:
64,192,120864,1,2,0:0:0:0:
320,192,120864,1,0,0:0:0:0:
320,192,121007,1,0,0:0:0:0:
192,192,121007,1,2,0:0:0:0:
448,192,121150,1,2,0:0:0:0:
64,192,121150,1,8,0:0:0:0:
320,192,121150,1,0,0:0:0:0:
192,192,121293,1,2,0:0:0:0:
64,192,121293,1,0,0:0:0:0:
320,192,121436,1,0,0:0:0:0:
192,192,121436,1,2,0:0:0:0:
192,192,121579,1,2,0:0:0:0:
448,192,121579,1,0,0:0:0:0:
320,192,121721,1,0,0:0:0:0:
64,192,121721,1,8,0:0:0:0:
448,192,121721,1,2,0:0:0:0:
320,192,121864,1,0,0:0:0:0:
192,192,121864,1,2,0:0:0:0:
64,192,122007,1,2,0:0:0:0:
448,192,122007,1,0,0:0:0:0:
64,192,122150,1,0,0:0:0:0:
192,192,122150,1,2,0:0:0:0:
448,192,122293,1,2,0:0:0:0:
192,192,122293,1,8,0:0:0:0:
320,192,122293,1,0,0:0:0:0:
64,192,122436,1,2,0:0:0:0:
320,192,122436,1,0,0:0:0:0:
448,192,122579,1,0,0:0:0:0:
192,192,122579,1,2,0:0:0:0:
320,192,122721,1,2,0:0:0:0:
448,192,122721,1,0,0:0:0:0:
320,192,122864,1,0,0:0:0:0:
64,192,122864,1,8,0:0:0:0:
192,192,122864,1,2,0:0:0:0:
448,192,123007,1,0,0:0:0:0:
64,192,123007,1,2,0:0:0:0:
192,192,123150,1,2,0:0:0:0:
320,192,123150,1,4,0:0:0:0:
448,192,123150,1,0,0:0:0:0:
448,192,123293,1,0,0:0:0:0:
192,192,123293,1,2,0:0:0:0:
192,192,123436,1,2,0:0:0:0:
64,192,123436,1,8,0:0:0:0:
320,192,123436,1,0,0:0:0:0:
64,192,123579,1,2,0:0:0:0:
448,192,123579,1,0,0:0:0:0:
320,192,123721,1,0,0:0:0:0:
192,192,123721,1,2,0:0:0:0:
192,192,123864,1,2,0:0:0:0:
64,192,123864,1,0,0:0:0:0:
320,192,124007,1,0,0:0:0:0:
64,192,124007,1,8,0:0:0:0:
448,192,124007,1,2,0:0:0:0:
320,192,124150,1,0,0:0:0:0:
192,192,124150,1,2,0:0:0:0:
192,192,124293,1,2,0:0:0:0:
448,192,124293,1,0,0:0:0:0:
64,192,124436,1,0,0:0:0:0:
192,192,124436,1,2,0:0:0:0:
448,192,124579,1,2,0:0:0:0:
64,192,124579,1,8,0:0:0:0:
320,192,124579,1,0,0:0:0:0:
192,192,124721,1,2,0:0:0:0:
448,192,124721,1,0,0:0:0:0:
320,192,124864,1,0,0:0:0:0:
64,192,124864,1,2,0:0:0:0:
192,192,125007,1,2,0:0:0:0:
320,192,125007,1,0,0:0:0:0:
320,192,125150,1,0,0:0:0:0:
64,192,125150,1,8,0:0:0:0:
448,192,125150,1,2,0:0:0:0:
448,192,125293,1,0,0:0:0:0:
192,192,125293,1,2,0:0:0:0:
64,192,125436,1,2,0:0:0:0:
448,192,125436,1,0,0:0:0:0:
320,192,125579,1,0,0:0:0:0:
192,192,125579,1,2,0:0:0:0:
448,192,125721,1,2,0:0:0:0:
64,192,125721,1,8,0:0:0:0:
192,192,125721,1,0,0:0:0:0:
320,192,125864,1,2,0:0:0:0:
448,192,125864,1,0,0:0:0:0:
448,192,126007,1,0,0:0:0:0:
64,192,126007,1,2,0:0:0:0:
192,192,126150,1,2,0:0:0:0:
320,192,126150,1,0,0:0:0:0:
320,192,126293,1,0,0:0:0:0:
64,192,126293,1,8,0:0:0:0:
448,192,126293,1,2,0:0:0:0:
64,192,126436,1,0,0:0:0:0:
192,192,126436,1,2,0:0:0:0:
192,192,126579,1,2,0:0:0:0:
448,192,126579,1,0,0:0:0:0:
320,192,126721,1,0,0:0:0:0:
448,192,126721,1,2,0:0:0:0:
448,192,126864,1,2,0:0:0:0:
64,192,126864,1,8,0:0:0:0:
320,192,126864,1,0,0:0:0:0:
64,192,127007,1,2,0:0:0:0:
192,192,127007,1,0,0:0:0:0:
320,192,127150,1,0,0:0:0:0:
192,192,127150,1,2,0:0:0:0:
448,192,127150,1,8,0:0:0:0:
64,192,127293,1,2,0:0:0:0:
448,192,127293,1,0,0:0:0:0:
320,192,127436,1,0,0:0:0:0:
64,192,127436,1,8,0:0:0:0:
192,192,127436,1,2,0:0:0:0:
320,192,127579,1,0,0:0:0:0:
64,192,127579,1,8,0:0:0:0:
192,192,127579,1,2,0:0:0:0:
448,192,127721,1,2,0:0:0:0:
64,192,127721,1,4,0:0:0:0:
320,192,127721,1,0,0:0:0:0:
448,192,127864,1,0,0:0:0:0:
192,192,127864,1,2,0:0:0:0:
320,192,128007,1,0,0:0:0:0:
64,192,128007,1,8,0:0:0:0:
192,192,128007,1,2,0:0:0:0:
448,192,128150,1,0,0:0:0:0:
64,192,128150,1,2,0:0:0:0:
192,192,128293,1,2,0:0:0:0:
448,192,128293,1,0,0:0:0:0:
320,192,128436,1,0,0:0:0:0:
192,192,128436,1,2,0:0:0:0:
448,192,128579,1,2,0:0:0:0:
64,192,128579,1,8,0:0:0:0:
320,192,128579,1,0,0:0:0:0:
64,192,128721,1,2,0:0:0:0:
320,192,128721,1,0,0:0:0:0:
448,192,128864,1,0,0:0:0:0:
192,192,128864,1,2,0:0:0:0:
192,192,129007,1,2,0:0:0:0:
320,192,129007,1,0,0:0:0:0:
320,192,129150,1,0,0:0:0:0:
64,192,129150,1,8,0:0:0:0:
192,192,129150,1,2,0:0:0:0:
448,192,129293,1,0,0:0:0:0:
64,192,129293,1,2,0:0:0:0:
192,192,129436,1,2,0:0:0:0:
448,192,129436,1,0,0:0:0:0:
64,192,129579,1,0,0:0:0:0:
192,192,129579,1,2,0:0:0:0:
448,192,129721,1,2,0:0:0:0:
64,192,129721,1,8,0:0:0:0:
320,192,129721,1,0,0:0:0:0:
448,192,129864,1,2,0:0:0:0:
320,192,129864,1,0,0:0:0:0:
448,192,130007,1,0,0:0:0:0:
64,192,130007,1,2,0:0:0:0:
192,192,130150,1,2,0:0:0:0:
320,192,130150,1,0,0:0:0:0:
448,192,130293,1,0,0:0:0:0:
64,192,130293,1,8,0:0:0:0:
192,192,130293,1,2,0:0:0:0:
320,192,130436,1,0,0:0:0:0:
192,192,130436,1,2,0:0:0:0:
64,192,130579,1,2,0:0:0:0:
320,192,130579,1,0,0:0:0:0:
448,192,130721,1,0,0:0:0:0:
192,192,130721,1,2,0:0:0:0:
192,192,130864,1,2,0:0:0:0:
64,192,130864,1,8,0:0:0:0:
320,192,130864,1,0,0:0:0:0:
320,192,131007,1,2,0:0:0:0:
448,192,131007,1,0,0:0:0:0:
448,192,131150,1,0,0:0:0:0:
64,192,131150,1,2,0:0:0:0:
192,192,131293,1,2,0:0:0:0:
320,192,131293,1,0,0:0:0:0:
320,192,131436,1,0,0:0:0:0:
64,192,131436,1,8,0:0:0:0:
448,192,131436,1,2,0:0:0:0:
64,192,131579,1,0,0:0:0:0:
192,192,131579,1,2,0:0:0:0:
64,192,131721,1,2,0:0:0:0:
320,192,131721,1,0,0:0:0:0:
320,192,131864,1,0,0:0:0:0:
192,192,131864,1,2,0:0:0:0:
448,192,132007,1,2,0:0:0:0:
320,192,132007,1,8,0:0:0:0:
192,192,132007,1,0,0:0:0:0:
64,192,132150,1,0,0:0:0:0:
448,192,132150,1,2,0:0:0:0:
192,192,132293,1,2,0:0:0:0:
64,192,132293,1,4,0:0:0:0:
448,192,132293,1,0,0:0:0:0:
320,192,132436,1,0,0:0:0:0:
64,192,132436,1,2,0:0:0:0:
320,192,132579,1,0,0:0:0:0:
192,192,132579,1,8,0:0:0:0:
448,192,132579,1,2,0:0:0:0:
320,192,132721,1,0,0:0:0:0:
64,192,132721,1,2,0:0:0:0:
192,192,132864,1,2,0:0:0:0:
64,192,132864,1,0,0:0:0:0:
320,192,133007,1,0,0:0:0:0:
448,192,133007,1,2,0:0:0:0:
192,192,133150,1,2,0:0:0:0:
64,192,133150,1,8,0:0:0:0:
320,192,133150,1,0,0:0:0:0:
64,192,133293,1,2,0:0:0:0:
448,192,133293,1,0,0:0:0:0:
320,192,133436,1,0,0:0:0:0:
192,192,133436,1,2,0:0:0:0:
64,192,133579,1,2,0:0:0:0:
320,192,133579,1,0,0:0:0:0:
448,192,133721,1,0,0:0:0:0:
64,192,133721,1,8,0:0:0:0:
192,192,133721,1,2,0:0:0:0:
320,192,133864,1,0,0:0:0:0:
192,192,133864,1,2,0:0:0:0:
64,192,134007,1,2,0:0:0:0:
192,192,134007,1,0,0:0:0:0:
320,192,134150,1,0,0:0:0:0:
448,192,134150,1,2,0:0:0:0:
192,192,134293,1,2,0:0:0:0:
64,192,134293,1,8,0:0:0:0:
320,192,134293,1,0,0:0:0:0:
64,192,134436,1,2,0:0:0:0:
448,192,134436,1,0,0:0:0:0:
320,192,134579,1,0,0:0:0:0:
192,192,134579,1,2,0:0:0:0:
64,192,134721,1,2,0:0:0:0:
320,192,134721,1,0,0:0:0:0:
192,192,134864,1,0,0:0:0:0:
64,192,134864,1,8,0:0:0:0:
448,192,134864,1,2,0:0:0:0:
320,192,135007,1,0,0:0:0:0:
192,192,135007,1,2,0:0:0:0:
64,192,135150,1,2,0:0:0:0:
320,192,135150,1,0,0:0:0:0:
448,192,135293,1,0,0:0:0:0:
192,192,135293,1,2,0:0:0:0:
192,192,135436,1,2,0:0:0:0:
64,192,135436,1,8,0:0:0:0:
320,192,135436,1,0,0:0:0:0:
64,192,135579,1,2,0:0:0:0:
448,192,135579,1,0,0:0:0:0:
320,192,135721,1,0,0:0:0:0:
192,192,135721,1,8,0:0:0:0:
448,192,135721,1,2,0:0:0:0:
64,192,135864,1,0,0:0:0:0:
192,192,135864,1,8,0:0:0:0:
320,192,135936,1,8,0:0:0:0:
448,192,135936,1,0,0:0:0:0:
64,192,136007,1,0,0:0:0:0:
192,192,136007,1,8,0:0:0:0:
192,192,136150,1,8,0:0:0:0:
448,192,136150,1,2,0:0:0:0:
320,192,136150,1,0,0:0:0:0:
320,192,136293,1,0,0:0:0:0:
448,192,136293,1,2,0:0:0:0:
192,192,136293,1,8,0:0:0:0:
64,192,136436,1,8,0:0:0:0:
320,192,136436,1,2,0:0:0:0:
192,192,136436,1,0,0:0:0:0:
192,192,136579,1,0,0:0:0:0:
320,192,136579,1,2,0:0:0:0:
64,192,136579,1,8,0:0:0:0:
64,192,136721,1,8,0:0:0:0:
448,192,136721,1,2,0:0:0:0:
320,192,136721,1,0,0:0:0:0:
448,192,136864,1,2,0:0:0:0:
192,192,136864,1,4,0:0:0:0:
64,192,136864,128,0,137290:0:0:0:0:
320,192,137290,1,0,0:0:0:0:
192,192,137290,1,2,0:0:0:0:
320,192,137432,1,2,0:0:0:0:
448,192,137432,1,0,0:0:0:0:
64,192,137432,1,8,0:0:0:0:
192,192,137574,1,0,0:0:0:0:
448,192,137574,1,2,0:0:0:0:
192,192,137717,1,4,0:0:0:0:
64,192,137717,1,0,0:0:0:0:
320,192,137717,128,2,138143:0:0:0:0:
192,192,138143,1,8,0:0:0:0:
64,192,138143,1,0,0:0:0:0:
448,192,138143,1,2,0:0:0:0:
448,192,138285,1,2,0:0:0:0:
192,192,138285,1,0,0:0:0:0:
320,192,138427,1,2,0:0:0:0:
64,192,138427,1,0,0:0:0:0:
448,192,138570,1,2,0:0:0:0:
64,192,138570,1,0,0:0:0:0:
192,192,138570,1,8,0:0:0:0:
448,192,138712,1,2,0:0:0:0:
320,192,138712,1,0,0:0:0:0:
320,192,138854,1,2,0:0:0:0:
192,192,138854,1,0,0:0:0:0:
192,192,138996,1,8,0:0:0:0:
64,192,138996,1,0,0:0:0:0:
448,192,138996,1,2,0:0:0:0:
64,192,139138,1,0,0:0:0:0:
448,192,139138,1,4,0:0:0:0:
320,192,139138,128,2,139565:0:0:0:0:
64,192,139565,1,2,0:0:0:0:
192,192,139565,1,0,0:0:0:0:
320,192,139636,1,0,0:0:0:0:
192,192,139707,1,8,0:0:0:0:
448,192,139707,1,0,0:0:0:0:
64,192,139707,1,2,0:0:0:0:
320,192,139991,1,2,0:0:0:0:
192,192,139991,1,0,0:0:0:0:
192,192,140276,1,0,0:0:0:0:
320,192,140276,1,2,0:0:0:0:
64,192,140276,1,8,0:0:0:0:
448,192,140418,1,8,3:0:0:0:
64,192,140418,1,0,0:0:0:0:
320,192,140489,1,8,3:0:0:0:
64,192,140560,1,0,0:0:0:0:
192,192,140560,1,8,3:0:0:0:
192,192,140702,1,0,0:0:0:0:
320,192,140702,1,8,3:0:0:0:
448,192,140845,1,8,3:0:0:0:
64,192,140845,1,0,0:0:0:0:
320,192,140987,1,0,0:0:0:0:
448,192,140987,1,8,3:0:0:0:
64,192,141129,1,8,3:0:0:0:
192,192,141129,1,0,0:0:0:0:
320,192,141271,1,0,0:0:0:0:
448,192,141271,1,8,3:0:0:0:
64,192,141413,1,2,0:0:0:0:
192,192,141413,1,4,0:0:0:0:
448,192,141413,128,0,141840:0:0:0:0:
64,192,141840,1,2,0:0:0:0:
320,192,141840,1,0,0:0:0:0:
192,192,141982,1,2,0:0:0:0:
320,192,141982,1,0,0:0:0:0:
448,192,141982,1,8,0:0:0:0:
192,192,142124,1,0,0:0:0:0:
64,192,142124,1,2,0:0:0:0:
64,192,142266,1,4,0:0:0:0:
448,192,142266,1,0,0:0:0:0:
320,192,142266,128,2,142693:0:0:0:0:
192,192,142693,1,8,0:0:0:0:
448,192,142693,1,0,0:0:0:0:
64,192,142693,1,2,0:0:0:0:
64,192,142835,1,2,0:0:0:0:
320,192,142835,1,0,0:0:0:0:
320,192,142977,1,2,0:0:0:0:
448,192,142977,1,0,0:0:0:0:
64,192,143119,1,2,0:0:0:0:
192,192,143119,1,0,0:0:0:0:
448,192,143119,1,8,0:0:0:0:
64,192,143262,1,2,0:0:0:0:
192,192,143262,1,0,0:0:0:0:
448,192,143404,1,2,0:0:0:0:
320,192,143404,1,0,0:0:0:0:
192,192,143546,1,8,0:0:0:0:
448,192,143546,1,0,0:0:0:0:
64,192,143546,1,2,0:0:0:0:
448,192,143688,1,0,0:0:0:0:
192,192,143688,1,4,0:0:0:0:
64,192,143688,128,2,144115:0:0:0:0:
448,192,144115,1,2,0:0:0:0:
320,192,144115,1,0,0:0:0:0:
320,192,144257,1,8,0:0:0:0:
64,192,144257,1,0,0:0:0:0:
192,192,144257,1,2,0:0:0:0:
192,192,144541,1,2,0:0:0:0:
448,192,144541,1,0,0:0:0:0:
320,192,144826,1,0,0:0:0:0:
64,192,144826,1,2,0:0:0:0:
448,192,144826,1,8,0:0:0:0:
448,192,144968,1,8,0:0:0:0:
192,192,144968,1,0,0:0:0:0:
320,192,145039,1,8,0:0:0:0:
64,192,145039,1,0,0:0:0:0:
192,192,145110,1,0,0:0:0:0:
448,192,145110,1,8,0:0:0:0:
320,192,145252,1,0,0:0:0:0:
64,192,145252,1,8,0:0:0:0:
448,192,145252,1,2,0:0:0:0:
64,192,145394,1,8,0:0:0:0:
448,192,145394,1,2,0:0:0:0:
320,192,145394,1,0,0:0:0:0:
192,192,145536,1,0,0:0:0:0:
64,192,145536,1,8,0:0:0:0:
448,192,145536,1,2,0:0:0:0:
192,192,145679,1,8,3:0:0:0:
320,192,145679,1,0,0:0:0:0:
320,192,145821,1,0,0:0:0:0:
448,192,145821,1,8,3:0:0:0:
448,192,145963,1,2,0:0:0:0:
192,192,145963,1,4,0:0:0:0:
64,192,145963,128,0,146390:0:0:0:0:
320,192,146390,1,2,0:0:0:0:
448,192,146390,1,0,0:0:0:0:
320,192,146532,1,2,0:0:0:0:
448,192,146532,1,0,0:0:0:0:
64,192,146532,1,8,0:0:0:0:
192,192,146674,1,0,0:0:0:0:
320,192,146674,1,2,0:0:0:0:
192,192,146816,1,4,0:0:0:0:
64,192,146816,1,0,0:0:0:0:
448,192,146816,128,2,147243:0:0:0:0:
192,192,147243,1,8,0:0:0:0:
64,192,147243,1,0,0:0:0:0:
320,192,147243,1,2,0:0:0:0:
448,192,147385,1,2,0:0:0:0:
64,192,147385,1,0,0:0:0:0:
320,192,147527,1,2,0:0:0:0:
192,192,147527,1,0,0:0:0:0:
448,192,147669,1,2,0:0:0:0:
320,192,147669,1,0,0:0:0:0:
64,192,147669,1,8,0:0:0:0:
448,192,147811,1,2,0:0:0:0:
192,192,147811,1,0,0:0:0:0:
448,192,147954,1,2,0:0:0:0:
320,192,147954,1,0,0:0:0:0:
192,192,148096,1,8,0:0:0:0:
64,192,148096,1,0,0:0:0:0:
320,192,148096,1,2,0:0:0:0:
64,192,148238,1,0,0:0:0:0:
192,192,148238,1,4,0:0:0:0:
448,192,148238,128,2,148664:0:0:0:0:
64,192,148664,1,2,0:0:0:0:
192,192,148664,1,0,0:0:0:0:
192,192,148807,1,8,0:0:0:0:
448,192,148807,1,0,0:0:0:0:
320,192,148807,1,2,0:0:0:0:
448,192,149091,1,2,0:0:0:0:
64,192,149091,1,0,0:0:0:0:
320,192,149375,1,8,0:0:0:0:
448,192,149375,1,8,3:0:0:0:
64,192,149470,1,8,3:0:0:0:
192,192,149470,1,8,0:0:0:0:
448,192,149565,1,8,3:0:0:0:
192,192,149660,1,8,3:0:0:0:
64,192,149660,1,0,0:0:0:0:
448,192,149754,1,8,3:0:0:0:
320,192,149754,1,0,0:0:0:0:
64,192,149849,1,8,3:0:0:0:
320,192,149944,1,8,3:0:0:0:
448,192,149944,1,0,0:0:0:0:
192,192,150039,1,8,3:0:0:0:
64,192,150039,1,0,0:0:0:0:
448,192,150134,1,8,3:0:0:0:
192,192,150228,1,8,3:0:0:0:
64,192,150228,1,0,0:0:0:0:
448,192,150323,1,8,3:0:0:0:
320,192,150323,1,0,0:0:0:0:
64,192,150418,1,8,3:0:0:0:
192,192,150513,1,2,0:0:0:0:
320,192,150513,1,4,0:0:0:0:
448,192,150513,128,0,150939:0:0:0:0:
64,192,150939,1,2,0:0:0:0:
320,192,150939,1,0,0:0:0:0:
192,192,151082,1,2,0:0:0:0:
320,192,151082,1,0,0:0:0:0:
448,192,151082,1,8,0:0:0:0:
192,192,151224,1,0,0:0:0:0:
64,192,151224,1,2,0:0:0:0:
192,192,151366,1,4,0:0:0:0:
448,192,151366,1,0,0:0:0:0:
320,192,151366,128,2,151792:0:0:0:0:
192,192,151792,1,8,0:0:0:0:
448,192,151792,1,0,0:0:0:0:
64,192,151792,1,2,0:0:0:0:
192,192,151935,1,2,0:0:0:0:
320,192,151935,1,0,0:0:0:0:
64,192,152077,1,2,0:0:0:0:
448,192,152077,1,0,0:0:0:0:
64,192,152219,1,2,0:0:0:0:
448,192,152219,1,0,0:0:0:0:
320,192,152219,1,8,0:0:0:0:
192,192,152361,1,2,0:0:0:0:
448,192,152361,1,0,0:0:0:0:
192,192,152503,1,2,0:0:0:0:
320,192,152503,1,0,0:0:0:0:
320,192,152645,1,8,0:0:0:0:
448,192,152645,1,0,0:0:0:0:
64,192,152645,1,2,0:0:0:0:
448,192,152788,1,0,0:0:0:0:
192,192,152788,1,4,0:0:0:0:
64,192,152788,128,2,153214:0:0:0:0:
448,192,153214,1,2,0:0:0:0:
320,192,153214,1,0,0:0:0:0:
448,192,153356,1,8,0:0:0:0:
64,192,153356,1,0,0:0:0:0:
192,192,153356,1,2,0:0:0:0:
64,192,153641,1,2,0:0:0:0:
448,192,153641,1,0,0:0:0:0:
64,192,153925,1,0,0:0:0:0:
192,192,153925,1,8,0:0:0:0:
448,192,153996,1,0,0:0:0:0:
320,192,153996,1,8,0:0:0:0:
192,192,154067,1,0,0:0:0:0:
320,192,154138,1,0,0:0:0:0:
448,192,154209,1,8,3:0:0:0:
192,192,154209,1,0,0:0:0:0:
64,192,154281,1,0,0:0:0:0:
320,192,154352,1,0,0:0:0:0:
192,192,154423,1,0,0:0:0:0:
448,192,154494,1,8,3:0:0:0:
64,192,154494,1,0,0:0:0:0:
320,192,154565,1,0,0:0:0:0:
192,192,154636,1,0,0:0:0:0:
320,192,154707,1,0,0:0:0:0:
64,192,154778,1,2,0:0:0:0:
448,192,154778,1,0,0:0:0:0:
192,192,154778,1,8,0:0:0:0:
64,192,154920,1,2,0:0:0:0:
448,192,154920,1,8,0:0:0:0:
192,192,154920,1,0,0:0:0:0:
320,192,155063,1,0,0:0:0:0:
192,192,155063,1,8,3:0:0:0:
64,192,155192,1,0,0:0:0:0:
192,192,155321,1,8,3:0:0:0:
448,192,155321,128,0,155450:0:0:0:0:
320,192,155450,1,0,0:0:0:0:
192,192,155580,1,8,0:0:0:0:
448,192,155580,1,0,0:0:0:0:
64,192,155580,128,8,155709:3:0:0:0:
320,192,155709,1,0,0:0:0:0:
448,192,155838,1,8,3:0:0:0:
64,192,155838,1,0,0:0:0:0:
320,192,155968,1,0,0:0:0:0:
64,192,156097,1,0,0:0:0:0:
192,192,156097,128,8,156226:3:0:0:0:
448,192,156226,1,0,0:0:0:0:
320,192,156356,1,0,0:0:0:0:
64,192,156356,128,8,156485:3:0:0:0:
192,192,156485,1,0,0:0:0:0:
448,192,156614,1,8,0:0:0:0:
320,192,156614,1,8,3:0:0:0:
64,192,156614,1,0,0:0:0:0:
192,192,156744,1,0,0:0:0:0:
320,192,156873,1,8,3:0:0:0:
64,192,156873,1,0,0:0:0:0:
448,192,157002,1,0,0:0:0:0:
192,192,157131,1,0,0:0:0:0:
320,192,157131,1,8,3:0:0:0:
64,192,157261,1,0,0:0:0:0:
192,192,157390,1,8,3:0:0:0:
448,192,157390,128,0,157519:0:0:0:0:
320,192,157519,1,0,0:0:0:0:
448,192,157649,1,8,0:0:0:0:
64,192,157649,1,0,0:0:0:0:
192,192,157649,128,8,157778:3:0:0:0:
320,192,157778,1,0,0:0:0:0:
192,192,157907,1,8,3:0:0:0:
448,192,157907,1,0,0:0:0:0:
320,192,158037,1,0,0:0:0:0:
448,192,158166,1,0,0:0:0:0:
64,192,158166,128,8,158295:3:0:0:0:
192,192,158295,1,0,0:0:0:0:
320,192,158425,1,0,0:0:0:0:
448,192,158425,128,8,158554:3:0:0:0:
64,192,158554,1,0,0:0:0:0:
192,192,158683,1,8,0:0:0:0:
320,192,158683,1,8,3:0:0:0:
448,192,158683,1,0,0:0:0:0:
64,192,158813,1,0,0:0:0:0:
320,192,158942,1,8,3:0:0:0:
448,192,158942,1,0,0:0:0:0:
64,192,159071,1,0,0:0:0:0:
192,192,159200,1,0,0:0:0:0:
320,192,159200,1,8,3:0:0:0:
448,192,159330,1,0,0:0:0:0:
320,192,159459,1,8,3:0:0:0:
64,192,159459,128,0,159588:0:0:0:0:
192,192,159588,1,0,0:0:0:0:
320,192,159718,1,8,0:0:0:0:
64,192,159718,1,0,0:0:0:0:
448,192,159718,128,8,159847:3:0:0:0:
192,192,159847,1,0,0:0:0:0:
64,192,159976,1,8,3:0:0:0:
448,192,159976,1,0,0:0:0:0:
192,192,160106,1,0,0:0:0:0:
448,192,160235,1,0,0:0:0:0:
320,192,160235,128,8,160364:3:0:0:0:
192,192,160364,1,0,0:0:0:0:
64,192,160494,1,0,0:0:0:0:
448,192,160494,128,8,160623:3:0:0:0:
192,192,160623,1,0,0:0:0:0:
64,192,160752,1,8,0:0:0:0:
320,192,160752,1,8,3:0:0:0:
448,192,160752,1,0,0:0:0:0:
192,192,160881,1,0,0:0:0:0:
320,192,161011,1,8,3:0:0:0:
448,192,161011,1,0,0:0:0:0:
64,192,161140,1,0,0:0:0:0:
320,192,161269,1,0,0:0:0:0:
192,192,161269,1,8,3:0:0:0:
448,192,161399,1,0,0:0:0:0:
192,192,161528,1,8,3:0:0:0:
64,192,161528,128,0,161657:0:0:0:0:
320,192,161657,1,0,0:0:0:0:
64,192,161787,1,8,0:0:0:0:
448,192,161787,1,0,0:0:0:0:
192,192,161787,128,8,161916:3:0:0:0:
320,192,161916,1,0,0:0:0:0:
192,192,162045,1,8,3:0:0:0:
64,192,162045,1,0,0:0:0:0:
320,192,162175,1,0,0:0:0:0:
64,192,162304,1,0,0:0:0:0:
448,192,162304,128,8,162433:3:0:0:0:
320,192,162433,1,0,0:0:0:0:
192,192,162563,1,0,0:0:0:0:
64,192,162563,128,8,162692:3:0:0:0:
320,192,162692,1,0,0:0:0:0:
448,192,162821,1,8,0:0:0:0:
192,192,162821,1,8,3:0:0:0:
64,192,162821,1,0,0:0:0:0:
320,192,162950,1,0,0:0:0:0:
64,192,163080,1,0,0:0:0:0:
192,192,163080,1,8,3:0:0:0:
448,192,163080,1,8,0:0:0:0:
448,192,163209,1,8,0:0:0:0:
192,192,163209,1,8,3:0:0:0:
64,192,163209,1,0,0:0:0:0:
192,192,163338,1,0,0:0:0:0:
320,192,163338,1,8,3:0:0:0:
448,192,163468,1,0,0:0:0:0:
320,192,163597,1,8,3:0:0:0:
64,192,163597,128,0,163726:0:0:0:0:
192,192,163726,1,0,0:0:0:0:
320,192,163856,1,8,0:0:0:0:
64,192,163856,1,0,0:0:0:0:
448,192,163856,128,8,163985:3:0:0:0:
192,192,163985,1,0,0:0:0:0:
64,192,164114,1,8,3:0:0:0:
448,192,164114,1,0,0:0:0:0:
192,192,164244,1,0,0:0:0:0:
448,192,164373,1,0,0:0:0:0:
320,192,164373,128,8,164502:3:0:0:0:
192,192,164502,1,0,0:0:0:0:
64,192,164631,1,0,0:0:0:0:
448,192,164631,128,8,164761:3:0:0:0:
320,192,164761,1,0,0:0:0:0:
64,192,164890,1,8,0:0:0:0:
192,192,164890,1,8,3:0:0:0:
448,192,164890,1,0,0:0:0:0:
320,192,165019,1,0,0:0:0:0:
64,192,165149,1,8,3:0:0:0:
448,192,165149,1,0,0:0:0:0:
192,192,165278,1,0,0:0:0:0:
320,192,165407,1,0,0:0:0:0:
64,192,165407,1,8,3:0:0:0:
448,192,165537,1,0,0:0:0:0:
192,192,165666,128,0,165795:0:0:0:0:
320,192,165666,1,8,3:0:0:0:
64,192,165795,1,0,0:0:0:0:
192,192,165925,1,8,0:0:0:0:
448,192,165925,1,0,0:0:0:0:
320,192,165925,128,8,166054:3:0:0:0:
64,192,166054,1,0,0:0:0:0:
448,192,166183,1,8,3:0:0:0:
192,192,166183,1,0,0:0:0:0:
320,192,166312,1,0,0:0:0:0:
64,192,166442,1,0,0:0:0:0:
448,192,166442,128,8,166571:3:0:0:0:
320,192,166571,1,0,0:0:0:0:
192,192,166700,1,0,0:0:0:0:
64,192,166700,128,8,166830:3:0:0:0:
448,192,166830,1,0,0:0:0:0:
320,192,166959,1,8,0:0:0:0:
192,192,166959,1,8,3:0:0:0:
64,192,166959,1,0,0:0:0:0:
448,192,167088,1,0,0:0:0:0:
192,192,167218,1,8,3:0:0:0:
64,192,167218,1,0,0:0:0:0:
448,192,167347,1,0,0:0:0:0:
320,192,167476,1,0,0:0:0:0:
64,192,167476,1,8,3:0:0:0:
192,192,167606,1,0,0:0:0:0:
64,192,167735,1,8,3:0:0:0:
448,192,167735,128,0,167864:0:0:0:0:
320,192,167864,1,0,0:0:0:0:
192,192,167994,1,8,0:0:0:0:
448,192,167994,1,0,0:0:0:0:
64,192,167994,128,8,168123:3:0:0:0:
320,192,168123,1,0,0:0:0:0:
448,192,168252,1,8,3:0:0:0:
64,192,168252,1,0,0:0:0:0:
320,192,168381,1,0,0:0:0:0:
64,192,168511,1,0,0:0:0:0:
192,192,168511,128,8,168640:3:0:0:0:
320,192,168640,1,0,0:0:0:0:
448,192,168769,1,0,0:0:0:0:
64,192,168769,128,8,168899:3:0:0:0:
320,192,168899,1,0,0:0:0:0:
448,192,169028,1,8,0:0:0:0:
192,192,169028,1,8,3:0:0:0:
64,192,169028,1,0,0:0:0:0:
320,192,169157,1,0,0:0:0:0:
192,192,169287,1,8,3:0:0:0:
64,192,169287,1,0,0:0:0:0:
448,192,169416,1,0,0:0:0:0:
192,192,169545,1,0,0:0:0:0:
320,192,169545,1,8,3:0:0:0:
64,192,169675,1,0,0:0:0:0:
320,192,169804,1,8,3:0:0:0:
448,192,169804,128,0,169933:0:0:0:0:
192,192,169933,1,0,0:0:0:0:
448,192,170062,1,8,0:0:0:0:
64,192,170062,1,0,0:0:0:0:
320,192,170062,128,8,170192:3:0:0:0:
192,192,170192,1,0,0:0:0:0:
320,192,170321,1,8,3:0:0:0:
448,192,170321,1,0,0:0:0:0:
64,192,170321,1,8,0:0:0:0:
192,192,170450,1,0,0:0:0:0:
448,192,170580,5,0,0:0:0:0:
64,192,170580,1,8,3:0:0:0:
192,192,170709,1,8,3:0:0:0:
320,192,170709,1,8,0:0:0:0:
64,192,170709,1,0,0:0:0:0:
320,192,170838,1,0,0:0:0:0:
448,192,170838,1,8,3:0:0:0:
64,192,170968,1,0,0:0:0:0:
192,192,170968,1,8,0:0:0:0:
448,192,171032,1,8,0:0:0:0:
320,192,171032,1,0,0:0:0:0:
64,192,171097,1,8,0:0:0:0:
192,192,171097,1,0,0:0:0:0:
64,192,171226,1,8,0:0:0:0:
448,192,171226,1,0,0:0:0:0:
320,192,171226,1,8,0:0:0:0:
320,192,171356,1,8,0:0:0:0:
448,192,171356,1,0,0:0:0:0:
64,192,171356,1,8,0:0:0:0:
448,192,171485,1,0,0:0:0:0:
320,192,171485,1,8,0:0:0:0:
64,192,171485,1,8,0:0:0:0:
64,192,171614,1,2,0:0:0:0:
192,192,171614,1,4,0:0:0:0:
448,192,171614,128,0,171873:0:0:0:0:
192,192,171873,1,8,3:0:0:0:
320,192,171873,1,0,0:0:0:0:
448,192,172002,1,0,0:0:0:0:
64,192,172002,1,8,3:0:0:0:
192,192,172131,1,8,0:0:0:0:
320,192,172131,1,8,3:0:0:0:
448,192,172131,1,0,0:0:0:0:
448,192,172390,1,4,2:0:0:0:
64,192,172390,1,2,0:0:0:0:
320,192,172390,128,0,172649:0:0:0:0:
448,192,172649,1,0,0:0:0:0:
192,192,172649,1,8,3:0:0:0:
64,192,172649,1,8,0:0:0:0:
192,192,172778,1,8,3:0:0:0:
320,192,172778,1,0,0:0:0:0:
448,192,172907,1,0,0:0:0:0:
64,192,172907,1,8,3:0:0:0:
192,192,173037,1,8,3:0:0:0:
320,192,173037,1,0,0:0:0:0:
64,192,173166,1,8,0:0:0:0:
320,192,173166,1,8,3:0:0:0:
448,192,173166,1,0,0:0:0:0:
192,192,173231,1,0,0:0:0:0:
320,192,173295,1,0,0:0:0:0:
64,192,173295,1,8,3:0:0:0:
448,192,173360,1,0,0:0:0:0:
192,192,173425,1,8,3:0:0:0:
320,192,173425,1,0,0:0:0:0:
64,192,173489,1,0,0:0:0:0:
448,192,173554,1,0,0:0:0:0:
192,192,173554,1,8,3:0:0:0:
320,192,173619,1,0,0:0:0:0:
448,192,173683,1,0,0:0:0:0:
192,192,173683,1,4,2:0:0:0:
64,192,173683,128,2,173942:0:0:0:0:
192,192,173942,1,8,3:0:0:0:
448,192,173942,1,0,0:0:0:0:
320,192,174071,1,0,0:0:0:0:
64,192,174071,1,8,3:0:0:0:
64,192,174200,1,8,0:0:0:0:
192,192,174200,1,8,3:0:0:0:
448,192,174200,1,0,0:0:0:0:
64,192,174330,1,0,0:0:0:0:
448,192,174330,1,8,0:0:0:0:
192,192,174330,1,8,3:0:0:0:
448,192,174459,1,4,2:0:0:0:
64,192,174459,1,2,0:0:0:0:
320,192,174459,128,0,174718:0:0:0:0:
448,192,174718,1,0,0:0:0:0:
192,192,174718,1,8,3:0:0:0:
64,192,174718,1,8,0:0:0:0:
448,192,174847,1,8,3:0:0:0:
320,192,174847,1,0,0:0:0:0:
448,192,174976,1,0,0:0:0:0:
64,192,174976,1,8,3:0:0:0:
192,192,175106,1,8,3:0:0:0:
320,192,175106,1,0,0:0:0:0:
64,192,175235,1,8,0:0:0:0:
320,192,175235,1,8,3:0:0:0:
448,192,175235,1,0,0:0:0:0:
192,192,175300,1,0,0:0:0:0:
64,192,175364,1,8,3:0:0:0:
448,192,175364,1,0,0:0:0:0:
320,192,175429,1,0,0:0:0:0:
64,192,175494,1,0,0:0:0:0:
192,192,175494,1,8,3:0:0:0:
448,192,175558,1,0,0:0:0:0:
320,192,175623,1,0,0:0:0:0:
192,192,175623,1,8,3:0:0:0:
64,192,175687,1,0,0:0:0:0:
320,192,175752,1,0,0:0:0:0:
448,192,175752,1,2,0:0:0:0:
192,192,175752,1,4,2:0:0:0:
64,192,175815,1,0,0:0:0:0:
448,192,175879,1,0,0:0:0:0:
192,192,175943,1,0,0:0:0:0:
320,192,176007,1,0,0:0:0:0:
64,192,176007,1,8,3:0:0:0:
448,192,176071,1,0,0:0:0:0:
192,192,176134,1,8,3:0:0:0:
64,192,176134,1,0,0:0:0:0:
320,192,176198,1,0,0:0:0:0:
448,192,176262,1,0,0:0:0:0:
192,192,176262,1,8,3:0:0:0:
64,192,176262,1,8,0:0:0:0:
320,192,176326,1,0,0:0:0:0:
192,192,176390,1,0,0:0:0:0:
448,192,176454,1,0,0:0:0:0:
320,192,176517,1,0,0:0:0:0:
64,192,176517,1,2,0:0:0:0:
192,192,176517,1,4,2:0:0:0:
448,192,176581,1,0,0:0:0:0:
64,192,176645,1,0,0:0:0:0:
320,192,176709,1,0,0:0:0:0:
64,192,176773,1,8,0:0:0:0:
192,192,176773,1,8,3:0:0:0:
448,192,176773,1,0,0:0:0:0:
320,192,176837,1,0,0:0:0:0:
448,192,176900,1,0,0:0:0:0:
64,192,176900,1,8,3:0:0:0:
192,192,176964,1,0,0:0:0:0:
64,192,177028,1,8,3:0:0:0:
320,192,177028,1,0,0:0:0:0:
448,192,177092,1,0,0:0:0:0:
320,192,177156,1,0,0:0:0:0:
64,192,177156,1,8,3:0:0:0:
192,192,177220,1,0,0:0:0:0:
320,192,177283,1,0,0:0:0:0:
448,192,177283,1,8,3:0:0:0:
64,192,177283,1,8,0:0:0:0:
192,192,177347,1,0,0:0:0:0:
64,192,177411,1,8,3:0:0:0:
448,192,177411,1,0,0:0:0:0:
320,192,177475,1,0,0:0:0:0:
64,192,177539,1,0,0:0:0:0:
192,192,177539,1,8,3:0:0:0:
448,192,177603,1,0,0:0:0:0:
192,192,177666,1,8,3:0:0:0:
320,192,177666,1,0,0:0:0:0:
64,192,177730,1,0,0:0:0:0:
192,192,177794,1,4,2:0:0:0:
320,192,177794,1,2,0:0:0:0:
448,192,177794,1,0,0:0:0:0:
64,192,177858,1,0,0:0:0:0:
448,192,177922,1,0,0:0:0:0:
320,192,177986,1,0,0:0:0:0:
448,192,178049,1,0,0:0:0:0:
192,192,178049,1,8,3:0:0:0:
64,192,178113,1,0,0:0:0:0:
192,192,178177,1,8,3:0:0:0:
320,192,178177,1,0,0:0:0:0:
448,192,178241,1,0,0:0:0:0:
64,192,178305,1,8,0:0:0:0:
192,192,178305,1,8,3:0:0:0:
320,192,178305,1,0,0:0:0:0:
448,192,178369,1,0,0:0:0:0:
64,192,178432,1,0,0:0:0:0:
192,192,178496,1,0,0:0:0:0:
448,192,178560,1,0,0:0:0:0:
64,192,178560,1,2,0:0:0:0:
320,192,178560,1,4,2:0:0:0:
192,192,178624,1,0,0:0:0:0:
448,192,178688,1,0,0:0:0:0:
64,192,178752,1,0,0:0:0:0:
320,192,178815,1,0,0:0:0:0:
192,192,178815,1,8,3:0:0:0:
448,192,178815,1,8,0:0:0:0:
64,192,178879,1,0,0:0:0:0:
320,192,178943,1,0,0:0:0:0:
192,192,178943,1,8,3:0:0:0:
448,192,179007,1,0,0:0:0:0:
64,192,179071,1,8,3:0:0:0:
320,192,179071,1,0,0:0:0:0:
192,192,179134,1,0,0:0:0:0:
320,192,179198,1,0,0:0:0:0:
64,192,179198,1,8,3:0:0:0:
448,192,179262,1,0,0:0:0:0:
64,192,179326,1,8,0:0:0:0:
192,192,179326,1,8,3:0:0:0:
320,192,179326,1,0,0:0:0:0:
448,192,179390,1,0,0:0:0:0:
192,192,179454,1,8,3:0:0:0:
64,192,179454,1,0,0:0:0:0:
320,192,179517,1,0,0:0:0:0:
448,192,179581,1,0,0:0:0:0:
192,192,179581,1,8,3:0:0:0:
64,192,179645,1,0,0:0:0:0:
192,192,179709,1,8,3:0:0:0:
320,192,179709,1,0,0:0:0:0:
448,192,179773,1,0,0:0:0:0:
192,192,179837,1,4,2:0:0:0:
320,192,179837,1,0,0:0:0:0:
64,192,179837,128,2,180128:0:0:0:0:
448,192,180128,1,0,0:0:0:0:
192,192,180128,1,8,3:0:0:0:
320,192,180254,1,8,3:0:0:0:
448,192,180254,1,0,0:0:0:0:
320,192,180381,1,0,0:0:0:0:
192,192,180381,1,8,3:0:0:0:
64,192,180381,1,8,0:0:0:0:
320,192,180507,1,0,0:0:0:0:
192,192,180507,1,8,3:0:0:0:
64,192,180507,1,8,0:0:0:0:
192,192,180634,1,0,0:0:0:0:
64,192,180634,1,2,0:0:0:0:
448,192,180634,128,4,180900:2:0:0:0:
64,192,180900,1,8,0:0:0:0:
192,192,180900,1,8,3:0:0:0:
320,192,180900,1,0,0:0:0:0:
64,192,181028,1,8,3:0:0:0:
448,192,181028,1,0,0:0:0:0:
320,192,181156,1,0,0:0:0:0:
192,192,181156,1,8,3:0:0:0:
64,192,181284,1,8,3:0:0:0:
448,192,181284,1,0,0:0:0:0:
320,192,181412,1,0,0:0:0:0:
192,192,181412,1,8,3:0:0:0:
448,192,181412,1,8,0:0:0:0:
64,192,181535,1,0,0:0:0:0:
192,192,181535,1,8,3:0:0:0:
64,192,181658,1,8,3:0:0:0:
448,192,181658,1,0,0:0:0:0:
320,192,181782,1,0,0:0:0:0:
448,192,181782,1,8,3:0:0:0:
192,192,181905,1,4,2:0:0:0:
320,192,181905,1,0,0:0:0:0:
64,192,181905,128,2,182170:0:0:0:0:
192,192,182170,1,8,3:0:0:0:
448,192,182170,1,0,0:0:0:0:
320,192,182298,1,0,0:0:0:0:
64,192,182298,1,8,3:0:0:0:
64,192,182426,1,8,0:0:0:0:
448,192,182426,1,8,3:0:0:0:
192,192,182426,1,0,0:0:0:0:
192,192,182554,1,8,3:0:0:0:
320,192,182554,1,0,0:0:0:0:
448,192,182554,1,8,0:0:0:0:
448,192,182682,1,4,2:0:0:0:
320,192,182682,1,0,0:0:0:0:
64,192,182682,128,2,182944:0:0:0:0:
320,192,182944,1,0,0:0:0:0:
448,192,182944,1,8,3:0:0:0:
192,192,182944,1,8,0:0:0:0:
192,192,183070,1,0,0:0:0:0:
64,192,183070,1,8,3:0:0:0:
192,192,183196,1,8,3:0:0:0:
448,192,183196,1,0,0:0:0:0:
320,192,183322,1,0,0:0:0:0:
64,192,183322,1,8,3:0:0:0:
64,192,183448,1,8,0:0:0:0:
192,192,183448,1,8,3:0:0:0:
320,192,183448,1,0,0:0:0:0:
448,192,183511,1,0,0:0:0:0:
192,192,183575,1,8,3:0:0:0:
64,192,183575,1,0,0:0:0:0:
320,192,183639,1,0,0:0:0:0:
448,192,183703,1,0,0:0:0:0:
192,192,183703,1,8,3:0:0:0:
64,192,183767,1,0,0:0:0:0:
192,192,183830,1,8,3:0:0:0:
448,192,183830,1,0,0:0:0:0:
320,192,183894,1,0,0:0:0:0:
192,192,183958,1,4,2:0:0:0:
64,192,183958,1,2,0:0:0:0:
448,192,183958,1,0,0:0:0:0:
320,192,184022,1,0,0:0:0:0:
64,192,184086,1,0,0:0:0:0:
192,192,184150,1,0,0:0:0:0:
320,192,184213,1,0,0:0:0:0:
448,192,184213,1,8,3:0:0:0:
192,192,184277,1,0,0:0:0:0:
64,192,184341,1,8,3:0:0:0:
448,192,184341,1,0,0:0:0:0:
320,192,184405,1,0,0:0:0:0:
448,192,184469,1,0,0:0:0:0:
192,192,184469,1,8,3:0:0:0:
64,192,184469,1,8,0:0:0:0:
320,192,184533,1,0,0:0:0:0:
192,192,184596,1,0,0:0:0:0:
320,192,184660,1,0,0:0:0:0:
448,192,184724,1,0,0:0:0:0:
64,192,184724,1,2,0:0:0:0:
192,192,184724,1,4,2:0:0:0:
320,192,184788,1,0,0:0:0:0:
64,192,184852,1,0,0:0:0:0:
448,192,184916,1,0,0:0:0:0:
64,192,184979,1,8,0:0:0:0:
192,192,184979,1,8,3:0:0:0:
320,192,184979,1,0,0:0:0:0:
448,192,185043,1,0,0:0:0:0:
64,192,185107,1,0,0:0:0:0:
192,192,185107,1,8,3:0:0:0:
320,192,185171,1,0,0:0:0:0:
192,192,185235,1,8,3:0:0:0:
448,192,185235,1,0,0:0:0:0:
64,192,185299,1,0,0:0:0:0:
320,192,185362,1,0,0:0:0:0:
192,192,185362,1,8,3:0:0:0:
448,192,185426,1,0,0:0:0:0:
320,192,185490,1,0,0:0:0:0:
192,192,185490,1,8,3:0:0:0:
64,192,185490,1,8,0:0:0:0:
448,192,185554,1,0,0:0:0:0:
192,192,185618,1,8,3:0:0:0:
64,192,185618,1,0,0:0:0:0:
448,192,185683,1,0,0:0:0:0:
320,192,185747,1,0,0:0:0:0:
192,192,185747,1,8,3:0:0:0:
64,192,185811,1,0,0:0:0:0:
320,192,185876,1,8,3:0:0:0:
448,192,185876,1,0,0:0:0:0:
192,192,185940,1,0,0:0:0:0:
448,192,186005,1,4,2:0:0:0:
64,192,186005,1,2,0:0:0:0:
320,192,186005,1,0,0:0:0:0:
192,192,186075,1,0,0:0:0:0:
448,192,186145,1,0,0:0:0:0:
64,192,186216,1,0,0:0:0:0:
320,192,186286,1,0,0:0:0:0:
192,192,186286,1,8,3:0:0:0:
448,192,186348,1,0,0:0:0:0:
192,192,186411,1,8,3:0:0:0:
64,192,186411,1,0,0:0:0:0:
448,192,186473,1,0,0:0:0:0:
64,192,186536,1,8,0:0:0:0:
192,192,186536,1,8,3:0:0:0:
320,192,186536,1,0,0:0:0:0:
448,192,186598,1,0,0:0:0:0:
64,192,186661,1,0,0:0:0:0:
320,192,186723,1,0,0:0:0:0:
448,192,186786,1,0,0:0:0:0:
192,192,186786,1,8,3:0:0:0:
64,192,186848,1,0,0:0:0:0:
192,192,186911,1,8,3:0:0:0:
320,192,186911,1,0,0:0:0:0:
448,192,186973,1,0,0:0:0:0:
192,192,187036,1,8,3:0:0:0:
320,192,187036,1,0,0:0:0:0:
64,192,187036,1,0,0:0:0:0:
448,192,187098,1,0,0:0:0:0:
64,192,187161,1,0,0:0:0:0:
192,192,187161,1,8,0:0:0:0:
320,192,187232,1,8,0:0:0:0:
448,192,187232,1,0,0:0:0:0:
64,192,187303,1,0,0:0:0:0:
192,192,187303,1,8,0:0:0:0:
320,192,187433,1,8,3:0:0:0:
448,192,187433,1,8,0:0:0:0:
64,192,187433,1,0,0:0:0:0:
448,192,187563,1,8,0:0:0:0:
320,192,187563,1,8,3:0:0:0:
64,192,187563,1,0,0:0:0:0:
192,192,187694,1,8,3:0:0:0:
448,192,187694,1,8,0:0:0:0:
64,192,187694,1,0,0:0:0:0:
448,192,187824,1,8,0:0:0:0:
192,192,187824,1,8,3:0:0:0:
64,192,187824,1,0,0:0:0:0:
192,192,187955,1,8,3:0:0:0:
448,192,187955,1,8,0:0:0:0:
64,192,187955,1,0,0:0:0:0:
64,192,188085,1,2,0:0:0:0:
320,192,188085,1,4,0:0:0:0:
448,192,188085,128,0,188497:0:0:0:0:
192,192,188497,1,0,0:0:0:0:
320,192,188497,1,2,0:0:0:0:
192,192,188635,1,2,0:0:0:0:
64,192,188635,1,0,0:0:0:0:
448,192,188635,1,8,0:0:0:0:
320,192,188773,1,0,0:0:0:0:
64,192,188773,1,2,0:0:0:0:
320,192,188910,1,4,0:0:0:0:
448,192,188910,1,0,0:0:0:0:
192,192,188910,128,2,189323:0:0:0:0:
320,192,189323,1,8,0:0:0:0:
448,192,189323,1,0,0:0:0:0:
64,192,189323,1,2,0:0:0:0:
64,192,189461,1,2,0:0:0:0:
320,192,189461,1,0,0:0:0:0:
192,192,189598,1,2,0:0:0:0:
448,192,189598,1,0,0:0:0:0:
64,192,189736,1,2,0:0:0:0:
192,192,189736,1,0,0:0:0:0:
320,192,189736,1,8,0:0:0:0:
64,192,189873,1,2,0:0:0:0:
448,192,189873,1,0,0:0:0:0:
192,192,190011,1,2,0:0:0:0:
320,192,190011,1,0,0:0:0:0:
320,192,190149,1,8,0:0:0:0:
448,192,190149,1,0,0:0:0:0:
64,192,190149,1,2,0:0:0:0:
448,192,190286,1,0,0:0:0:0:
192,192,190286,1,4,0:0:0:0:
64,192,190286,128,2,190699:0:0:0:0:
192,192,190699,1,0,0:0:0:0:
448,192,190699,1,2,0:0:0:0:
320,192,190837,1,8,0:0:0:0:
64,192,190837,1,0,0:0:0:0:
448,192,190837,1,2,0:0:0:0:
64,192,191112,1,2,0:0:0:0:
448,192,191112,1,0,0:0:0:0:
320,192,191387,1,0,0:0:0:0:
192,192,191387,1,2,0:0:0:0:
448,192,191387,1,8,0:0:0:0:
64,192,191525,1,8,3:0:0:0:
448,192,191525,1,0,0:0:0:0:
192,192,191594,1,8,3:0:0:0:
320,192,191662,1,0,0:0:0:0:
64,192,191662,1,8,3:0:0:0:
320,192,191800,1,0,0:0:0:0:
192,192,191800,1,8,3:0:0:0:
64,192,191938,1,8,3:0:0:0:
448,192,191938,1,0,0:0:0:0:
192,192,192075,1,0,0:0:0:0:
64,192,192075,1,8,3:0:0:0:
448,192,192213,1,8,3:0:0:0:
320,192,192213,1,0,0:0:0:0:
320,192,192351,1,0,0:0:0:0:
64,192,192351,1,8,3:0:0:0:
448,192,192488,1,2,0:0:0:0:
192,192,192488,1,4,0:0:0:0:
64,192,192488,128,0,192901:0:0:0:0:
192,192,192901,1,0,0:0:0:0:
320,192,192901,1,2,0:0:0:0:
320,192,193039,1,2,0:0:0:0:
448,192,193039,1,0,0:0:0:0:
64,192,193039,1,8,0:0:0:0:
192,192,193176,1,0,0:0:0:0:
448,192,193176,1,2,0:0:0:0:
192,192,193314,1,4,0:0:0:0:
64,192,193314,1,0,0:0:0:0:
320,192,193314,128,2,193727:0:0:0:0:
448,192,193727,1,2,0:0:0:0:
192,192,193727,1,8,0:0:0:0:
64,192,193727,1,0,0:0:0:0:
448,192,193864,1,2,0:0:0:0:
192,192,193864,1,0,0:0:0:0:
320,192,194002,1,2,0:0:0:0:
64,192,194002,1,0,0:0:0:0:
448,192,194140,1,2,0:0:0:0:
320,192,194140,1,0,0:0:0:0:
192,192,194140,1,8,0:0:0:0:
448,192,194277,1,2,0:0:0:0:
64,192,194277,1,0,0:0:0:0:
320,192,194415,1,2,0:0:0:0:
192,192,194415,1,0,0:0:0:0:
192,192,194552,1,8,0:0:0:0:
64,192,194552,1,0,0:0:0:0:
448,192,194552,1,2,0:0:0:0:
64,192,194690,1,0,0:0:0:0:
320,192,194690,1,4,0:0:0:0:
448,192,194690,128,2,195103:0:0:0:0:
192,192,195103,1,0,0:0:0:0:
64,192,195103,1,2,0:0:0:0:
64,192,195240,1,8,0:0:0:0:
448,192,195240,1,0,0:0:0:0:
320,192,195240,1,2,0:0:0:0:
320,192,195378,1,0,0:0:0:0:
192,192,195378,1,2,0:0:0:0:
448,192,195516,1,2,0:0:0:0:
64,192,195516,1,0,0:0:0:0:
192,192,195791,1,0,0:0:0:0:
448,192,195791,1,2,0:0:0:0:
64,192,195791,1,8,0:0:0:0:
448,192,195929,1,8,0:0:0:0:
320,192,195929,1,0,0:0:0:0:
192,192,195997,1,8,0:0:0:0:
64,192,195997,1,0,0:0:0:0:
320,192,196066,1,0,0:0:0:0:
448,192,196066,1,8,0:0:0:0:
192,192,196204,1,0,0:0:0:0:
448,192,196204,1,8,0:0:0:0:
64,192,196204,1,2,0:0:0:0:
448,192,196341,1,8,0:0:0:0:
64,192,196341,1,2,0:0:0:0:
192,192,196341,1,0,0:0:0:0:
320,192,196479,1,0,0:0:0:0:
448,192,196479,1,8,3:0:0:0:
320,192,196617,1,8,3:0:0:0:
192,192,196617,1,0,0:0:0:0:
192,192,196754,1,0,0:0:0:0:
64,192,196754,1,8,3:0:0:0:
448,192,196892,1,2,0:0:0:0:
320,192,196892,1,4,0:0:0:0:
64,192,196892,128,0,197305:0:0:0:0:
320,192,197305,1,0,0:0:0:0:
192,192,197305,1,2,0:0:0:0:
320,192,197442,1,2,0:0:0:0:
448,192,197442,1,0,0:0:0:0:
64,192,197442,1,8,0:0:0:0:
192,192,197580,1,0,0:0:0:0:
448,192,197580,1,2,0:0:0:0:
192,192,197718,1,4,0:0:0:0:
64,192,197718,1,0,0:0:0:0:
320,192,197718,128,2,198130:0:0:0:0:
192,192,198130,1,8,0:0:0:0:
64,192,198130,1,0,0:0:0:0:
448,192,198130,1,2,0:0:0:0:
448,192,198268,1,2,0:0:0:0:
192,192,198268,1,0,0:0:0:0:
320,192,198406,1,2,0:0:0:0:
64,192,198406,1,0,0:0:0:0:
448,192,198543,1,2,0:0:0:0:
320,192,198543,1,0,0:0:0:0:
192,192,198543,1,8,0:0:0:0:
448,192,198681,1,2,0:0:0:0:
64,192,198681,1,0,0:0:0:0:
320,192,198818,1,2,0:0:0:0:
192,192,198818,1,0,0:0:0:0:
192,192,198956,1,8,0:0:0:0:
64,192,198956,1,0,0:0:0:0:
448,192,198956,1,2,0:0:0:0:
64,192,199094,1,0,0:0:0:0:
320,192,199094,1,4,0:0:0:0:
448,192,199094,128,2,199507:0:0:0:0:
320,192,199507,1,0,0:0:0:0:
64,192,199507,1,2,0:0:0:0:
192,192,199644,1,8,0:0:0:0:
448,192,199644,1,0,0:0:0:0:
64,192,199644,1,2,0:0:0:0:
448,192,199919,1,2,0:0:0:0:
64,192,199919,1,0,0:0:0:0:
192,192,200195,1,0,0:0:0:0:
320,192,200195,1,2,0:0:0:0:
64,192,200195,1,8,0:0:0:0:
448,192,200332,1,8,3:0:0:0:
64,192,200332,1,0,0:0:0:0:
320,192,200401,1,8,3:0:0:0:
192,192,200470,1,0,0:0:0:0:
448,192,200470,1,8,3:0:0:0:
192,192,200607,1,0,0:0:0:0:
320,192,200607,1,8,3:0:0:0:
448,192,200745,1,8,3:0:0:0:
64,192,200745,1,0,0:0:0:0:
320,192,200883,1,0,0:0:0:0:
448,192,200883,1,8,3:0:0:0:
64,192,201020,1,8,3:0:0:0:
192,192,201020,1,0,0:0:0:0:
192,192,201158,1,0,0:0:0:0:
448,192,201158,1,8,3:0:0:0:
64,192,201296,1,2,0:0:0:0:
320,192,201296,1,4,0:0:0:0:
448,192,201296,128,0,201708:0:0:0:0:
320,192,201708,1,0,0:0:0:0:
192,192,201708,1,2,0:0:0:0:
192,192,201846,1,2,0:0:0:0:
64,192,201846,1,0,0:0:0:0:
448,192,201846,1,8,0:0:0:0:
320,192,201984,1,0,0:0:0:0:
64,192,201984,1,2,0:0:0:0:
320,192,202121,1,4,0:0:0:0:
448,192,202121,1,0,0:0:0:0:
192,192,202121,128,2,202534:0:0:0:0:
64,192,202534,1,2,0:0:0:0:
320,192,202534,1,8,0:0:0:0:
448,192,202534,1,0,0:0:0:0:
64,192,202672,1,2,0:0:0:0:
320,192,202672,1,0,0:0:0:0:
192,192,202809,1,2,0:0:0:0:
448,192,202809,1,0,0:0:0:0:
64,192,202947,1,2,0:0:0:0:
192,192,202947,1,0,0:0:0:0:
320,192,202947,1,8,0:0:0:0:
64,192,203085,1,2,0:0:0:0:
448,192,203085,1,0,0:0:0:0:
192,192,203222,1,2,0:0:0:0:
320,192,203222,1,0,0:0:0:0:
320,192,203360,1,8,0:0:0:0:
448,192,203360,1,0,0:0:0:0:
64,192,203360,1,2,0:0:0:0:
448,192,203497,1,0,0:0:0:0:
192,192,203497,1,4,0:0:0:0:
64,192,203497,128,2,203910:0:0:0:0:
192,192,203910,1,0,0:0:0:0:
448,192,203910,1,2,0:0:0:0:
320,192,204048,1,8,0:0:0:0:
64,192,204048,1,0,0:0:0:0:
192,192,204048,1,2,0:0:0:0:
448,192,204185,1,0,0:0:0:0:
320,192,204185,1,2,0:0:0:0:
64,192,204323,1,2,0:0:0:0:
448,192,204323,1,0,0:0:0:0:
320,192,204598,1,0,0:0:0:0:
64,192,204598,1,2,0:0:0:0:
192,192,204598,1,8,0:0:0:0:
64,192,204736,1,8,0:0:0:0:
448,192,204736,1,0,0:0:0:0:
320,192,204805,1,8,0:0:0:0:
192,192,204805,1,0,0:0:0:0:
448,192,204873,1,0,0:0:0:0:
64,192,204873,1,8,0:0:0:0:
320,192,205011,1,0,0:0:0:0:
192,192,205011,1,8,0:0:0:0:
448,192,205011,1,2,0:0:0:0:
192,192,205149,1,8,0:0:0:0:
448,192,205149,1,2,0:0:0:0:
320,192,205149,1,0,0:0:0:0:
64,192,205286,1,8,0:0:0:0:
192,192,205286,1,0,0:0:0:0:
320,192,205286,1,2,0:0:0:0:
64,192,205424,1,8,0:0:0:0:
192,192,205424,1,0,0:0:0:0:
320,192,205424,1,2,0:0:0:0:
64,192,205562,1,8,0:0:0:0:
192,192,205562,1,0,0:0:0:0:
320,192,205562,1,2,0:0:0:0:
64,192,205699,128,0,206112:0:0:0:0:
320,192,205699,1,4,0:0:0:0:
448,192,205699,1,2,0:0:0:0:
192,192,206112,1,2,0:0:0:0:
320,192,206112,1,0,0:0:0:0:
64,192,206250,1,8,0:0:0:0:
448,192,206250,1,0,0:0:0:0:
320,192,206250,1,2,0:0:0:0:
448,192,206387,1,2,0:0:0:0:
192,192,206387,1,0,0:0:0:0:
320,192,206525,128,2,206938:0:0:0:0:
64,192,206525,1,0,0:0:0:0:
192,192,206525,1,4,0:0:0:0:
448,192,206938,1,2,0:0:0:0:
64,192,206938,1,0,0:0:0:0:
192,192,206938,1,8,0:0:0:0:
192,192,207075,1,0,0:0:0:0:
448,192,207075,1,2,0:0:0:0:
64,192,207213,1,0,0:0:0:0:
320,192,207213,1,2,0:0:0:0:
192,192,207351,1,8,0:0:0:0:
320,192,207351,1,0,0:0:0:0:
448,192,207351,1,2,0:0:0:0:
64,192,207488,1,0,0:0:0:0:
448,192,207488,1,2,0:0:0:0:
192,192,207626,1,0,0:0:0:0:
320,192,207626,1,2,0:0:0:0:
448,192,207763,1,2,0:0:0:0:
64,192,207763,1,0,0:0:0:0:
192,192,207763,1,8,0:0:0:0:
448,192,207901,128,2,208314:0:0:0:0:
320,192,207901,1,4,0:0:0:0:
64,192,207901,1,0,0:0:0:0:
64,192,208314,1,2,0:0:0:0:
320,192,208314,1,0,0:0:0:0:
64,192,208451,1,2,0:0:0:0:
448,192,208451,1,0,0:0:0:0:
192,192,208451,1,8,0:0:0:0:
64,192,208727,1,0,0:0:0:0:
448,192,208727,1,2,0:0:0:0:
320,192,209002,1,0,0:0:0:0:
64,192,209002,1,8,3:0:0:0:
192,192,209094,1,8,0:0:0:0:
448,192,209094,1,0,0:0:0:0:
320,192,209185,1,8,3:0:0:0:
448,192,209277,1,8,3:0:0:0:
192,192,209277,1,0,0:0:0:0:
320,192,209369,1,8,3:0:0:0:
64,192,209369,1,0,0:0:0:0:
192,192,209461,1,8,3:0:0:0:
64,192,209552,1,0,0:0:0:0:
320,192,209552,1,8,3:0:0:0:
448,192,209644,1,8,3:0:0:0:
192,192,209644,1,0,0:0:0:0:
320,192,209736,1,8,3:0:0:0:
448,192,209828,1,0,0:0:0:0:
192,192,209828,1,8,3:0:0:0:
320,192,209919,1,8,3:0:0:0:
64,192,209919,1,0,0:0:0:0:
192,192,210011,1,8,3:0:0:0:
448,192,210103,128,0,210516:0:0:0:0:
320,192,210103,1,4,0:0:0:0:
64,192,210103,1,2,0:0:0:0:
192,192,210516,1,2,0:0:0:0:
320,192,210516,1,0,0:0:0:0:
448,192,210653,1,8,0:0:0:0:
64,192,210653,1,0,0:0:0:0:
192,192,210653,1,2,0:0:0:0:
64,192,210791,1,2,0:0:0:0:
320,192,210791,1,0,0:0:0:0:
192,192,210929,128,2,211341:0:0:0:0:
448,192,210929,1,0,0:0:0:0:
320,192,210929,1,4,0:0:0:0:
448,192,211341,1,0,0:0:0:0:
320,192,211341,1,8,0:0:0:0:
64,192,211341,1,2,0:0:0:0:
320,192,211479,1,0,0:0:0:0:
64,192,211479,1,2,0:0:0:0:
448,192,211617,1,0,0:0:0:0:
192,192,211617,1,2,0:0:0:0:
320,192,211754,1,8,0:0:0:0:
192,192,211754,1,0,0:0:0:0:
64,192,211754,1,2,0:0:0:0:
448,192,211892,1,0,0:0:0:0:
64,192,211892,1,2,0:0:0:0:
320,192,212029,1,0,0:0:0:0:
192,192,212029,1,2,0:0:0:0:
64,192,212167,1,2,0:0:0:0:
448,192,212167,1,0,0:0:0:0:
320,192,212167,1,8,0:0:0:0:
64,192,212305,128,2,212718:0:0:0:0:
192,192,212305,1,4,0:0:0:0:
448,192,212305,1,0,0:0:0:0:
448,192,212718,1,2,0:0:0:0:
192,192,212718,1,0,0:0:0:0:
192,192,212855,1,2,0:0:0:0:
64,192,212855,1,0,0:0:0:0:
320,192,212855,1,8,0:0:0:0:
320,192,212993,1,2,0:0:0:0:
448,192,212993,1,0,0:0:0:0:
448,192,213130,1,0,0:0:0:0:
64,192,213130,1,2,0:0:0:0:
448,192,213406,1,8,0:0:0:0:
64,192,213406,1,2,0:0:0:0:
320,192,213406,1,0,0:0:0:0:
192,192,213543,1,0,0:0:0:0:
64,192,213543,1,8,0:0:0:0:
448,192,213612,1,0,0:0:0:0:
320,192,213612,1,8,0:0:0:0:
64,192,213681,1,8,0:0:0:0:
192,192,213681,1,0,0:0:0:0:
448,192,213818,1,2,0:0:0:0:
64,192,213818,1,8,0:0:0:0:
320,192,213818,1,0,0:0:0:0:
320,192,213956,1,0,0:0:0:0:
448,192,213956,1,2,0:0:0:0:
64,192,213956,1,8,0:0:0:0:
64,192,214094,1,8,0:0:0:0:
320,192,214094,1,0,0:0:0:0:
448,192,214094,1,2,0:0:0:0:
320,192,214231,1,0,0:0:0:0:
192,192,214231,1,8,3:0:0:0:
192,192,214369,1,8,3:0:0:0:
64,192,214369,1,0,0:0:0:0:
448,192,214507,1,2,0:0:0:0:
320,192,214507,1,4,0:0:0:0:
64,192,214507,128,0,214919:0:0:0:0:
320,192,214919,1,0,0:0:0:0:
192,192,214919,1,2,0:0:0:0:
320,192,215057,1,2,0:0:0:0:
448,192,215057,1,0,0:0:0:0:
64,192,215057,1,8,0:0:0:0:
192,192,215195,1,0,0:0:0:0:
448,192,215195,1,2,0:0:0:0:
192,192,215332,1,4,0:0:0:0:
64,192,215332,1,0,0:0:0:0:
320,192,215332,128,2,215745:0:0:0:0:
192,192,215745,1,8,0:0:0:0:
64,192,215745,1,0,0:0:0:0:
448,192,215745,1,2,0:0:0:0:
448,192,215883,1,2,0:0:0:0:
192,192,215883,1,0,0:0:0:0:
320,192,216020,1,2,0:0:0:0:
64,192,216020,1,0,0:0:0:0:
448,192,216158,1,2,0:0:0:0:
320,192,216158,1,0,0:0:0:0:
192,192,216158,1,8,0:0:0:0:
448,192,216296,1,2,0:0:0:0:
64,192,216296,1,0,0:0:0:0:
320,192,216433,1,2,0:0:0:0:
192,192,216433,1,0,0:0:0:0:
192,192,216571,1,8,0:0:0:0:
64,192,216571,1,0,0:0:0:0:
448,192,216571,1,2,0:0:0:0:
64,192,216708,1,0,0:0:0:0:
320,192,216708,1,4,0:0:0:0:
448,192,216708,128,2,217121:0:0:0:0:
320,192,217121,1,0,0:0:0:0:
64,192,217121,1,2,0:0:0:0:
192,192,217259,1,8,0:0:0:0:
448,192,217259,1,0,0:0:0:0:
64,192,217259,1,2,0:0:0:0:
448,192,217534,1,2,0:0:0:0:
64,192,217534,1,0,0:0:0:0:
64,192,217809,1,0,0:0:0:0:
448,192,217809,1,8,3:0:0:0:
320,192,217901,1,8,0:0:0:0:
192,192,217901,1,0,0:0:0:0:
448,192,217993,1,8,3:0:0:0:
192,192,218084,1,8,3:0:0:0:
320,192,218084,1,0,0:0:0:0:
448,192,218176,1,0,0:0:0:0:
64,192,218176,1,8,3:0:0:0:
192,192,218268,1,8,3:0:0:0:
448,192,218360,1,0,0:0:0:0:
64,192,218360,1,8,3:0:0:0:
320,192,218451,1,0,0:0:0:0:
192,192,218451,1,8,3:0:0:0:
448,192,218543,1,8,3:0:0:0:
192,192,218635,1,0,0:0:0:0:
320,192,218635,1,8,3:0:0:0:
448,192,218727,1,0,0:0:0:0:
64,192,218727,1,8,3:0:0:0:
192,192,218818,1,8,3:0:0:0:
64,192,218910,1,2,0:0:0:0:
320,192,218910,1,4,0:0:0:0:
448,192,218910,128,0,219323:0:0:0:0:
320,192,219323,1,0,0:0:0:0:
192,192,219323,1,2,0:0:0:0:
192,192,219461,1,2,0:0:0:0:
64,192,219461,1,0,0:0:0:0:
448,192,219461,1,8,0:0:0:0:
320,192,219598,1,0,0:0:0:0:
64,192,219598,1,2,0:0:0:0:
320,192,219736,1,4,0:0:0:0:
448,192,219736,1,0,0:0:0:0:
192,192,219736,128,2,220149:0:0:0:0:
64,192,220149,1,2,0:0:0:0:
320,192,220149,1,8,0:0:0:0:
448,192,220149,1,0,0:0:0:0:
64,192,220286,1,2,0:0:0:0:
320,192,220286,1,0,0:0:0:0:
192,192,220424,1,2,0:0:0:0:
448,192,220424,1,0,0:0:0:0:
64,192,220562,1,2,0:0:0:0:
192,192,220562,1,0,0:0:0:0:
320,192,220562,1,8,0:0:0:0:
64,192,220699,1,2,0:0:0:0:
448,192,220699,1,0,0:0:0:0:
192,192,220837,1,2,0:0:0:0:
320,192,220837,1,0,0:0:0:0:
448,192,220974,1,0,0:0:0:0:
64,192,220974,1,2,0:0:0:0:
320,192,221043,1,0,0:0:0:0:
448,192,221112,1,0,0:0:0:0:
192,192,221112,1,8,0:0:0:0:
64,192,221112,1,2,0:0:0:0:
320,192,221250,1,0,0:0:0:0:
64,192,221250,128,2,221525:0:0:0:0:
320,192,221525,1,0,0:0:0:0:
448,192,221525,1,2,0:0:0:0:
192,192,221594,1,0,0:0:0:0:
448,192,221662,1,8,0:0:0:0:
64,192,221662,1,0,0:0:0:0:
320,192,221662,1,2,0:0:0:0:
192,192,221800,1,2,0:0:0:0:
448,192,221800,128,0,222075:0:0:0:0:
64,192,222075,1,2,0:0:0:0:
320,192,222075,1,0,0:0:0:0:
192,192,222144,1,0,0:0:0:0:
320,192,222213,1,0,0:0:0:0:
64,192,222213,1,2,0:0:0:0:
448,192,222213,1,8,0:0:0:0:
64,192,222351,1,8,0:0:0:0:
192,192,222351,1,0,0:0:0:0:
320,192,222419,1,8,0:0:0:0:
448,192,222419,1,0,0:0:0:0:
192,192,222488,1,0,0:0:0:0:
64,192,222488,1,8,0:0:0:0:
320,192,222626,1,0,0:0:0:0:
64,192,222626,1,8,0:0:0:0:
448,192,222626,1,2,0:0:0:0:
64,192,222763,1,8,0:0:0:0:
448,192,222763,1,2,0:0:0:0:
320,192,222763,1,0,0:0:0:0:
64,192,222901,1,8,0:0:0:0:
448,192,222901,1,2,0:0:0:0:
320,192,222901,1,0,0:0:0:0:
448,192,223039,1,2,0:0:0:0:
320,192,223039,1,0,0:0:0:0:
64,192,223039,1,8,0:0:0:0:
320,192,223176,1,0,0:0:0:0:
448,192,223176,1,2,0:0:0:0:
64,192,223176,1,8,0:0:0:0:
320,192,223314,1,8,3:0:0:0:
192,192,223314,1,0,0:0:0:0:
64,192,223314,1,4,0:0:0:0:
448,192,223450,1,0,0:0:0:0:
64,192,223586,128,0,223723:0:0:0:0:
320,192,223586,1,8,3:0:0:0:
192,192,223723,1,0,0:0:0:0:
448,192,223859,128,8,223995:3:0:0:0:
64,192,223859,1,0,0:0:0:0:
320,192,223859,1,8,0:0:0:0:
192,192,223995,1,0,0:0:0:0:
448,192,224132,1,0,0:0:0:0:
64,192,224132,1,8,3:0:0:0:
192,192,224268,1,0,0:0:0:0:
320,192,224404,128,8,224534:3:0:0:0:
448,192,224404,1,0,0:0:0:0:
192,192,224534,1,0,0:0:0:0:
448,192,224664,128,8,224795:3:0:0:0:
64,192,224664,1,0,0:0:0:0:
192,192,224795,1,0,0:0:0:0:
448,192,224925,1,0,0:0:0:0:
320,192,224925,1,8,3:0:0:0:
64,192,224925,1,8,0:0:0:0:
192,192,225056,1,0,0:0:0:0:
448,192,225186,1,0,0:0:0:0:
64,192,225186,1,8,3:0:0:0:
320,192,225317,1,0,0:0:0:0:
64,192,225447,1,8,3:0:0:0:
192,192,225447,1,0,0:0:0:0:
448,192,225578,1,0,0:0:0:0:
64,192,225710,128,0,225841:0:0:0:0:
320,192,225710,1,8,3:0:0:0:
192,192,225841,1,0,0:0:0:0:
320,192,225973,128,8,226104:3:0:0:0:
448,192,225973,1,0,0:0:0:0:
64,192,225973,1,8,0:0:0:0:
192,192,226104,1,0,0:0:0:0:
64,192,226236,1,0,0:0:0:0:
320,192,226236,1,8,3:0:0:0:
192,192,226368,1,0,0:0:0:0:
448,192,226499,128,8,226626:3:0:0:0:
64,192,226499,1,0,0:0:0:0:
320,192,226626,1,0,0:0:0:0:
64,192,226754,128,8,226881:3:0:0:0:
192,192,226754,1,0,0:0:0:0:
448,192,226881,1,0,0:0:0:0:
64,192,227009,1,0,0:0:0:0:
192,192,227009,1,8,3:0:0:0:
320,192,227009,1,8,0:0:0:0:
448,192,227137,1,0,0:0:0:0:
64,192,227264,1,0,0:0:0:0:
192,192,227264,1,8,3:0:0:0:
448,192,227392,1,0,0:0:0:0:
192,192,227520,1,8,3:0:0:0:
320,192,227520,1,0,0:0:0:0:
64,192,227649,1,0,0:0:0:0:
448,192,227779,128,0,227909:0:0:0:0:
192,192,227779,1,8,3:0:0:0:
320,192,227909,1,0,0:0:0:0:
64,192,228039,128,8,228169:3:0:0:0:
448,192,228039,1,0,0:0:0:0:
192,192,228039,1,8,0:0:0:0:
320,192,228169,1,0,0:0:0:0:
64,192,228299,1,0,0:0:0:0:
448,192,228299,1,8,3:0:0:0:
320,192,228429,1,0,0:0:0:0:
192,192,228558,128,8,228686:3:0:0:0:
64,192,228558,1,0,0:0:0:0:
320,192,228686,1,0,0:0:0:0:
64,192,228815,128,8,228944:3:0:0:0:
448,192,228815,1,0,0:0:0:0:
320,192,228944,1,0,0:0:0:0:
64,192,229073,1,0,0:0:0:0:
192,192,229073,1,8,3:0:0:0:
448,192,229073,1,8,0:0:0:0:
320,192,229201,1,0,0:0:0:0:
64,192,229330,1,0,0:0:0:0:
192,192,229330,1,8,3:0:0:0:
320,192,229459,1,0,0:0:0:0:
448,192,229588,1,8,3:0:0:0:
192,192,229588,1,0,0:0:0:0:
64,192,229718,1,0,0:0:0:0:
448,192,229848,128,0,229979:0:0:0:0:
320,192,229848,1,8,3:0:0:0:
192,192,229979,1,0,0:0:0:0:
320,192,230109,128,8,230240:3:0:0:0:
64,192,230109,1,0,0:0:0:0:
448,192,230109,1,8,0:0:0:0:
192,192,230240,1,0,0:0:0:0:
64,192,230370,1,0,0:0:0:0:
448,192,230370,1,8,0:0:0:0:
320,192,230370,1,8,3:0:0:0:
448,192,230501,1,8,0:0:0:0:
64,192,230501,1,0,0:0:0:0:
320,192,230501,1,8,3:0:0:0:
64,192,230631,128,8,230756:3:0:0:0:
192,192,230631,1,0,0:0:0:0:
320,192,230756,1,0,0:0:0:0:
448,192,230881,128,8,231006:3:0:0:0:
64,192,230881,1,0,0:0:0:0:
192,192,231006,1,0,0:0:0:0:
448,192,231131,1,0,0:0:0:0:
320,192,231131,1,8,3:0:0:0:
64,192,231131,1,8,0:0:0:0:
192,192,231256,1,0,0:0:0:0:
64,192,231381,1,8,0:0:0:0:
320,192,231381,1,8,3:0:0:0:
448,192,231381,1,0,0:0:0:0:
448,192,231506,1,0,0:0:0:0:
320,192,231506,1,8,3:0:0:0:
64,192,231506,1,8,0:0:0:0:
192,192,231631,1,8,3:0:0:0:
320,192,231631,1,0,0:0:0:0:
64,192,231761,1,0,0:0:0:0:
448,192,231891,128,0,232022:0:0:0:0:
192,192,231891,1,8,3:0:0:0:
320,192,232022,1,0,0:0:0:0:
64,192,232152,128,8,232283:3:0:0:0:
448,192,232152,1,0,0:0:0:0:
192,192,232152,1,8,0:0:0:0:
320,192,232283,1,0,0:0:0:0:
64,192,232413,1,0,0:0:0:0:
448,192,232413,1,8,3:0:0:0:
320,192,232544,1,0,0:0:0:0:
192,192,232674,128,8,232799:3:0:0:0:
64,192,232674,1,0,0:0:0:0:
320,192,232799,1,0,0:0:0:0:
64,192,232924,128,8,233049:3:0:0:0:
448,192,232924,1,0,0:0:0:0:
320,192,233049,1,0,0:0:0:0:
64,192,233174,1,0,0:0:0:0:
192,192,233174,1,8,3:0:0:0:
448,192,233174,1,8,0:0:0:0:
320,192,233299,1,0,0:0:0:0:
64,192,233424,1,0,0:0:0:0:
448,192,233424,1,8,3:0:0:0:
320,192,233549,1,0,0:0:0:0:
448,192,233674,1,8,3:0:0:0:
192,192,233674,1,0,0:0:0:0:
64,192,233804,1,0,0:0:0:0:
192,192,233934,1,8,3:0:0:0:
320,192,233934,128,0,234065:0:0:0:0:
448,192,234065,1,0,0:0:0:0:
192,192,234195,128,8,234326:3:0:0:0:
64,192,234195,1,0,0:0:0:0:
320,192,234195,1,8,0:0:0:0:
448,192,234326,1,0,0:0:0:0:
320,192,234456,1,0,0:0:0:0:
64,192,234456,1,8,3:0:0:0:
192,192,234587,1,0,0:0:0:0:
64,192,234717,128,8,234842:3:0:0:0:
448,192,234717,1,0,0:0:0:0:
192,192,234842,1,0,0:0:0:0:
448,192,234967,128,8,235092:3:0:0:0:
320,192,234967,1,0,0:0:0:0:
64,192,235092,1,0,0:0:0:0:
448,192,235217,1,0,0:0:0:0:
320,192,235217,1,8,3:0:0:0:
192,192,235217,1,8,0:0:0:0:
64,192,235342,1,0,0:0:0:0:
448,192,235467,1,0,0:0:0:0:
320,192,235467,1,8,3:0:0:0:
64,192,235592,1,0,0:0:0:0:
448,192,235717,1,8,3:0:0:0:
192,192,235717,1,0,0:0:0:0:
320,192,235847,1,0,0:0:0:0:
64,192,235977,128,0,236108:0:0:0:0:
448,192,235977,1,8,3:0:0:0:
192,192,236108,1,0,0:0:0:0:
448,192,236238,128,8,236369:3:0:0:0:
64,192,236238,1,0,0:0:0:0:
320,192,236238,1,8,0:0:0:0:
192,192,236369,1,0,0:0:0:0:
448,192,236499,1,0,0:0:0:0:
64,192,236499,1,8,3:0:0:0:
192,192,236630,1,0,0:0:0:0:
320,192,236760,128,8,236880:3:0:0:0:
448,192,236760,1,0,0:0:0:0:
192,192,236880,1,0,0:0:0:0:
448,192,237001,128,8,237122:3:0:0:0:
64,192,237001,1,0,0:0:0:0:
192,192,237122,1,0,0:0:0:0:
448,192,237243,1,0,0:0:0:0:
320,192,237243,1,8,3:0:0:0:
64,192,237243,1,8,0:0:0:0:
192,192,237374,1,0,0:0:0:0:
448,192,237506,1,0,0:0:0:0:
320,192,237506,1,8,3:0:0:0:
64,192,237637,1,0,0:0:0:0:
448,192,237769,1,8,0:0:0:0:
320,192,237769,1,0,0:0:0:0:
192,192,237769,1,4,2:0:0:0:
64,192,237899,1,0,0:0:0:0:
448,192,238029,128,0,238160:0:0:0:0:
192,192,238029,1,8,3:0:0:0:
320,192,238160,1,0,0:0:0:0:
64,192,238290,1,8,0:0:0:0:
448,192,238290,1,0,0:0:0:0:
192,192,238290,128,4,238418:2:0:0:0:
320,192,238418,1,0,0:0:0:0:
448,192,238546,1,8,0:0:0:0:
64,192,238546,1,0,0:0:0:0:
192,192,238546,1,8,3:0:0:0:
320,192,238674,1,0,0:0:0:0:
192,192,238802,1,4,2:0:0:0:
448,192,238802,1,0,0:0:0:0:
64,192,238802,1,8,0:0:0:0:
320,192,238929,1,8,0:0:0:0:
448,192,238929,1,0,0:0:0:0:
64,192,239010,1,8,0:0:0:0:
192,192,239010,1,0,0:0:0:0:
320,192,239091,1,0,0:0:0:0:
448,192,239091,1,8,0:0:0:0:
192,192,239220,1,8,0:0:0:0:
64,192,239220,1,0,0:0:0:0:
448,192,239220,1,8,0:0:0:0:
448,192,239350,1,8,0:0:0:0:
192,192,239350,1,8,0:0:0:0:
64,192,239350,1,0,0:0:0:0:
320,192,239480,1,8,0:0:0:0:
448,192,239480,1,0,0:0:0:0:
64,192,239480,1,8,0:0:0:0:
64,192,239610,1,8,0:0:0:0:
448,192,239610,1,0,0:0:0:0:
320,192,239610,1,8,0:0:0:0:
448,192,239740,1,8,0:0:0:0:
192,192,239740,1,8,0:0:0:0:
64,192,239740,1,0,0:0:0:0:
64,192,239870,1,2,0:0:0:0:
320,192,239870,1,0,0:0:0:0:
448,192,239870,128,4,240304:2:0:0:0:
320,192,240304,1,0,0:0:0:0:
64,192,240304,1,0,0:0:0:0:
448,192,240424,1,4,2:0:0:0:
192,192,240424,1,8,0:0:0:0:
64,192,240424,128,8,240716:0:0:0:0:
192,192,240716,1,0,0:0:0:0:
320,192,240716,128,0,240972:0:0:0:0:
64,192,240972,1,4,2:0:0:0:
448,192,240972,1,0,0:0:0:0:
320,192,241100,1,0,0:0:0:0:
192,192,241100,128,0,241365:0:0:0:0:
448,192,241365,1,0,0:0:0:0:
64,192,241365,1,0,0:0:0:0:
320,192,241490,1,4,2:0:0:0:
64,192,241490,1,8,0:0:0:0:
448,192,241490,128,8,241777:0:0:0:0:
64,192,241777,1,0,0:0:0:0:
192,192,241777,128,0,242030:0:0:0:0:
448,192,242030,1,2,0:0:0:0:
320,192,242030,1,0,0:0:0:0:
64,192,242030,128,4,242439:2:0:0:0:
192,192,242439,1,0,0:0:0:0:
448,192,242439,1,0,0:0:0:0:
64,192,242572,1,4,2:0:0:0:
320,192,242572,1,8,0:0:0:0:
448,192,242572,128,8,242839:0:0:0:0:
192,192,242839,128,0,243105:0:0:0:0:
320,192,242839,1,0,0:0:0:0:
64,192,243105,1,0,0:0:0:0:
448,192,243105,1,4,2:0:0:0:
320,192,243239,128,0,243508:0:0:0:0:
192,192,243239,1,0,0:0:0:0:
64,192,243508,1,0,0:0:0:0:
448,192,243508,1,0,0:0:0:0:
64,192,243630,128,8,243910:0:0:0:0:
192,192,243630,1,4,2:0:0:0:
448,192,243630,1,8,0:0:0:0:
320,192,243910,128,0,244170:0:0:0:0:
448,192,243910,1,0,0:0:0:0:
192,192,244170,128,4,244590:2:0:0:0:
64,192,244170,1,0,0:0:0:0:
448,192,244170,1,2,0:0:0:0:
320,192,244590,1,0,0:0:0:0:
64,192,244590,1,0,0:0:0:0:
192,192,244717,1,4,2:0:0:0:
448,192,244717,1,8,0:0:0:0:
320,192,244717,128,8,244992:0:0:0:0:
448,192,244992,1,0,0:0:0:0:
64,192,244992,128,0,245259:0:0:0:0:
192,192,245259,1,0,0:0:0:0:
320,192,245259,1,4,2:0:0:0:
448,192,245393,128,0,245663:0:0:0:0:
64,192,245393,1,0,0:0:0:0:
320,192,245663,1,0,0:0:0:0:
192,192,245663,1,0,0:0:0:0:
192,192,245783,1,4,2:0:0:0:
448,192,245783,128,8,246049:0:0:0:0:
64,192,245783,1,8,0:0:0:0:
192,192,246049,128,0,246316:0:0:0:0:
320,192,246049,1,0,0:0:0:0:
448,192,246316,1,2,0:0:0:0:
64,192,246316,1,0,0:0:0:0:
320,192,246316,128,4,246723:2:0:0:0:
192,192,246723,1,0,0:0:0:0:
64,192,246723,1,0,0:0:0:0:
64,192,246858,1,4,2:0:0:0:
320,192,246858,1,8,0:0:0:0:
448,192,246858,128,8,247120:0:0:0:0:
192,192,247120,1,0,0:0:0:0:
64,192,247120,128,0,247382:0:0:0:0:
192,192,247382,1,0,0:0:0:0:
448,192,247382,1,4,2:0:0:0:
320,192,247513,128,8,247783:0:0:0:0:
64,192,247513,1,0,0:0:0:0:
448,192,247513,1,8,0:0:0:0:
192,192,247783,1,0,0:0:0:0:
64,192,247783,1,0,0:0:0:0:
448,192,247914,128,8,248189:0:0:0:0:
192,192,247914,1,4,2:0:0:0:
320,192,247914,1,8,0:0:0:0:
64,192,248189,1,8,0:0:0:0:
192,192,248189,1,8,0:0:0:0:
320,192,248189,1,0,0:0:0:0:
64,192,248312,1,8,0:0:0:0:
192,192,248312,1,8,0:0:0:0:
320,192,248312,1,0,0:0:0:0:
448,192,248436,1,2,0:0:0:0:
192,192,248436,1,0,0:0:0:0:
64,192,248436,128,4,248866:2:0:0:0:
192,192,248866,1,0,0:0:0:0:
448,192,248866,1,0,0:0:0:0:
64,192,248989,1,4,2:0:0:0:
320,192,248989,1,8,0:0:0:0:
448,192,248989,128,8,249270:0:0:0:0:
192,192,249270,128,0,249542:0:0:0:0:
320,192,249270,1,0,0:0:0:0:
448,192,249542,1,4,2:0:0:0:
64,192,249542,1,0,0:0:0:0:
192,192,249679,1,0,0:0:0:0:
320,192,249679,128,0,249934:0:0:0:0:
64,192,249934,1,0,0:0:0:0:
448,192,249934,1,0,0:0:0:0:
192,192,250057,1,4,2:0:0:0:
448,192,250057,1,8,0:0:0:0:
64,192,250057,128,8,250314:0:0:0:0:
320,192,250314,128,0,250567:0:0:0:0:
448,192,250314,1,0,0:0:0:0:
448,192,250567,128,4,250981:2:0:0:0:
192,192,250567,1,0,0:0:0:0:
64,192,250567,1,2,0:0:0:0:
320,192,250981,1,0,0:0:0:0:
64,192,250981,1,0,0:0:0:0:
64,192,251116,128,8,251383:0:0:0:0:
192,192,251116,1,8,0:0:0:0:
448,192,251116,1,4,2:0:0:0:
192,192,251383,1,0,0:0:0:0:
320,192,251383,128,0,251662:0:0:0:0:
448,192,251662,1,0,0:0:0:0:
64,192,251662,1,4,2:0:0:0:
192,192,251801,128,0,252071:0:0:0:0:
320,192,251801,1,0,0:0:0:0:
448,192,252071,1,0,0:0:0:0:
64,192,252071,1,0,0:0:0:0:
64,192,252191,1,8,0:0:0:0:
320,192,252191,1,4,2:0:0:0:
448,192,252191,128,8,252458:0:0:0:0:
192,192,252458,128,0,252726:0:0:0:0:
64,192,252458,1,0,0:0:0:0:
64,192,252726,1,2,0:0:0:0:
320,192,252726,128,4,253142:2:0:0:0:
448,192,252726,1,0,0:0:0:0:
448,192,253142,1,0,0:0:0:0:
192,192,253142,1,0,0:0:0:0:
192,192,253278,128,8,253550:0:0:0:0:
320,192,253278,1,4,2:0:0:0:
64,192,253278,1,8,0:0:0:0:
64,192,253550,1,0,0:0:0:0:
448,192,253550,128,0,253810:0:0:0:0:
320,192,253810,1,0,0:0:0:0:
192,192,253810,1,4,2:0:0:0:
448,192,253941,1,0,0:0:0:0:
64,192,253941,128,0,254207:0:0:0:0:
192,192,254207,1,0,0:0:0:0:
320,192,254207,1,0,0:0:0:0:
448,192,254327,128,8,254587:0:0:0:0:
320,192,254327,1,4,2:0:0:0:
64,192,254327,1,8,0:0:0:0:
192,192,254587,1,0,0:0:0:0:
320,192,254587,128,0,254848:0:0:0:0:
448,192,254848,1,0,0:0:0:0:
192,192,254848,128,4,255270:2:0:0:0:
64,192,254848,1,2,0:0:0:0:
320,192,255270,1,0,0:0:0:0:
448,192,255270,1,0,0:0:0:0:
448,192,255392,1,4,2:0:0:0:
192,192,255392,1,8,0:0:0:0:
64,192,255392,1,8,0:0:0:0:
320,192,255527,1,0,0:0:0:0:
64,192,255527,1,0,0:0:0:0:
448,192,255662,1,0,0:0:0:0:
192,192,255662,1,8,0:0:0:0:
64,192,255662,1,8,0:0:0:0:
64,192,255790,1,8,0:0:0:0:
192,192,255790,1,8,0:0:0:0:
448,192,255790,1,0,0:0:0:0:
320,192,255919,1,0,0:0:0:0:
192,192,255919,1,4,2:0:0:0:
64,192,256039,1,8,0:0:0:0:
320,192,256039,1,8,0:0:0:0:
448,192,256039,128,0,256293:0:0:0:0:
320,192,256293,1,0,0:0:0:0:
64,192,256293,1,0,0:0:0:0:
64,192,256420,128,8,256674:0:0:0:0:
448,192,256420,1,4,2:0:0:0:
192,192,256420,1,8,0:0:0:0:
448,192,256674,1,8,0:0:0:0:
320,192,256674,1,8,0:0:0:0:
192,192,256674,1,0,0:0:0:0:
448,192,256801,1,8,0:0:0:0:
320,192,256801,1,8,0:0:0:0:
192,192,256801,1,0,0:0:0:0:
192,192,256928,1,4,0:0:0:0:
448,192,256928,1,0,0:0:0:0:
64,192,256928,128,4,257344:2:0:0:0:
448,192,257344,1,0,0:0:0:0:
192,192,257344,1,0,0:0:0:0:
64,192,257476,1,4,2:0:0:0:
320,192,257476,128,0,257740:0:0:0:0:
448,192,257740,1,0,0:0:0:0:
192,192,257740,128,0,257997:0:0:0:0:
64,192,257997,1,8,0:0:0:0:
320,192,257997,1,8,0:0:0:0:
448,192,257997,1,4,2:0:0:0:
320,192,258126,1,0,0:0:0:0:
64,192,258126,128,0,258383:0:0:0:0:
320,192,258383,1,8,0:0:0:0:
192,192,258383,1,8,0:0:0:0:
448,192,258383,1,0,0:0:0:0:
64,192,258512,1,4,2:0:0:0:
320,192,258512,128,0,258796:0:0:0:0:
192,192,258796,1,8,0:0:0:0:
64,192,258796,1,8,0:0:0:0:
448,192,258796,128,0,259038:0:0:0:0:
320,192,259038,1,4,0:0:0:0:
192,192,259038,1,0,0:0:0:0:
64,192,259038,128,4,259452:2:0:0:0:
192,192,259452,1,0,0:0:0:0:
320,192,259452,1,0,0:0:0:0:
448,192,259590,1,4,2:0:0:0:
64,192,259590,128,0,259867:0:0:0:0:
320,192,259867,128,0,260110:0:0:0:0:
192,192,259867,1,0,0:0:0:0:
64,192,260110,1,4,2:0:0:0:
192,192,260110,1,8,0:0:0:0:
448,192,260110,1,8,0:0:0:0:
448,192,260258,128,0,260514:0:0:0:0:
192,192,260258,1,0,0:0:0:0:
64,192,260514,1,0,0:0:0:0:
192,192,260514,1,8,0:0:0:0:
320,192,260514,1,8,0:0:0:0:
448,192,260635,1,4,2:0:0:0:
192,192,260635,128,0,260905:0:0:0:0:
320,192,260905,1,8,0:0:0:0:
448,192,260905,1,8,0:0:0:0:
64,192,260905,128,0,261175:0:0:0:0:
320,192,261175,128,4,261578:2:0:0:0:
192,192,261175,1,0,0:0:0:0:
448,192,261175,1,4,0:0:0:0:
192,192,261578,1,0,0:0:0:0:
64,192,261578,1,0,0:0:0:0:
64,192,261713,128,0,261982:0:0:0:0:
448,192,261713,1,4,2:0:0:0:
192,192,261982,1,0,0:0:0:0:
320,192,261982,128,0,262232:0:0:0:0:
448,192,262232,1,8,0:0:0:0:
192,192,262232,1,8,0:0:0:0:
64,192,262232,1,4,2:0:0:0:
320,192,262360,128,0,262627:0:0:0:0:
192,192,262360,1,0,0:0:0:0:
448,192,262627,1,8,0:0:0:0:
192,192,262627,1,8,0:0:0:0:
64,192,262627,1,0,0:0:0:0:
64,192,262752,128,0,263031:0:0:0:0:
320,192,262752,1,4,2:0:0:0:
192,192,263031,128,0,263291:0:0:0:0:
320,192,263031,1,8,0:0:0:0:
448,192,263031,1,8,0:0:0:0:
448,192,263291,1,4,0:0:0:0:
64,192,263291,1,0,0:0:0:0:
320,192,263291,128,4,263691:2:0:0:0:
448,192,263691,1,0,0:0:0:0:
64,192,263691,1,0,0:0:0:0:
320,192,263820,1,4,2:0:0:0:
192,192,263820,128,0,264080:0:0:0:0:
64,192,264080,1,0,0:0:0:0:
448,192,264080,128,0,264340:0:0:0:0:
320,192,264340,1,8,0:0:0:0:
192,192,264340,1,8,0:0:0:0:
64,192,264340,1,4,2:0:0:0:
192,192,264479,1,0,0:0:0:0:
448,192,264479,1,0,0:0:0:0:
320,192,264609,1,0,0:0:0:0:
64,192,264609,1,0,0:0:0:0:
192,192,264720,1,8,0:0:0:0:
448,192,264720,1,8,0:0:0:0:
64,192,264720,1,4,2:0:0:0:
448,192,264850,1,0,0:0:0:0:
320,192,264850,1,0,0:0:0:0:
192,192,264972,1,0,0:0:0:0:
64,192,264972,1,0,0:0:0:0:
448,192,265083,1,8,0:0:0:0:
320,192,265083,1,8,0:0:0:0:
64,192,265083,128,0,265333:0:0:0:0:
448,192,265333,128,4,265749:2:0:0:0:
192,192,265333,1,0,0:0:0:0:
320,192,265333,1,4,0:0:0:0:
320,192,265749,1,0,0:0:0:0:
64,192,265749,1,0,0:0:0:0:
192,192,265872,128,0,266119:0:0:0:0:
448,192,265872,1,4,2:0:0:0:
64,192,266119,1,0,0:0:0:0:
320,192,266119,128,0,266354:0:0:0:0:
448,192,266354,1,8,0:0:0:0:
192,192,266354,1,8,0:0:0:0:
64,192,266354,1,4,2:0:0:0:
192,192,266493,1,0,0:0:0:0:
448,192,266493,128,0,266751:0:0:0:0:
64,192,266751,1,0,0:0:0:0:
320,192,266751,1,8,0:0:0:0:
192,192,266751,1,8,0:0:0:0:
192,192,266871,128,0,267140:0:0:0:0:
448,192,266871,1,4,2:0:0:0:
448,192,267140,1,8,0:0:0:0:
320,192,267140,1,8,0:0:0:0:
64,192,267140,128,0,267392:0:0:0:0:
448,192,267392,128,4,267812:2:0:0:0:
320,192,267392,1,0,0:0:0:0:
192,192,267392,1,4,0:0:0:0:
192,192,267812,1,0,0:0:0:0:
320,192,267812,1,0,0:0:0:0:
448,192,267944,128,0,268210:0:0:0:0:
64,192,267944,1,4,2:0:0:0:
320,192,268210,1,0,0:0:0:0:
192,192,268210,128,0,268450:0:0:0:0:
64,192,268450,1,8,0:0:0:0:
320,192,268450,1,8,0:0:0:0:
448,192,268450,1,4,2:0:0:0:
192,192,268583,1,0,0:0:0:0:
64,192,268583,128,0,268850:0:0:0:0:
448,192,268850,1,0,0:0:0:0:
320,192,268850,1,8,0:0:0:0:
192,192,268850,1,8,0:0:0:0:
64,192,268975,1,4,2:0:0:0:
320,192,268975,128,0,269242:0:0:0:0:
64,192,269242,1,8,0:0:0:0:
192,192,269242,1,8,0:0:0:0:
448,192,269242,128,0,269501:0:0:0:0:
64,192,269501,1,4,0:0:0:0:
320,192,269501,1,0,0:0:0:0:
192,192,269501,128,4,269906:2:0:0:0:
64,192,269906,1,0,0:0:0:0:
448,192,269906,1,0,0:0:0:0:
448,192,270041,128,0,270311:0:0:0:0:
320,192,270041,1,4,2:0:0:0:
64,192,270311,128,0,270551:0:0:0:0:
192,192,270311,1,0,0:0:0:0:
448,192,270551,1,4,2:0:0:0:
320,192,270551,1,8,0:0:0:0:
192,192,270551,1,8,0:0:0:0:
64,192,270679,1,0,0:0:0:0:
192,192,270679,128,0,270937:0:0:0:0:
320,192,270937,1,8,0:0:0:0:
448,192,270937,1,0,0:0:0:0:
64,192,270937,1,8,0:0:0:0:
192,192,271059,1,4,2:0:0:0:
448,192,271059,128,0,271343:0:0:0:0:
64,192,271343,1,8,0:0:0:0:
192,192,271343,1,8,0:0:0:0:
320,192,271343,128,0,271593:0:0:0:0:
448,192,271593,1,0,0:0:0:0:
192,192,271593,128,4,271862:2:0:0:0:
64,192,271593,1,4,0:0:0:0:
320,192,271862,1,8,0:0:0:0:
448,192,271862,1,8,0:0:0:0:
64,192,271862,1,0,0:0:0:0:
192,192,272005,1,0,0:0:0:0:
448,192,272005,128,0,272260:0:0:0:0:
192,192,272260,1,8,0:0:0:0:
320,192,272260,1,8,0:0:0:0:
64,192,272260,1,0,0:0:0:0:
448,192,272386,1,0,0:0:0:0:
64,192,272386,128,0,272639:0:0:0:0:
192,192,272639,1,8,0:0:0:0:
320,192,272639,1,8,0:0:0:0:
448,192,272639,1,4,2:0:0:0:
64,192,272776,1,0,0:0:0:0:
320,192,272776,128,0,273026:0:0:0:0:
448,192,273026,1,4,2:0:0:0:
64,192,273026,1,8,0:0:0:0:
192,192,273026,1,8,0:0:0:0:
320,192,273148,1,0,0:0:0:0:
192,192,273148,128,0,273403:0:0:0:0:
64,192,273403,1,0,0:0:0:0:
320,192,273403,1,0,0:0:0:0:
448,192,273403,128,0,273658:0:0:0:0:
