osu file format v14

[General]
AudioFilename: audio.mp3
AudioLeadIn: 0
PreviewTime: 91619
Countdown: 0
SampleSet: Soft
StackLeniency: 0.4
Mode: 0
LetterboxInBreaks: 0
WidescreenStoryboard: 0

[Editor]
Bookmarks: 83694,149778,168681,204100,246479,259719,299882
DistanceSpacing: 2.3
BeatDivisor: 4
GridSize: 8
TimelineZoom: 2.842792

[Metadata]
Title:Breadcrumb Trail
TitleUnicode:Breadcrumb Trail
Artist:Slint
ArtistUnicode:Slint
Creator:zglock
Version:CREEPING UP INTO THE SKY
Source:
Tags:spiderland math rock post rock english
BeatmapID:2395125
BeatmapSetID:1147094

[Difficulty]
HPDrainRate:5.7
CircleSize:5.3
OverallDifficulty:8.3
ApproachRate:9
SliderMultiplier:2.74
SliderTickRate:1

[Events]
//Background and Video events
0,0,"SLINT.jpg",0,0
//Break Periods
2,259904,274682
//Storyboard Layer 0 (Background)
//Storyboard Layer 1 (Fail)
//Storyboard Layer 2 (Pass)
//Storyboard Layer 3 (Foreground)
//Storyboard Layer 4 (Overlay)
//Storyboard Sound Samples

[TimingPoints]
644,576.923076923077,7,2,1,35,1,0
644,-333.333333333333,7,2,1,35,0,0
1797,579.710144927536,7,2,1,35,1,0
1797,-333.333333333333,7,2,1,35,0,0
2956,535.714285714286,7,2,1,35,1,0
2956,-333.333333333333,7,2,1,35,0,0
3491,666.666666666667,7,2,1,35,1,0
3491,-333.333333333333,7,2,1,35,0,0
4157,594.059405940594,7,2,1,35,1,0
4157,-333.333333333333,7,2,1,35,0,0
4454,626.959247648903,7,2,1,35,1,0
4454,-333.333333333333,7,2,1,35,0,0
4767,621.11801242236,7,2,1,55,1,0
4767,-166.666666666667,7,2,1,55,0,0
5232,-166.666666666667,7,2,1,5,0,0
5388,-166.666666666667,7,2,1,55,0,0
6009,589.680589680589,7,2,1,55,1,0
6009,-166.666666666667,7,2,1,55,0,0
7188,592.592592592592,7,2,1,55,1,0
7188,-166.666666666667,7,2,1,55,0,0
8373,588.235294117647,7,2,1,55,1,0
8373,-166.666666666667,7,2,1,55,0,0
9401,-166.666666666667,7,2,1,5,0,0
9549,591.133004926108,7,2,1,55,1,0
9549,-166.666666666667,7,2,1,55,0,0
10140,586.510263929619,7,2,1,55,1,0
10140,-166.666666666667,7,2,1,55,0,0
10726,573.065902578797,7,2,1,55,1,0
10726,-166.666666666667,7,2,1,55,0,0
11299,588.235294117647,7,2,1,55,1,0
11299,-166.666666666667,7,2,1,55,0,0
12475,597.014925373134,7,2,1,55,1,0
12475,-166.666666666667,7,2,1,55,0,0
13519,-166.666666666667,7,2,1,5,0,0
13669,574.162679425837,7,2,1,55,1,0
13669,-166.666666666667,7,2,1,55,0,0
14243,585.365853658537,7,2,1,55,1,0
14243,-166.666666666667,7,2,1,55,0,0
16584,597.014925373134,7,2,1,55,1,0
16584,-166.666666666667,7,2,1,55,0,0
17628,-166.666666666667,7,2,1,5,0,0
17778,571.428571428571,7,2,1,55,1,0
17778,-166.666666666667,7,2,1,55,0,0
18349,609.137055837563,7,2,1,55,1,0
18349,-166.666666666667,7,2,1,55,0,0
18958,555.555555555556,7,2,1,55,1,0
18958,-166.666666666667,7,2,1,55,0,0
19513,576.923076923077,7,2,1,55,1,0
19513,-166.666666666667,7,2,1,55,0,0
20666,602.00709164354,7,2,1,55,1,0
20666,-166.666666666667,7,2,1,55,0,0
21870,588.235294117647,7,2,1,55,1,0
21870,-166.666666666667,7,2,1,55,0,0
23046,566.037735849057,7,2,1,55,1,0
23046,-166.666666666667,7,2,1,55,0,0
23612,582.52427184466,7,2,1,55,1,0
23612,-166.666666666667,7,2,1,55,0,0
24194,609.137055837563,7,2,1,55,1,0
24194,-166.666666666667,7,2,1,55,0,0
24803,582.52427184466,7,2,1,55,1,0
24803,-166.666666666667,7,2,1,55,0,0
25822,-166.666666666667,7,2,1,5,0,0
25968,597.014925373134,7,2,1,55,1,0
25968,-166.666666666667,7,2,1,55,0,0
27162,545.454545454546,7,2,1,55,1,0
27162,-166.666666666667,7,2,1,55,0,0
27707,585.365853658537,7,2,1,55,1,0
27707,-166.666666666667,7,2,1,55,0,0
29463,609.137055837563,7,2,1,55,1,0
29463,-166.666666666667,7,2,1,55,0,0
30072,555.555555555555,7,2,1,55,1,0
30072,-166.666666666667,7,2,1,55,0,0
30627,615.384615384615,7,2,1,55,1,0
30627,-166.666666666667,7,2,1,55,0,0
31242,552.147578004649,7,2,1,55,1,0
31242,-166.666666666667,7,2,1,55,0,0
31794,594.059405940594,7,2,1,55,1,0
31794,-166.666666666667,7,2,1,55,0,0
32982,576.923076923077,7,2,1,55,1,0
32982,-166.666666666667,7,2,1,55,0,0
33558,606.060606060606,7,2,1,55,1,0
33558,-166.666666666667,7,2,1,55,0,0
34012,-166.666666666667,7,2,1,5,0,0
34164,574.162679425837,7,2,1,55,1,0
34164,-166.666666666667,7,2,1,55,0,0
35886,610.687022900763,7,2,1,55,1,0
35886,-166.666666666667,7,2,1,55,0,0
36496,566.037735849056,7,2,1,55,1,0
36496,-166.666666666667,7,2,1,55,0,0
37062,588.235294117647,7,2,1,55,1,0
37062,-166.666666666667,7,2,1,55,0,0
39414,560.747663551402,7,2,1,55,1,0
39414,-166.666666666667,7,2,1,55,0,0
39974,591.133004926108,7,2,1,55,1,0
39974,-166.666666666667,7,2,1,55,0,0
41156,609.137055837563,7,2,1,55,1,0
41156,-166.666666666667,7,2,1,55,0,0
41765,600,4,2,1,55,1,0
41765,-166.666666666667,7,2,1,55,0,0
42365,615.384615384615,4,2,1,55,1,0
42365,-166.666666666667,7,2,1,55,0,0
42980,535.714285714286,4,2,1,55,1,0
42980,-166.666666666667,7,2,1,55,0,0
43515,618.556701030928,4,2,1,55,1,0
43515,-166.666666666667,7,2,1,55,0,0
43721,-166.666666666667,7,2,1,5,0,0
43824,-166.666666666667,7,2,1,55,0,0
44030,-166.666666666667,7,2,1,5,0,0
44133,619.195046439628,7,2,1,55,1,0
44133,-166.666666666667,7,2,1,55,0,0
44752,600,7,2,1,55,1,0
44752,-166.666666666667,7,2,1,55,0,0
45952,582.52427184466,7,2,1,55,1,0
45952,-166.666666666667,7,2,1,55,0,0
46534,588.235294117647,7,2,1,55,1,0
46534,-166.666666666667,7,2,1,55,0,0
47122,564.705882352941,7,2,1,55,1,0
47122,-166.666666666667,7,2,1,55,0,0
47686,629.921259842519,7,2,1,55,1,0
47686,-166.666666666667,7,2,1,55,0,0
48315,563.380281690141,7,2,1,55,1,0
48315,-166.666666666667,7,2,1,55,0,0
48737,-166.666666666667,7,2,1,5,0,0
48878,576.923076923077,7,2,1,55,1,0
48878,-166.666666666667,7,2,1,55,0,0
49454,600,7,2,1,55,1,0
49454,-166.666666666667,7,2,1,55,0,0
50054,576.923076923077,7,2,1,55,1,0
50054,-166.666666666667,7,2,1,55,0,0
51784,594.059405940594,7,2,1,55,1,0
51784,-166.666666666667,7,2,1,55,0,0
52378,579.710144927536,7,2,1,55,1,0
52378,-166.666666666667,7,2,1,55,0,0
52812,-166.666666666667,7,2,1,5,0,0
52957,-166.666666666667,7,2,1,55,0,0
54117,571.428571428571,7,2,1,55,1,0
54117,-166.666666666667,7,2,1,55,0,0
55259,588.235294117647,7,2,1,55,1,0
55259,-166.666666666667,7,2,1,55,0,0
56876,-166.666666666667,7,2,1,5,0,0
57023,555.555555555556,7,2,1,55,1,0
57023,-166.666666666667,7,2,1,55,0,0
57578,600,7,2,1,55,1,0
57578,-166.666666666667,7,2,1,55,0,0
58178,571.428571428571,7,2,1,55,1,0
58178,-166.666666666667,7,2,1,55,0,0
59892,598.503740648379,7,2,1,55,1,0
59892,-166.666666666667,7,2,1,55,0,0
61089,563.380281690141,7,2,1,55,1,0
61089,-166.666666666667,7,2,1,55,0,0
62215,576.923076923077,7,2,1,55,1,0
62215,-166.666666666667,7,2,1,55,0,0
62791,597.014925373134,7,2,1,55,1,0
62791,-166.666666666667,7,2,1,55,0,0
63388,571.428571428571,7,2,1,55,1,0
63388,-166.666666666667,7,2,1,55,0,0
63959,586.79706601467,7,2,1,55,1,0
63959,-166.666666666667,7,2,1,55,0,0
64545,623.376623376623,7,2,1,55,1,0
64545,-166.666666666667,7,2,1,55,0,0
65012,-166.666666666667,7,2,1,5,0,0
65168,568.720379146919,7,2,1,55,1,0
65168,-166.666666666667,7,2,1,55,0,0
66163,-166.666666666667,7,2,1,5,0,0
66305,566.037735849057,7,2,1,55,1,0
66305,-166.666666666667,7,2,1,55,0,0
66871,579.710144927536,7,2,1,55,1,0
66871,-166.666666666667,7,2,1,55,0,0
68610,597.014925373134,4,2,1,55,1,0
68610,-166.666666666667,7,2,1,55,0,0
69804,603.015075376884,4,2,1,55,1,0
69804,-166.666666666667,7,2,1,55,0,0
70407,613.810741687979,4,2,1,55,1,0
70407,-166.666666666667,7,2,1,55,0,0
70611,-166.666666666667,7,2,1,5,0,0
70713,-166.666666666667,7,2,1,55,0,0
70918,-166.666666666667,7,2,1,5,0,0
71020,606.060606060606,7,2,1,55,1,0
71020,-166.666666666667,7,2,1,55,0,0
72232,568.720379146919,7,2,1,55,1,0
72232,-166.666666666667,7,2,1,55,0,0
72800,588.235294117647,7,2,1,55,1,0
72800,-166.666666666667,7,2,1,55,0,0
73976,574.162679425837,7,2,1,55,1,0
73976,-166.666666666667,7,2,1,55,0,0
74550,641.711229946524,7,2,1,55,1,0
74550,-166.666666666667,7,2,1,55,0,0
74870,-333.333333333333,7,2,1,35,0,0
75191,594.059405940594,4,2,1,25,1,0
75191,-1000,7,2,1,25,0,0
75488,-1000,7,2,1,5,0,0
75785,625,4,2,1,25,1,0
75785,-1000,7,2,1,25,0,0
76097,-1000,7,2,1,5,0,0
76410,582.52427184466,4,2,1,25,1,0
76410,-1000,7,2,1,25,0,0
76701,-1000,7,2,1,5,0,0
76992,588.235294117647,4,2,1,25,1,0
76992,-1000,7,2,1,25,0,0
77286,-1000,7,2,1,5,0,0
77580,594.059405940594,4,2,1,25,1,0
77580,-1000,7,2,1,25,0,0
77877,-1000,7,2,1,5,0,0
78174,595.533498759305,4,2,1,25,1,0
78174,-1000,7,2,1,25,0,0
78471,-1000,7,2,1,5,0,0
78769,599.400599400599,4,2,1,25,1,0
78769,-1000,7,2,1,25,0,0
79068,-1000,7,2,1,5,0,0
79368,571.428571428571,4,2,1,25,1,0
79368,-1000,7,2,1,25,0,0
79653,-1000,7,2,1,5,0,0
79939,645.161290322581,7,2,1,35,1,0
79939,-400,7,2,1,35,0,0
80584,606.060606060606,7,2,1,35,1,0
80584,-400,7,2,1,35,0,0
82402,652.173913043478,7,2,1,35,1,0
82402,-400,7,2,1,35,0,0
83054,625,7,2,1,35,1,0
83054,-400,7,2,1,35,0,0
83679,326.086956521739,6,2,1,80,1,1
83842,-100,6,2,1,80,0,0
85227,-100,6,2,1,5,0,0
85309,357.142857142857,6,2,1,80,1,0
85309,-200,6,2,1,80,0,0
85666,329.670329670329,6,2,1,80,1,0
86655,-97.0873786407767,6,2,1,80,0,0
86984,289.855072463768,6,2,1,80,1,0
87080,-100,6,2,1,5,0,0
87177,-100,6,2,1,80,0,0
87273,343.839541547278,6,2,1,80,1,0
87273,-200,6,2,1,80,0,0
87530,-100,6,2,1,5,0,0
87616,331.491712707182,6,2,1,80,1,0
87616,-125,6,2,1,80,0,0
88278,348.837209302325,6,2,1,80,1,0
88278,-125,6,2,1,80,0,0
88626,333.333333333333,6,2,1,80,1,0
88626,-125,6,2,1,80,0,0
89626,340.90909090909,6,2,1,80,1,0
89626,-125,6,2,1,80,0,0
89881,-125,6,2,1,5,0,0
89966,-125,6,2,1,80,0,0
90904,-125,6,2,1,5,0,0
90989,303.030303030302,6,2,1,80,1,0
90989,-125,6,2,1,80,0,0
91292,357.142857142856,6,2,1,80,1,0
91292,-125,6,2,1,80,0,0
91559,-125,6,2,1,5,0,0
91649,342.857142857142,6,2,1,80,1,0
93277,-100,6,2,1,5,0,0
93363,-200,6,2,1,80,0,0
93706,-100,6,2,1,80,0,0
94734,-103.092783505155,6,2,1,80,0,0
95077,324.324324324324,6,2,1,80,1,0
95320,-100,6,2,1,5,0,0
95401,342.857142857142,6,2,1,80,1,0
95401,-200,6,2,1,80,0,0
95658,-200,6,2,1,5,0,0
95743,342.857142857142,15,2,1,80,1,0
95743,-111.111111111111,15,2,1,80,0,0
97372,-111.111111111111,15,2,1,5,0,0
97458,329.670329670329,15,2,1,80,1,0
97458,-222.222222222222,15,2,1,80,0,0
97705,-222.222222222222,15,2,1,5,0,0
97787,-111.111111111111,15,2,1,80,0,0
98447,350.877192982455,15,2,1,80,1,0
98447,-111.111111111111,15,2,1,80,0,0
98797,329.670329670329,15,2,1,80,1,0
98797,-111.111111111111,15,2,1,80,0,0
99456,338.983050847457,15,2,1,80,1,0
99456,-111.111111111111,15,2,1,80,0,0
99794,338.983050847457,15,2,1,80,1,0
99794,-111.111111111111,15,2,1,80,0,0
100387,-111.111111111111,15,2,1,5,0,0
100472,342.857142857142,15,2,1,80,1,0
100472,-111.111111111111,15,2,1,80,0,0
100729,-111.111111111111,15,2,1,5,0,0
100814,342.857142857142,6,2,1,80,1,0
102442,-100,6,2,1,5,0,0
102528,357.142857142856,6,2,1,80,1,0
102528,-200,6,2,1,80,0,0
102885,337.078651685392,6,2,1,80,1,0
103474,-100,6,2,1,5,0,0
103559,350.877192982455,6,2,1,80,1,0
103559,-200,6,2,1,80,0,0
103822,-200,6,2,1,5,0,0
103909,333.333333333333,6,2,1,80,1,0
104353,-100,6,2,1,5,0,0
104464,-100,6,2,1,80,0,0
104575,-200,6,2,1,80,0,0
104825,-200,6,2,1,5,0,0
104909,344.827586206896,15,2,1,80,1,0
104909,-111.111111111111,15,2,1,80,0,0
105598,370.370370370369,15,2,1,80,1,0
105598,-111.111111111111,15,2,1,80,0,0
105968,327.868852459016,15,2,1,80,1,0
105968,-111.111111111111,15,2,1,80,0,0
106623,348.837209302325,15,2,1,80,1,0
106623,-111.111111111111,15,2,1,80,0,0
106971,320.855614973261,15,2,1,80,1,0
106971,-111.111111111111,15,2,1,80,0,0
107291,352.941176470587,15,2,1,80,1,0
107291,-111.111111111111,15,2,1,80,0,0
108349,312.499999999999,15,2,1,80,1,0
108349,-111.111111111111,15,2,1,80,0,0
108661,342.857142857142,15,2,1,80,1,0
108661,-111.111111111111,15,2,1,80,0,0
109003,342.857142857142,15,2,1,80,1,0
109003,-111.111111111111,15,2,1,80,0,0
109345,325.20325203252,15,2,1,80,1,0
109345,-111.111111111111,15,2,1,80,0,0
109670,335.195530726256,15,2,1,80,1,0
109670,-111.111111111111,15,2,1,80,0,0
109921,-111.111111111111,15,2,1,5,0,0
110005,357.142857142857,6,2,1,80,1,0
110719,338.983050847457,6,2,1,80,1,0
111651,-100,6,2,1,5,0,0
111735,352.941176470588,6,2,1,80,1,0
111735,-200,6,2,1,80,0,0
112087,-100,6,2,1,80,0,0
112440,340.90909090909,6,2,1,80,1,0
112780,357.142857142856,6,2,1,80,1,0
113494,355.029585798816,6,2,1,80,1,0
113671,314.13612565445,6,2,1,80,1,0
113985,350.877192982456,6,2,1,80,1,0
114101,359.281437125747,6,2,1,80,1,0
114101,-111.111111111111,6,2,1,80,0,0
115448,-111.111111111111,6,2,1,5,0,0
115538,342.857142857142,6,2,1,80,1,0
115538,-111.111111111111,6,2,1,80,0,0
116223,350.877192982455,6,2,1,80,1,0
116223,-111.111111111111,6,2,1,80,0,0
117275,-109.89010989011,6,2,1,80,0,0
117626,331.491712707182,6,2,1,80,1,0
117626,-111.111111111111,6,2,1,80,0,0
117736,-111.111111111111,6,2,1,5,0,0
117846,-111.111111111111,6,2,1,80,0,0
118288,365.853658536584,6,2,1,80,1,0
119019,342.857142857142,6,2,1,80,1,0
119961,-100,6,2,1,5,0,0
120047,365.853658536584,6,2,1,80,1,0
120047,-200,6,2,1,80,0,0
120412,350.877192982455,6,2,1,80,1,0
121464,-100.704934541793,6,2,1,80,0,0
121815,327.868852459016,6,2,1,80,1,0
122060,-100,6,2,1,5,0,0
122142,-200,6,2,1,80,0,0
122388,-200,6,2,1,5,0,0
122470,365.853658536584,6,2,1,80,1,0
122470,-111.111111111111,6,2,1,80,0,0
123201,355.029585798816,6,2,1,80,1,0
123201,-111.111111111111,6,2,1,80,0,0
123556,348.837209302325,6,2,1,80,1,0
123556,-111.111111111111,6,2,1,80,0,0
124253,355.029585798816,6,2,1,80,1,0
124253,-111.111111111111,6,2,1,80,0,0
124874,-111.111111111111,6,2,1,5,0,0
124963,-111.111111111111,6,2,1,80,0,0
125939,-111.111111111111,6,2,1,5,0,0
126028,327.868852459016,6,2,1,80,1,0
126028,-111.111111111111,6,2,1,80,0,0
126683,359.281437125748,6,2,1,80,1,0
127401,363.636363636363,6,2,1,80,1,0
128401,-100,6,2,1,5,0,0
128491,344.827586206896,6,2,1,80,1,0
128491,-200,6,2,1,80,0,0
128835,-100.704934541793,6,2,1,80,0,0
129180,379.746835443037,6,2,1,80,1,0
129464,-100,6,2,1,5,0,0
129559,352.941176470588,6,2,1,80,1,0
129559,-200,6,2,1,80,0,0
129911,-98.0392156862745,6,2,1,80,0,0
130264,335.195530726256,6,2,1,80,1,0
130515,-100,6,2,1,5,0,0
130599,346.820809248554,6,2,1,80,1,0
130599,-200,6,2,1,80,0,0
130945,346.820809248554,15,2,1,80,1,0
130945,-111.111111111111,15,2,1,80,0,0
131205,-111.111111111111,15,2,1,5,0,0
131292,-111.111111111111,15,2,1,80,0,0
131552,-111.111111111111,15,2,1,5,0,0
131639,368.098159509202,15,2,1,80,1,0
131639,-111.111111111111,15,2,1,80,0,0
131915,-111.111111111111,15,2,1,5,0,0
132007,355.029585798816,15,2,1,80,1,0
132007,-111.111111111111,15,2,1,80,0,0
132717,342.857142857142,15,2,1,80,1,0
132717,-111.111111111111,15,2,1,80,0,0
133059,333.333333333333,15,2,1,80,1,0
133059,-111.111111111111,15,2,1,80,0,0
133392,361.44578313253,15,2,1,80,1,0
133392,-111.111111111111,15,2,1,80,0,0
134476,320.855614973261,15,2,1,80,1,0
134476,-111.111111111111,15,2,1,80,0,0
134903,-111.111111111111,15,2,1,5,0,0
135010,-111.111111111111,15,2,1,80,0,0
135117,321.71581769437,15,2,1,80,1,0
135117,-90.9090909090909,15,2,1,80,0,0
135358,-90.9090909090909,15,2,1,5,0,0
135438,340.90909090909,15,2,1,80,1,0
135438,-90.9090909090909,15,2,1,80,0,0
135693,-90.9090909090909,15,2,1,5,0,0
135778,348.837209302325,15,2,1,80,1,0
135778,-90.9090909090909,15,2,1,80,0,0
136039,-90.9090909090909,15,2,1,5,0,0
136126,365.853658536585,6,2,1,80,1,0
136857,357.142857142857,6,2,1,80,1,0
137214,-98.8142292490118,6,2,1,80,0,0
137571,352.941176470588,6,2,1,80,1,0
137835,-100,6,2,1,5,0,0
137923,-200,6,2,1,80,0,0
138276,-100,6,2,1,80,0,0
138894,-100,6,2,1,5,0,0
138982,350.877192982456,6,2,1,80,1,0
138982,-200,6,2,1,80,0,0
139332,340.909090909091,6,2,1,80,1,0
140354,368.098159509202,15,2,1,80,1,0
140354,-111.111111111111,15,2,1,80,0,0
140630,-111.111111111111,15,2,1,5,0,0
140722,-111.111111111111,15,2,1,80,0,0
141090,338.983050847457,15,2,1,80,1,0
141090,-111.111111111111,15,2,1,80,0,0
142445,346.820809248555,15,2,1,80,1,0
142445,-111.111111111111,15,2,1,80,0,0
143138,375,15,2,1,80,1,0
143138,-111.111111111111,15,2,1,80,0,0
143513,346.820809248555,15,2,1,80,1,0
143513,-111.111111111111,15,2,1,80,0,0
144553,347.826086956522,15,2,1,80,1,0
144553,-111.111111111111,15,2,1,80,0,0
144813,-111.111111111111,15,2,1,5,0,0
144900,326.086956521739,15,2,1,80,1,0
144900,-111.111111111111,15,2,1,80,0,0
145226,348.837209302325,15,2,1,80,1,0
145226,-111.111111111111,15,2,1,80,0,0
145487,-111.111111111111,15,2,1,5,0,0
145574,360.36036036036,6,2,1,80,1,0
147015,331.491712707182,6,2,1,80,1,0
147263,-100,6,2,1,5,0,0
147346,359.281437125748,6,2,1,80,1,0
147346,-200,6,2,1,80,0,0
147705,-100,6,2,1,80,0,0
148064,340.90909090909,6,2,1,80,1,0
149086,338.983050847457,6,2,1,80,1,0
149340,-100,6,2,1,5,0,0
149424,-200,6,2,1,80,0,0
149679,-200,6,2,1,5,0,0
149763,338.983050847457,4,2,1,80,1,0
150779,301.507537688442,4,2,1,80,1,0
151080,333.333333333333,4,2,1,80,1,0
151746,327.868852459016,4,2,1,80,1,0
152073,347.826086956522,4,2,1,80,1,0
152333,-100,4,2,1,5,0,0
152420,360.144057623049,7,2,1,80,1,0
152420,-200,7,2,1,80,0,0
152510,-200,7,2,1,5,0,0
154400,-200,7,2,1,80,0,0
154580,329.670329670329,7,2,1,80,1,0
154909,329.670329670329,4,2,1,80,1,0
155569,319.148936170212,4,2,1,80,1,0
156526,300,4,2,1,80,1,0
156826,324.324324324324,4,2,1,80,1,0
157150,352.941176470588,4,2,1,80,1,0
157414,-100,4,2,1,5,0,0
157502,349.854227405248,7,2,1,80,1,0
157502,-200,7,2,1,80,0,0
157589,-200,7,2,1,5,0,0
159426,-200,7,2,1,80,0,0
159601,338.983050847457,7,2,1,80,1,0
159939,312.5,4,2,1,80,1,0
160876,327.868852459016,4,2,1,80,1,0
161859,304.568527918781,4,2,1,80,1,0
162163,348.837209302325,4,2,1,80,1,0
162424,-100,4,2,1,5,0,0
162511,361.44578313253,5,2,1,80,1,0
162511,-200,5,2,1,80,0,0
162601,-200,7,2,1,5,0,0
165583,-200,7,2,1,80,0,0
165764,324.324324324324,5,2,1,80,1,0
166088,306.122448979592,4,2,1,80,1,0
166394,326.086956521739,4,2,1,80,1,0
167046,310.880829015544,4,2,1,80,1,0
167771,-100,4,2,1,5,0,0
167875,-100,4,2,1,80,0,0
168289,377.358490566037,4,2,1,80,1,0
168572,-100,4,2,1,5,0,0
168666,338.983050847457,6,2,1,80,1,0
168666,-111.111111111111,6,2,1,80,0,0
168920,-111.111111111111,6,2,1,5,0,0
169004,-111.111111111111,6,2,1,80,0,0
169343,350.877192982456,6,2,1,80,1,0
169343,-111.111111111111,6,2,1,80,0,0
169606,-111.111111111111,6,2,1,5,0,0
169693,-111.111111111111,6,2,1,80,0,0
170395,365.853658536585,6,2,1,80,1,0
170395,-111.111111111111,6,2,1,80,0,0
171035,-111.111111111111,6,2,1,5,0,0
171126,333.333333333333,6,2,1,80,1,0
171126,-111.111111111111,6,2,1,80,0,0
171459,342.857142857142,6,2,1,80,1,0
171459,-111.111111111111,6,2,1,80,0,0
171801,340.90909090909,6,2,1,80,1,0
171801,-111.111111111111,6,2,1,80,0,0
172482,365.853658536585,6,2,1,80,1,0
172482,-111.111111111111,6,2,1,80,0,0
172847,359.281437125748,6,2,1,80,1,0
173924,348.837209302325,6,2,1,80,1,0
174534,-100,6,2,1,5,0,0
174621,-200,6,2,1,80,0,0
174970,-100,6,2,1,80,0,0
175319,359.281437125748,6,2,1,80,1,0
176037,338.983050847457,6,2,1,80,1,0
176037,-97.3709834469328,6,2,1,80,0,0
176375,310.880829015544,6,2,1,80,1,0
176478,-100,6,2,1,5,0,0
176582,-111.111111111111,6,2,1,80,0,0
176893,413.793103448276,6,2,1,80,1,0
177030,377.358490566036,6,2,1,80,1,0
177030,-111.111111111111,6,2,1,80,0,0
177407,346.820809248554,6,2,1,80,1,0
178794,365.853658536584,6,2,1,80,1,0
178794,-111.111111111111,6,2,1,80,0,0
179159,344.827586206895,6,2,1,80,1,0
179159,-111.111111111111,6,2,1,80,0,0
179848,352.941176470587,6,2,1,80,1,0
179848,-111.111111111111,6,2,1,80,0,0
180200,-112.233445566779,6,2,1,80,0,0
180553,365.853658536584,6,2,1,80,1,0
180553,-111.111111111111,6,2,1,80,0,0
180674,-111.111111111111,6,2,1,5,0,0
180766,-111.111111111111,6,2,1,80,0,0
180918,317.460317460316,6,2,1,80,1,0
180918,-111.111111111111,6,2,1,80,0,0
180970,-111.111111111111,6,2,1,5,0,0
181235,357.142857142855,6,2,1,80,1,0
181949,344.827586206895,6,2,1,80,1,0
182293,-99.304865938431,6,2,1,80,0,0
182638,368.0981595092,6,2,1,80,1,0
182914,-100,6,2,1,5,0,0
183006,-200,6,2,1,80,0,0
183374,342.857142857141,6,2,1,80,1,0
185001,-100,6,2,1,5,0,0
185088,346.820809248553,6,2,1,80,1,0
185088,-200,6,2,1,80,0,0
185348,-200,6,2,1,5,0,0
185434,346.820809248553,15,2,1,80,1,0
185434,-111.111111111111,15,2,1,80,0,0
185694,-111.111111111111,15,2,1,5,0,0
185781,-111.111111111111,15,2,1,80,0,0
186041,-111.111111111111,15,2,1,5,0,0
186128,-111.111111111111,15,2,1,80,0,0
186388,-111.111111111111,15,2,1,5,0,0
186475,338.983050847456,15,2,1,80,1,0
186475,-111.111111111111,15,2,1,80,0,0
187152,329.670329670328,15,2,1,80,1,0
187152,-111.111111111111,15,2,1,80,0,0
187481,277.777777777777,15,2,1,80,1,0
187481,-111.111111111111,15,2,1,80,0,0
187758,365.853658536583,15,2,1,80,1,0
187758,-111.111111111111,15,2,1,80,0,0
188123,344.827586206895,15,2,1,80,1,0
188123,-111.111111111111,15,2,1,80,0,0
188726,-111.111111111111,15,2,1,5,0,0
188812,-111.111111111111,15,2,1,80,0,0
189157,370.370370370368,15,2,1,80,1,0
189157,-111.111111111111,15,2,1,80,0,0
189527,344.827586206895,15,2,1,80,1,0
189527,-111.111111111111,15,2,1,80,0,0
189871,333.333333333332,15,2,1,80,1,0
189871,-111.111111111111,15,2,1,80,0,0
190204,357.142857142855,15,2,1,80,1,0
190204,-111.111111111111,15,2,1,80,0,0
190561,352.941176470586,6,2,1,80,1,0
192237,-100,6,2,1,5,0,0
192325,357.142857142855,6,2,1,80,1,0
192325,-200,6,2,1,80,0,0
192682,348.837209302324,6,2,1,80,1,0
193728,320.855614973261,6,2,1,80,1,0
194289,-100,6,2,1,5,0,0
194369,-100,6,2,1,80,0,0
194426,338.983050847456,6,2,1,80,1,0
194426,-200,6,2,1,80,0,0
194680,-200,6,2,1,5,0,0
194764,350.877192982454,15,2,1,80,1,0
194764,-111.111111111111,15,2,1,80,0,0
196167,324.324324324323,15,2,1,80,1,0
196167,-111.111111111111,15,2,1,80,0,0
196815,357.142857142855,15,2,1,80,1,0
196815,-111.111111111111,15,2,1,80,0,0
197886,333.333333333332,15,2,1,80,1,0
197886,-111.111111111111,15,2,1,80,0,0
198219,329.670329670328,15,2,1,80,1,0
198219,-111.111111111111,15,2,1,80,0,0
198548,340.909090909089,15,2,1,80,1,0
198548,-111.111111111111,15,2,1,80,0,0
198888,329.670329670328,15,2,1,80,1,0
198888,-111.111111111111,15,2,1,80,0,0
199135,-111.111111111111,15,2,1,5,0,0
199217,-111.111111111111,15,2,1,80,0,0
199464,-111.111111111111,15,2,1,5,0,0
199547,368.0981595092,15,2,1,80,1,0
199547,-111.111111111111,15,2,1,80,0,0
199823,-111.111111111111,15,2,1,5,0,0
199915,340.909090909089,6,2,1,80,1,0
200255,359.281437125746,6,2,1,80,1,0
201602,-100,6,2,1,5,0,0
201692,-200,6,2,1,80,0,0
202051,348.837209302324,6,2,1,80,1,0
202399,340.909090909089,6,2,1,80,1,0
203080,335.195530726255,6,2,1,80,1,0
203666,-100,6,2,1,5,0,0
203750,-200,6,2,1,80,0,0
204001,-200,6,2,1,5,0,0
204085,335.195530726255,4,2,1,80,1,0
204755,327.868852459015,4,2,1,80,1,0
205082,319.148936170211,4,2,1,80,1,0
205401,331.491712707181,4,2,1,80,1,0
206063,344.827586206895,4,2,1,80,1,0
206666,-100,4,2,1,5,0,0
206752,370.599135268684,7,2,1,80,1,0
206752,-200,6,2,1,80,0,0
206844,-200,7,2,1,5,0,0
208790,-200,6,2,1,80,0,0
208975,320.85561497326,7,2,1,80,1,0
209295,320.85561497326,4,2,1,80,1,0
209616,331.491712707181,4,2,1,80,1,0
209947,315.789473684209,4,2,1,80,1,0
210578,337.078651685391,4,2,1,80,1,0
211252,291.262135922329,4,2,1,80,1,0
211543,368.0981595092,4,2,1,80,1,0
211819,-100,4,2,1,5,0,0
211911,351.906158357771,7,2,1,80,1,0
211911,-200,6,2,1,80,0,0
211998,-200,7,2,1,5,0,0
213846,-200,6,2,1,80,0,0
214022,329.670329670328,7,2,1,80,1,0
214351,329.670329670328,4,2,1,80,1,0
215011,319.148936170211,4,2,1,80,1,0
215649,298.507462686566,4,2,1,80,1,0
215947,322.580645161288,4,2,1,80,1,0
216054,-100,4,2,1,5,0,0
216162,-100,4,2,1,80,0,0
216592,342.857142857141,4,2,1,80,1,0
216849,-100,4,2,1,5,0,0
216934,387.096774193546,3,2,1,80,1,0
216934,-200,6,2,1,80,0,0
217030,-200,7,2,1,5,0,0
219837,-200,6,2,1,80,0,0
220030,327.868852459014,3,2,1,80,1,0
220357,309.278350515462,4,2,1,80,1,0
220666,327.868852459014,4,2,1,80,1,0
220993,299.999999999998,4,2,1,80,1,0
221293,333.333333333331,4,2,1,80,1,0
221626,320.85561497326,4,2,1,80,1,0
222588,338.983050847456,4,2,1,80,1,0
222842,-100,4,2,1,5,0,0
222926,324.324324324323,6,2,1,80,1,0
222926,-200.400801603206,6,2,1,80,0,0
223007,-200,7,2,1,5,0,0
223574,344.827586206895,6,2,1,80,1,0
223574,-200,6,2,1,80,0,0
224263,251.046025104602,6,2,1,80,1,0
224263,-200,6,2,1,80,0,0
224514,351.906158357771,6,2,1,80,1,0
224865,320.855614973259,4,2,1,80,1,0
225506,299.999999999998,4,2,1,80,1,0
225806,324.324324324322,4,2,1,80,1,0
226130,289.855072463766,4,2,1,80,1,0
226419,319.14893617021,4,2,1,80,1,0
226738,310.880829015542,4,2,1,80,1,0
227048,322.580645161288,4,2,1,80,1,0
227289,-100,4,2,1,5,0,0
227370,338.983050847454,6,2,1,80,1,0
227370,-200.240288346015,6,2,1,80,0,0
227454,-200,7,2,1,5,0,0
228047,324.324324324321,6,2,1,80,1,0
228047,-200,6,2,1,80,0,0
228695,279.069767441858,6,2,1,80,1,0
228695,-200,6,2,1,80,0,0
228974,329.670329670326,6,2,1,80,1,0
229303,314.136125654447,4,2,1,80,1,0
230559,295.566502463052,4,2,1,80,1,0
231150,292.682926829266,4,2,1,80,1,0
231442,331.491712707179,4,2,1,80,1,0
231690,-100,4,2,1,5,0,0
231773,338.983050847454,6,2,1,80,1,0
231773,-199.600798403194,6,2,1,80,0,0
231857,-200,7,2,1,5,0,0
232450,306.122448979589,6,2,1,80,1,0
232450,-200,6,2,1,80,0,0
233062,294.117647058821,6,2,1,80,1,0
233062,-200,6,2,1,80,0,0
233356,314.136125654447,6,2,1,80,1,0
233670,324.324324324321,4,2,1,80,1,0
234318,303.0303030303,4,2,1,80,1,0
234570,-107.52688172043,4,2,1,80,0,0
234621,338.983050847454,4,2,1,80,1,0
234959,312.499999999997,4,2,1,80,1,0
235584,309.278350515461,4,2,1,80,1,0
235712,-100,4,2,1,5,0,0
235790,-100,4,2,1,80,0,0
235893,384.61538461538,4,2,1,80,1,0
236021,-100,4,2,1,5,0,0
236149,333.33333333333,11,2,1,80,1,0
236149,-200,6,2,1,80,0,0
236232,-200,7,2,1,5,0,0
239315,-200,6,2,1,80,0,0
239482,304.568527918782,11,2,1,80,1,0
239786,327.868852459013,4,2,1,80,1,0
240113,320.855614973259,4,2,1,80,1,0
240433,312.499999999997,4,2,1,80,1,0
240745,317.460317460314,4,2,1,80,1,0
241379,312.499999999997,4,2,1,80,1,0
241691,320.855614973259,4,2,1,80,1,0
242011,352.941176470584,4,2,1,80,1,0
242275,-100,4,2,1,5,0,0
242363,338.983050847454,6,2,1,70,1,0
242363,-125,6,2,1,70,0,0
244651,-125,6,2,1,5,0,0
244735,348.837209302322,6,2,1,70,1,0
244735,-125,6,2,1,70,0,0
245432,355.029585798813,6,2,1,70,1,0
245432,-125,6,2,1,70,0,0
245698,-125,6,2,1,5,0,0
245787,338.983050847454,6,2,1,70,1,0
245787,-125,6,2,1,70,0,0
246380,-125,6,2,1,5,0,0
246464,348.837209302321,4,2,1,70,1,0
246464,-473.933649289099,4,2,1,70,0,0
247161,333.333333333329,6,2,1,70,1,0
248161,361.445783132525,6,2,1,70,1,0
249245,344.827586206892,6,2,1,70,1,0
249934,361.445783132525,6,2,1,70,1,0
250295,365.85365853658,6,2,1,70,1,0
251026,317.460317460314,6,2,1,70,1,0
251343,368.098159509197,6,2,1,70,1,0
252079,315.789473684207,6,2,1,70,1,0
252394,374.999999999995,6,2,1,70,1,0
253144,319.148936170209,6,2,1,70,1,0
253463,340.909090909086,6,2,1,70,1,0
254144,357.142857142852,6,2,1,70,1,0
254501,346.82080924855,6,2,1,70,1,0
255541,353.982300884951,6,2,1,70,1,0
257664,326.086956521735,6,2,1,70,1,0
257990,342.857142857138,6,2,1,70,1,0
259704,365.85365853658,6,2,1,70,1,0
259704,-100,6,2,1,38,0,0
260801,355.029585798812,6,2,1,70,1,0
261866,365.85365853658,6,2,1,70,1,0
262597,310.88082901554,6,2,1,70,1,0
262907,348.837209302321,6,2,1,70,1,0
263953,329.670329670325,6,2,1,70,1,0
264282,348.837209302321,6,2,1,70,1,0
264979,346.82080924855,6,2,1,70,1,0
266366,337.078651685389,6,2,1,70,1,0
267040,309.27835051546,6,2,1,70,1,0
267349,382.165605095536,6,2,1,70,1,0
267731,360.36036036036,6,2,1,70,1,0
268091,344.827586206892,6,2,1,70,1,0
269815,337.078651685389,6,2,1,70,1,0
270489,350.877192982451,6,2,1,70,1,0
270839,342.857142857138,6,2,1,70,1,0
271524,310.88082901554,6,2,1,70,1,0
271834,357.142857142852,6,2,1,70,1,0
272191,340.909090909086,6,2,1,70,1,0
273895,346.82080924855,6,2,1,70,1,0
275282,335.195530726252,6,2,1,55,1,0
275282,-153.846153846154,6,2,1,55,0,0
276287,346.82080924855,6,2,1,55,1,0
276287,-153.846153846154,6,2,1,55,0,0
277327,315.789473684206,6,2,1,55,1,0
277327,-153.846153846154,6,2,1,55,0,0
277642,363.636363636358,6,2,1,55,1,0
277642,-153.846153846154,6,2,1,55,0,0
278369,314.136125654446,6,2,1,55,1,0
278369,-153.846153846154,6,2,1,55,0,0
278683,337.078651685389,6,2,1,55,1,0
278683,-153.846153846154,6,2,1,55,0,0
279020,346.82080924855,6,2,1,55,1,0
279020,-153.846153846154,6,2,1,55,0,0
279366,342.857142857138,6,2,1,55,1,0
279366,-153.846153846154,6,2,1,55,0,0
279708,327.868852459012,6,2,1,55,1,0
279708,-153.846153846154,6,2,1,55,0,0
280035,346.82080924855,6,2,1,55,1,0
280035,-153.846153846154,6,2,1,55,0,0
280381,331.491712707178,6,2,1,55,1,0
280381,-153.846153846154,6,2,1,55,0,0
280712,348.837209302321,6,2,1,55,1,0
280712,-153.846153846154,6,2,1,55,0,0
281758,342.857142857138,6,2,1,55,1,0
281758,-153.846153846154,6,2,1,55,0,0
282358,-153.846153846154,6,2,1,5,0,0
282443,-153.846153846154,6,2,1,55,0,0
283129,322.580645161286,6,2,1,55,1,0
283129,-153.846153846154,6,2,1,55,0,0
283451,342.857142857138,6,2,1,55,1,0
283451,-153.846153846154,6,2,1,55,0,0
284136,324.32432432432,6,2,1,55,1,0
284136,-153.846153846154,6,2,1,55,0,0
284784,335.195530726252,6,2,1,55,1,0
284784,-153.846153846154,6,2,1,55,0,0
285119,361.445783132525,6,2,1,55,1,0
285119,-153.846153846154,6,2,1,55,0,0
285480,344.827586206892,6,2,1,55,1,0
285480,-153.846153846154,6,2,1,55,0,0
286773,-153.846153846154,6,2,1,5,0,0
286859,322.580645161286,6,2,1,55,1,0
286859,-153.846153846154,6,2,1,55,0,0
287100,-153.846153846154,6,2,1,5,0,0
287181,335.195530726252,6,2,1,55,1,0
287181,-153.846153846154,6,2,1,55,0,0
287432,-153.846153846154,6,2,1,5,0,0
287516,-153.846153846154,6,2,1,55,0,0
288186,340.909090909086,6,2,1,55,1,0
288186,-153.846153846154,6,2,1,55,0,0
289549,329.670329670325,6,2,1,55,1,0
289549,-153.846153846154,6,2,1,55,0,0
289878,346.82080924855,6,2,1,55,1,0
289878,-153.846153846154,6,2,1,55,0,0
290224,338.983050847453,6,2,1,55,1,0
290224,-153.846153846154,6,2,1,55,0,0
291240,340.909090909086,6,2,1,55,1,0
291240,-153.846153846154,6,2,1,55,0,0
291921,326.086956521735,6,2,1,55,1,0
291921,-153.846153846154,6,2,1,55,0,0
292165,-153.846153846154,6,2,1,5,0,0
292247,-153.846153846154,6,2,1,55,0,0
292491,-153.846153846154,6,2,1,5,0,0
292573,-153.846153846154,6,2,1,55,0,0
292899,346.82080924855,6,2,1,55,1,0
292899,-153.846153846154,6,2,1,55,0,0
293592,317.460317460313,6,2,1,55,1,0
293592,-153.846153846154,6,2,1,55,0,0
293909,368.098159509197,6,2,1,55,1,0
293909,-153.846153846154,6,2,1,55,0,0
294277,329.670329670326,6,2,1,55,1,0
294277,-153.846153846154,6,2,1,55,0,0
294853,-153.846153846154,6,2,1,5,0,0
294936,348.837209302321,6,2,1,55,1,0
294936,-153.846153846154,6,2,1,55,0,0
295197,-153.846153846154,6,2,1,5,0,0
295284,306.122448979588,6,2,1,55,1,0
295284,-153.846153846154,6,2,1,55,0,0
295513,-153.846153846154,6,2,1,5,0,0
295590,320.855614973258,6,2,1,55,1,0
295590,-153.846153846154,6,2,1,55,0,0
295830,-153.846153846154,6,2,1,5,0,0
295910,350.877192982451,6,2,1,65,1,0
295910,-133.333333333333,6,2,1,65,0,0
296173,-133.333333333333,6,2,1,5,0,0
296260,338.983050847453,6,2,1,65,1,0
296260,-133.333333333333,6,2,1,65,0,0
296514,-133.333333333333,6,2,1,5,0,0
296598,324.32432432432,6,2,1,65,1,0
296598,-133.333333333333,6,2,1,65,0,0
296922,333.333333333329,6,2,1,65,1,0
296922,-133.333333333333,6,2,1,65,0,0
297172,-133.333333333333,6,2,1,5,0,0
297255,-133.333333333333,6,2,1,65,0,0
297505,-133.333333333333,6,2,1,5,0,0
297588,-133.333333333333,6,2,1,65,0,0
298255,324.32432432432,6,2,1,65,1,0
298255,-133.333333333333,6,2,1,65,0,0
298498,-133.333333333333,6,2,1,5,0,0
298579,306.122448979588,6,2,1,65,1,0
298579,-133.333333333333,6,2,1,65,0,0
298808,-133.333333333333,6,2,1,5,0,0
298885,333.333333333329,6,2,1,65,1,0
298885,-133.333333333333,6,2,1,65,0,0
299135,-133.333333333333,6,2,1,5,0,0
299218,-133.333333333333,6,2,1,65,0,0
299468,-133.333333333333,6,2,1,5,0,0
299551,316.622691292876,6,2,1,65,1,0
299551,-133.333333333333,6,2,1,65,0,0
299788,-133.333333333333,6,2,1,5,0,0
299867,677.966101694915,7,2,1,35,1,0
299867,-333.333333333333,7,2,1,35,0,0
300544,616.966580976864,7,2,1,35,1,0
300544,-333.333333333333,7,2,1,35,0,0
301160,633.245382585752,7,2,1,35,1,0
301160,-333.333333333333,7,2,1,35,0,0
302426,705.882352941176,7,2,1,35,1,0
302426,-333.333333333333,7,2,1,35,0,0
303131,648.648648648648,7,2,1,35,1,0
303131,-333.333333333333,7,2,1,35,0,0
303779,657.534246575342,7,2,1,35,1,0
303779,-333.333333333333,7,2,1,35,0,0
304436,638.297872340426,7,2,1,55,1,0
304436,-166.666666666667,7,2,1,55,0,0
304914,-166.666666666667,7,2,1,5,0,0
305074,606.060606060606,7,2,1,55,1,0
305074,-166.666666666667,7,2,1,55,0,0
306286,576.923076923077,7,2,1,55,1,0
306286,-166.666666666667,7,2,1,55,0,0
306862,618.556701030928,7,2,1,55,1,0
306862,-166.666666666667,7,2,1,55,0,0
308099,588.235294117647,7,2,1,55,1,0
308099,-166.666666666667,7,2,1,55,0,0
308687,606.060606060606,7,2,1,55,1,0
308687,-166.666666666667,7,2,1,55,0,0
309141,-166.666666666667,7,2,1,5,0,0
309293,631.578947368421,7,2,1,55,1,0
309293,-166.666666666667,7,2,1,55,0,0
309924,576.923076923077,7,2,1,55,1,0
309924,-166.666666666667,7,2,1,55,0,0
310500,588.235294117647,7,2,1,55,1,0
310500,-166.666666666667,7,2,1,55,0,0
312264,612.244897959184,7,2,1,55,1,0
312264,-166.666666666667,7,2,1,55,0,0
312876,609.137055837563,7,2,1,55,1,0
312876,-166.666666666667,7,2,1,55,0,0
313332,-166.666666666667,7,2,1,5,0,0
313485,-166.666666666667,7,2,1,55,0,0
314703,594.059405940594,7,2,1,55,1,0
314703,-166.666666666667,7,2,1,55,0,0
316485,609.137055837563,7,2,1,55,1,0
316485,-166.666666666667,7,2,1,55,0,0
317550,-166.666666666667,7,2,1,5,0,0
317703,625,7,2,1,55,1,0
317703,-166.666666666667,7,2,1,55,0,0
318328,606.060606060606,7,2,1,55,1,0
318328,-166.666666666667,7,2,1,55,0,0
318934,583.941605839416,7,2,1,55,1,0
318934,-166.666666666667,7,2,1,55,0,0
319517,616.966580976864,7,2,1,55,1,0
319517,-166.666666666667,7,2,1,55,0,0
320750,591.133004926108,7,2,1,55,1,0
320750,-166.666666666667,7,2,1,55,0,0
321341,606.060606060606,7,2,1,55,1,0
321341,-166.666666666667,7,2,1,55,0,0
321795,-166.666666666667,7,2,1,5,0,0
321947,621.761658031088,7,2,1,55,1,0
321947,-166.666666666667,7,2,1,55,0,0
322568,600,7,2,1,55,1,0
322568,-166.666666666667,7,2,1,55,0,0
323168,588.235294117647,7,2,1,55,1,0
323168,-166.666666666667,7,2,1,55,0,0
323756,631.578947368421,7,2,1,55,1,0
323756,-166.666666666667,7,2,1,55,0,0
324387,606.060606060606,7,2,1,55,1,0
324387,-166.666666666667,7,2,1,55,0,0
324993,620.15503875969,7,2,1,55,1,0
324993,-166.666666666667,7,2,1,55,0,0
325613,589.680589680589,7,2,1,55,1,0
325613,-166.666666666667,7,2,1,55,0,0
326202,606.060606060606,7,2,1,55,1,0
326202,-166.666666666667,7,2,1,55,0,0
327414,598.503740648379,7,2,1,55,1,0
327414,-166.666666666667,7,2,1,55,0,0
329209,621.761658031088,7,2,1,55,1,0
329209,-166.666666666667,7,2,1,55,0,0
329830,595.533498759305,7,2,1,55,1,0
329830,-166.666666666667,7,2,1,55,0,0
330276,-166.666666666667,7,2,1,5,0,0
330425,631.578947368421,7,2,1,55,1,0
330425,-166.666666666667,7,2,1,55,0,0
331056,582.52427184466,7,2,1,55,1,0
331056,-166.666666666667,7,2,1,55,0,0
331638,576.923076923077,7,2,1,55,1,0
331638,-166.666666666667,7,2,1,55,0,0
332214,623.376623376623,7,2,1,55,1,0
332214,-166.666666666667,7,2,1,55,0,0
332837,600,7,2,1,55,1,0
332837,-166.666666666667,7,2,1,55,0,0
333437,606.060606060606,7,2,1,55,1,0
333437,-166.666666666667,7,2,1,55,0,0
334043,618.556701030928,7,2,1,55,1,0
334043,-166.666666666667,7,2,1,55,0,0
334506,-166.666666666667,7,2,1,5,0,0
334661,-166.666666666667,7,2,1,55,0,0
335898,576.923076923077,7,2,1,55,1,0
335898,-166.666666666667,7,2,1,55,0,0
336474,600,7,2,1,55,1,0
336474,-166.666666666667,7,2,1,55,0,0
337074,612.244897959184,7,2,1,55,1,0
337074,-166.666666666667,7,2,1,55,0,0
337686,629.92125984252,7,2,1,55,1,0
337686,-166.666666666667,7,2,1,55,0,0
338315,629.92125984252,4,2,1,55,1,0
338315,-166.666666666667,7,2,1,55,0,0
338945,645.161290322581,4,2,1,55,1,0
338945,-166.666666666667,7,2,1,55,0,0
339590,607.594936708861,4,2,1,55,1,0
339590,-166.666666666667,7,2,1,55,0,0
340197,625,4,2,1,55,1,0
340197,-166.666666666667,7,2,1,55,0,0
340405,-166.666666666667,7,2,1,5,0,0
340509,-166.666666666667,7,2,1,55,0,0
340717,-166.666666666667,7,2,1,5,0,0
340822,625,7,2,1,55,1,0
340822,-166.666666666667,7,2,1,55,0,0
342072,645.161290322581,7,2,1,55,1,0
342072,-166.666666666667,7,2,1,55,0,0
342717,625,7,2,1,55,1,0
342717,-166.666666666667,7,2,1,55,0,0
343967,659.340659340659,7,2,1,55,1,0
343967,-166.666666666667,7,2,1,55,0,0
344956,638.297872340426,7,2,1,55,1,0
344956,-166.666666666667,7,2,1,40,0,0
345594,-166.666666666667,7,2,1,30,0,0
348147,-166.666666666667,7,2,1,15,0,0
350062,-166.666666666667,7,2,1,5,0,0

[Colours]
Combo1 : 172,43,46
Combo2 : 177,177,177
Combo3 : 133,133,133
Combo4 : 228,228,228
SliderBorder : 219,219,219
SliderTrackOverride : 30,30,30

[HitObjects]
185,356,644,21,0,0:0:0:0:
153,256,1220,2,0,L|145:313,1,41.0999987457276
190,196,1797,2,0,L|177:105,1,82.1999974914552
169,102,2956,2,0,P|147:94|123:92,2,41.0999987457276
224,57,3824,1,0,0:0:0:0:
224,57,4157,2,0,P|219:33|209:12,1,41.0999987457276
290,82,4610,1,2,0:0:0:0:
300,80,4689,1,2,0:0:0:0:
310,77,4767,38,0,L|432:94,1,123.299996237183,2|0,1:2|0:0,0:0:0:0:
449,104,5388,2,0,P|391:120|371:150,1,82.1999974914552,2|0,1:2|0:0,0:0:0:0:
226,163,6009,2,0,B|323:162|297:224|390:224,1,164.39999498291,8|2,0:0|0:0,0:0:0:0:
374,223,7188,6,0,P|396:262|392:311,2,82.1999974914552,0|0|0,1:0|0:0|0:0,0:0:0:0:
340,352,8076,1,8,0:0:0:0:
265,330,8373,2,0,L|182:324,1,82.1999974914552,2|0,0:0|1:0,0:0:0:0:
130,360,8765,1,0,1:0:0:0:
108,302,8863,1,0,1:0:0:0:
108,302,8961,38,0,P|91:241|115:177,1,123.299996237183,0|0,1:0|0:0,0:0:0:0:
123,171,9549,2,0,P|75:183|49:207,1,82.1999974914552,2|0,1:2|0:0,0:0:0:0:
102,70,10140,2,0,B|193:69|178:117|260:118,1,164.39999498291,8|2,0:0|0:0,0:0:0:0:
256,117,11299,6,0,L|267:20,1,82.1999974914552,0|0,1:0|0:0,0:0:0:0:
201,0,11887,1,2,0:0:0:0:
184,138,12181,2,0,L|195:235,1,82.1999974914552,8|2,0:0|0:0,0:0:0:0:
202,281,12773,1,0,1:0:0:0:
142,258,12873,1,0,1:0:0:0:
125,195,12972,1,0,1:0:0:0:
125,195,13072,38,0,P|82:184|5:219,1,123.299996237183,0|0,1:0|0:0,0:0:0:0:
0,230,13669,2,0,L|6:311,1,82.1999974914552,2|0,1:2|0:0,0:0:0:0:
144,319,14243,2,0,B|53:320|85:383|-9:385,1,164.39999498291,8|2,0:0|0:0,0:0:0:0:
230,359,15121,1,0,0:0:0:0:
263,268,15413,6,0,P|300:249|356:259,2,82.1999974914552,0|0|2,1:0|0:0|0:0,0:0:0:0:
317,330,16291,1,8,0:0:0:0:
417,232,16584,2,0,P|399:195|365:174,1,82.1999974914552,2|0,0:0|1:0,0:0:0:0:
300,177,16982,1,0,1:0:0:0:
331,119,17081,1,0,1:0:0:0:
331,119,17181,38,0,L|347:-19,1,123.299996237183,0|0,1:0|0:0,0:0:0:0:
362,9,17778,2,0,P|401:38|461:44,1,82.1999974914552,2|0,1:2|0:0,0:0:0:0:
258,39,18349,2,0,P|205:36|113:104,1,164.39999498291,8|2,0:0|0:0,0:0:0:0:
116,96,19513,6,0,L|24:85,1,82.1999974914552,0|0,1:0|0:0,0:0:0:0:
166,146,20089,1,2,0:0:0:0:
16,155,20378,2,0,L|98:165,1,82.1999974914552,8|2,0:0|0:0,0:0:0:0:
234,127,20967,1,0,0:0:0:0:
149,215,21268,38,0,P|128:254|136:314,1,82.1999974914552,0|0,1:2|0:0,0:0:0:0:
280,252,21870,2,0,P|239:252|204:272,1,82.1999974914552,2|0,1:2|0:0,0:0:0:0:
313,384,22458,2,0,P|292:348|257:327,2,82.1999974914552,8|0|2,0:0|0:0|0:0,0:0:0:0:
313,384,23612,6,0,L|399:370,1,82.1999974914552,0|0,1:0|0:0,0:0:0:0:
467,347,24194,1,2,0:0:0:0:
361,265,24498,2,0,L|275:251,1,82.1999974914552,8|2,0:0|0:0,0:0:0:0:
206,234,25094,1,0,0:0:0:0:
331,196,25385,38,0,P|364:149|357:61,1,123.299996237183,0|0,1:0|0:0,0:0:0:0:
356,67,25968,2,0,P|395:41|434:41,1,82.1999974914552,2|0,1:2|0:0,0:0:0:0:
251,111,26565,2,0,P|193:90|90:131,1,164.39999498291,8|2,0:0|0:0,0:0:0:0:
63,182,27434,1,0,0:0:0:0:
64,59,27707,6,0,L|-20:46,2,82.1999974914552,0|0|2,1:0|0:0|0:0,0:0:0:0:
103,1,28585,1,8,0:0:0:0:
25,117,28877,1,2,0:0:0:0:
86,242,29170,1,0,1:0:0:0:
130,286,29267,1,0,1:0:0:0:
192,276,29365,1,0,1:0:0:0:
192,276,29463,38,0,P|201:313|199:364,1,82.1999974914552,0|0,1:0|0:0,0:0:0:0:
158,136,30072,2,0,P|149:173|151:224,1,82.1999974914552,2|0,1:2|0:0,0:0:0:0:
206,10,30627,2,0,P|215:47|213:98,2,82.1999974914552,8|0|2,0:0|0:0|0:0,0:0:0:0:
227,197,31518,1,0,0:0:0:0:
229,185,31610,1,0,0:0:0:0:
231,172,31702,1,0,0:0:0:0:
234,159,31794,6,0,L|331:140,2,82.1999974914552,0|0|2,1:0|0:0|0:0,0:0:0:0:
356,88,32685,1,8,0:0:0:0:
422,223,32982,2,0,L|341:206,1,82.1999974914552,2|0,0:0|0:0,0:0:0:0:
496,289,33558,38,0,P|521:233|499:161,1,123.299996237183,0|0,1:0|0:0,0:0:0:0:
492,159,34164,2,0,P|467:108|469:69,1,82.1999974914552,2|0,1:2|0:0,0:0:0:0:
422,223,34738,2,0,L|431:321,1,82.1999974914552,8|0,0:0|0:0,0:0:0:0:
347,357,35312,1,2,0:0:0:0:
361,289,35599,1,0,0:0:0:0:
261,312,35886,5,0,1:0:0:0:
238,212,36191,2,0,L|146:200,1,82.1999974914552,0|2,0:0|0:0,0:0:0:0:
299,250,36779,1,8,0:0:0:0:
276,150,37062,2,0,L|357:139,1,82.1999974914552,2|0,0:0|0:0,0:0:0:0:
215,112,37503,1,0,1:0:0:0:
215,112,37576,1,0,1:0:0:0:
215,112,37650,38,0,P|198:63|205:14,1,82.1999974914552,0|0,1:0|0:0,0:0:0:0:
79,52,38238,2,0,P|112:12|158:-5,1,82.1999974914552,2|0,1:2|0:0,0:0:0:0:
129,121,38826,1,8,0:0:0:0:
8,207,39120,2,0,L|-1:116,1,82.1999974914552,2|2,0:0|0:0,0:0:0:0:
94,199,39694,1,0,0:0:0:0:
91,219,39787,1,0,0:0:0:0:
88,238,39881,1,0,0:0:0:0:
85,257,39974,6,0,P|123:235|185:240,2,82.1999974914552,0|0|2,1:0|0:0|0:0,0:0:0:0:
39,365,40860,1,8,0:0:0:0:
146,315,41156,1,2,0:0:0:0:
8,207,41460,1,2,1:2:0:0:
69,111,41765,5,0,0:0:0:0:
69,111,42365,1,0,0:0:0:0:
69,111,42980,1,0,0:0:0:0:
16,10,43515,1,8,0:0:0:0:
16,10,43566,2,0,L|8:57,1,41.0999987457276,8|0,0:0|0:0,0:0:0:0:
8,64,43824,2,0,P|40:39|75:33,1,54.7999983276368,8|0,0:0|0:0,0:0:0:0:
124,26,44133,22,0,L|208:40,1,82.1999974914552,2|0,1:2|0:0,0:0:0:0:
342,49,44752,2,0,B|289:49|308:79|259:79,2,82.1999974914552,0|2|2,0:0|0:0|0:0,0:0:0:0:
342,49,45952,1,8,0:0:0:0:
280,152,46243,1,0,0:0:0:0:
329,220,46388,1,8,0:0:0:0:
329,220,46461,1,0,1:0:0:0:
329,220,46534,6,0,L|337:309,1,82.1999974914552,0|0,1:0|1:0,0:0:0:0:
397,171,47122,1,2,0:0:0:0:
397,171,47686,1,0,1:0:0:0:
397,171,47738,1,0,1:0:0:0:
267,78,48000,1,2,1:2:0:0:
210,127,48315,38,0,P|167:137|95:97,1,123.299996237183
86,86,48878,2,0,P|99:127|105:192,1,82.1999974914552,2|0,1:2|0:0,0:0:0:0:
67,238,49454,1,8,0:0:0:0:
133,305,49754,1,0,0:0:0:0:
151,300,50054,1,2,0:0:0:0:
217,367,50342,1,0,0:0:0:0:
230,370,50438,1,0,0:0:0:0:
242,374,50534,1,0,0:0:0:0:
256,378,50630,5,0,1:0:0:0:
246,300,50919,1,0,0:0:0:0:
239,223,51207,1,2,0:0:0:0:
230,306,51496,1,8,0:0:0:0:
343,191,51784,1,2,0:0:0:0:
254,216,52081,1,0,1:0:0:0:
247,152,52180,1,0,1:0:0:0:
239,90,52279,1,0,1:0:0:0:
239,90,52378,38,0,B|313:87|294:131|368:122,1,123.299996237183,0|0,1:0|0:0,0:0:0:0:
373,115,52957,2,0,L|463:93,1,82.1999974914552,2|0,1:2|0:0,0:0:0:0:
469,257,53537,2,0,P|445:210|329:198,1,164.39999498291,8|2,0:0|0:0,0:0:0:0:
379,275,54402,1,0,0:0:0:0:
251,181,54688,5,0,1:0:0:0:
288,265,54974,1,0,0:0:0:0:
143,327,55259,1,2,0:0:0:0:
161,171,55553,1,8,0:0:0:0:
197,254,55847,1,2,0:0:0:0:
52,316,56141,1,0,1:0:0:0:
116,306,56239,1,0,1:0:0:0:
107,242,56337,1,0,1:0:0:0:
107,242,56435,38,0,P|73:194|101:107,1,123.299996237183,0|0,1:0|0:0,0:0:0:0:
91,114,57023,2,0,L|79:15,1,82.1999974914552,2|0,1:2|0:0,0:0:0:0:
253,55,57578,2,0,P|191:85|163:185,1,164.39999498291,8|2,0:0|0:0,0:0:0:0:
276,167,58463,1,0,0:0:0:0:
280,179,58558,1,0,0:0:0:0:
285,192,58653,1,0,0:0:0:0:
290,205,58748,5,0,1:0:0:0:
403,148,59035,1,0,0:0:0:0:
375,233,59320,1,2,0:0:0:0:
262,290,59606,1,8,0:0:0:0:
177,262,59892,1,2,0:0:0:0:
290,205,60191,1,0,0:0:0:0:
312,363,60490,38,0,P|274:379|234:375,1,82.1999974914552,0|0,1:0|0:0,0:0:0:0:
386,366,61089,2,0,P|415:315|412:278,1,82.1999974914552,2|0,1:2|0:0,0:0:0:0:
405,166,61652,2,0,P|437:191|454:229,1,82.1999974914552,8|0,0:0|0:0,0:0:0:0:
336,302,62215,1,2,0:0:0:0:
264,229,62503,1,0,0:0:0:0:
250,227,62599,1,0,0:0:0:0:
236,225,62695,1,0,0:0:0:0:
222,224,62791,5,0,1:0:0:0:
91,241,63089,1,0,0:0:0:0:
152,195,63388,1,2,0:0:0:0:
233,300,63673,1,8,0:0:0:0:
101,317,63959,1,2,0:0:0:0:
162,271,64252,1,2,0:0:0:0:
22,212,64545,38,0,L|12:89,1,123.299996237183,0|0,1:0|0:0,0:0:0:0:
33,81,65168,2,0,L|40:-12,1,82.1999974914552,2|0,1:2|0:0,0:0:0:0:
111,179,65736,2,0,L|121:56,1,123.299996237183,8|0,0:0|0:0,0:0:0:0:
115,35,66305,1,2,0:0:0:0:
175,169,66588,1,0,0:0:0:0:
262,51,66871,5,0,1:0:0:0:
252,134,67160,1,0,0:0:0:0:
318,184,67450,1,2,0:0:0:0:
248,48,67740,1,8,0:0:0:0:
304,181,68029,1,2,0:0:0:0:
238,131,68319,1,2,1:2:0:0:
324,15,68610,5,0,0:0:0:0:
324,15,69207,1,0,0:0:0:0:
324,15,69804,1,0,0:0:0:0:
390,65,70407,1,8,0:0:0:0:
390,65,70458,2,0,P|415:75|430:76,1,41.0999987457276,8|0,0:0|0:0,0:0:0:0:
442,76,70713,2,0,L|428:145,1,54.7999983276368,8|0,0:0|0:0,0:0:0:0:
478,175,71020,22,0,L|495:267,1,82.1999974914552,2|0,1:2|0:0,0:0:0:0:
469,321,71626,1,0,0:0:0:0:
390,307,71929,1,2,0:0:0:0:
311,293,72232,1,2,0:0:0:0:
311,293,72800,1,8,0:0:0:0:
259,354,73094,1,0,0:0:0:0:
232,278,73241,1,8,0:0:0:0:
232,278,73314,1,0,1:0:0:0:
232,278,73388,6,0,L|223:188,1,82.1999974914552,0|0,1:0|1:0,0:0:0:0:
275,135,73976,1,2,0:0:0:0:
275,135,74550,1,0,1:0:0:0:
275,135,74603,1,0,1:0:0:0:
144,181,74870,1,2,1:2:0:0:
64,165,75191,6,0,L|60:147,1,13.7
64,165,75785,2,0,L|60:147,1,13.7
64,165,76410,2,0,L|60:147,1,13.7
64,165,76992,2,0,L|60:147,1,13.7
64,165,77580,2,0,L|60:147,1,13.7
64,165,78174,2,0,L|60:147,1,13.7
64,165,78769,2,0,L|60:147,1,13.7
64,165,79368,2,0,L|60:147,1,13.7
147,191,79939,21,0,0:0:0:0:
83,249,80261,1,0,0:0:0:0:
101,333,80584,1,0,0:0:0:0:
101,333,80735,6,0,L|99:386,1,51.375
165,275,81493,1,0,0:0:0:0:
311,244,81796,1,0,0:0:0:0:
229,216,82099,1,0,0:0:0:0:
246,301,82402,1,0,0:0:0:0:
294,159,82728,1,0,0:0:0:0:
165,275,83054,1,0,0:0:0:0:
83,249,83366,1,0,0:0:0:0:
48,80,83679,6,0,B|70:49|126:71|152:144,1,137,4|0,1:2|0:0,0:0:0:0:
213,0,84005,2,0,B|250:-6|274:48|241:118,1,137,2|0,0:0|0:0,0:0:0:0:
386,60,84331,2,0,B|417:81|394:138|322:164,1,137,2|0,1:2|0:0,0:0:0:0:
489,340,84657,6,0,B|449:348|413:318|413:318|403:334|403:334|361:358|361:358|333:341|333:341|296:359|262:334|262:334|253:343|253:343|201:315|153:349|153:349|134:328|134:328|106:367|38:351,1,479.5,10|0,0:0|0:0,0:0:0:0:
79,286,85309,2,0,L|87:207,1,68.5,2|0,1:2|0:0,0:0:0:0:
302,265,85666,6,0,B|221:276|254:219|161:234,1,137,0|0,1:2|0:0,0:0:0:0:
0,159,85995,2,0,B|81:170|48:113|141:128,1,137,2|0,0:0|0:0,0:0:0:0:
267,68,86325,2,0,B|346:54|313:111|394:100,1,137,2|0,1:2|0:0,0:0:0:0:
27,30,86655,38,0,B|45:35|45:35|73:25|73:25|148:67|212:24|212:24|265:-12|341:-4|376:37,1,365.333333333333,10|0,0:0|0:0,0:0:0:0:
393,100,87177,1,8,0:0:0:0:
485,54,87273,2,0,P|508:64|475:61,1,102.75
512,160,87616,38,0,B|476:174|440:150|440:150|403:171|403:171|339:152|295:214,1,219.2,6|0,1:2|0:0,0:0:0:0:
396,264,88278,2,0,P|365:240|386:273,1,109.6,0|0,1:0|0:0,0:0:0:0:
199,285,88626,2,0,B|325:278|289:356|418:347,2,219.2,8|0|2,0:0|0:0|1:2,0:0:0:0:
30,315,89626,2,0,P|99:282|101:173,1,164.4,0|0,1:0|0:0,0:0:0:0:
100,178,89966,1,2,0:0:0:0:
265,131,90307,1,0,1:0:0:0:
5,38,90648,2,0,B|48:58|48:58|144:42|144:42|203:57,1,164.4,10|0,0:0|0:0,0:0:0:0:
224,23,90989,2,0,L|312:14,1,73.0666666666667,2|0,0:0|0:0,0:0:0:0:
265,131,91191,1,0,1:0:0:0:
214,86,91292,2,0,B|188:106|183:131|183:131|234:179|201:268,1,164.4,0|0,1:0|0:0,0:0:0:0:
153,269,91649,22,0,B|170:311|238:318|288:265,1,137,4|0,1:2|0:0,0:0:0:0:
341,354,91991,2,0,B|385:360|425:304|405:235,1,137,2|0,0:0|0:0,0:0:0:0:
508,232,92334,2,0,B|535:196|506:134|436:117,1,137,2|0,1:2|0:0,0:0:0:0:
175,5,92677,38,0,B|177:62|233:86|233:86|228:112|228:112|297:151|358:128|389:80|389:80|393:95|393:95|413:59|450:54|450:54|448:41|448:41|452:8|452:8|433:30,1,479.5,10|0,0:0|0:0,0:0:0:0:
368,16,93363,2,0,L|300:7,1,68.5,2|0,1:2|0:0,0:0:0:0:
102,91,93706,22,0,B|67:130|50:67|115:-2,1,137,0|0,1:2|0:0,0:0:0:0:
71,203,94049,2,0,B|87:252|24:236|-3:145,1,137,2|0,0:0|0:0,0:0:0:0:
152,285,94391,2,0,B|203:295|157:342|64:320,1,137,2|0,1:2|0:0,0:0:0:0:
377,240,94734,22,0,B|408:227|408:227|421:218|421:218|395:250|399:289|399:289|388:279|388:279|374:317|326:333|326:333|264:256|304:155|380:134,1,455.439376042418,10|0,0:0|0:0,0:0:0:0:
478,171,95401,2,0,B|508:167|508:167|413:139,1,102.75,10|0,0:0|0:0,0:0:0:0:
336,71,95743,37,0,1:0:0:0:
203,200,96086,2,0,B|178:168|205:140|258:242,1,123.299996237183,2|0,0:0|0:0,0:0:0:0:
139,315,96429,2,0,B|114:347|141:375|194:273,1,123.299996237183,2|0,1:2|0:0,0:0:0:0:
199,100,96772,2,0,B|159:95|159:95|148:84|148:84|111:104|70:81|70:81|50:87|50:87|5:69|-50:97|-23:174|15:161|15:161|80:139|136:180,1,431.54998683014,10|0,0:0|0:0,0:0:0:0:
64,277,97458,2,0,P|48:243|83:253,1,92.474997177887,2|0,1:2|0:0,0:0:0:0:
252,284,97787,2,0,B|118:272|182:378|20:363,2,246.599992474365,0|2|2,1:0|0:0|1:2,0:0:0:0:
465,285,98797,2,0,B|427:271|390:287|390:287|309:204|309:204|371:227,1,246.599992474365,12|0,0:0|0:0,0:0:0:0:
432,383,99456,1,0,1:0:0:0:
443,195,99794,2,0,B|446:178|463:164|463:164|485:122|459:62,1,123.299996237183,10|0,0:0|0:0,0:0:0:0:
346,86,100132,2,0,B|332:74|329:53|329:53|278:-7|176:0,1,184.949994355774,2|0,0:0|0:0,0:0:0:0:
146,44,100472,2,0,L|338:20,1,184.949994355774,2|0,1:2|0:0,0:0:0:0:
274,98,100814,22,0,B|216:149|216:263|312:211,1,137,4|0,1:2|0:0,0:0:0:0:
364,384,101156,2,0,B|348:308|249:251|246:360,1,137,2|0,0:0|0:0,0:0:0:0:
71,318,101499,2,0,B|143:342|243:285|149:228,1,137,2|0,1:2|0:0,0:0:0:0:
94,87,101842,38,0,B|88:61|112:37|112:37|76:56|76:56|35:44|35:44|-8:125|52:193|52:193|62:186|62:186|91:289|0:338,1,479.5,10|0,0:0|0:0,0:0:0:0:
126,376,102528,2,0,P|75:370|45:393,1,68.5,2|0,1:2|0:0,0:0:0:0:
270,302,102885,21,0,1:0:0:0:
475,76,103137,2,0,B|482:53|482:53|444:83|444:83|427:79|427:79|386:142|417:216|417:216|441:160,1,274,2|0,0:1|0:0,0:0:0:0:
512,254,103559,2,0,B|450:253|476:288|408:286,1,102.75,2|0,1:2|0:0,0:0:0:0:
346,229,103909,22,0,B|274:178|211:226|211:226|195:215|195:215|143:282|46:241|46:241|73:249|94:239,1,365.333333333333,10|0,0:0|0:0,0:0:0:0:
125,185,104464,1,8,0:0:0:0:
32,128,104575,2,0,B|33:91|33:91|68:148,1,102.75,8|0,0:0|0:0,0:0:0:0:
110,72,104909,38,0,B|144:53|144:53|166:66|166:66|293:42|293:42|383:67,1,246.599992474365,2|0,1:2|0:0,0:0:0:0:
441,249,105598,1,2,1:2:0:0:
423,1,105968,2,0,P|369:57|358:254,2,246.599992474365,8|2|2,0:0|0:0|0:0,0:0:0:0:
503,264,106971,2,0,B|396:220|421:291|370:287,1,123.299996237183,0|0,1:0|0:0,0:0:0:0:
261,223,107291,2,0,B|154:267|179:196|128:200,1,123.299996237183,2|0,1:2|0:0,0:0:0:0:
301,299,107643,1,2,0:0:0:0:
70,295,107996,2,0,B|145:268|164:195|123:117|32:125|34:223,1,246.599992474365,12|2,0:0|0:0,0:0:0:0:
261,223,108661,1,0,1:0:0:0:
37,42,109003,2,0,B|71:57|71:57|106:28|176:38,1,123.299996237183,8|0,0:0|0:0,0:0:0:0:
334,92,109345,2,0,B|287:99|252:70|252:70|218:85,1,123.299996237183,2|0,0:0|0:0,0:0:0:0:
468,21,109670,2,0,B|466:65|423:83|423:83|434:90|434:90|392:125|412:185,1,184.949994355774,0|0,1:0|0:0,0:0:0:0:
482,149,110005,22,0,B|396:161|366:222|390:252,1,137,4|0,1:2|0:0,0:0:0:0:
290,127,110362,2,0,B|257:207|295:263|333:258,1,137,2|0,0:0|0:0,0:0:0:0:
174,282,110719,2,0,B|227:350|295:345|309:310,1,137,2|0,1:2|0:0,0:0:0:0:
157,143,111057,38,0,B|123:135|123:135|84:146|84:146|82:142|82:142|80:146|80:146|28:190|-39:156|-49:67|24:45|24:45|75:83|126:59|126:59|83:67|53:27,1,479.5,10|0,0:0|0:0,0:0:0:0:
176,11,111735,2,0,P|194:46|190:84,1,68.5,0|0,1:0|0:0,0:0:0:0:
403,87,112087,22,0,B|332:85|306:104|312:148|273:143,1,137,0|0,1:0|0:0,0:0:0:0:
379,312,112440,2,0,B|415:251|412:219|370:203|395:171,1,137,2|0,0:0|0:0,0:0:0:0:
184,301,112780,2,0,B|254:302|280:283|274:239|313:244,1,137,2|0,1:2|0:0,0:0:0:0:
499,323,113137,22,0,B|477:348|482:391|482:391|444:322|444:322|494:239|494:239|455:152|513:69,1,411,10|8,0:0|0:0,0:0:0:0:
456,30,113775,1,8,0:0:0:0:
395,71,113880,1,8,0:0:0:0:
354,10,113985,1,8,0:0:0:0:
280,15,114101,37,2,1:2:0:0:
304,266,114460,1,0,0:0:0:0:
165,45,114819,2,0,B|215:111|190:134|185:177,1,123.299996237183,2|0,1:2|0:0,0:0:0:0:
114,362,115178,2,0,B|144:307|127:214|49:221,1,184.949994355774,10|0,0:0|0:0,0:0:0:0:
0,256,115538,2,0,B|58:231|46:91|46:91|40:135|11:154,1,246.599992474365,2|0,0:0|1:0,0:0:0:0:
215,292,116223,2,0,B|252:284|276:302|276:302|306:286|306:286|382:317|374:272|461:289,2,246.599992474365,4|2|2,1:2|0:0|1:2,0:0:0:0:
327,30,117275,2,0,P|413:108|277:114,1,328.799989965821,10|0,0:0|0:0,0:0:0:0:
262,50,117846,1,0,1:0:0:0:
344,97,117957,1,0,1:0:0:0:
140,225,118288,22,0,B|58:215|18:251|50:285|70:321,1,137,4|0,1:2|0:0,0:0:0:0:
247,373,118653,2,0,B|329:383|369:347|337:313|317:277,1,137,2|0,0:0|0:0,0:0:0:0:
132,116,119019,2,0,B|82:182|93:234|138:223|180:224,1,137,2|0,1:2|0:0,0:0:0:0:
406,179,119361,38,0,B|478:147|478:147|432:143|432:143|394:59|301:52|301:52|294:76|294:76|235:84|221:154|221:154|232:120|268:118,1,479.5,10|0,0:0|0:0,0:0:0:0:
325,148,120047,2,0,L|330:231,1,68.5,2|0,1:2|0:0,0:0:0:0:
136,343,120412,22,0,B|99:290|172:370|250:340,1,137,0|0,1:0|0:0,0:0:0:0:
453,299,120762,2,0,B|490:246|417:326|339:296,1,137,2|0,0:0|0:0,0:0:0:0:
151,162,121113,2,0,B|86:156|192:179|205:262,1,137,2|0,0:2|0:0,0:0:0:0:
425,20,121464,22,0,B|391:23|375:47|375:47|345:35|345:35|279:12|218:55|218:55|173:40|173:40|133:115|46:100|46:100|74:99|94:79,1,462.375,10|0,0:0|0:0,0:0:0:0:
105,4,122142,2,0,P|62:-11|44:30,1,102.75,10|0,0:0|0:0,0:0:0:0:
201,126,122470,38,0,B|257:169|251:259|114:294|221:372,1,246.599992474365,2|0,1:2|0:0,0:0:0:0:
320,99,123201,1,2,1:2:0:0:
493,332,123556,2,0,B|382:267|267:299|326:428|397:372,2,246.599992474365,12|0|2,0:0|0:0|1:2,0:0:0:0:
485,74,124608,2,0,B|448:136|343:126|341:25,1,184.949994355774,0|0,1:0|0:0,0:0:0:0:
339,18,124963,1,0,0:0:0:0:
418,207,125318,1,2,1:2:0:0:
245,30,125673,2,0,B|211:30|172:17|172:17|131:36|131:36|93:20|42:45,1,184.949994355774,10|0,0:0|0:0,0:0:0:0:
30,91,126028,2,0,L|14:175,1,82.1999974914552,2|0,0:0|0:0,0:0:0:0:
41,231,126246,1,0,1:0:0:0:
105,220,126355,1,0,1:0:0:0:
153,265,126465,1,0,1:0:0:0:
166,329,126574,1,0,1:0:0:0:
221,364,126683,22,0,B|263:361|220:327|234:265|262:223,1,137,4|0,1:2|0:0,0:0:0:0:
413,235,127042,2,0,B|431:197|380:217|333:174|311:128,1,137,2|0,0:0|0:0,0:0:0:0:
397,4,127401,2,0,B|373:-30|364:23|304:42|253:38,1,137,2|0,1:2|0:0,0:0:0:0:
64,166,127764,38,0,B|110:149|110:149|101:137|101:137|74:94|96:39|157:10|157:10|162:30|162:30|226:55|216:131|216:131|281:105|344:166,1,479.5,10|0,0:0|0:0,0:0:0:0:
292,219,128491,2,0,P|264:190|228:198,1,68.5,2|0,1:2|0:0,0:0:0:0:
454,336,128835,2,0,B|407:320|375:342|375:342|382:326|382:326|333:371|260:336|260:336|243:348|243:348|194:317|203:264|203:264|161:341|74:325,1,496.625,2|0,1:2|0:0,0:0:0:0:
84,253,129559,2,0,P|132:244|142:223,1,68.5,2|0,1:2|0:0,0:0:0:0:
39,0,129911,2,0,B|4:-2|-19:77|55:95|55:95|103:36|161:43|161:43|177:57|177:57|244:37|302:74|302:74|260:63|226:101,1,479.5,10|0,0:0|0:0,0:0:0:0:
266,203,130599,2,0,P|284:174|285:141,1,68.5,2|0,0:0|0:0,0:0:0:0:
507,76,130945,38,0,B|429:45|420:126|468:200,1,184.949994355774,4|0,1:2|0:0,0:0:0:0:
512,253,131292,2,0,B|478:175|415:226|396:313,1,184.949994355774,2|0,1:2|0:0,0:0:0:0:
390,381,131639,2,0,B|420:303|340:294|266:342,1,184.949994355774,2|0,1:2|0:0,0:0:0:0:
286,225,132007,2,0,B|226:300|89:256|110:131,2,246.599992474365,10|2|2,0:0|0:0|1:2,0:0:0:0:
358,24,133059,2,0,B|314:28|276:76|276:76|261:93|243:89,1,123.299996237183,2|0,1:2|0:0,0:0:0:0:
14,80,133392,2,0,B|162:93|117:-13|252:1,1,246.599992474365,2|0,1:2|0:0,0:0:0:0:
442,177,134114,2,0,B|463:250|442:300|403:316,1,123.299996237183,10|0,0:0|0:0,0:0:0:0:
294,250,134476,2,0,B|273:323|294:373|333:389,1,123.299996237183,2|0,0:0|0:0,0:0:0:0:
352,169,134796,2,0,P|326:154|258:159,1,82.1999974914552,2|0,0:0|0:0,0:0:0:0:
223,193,135010,1,0,1:0:0:0:
113,104,135117,6,0,B|78:267|78:267|108:337,1,226.050006898499,12|2,0:0|0:0,0:0:0:0:
115,337,135438,2,0,B|106:278|106:278|182:129,1,226.050006898499,10|0,0:0|0:0,0:0:0:0:
350,39,135778,2,0,B|317:46|303:75|303:75|277:64|277:64|254:92|254:92|239:62|207:40|147:50,1,226.050006898499,2|0,1:2|0:0,0:0:0:0:
373,114,136126,6,0,B|406:73|444:122|421:242,1,137,4|0,1:2|0:0,0:0:0:0:
339,278,136491,2,0,B|390:286|367:344|251:384,1,137,2|0,0:0|0:0,0:0:0:0:
179,330,136857,2,0,B|196:378|135:388|42:308,1,137,2|0,1:2|0:0,0:0:0:0:
28,100,137214,38,0,B|12:43|113:19|132:83|115:132|180:155|240:175|322:153|357:79|310:10|205:-26|187:84,1,483.335985249756,10|0,0:0|0:0,0:0:0:0:
342,8,137923,2,0,P|361:49|364:75,1,68.5,2|0,1:2|0:0,0:0:0:0:
485,300,138276,2,0,B|467:320|430:319|430:319|505:328|537:272|515:204|483:184|483:184|491:223|445:264|384:258|401:168|317:182,1,479.5,2|0,1:2|0:0,0:0:0:0:
273,307,138982,2,0,P|303:292|323:265,1,68.5,2|0,1:2|0:0,0:0:0:0:
75,272,139332,2,0,B|-25:218|-95:401|81:461|168:359|123:210|288:229,1,456.666666666667,10|0,0:0|1:0,0:0:0:0:
324,265,140013,1,0,1:0:0:0:
319,183,140127,1,0,1:0:0:0:
314,101,140241,1,0,1:0:0:0:
383,56,140354,38,0,P|319:84|215:10,1,184.949994355774,2|0,1:2|0:0,0:0:0:0:
214,5,140722,1,2,0:0:0:0:
429,133,141090,1,2,1:2:0:0:
166,150,141428,2,0,P|105:222|78:391,2,246.599992474365,12|2|8,0:0|0:0|0:0,0:0:0:0:
431,250,142445,2,0,B|283:249|359:353|155:337,1,246.599992474365,2|0,1:2|0:0,0:0:0:0:
64,151,143138,1,0,1:0:0:0:
262,31,143513,2,0,B|372:83|458:25|458:25|447:43|447:43|483:133|394:179,1,369.899988711548,10|0,0:0|0:0,0:0:0:0:
275,107,144206,2,0,B|190:106|158:137|159:181,1,123.299996237183,10|0,0:0|0:0,0:0:0:0:
0,28,144553,2,0,P|88:48|180:-3,1,184.949994355774,2|0,1:2|0:0,0:0:0:0:
202,12,144900,1,2,0:0:0:0:
210,239,145226,2,0,B|118:232|73:192|88:120,1,184.949994355774,0|0,1:2|0:0,0:0:0:0:
105,111,145574,22,0,B|143:161|107:236|75:245,1,137,4|0,1:2|0:0,0:0:0:0:
116,372,145934,2,0,B|53:379|6:311|18:279,1,137,2|0,0:0|0:0,0:0:0:0:
253,305,146294,2,0,B|240:303|287:235|365:245,1,137,2|0,1:2|0:0,0:0:0:0:
512,66,146655,38,0,B|472:58|462:14|462:14|402:108|449:220|508:195|524:315|445:382,1,462.375,10|0,0:0|0:0,0:0:0:0:
416,255,147346,2,0,P|421:288|407:319,1,68.5,2|0,1:2|0:0,0:0:0:0:
207,217,147705,22,0,B|141:179|87:182|99:237,1,137,2|0,1:2|0:0,0:0:0:0:
58,41,148064,2,0,B|-8:79|-33:127|21:144,1,137,2|0,0:0|0:0,0:0:0:0:
232,98,148404,2,0,B|231:21|202:-23|160:14,1,137,2|0,1:2|0:0,0:0:0:0:
113,336,148745,22,0,B|137:315|137:315|151:320|151:320|188:282|246:300|246:300|267:341|267:341|309:294|371:318|371:318|344:289|344:289|371:222|317:149,1,479.5,10|0,0:0|0:0,0:0:0:0:
318,85,149424,2,0,P|357:90|407:151,1,102.75,8|0,0:0|0:0,0:0:0:0:
319,7,149763,38,0,B|241:15|274:58|193:72,1,137,2|0,1:2|0:0,0:0:0:0:
168,132,150101,2,0,B|96:99|103:153|26:125,1,137,2|0,0:0|0:0,0:0:0:0:
394,267,150440,2,0,B|406:214|406:214|398:187|398:187|401:126,1,137,10|0,0:0|0:0,0:0:0:0:
268,281,150779,2,0,B|346:289|313:332|394:346,1,137,2|0,1:2|0:0,0:0:0:0:
134,342,151080,2,0,B|112:264|112:264|130:204,1,137,10|0,0:0|0:0,0:0:0:0:
201,69,151413,2,0,B|229:42|229:42|205:137,1,137,10|0,0:0|0:0,0:0:0:0:
49,285,151746,2,0,B|-17:267|-17:267|58:241,1,137,10|0,0:2|0:0,0:0:0:0:
312,278,152073,2,0,B|183:288|245:205|114:210,1,205.5,0|0,1:2|0:0,0:0:0:0:
32,136,152420,38,0,B|62:111|99:125|99:125|108:112|108:112|147:145|197:132|197:132|127:110|130:48|130:48|154:58|154:58|178:-5|250:-4|250:-4|270:88|364:92|364:92|353:110|353:110|388:173|341:224,1,753.5,4|0,1:2|0:0,0:0:0:0:
417,346,154580,1,8,0:0:0:0:
417,346,154621,1,8,0:0:0:0:
417,346,154909,6,0,P|462:283|450:223,1,137,2|0,1:2|0:0,0:0:0:0:
505,142,155238,2,0,P|472:71|414:51,1,137,0|0,1:2|0:0,0:0:0:0:
203,157,155569,2,0,B|121:176|121:176|99:169|99:169|66:170,1,137,10|0,0:0|0:0,0:0:0:0:
50,51,155888,2,0,P|122:55|119:115,1,137,2|0,1:2|0:0,0:0:0:0:
89,370,156207,2,0,B|68:290|68:290|94:229,1,137,10|0,0:0|0:0,0:0:0:0:
254,317,156526,2,0,B|206:316|227:356|152:372,1,91.3333333333333,2|0,1:2|0:0,0:0:0:0:
156,298,156726,1,8,0:0:0:0:
269,383,156826,2,0,L|418:374,1,137,10|0,0:0|0:0,0:0:0:0:
464,205,157150,2,0,P|425:277|511:249,1,205.5,0|0,1:2|0:0,0:0:0:0:
428,131,157502,38,0,B|462:119|500:125|523:150|523:150|495:94|407:99|407:99|366:129|366:129|278:149|278:149|265:139|265:139|218:156|227:203|227:203|235:248|217:281|217:281|187:225|127:239|127:239|141:256|141:256|124:286|138:325,1,753.5,4|0,1:2|0:0,0:0:0:0:
139,139,159601,1,8,0:0:0:0:
139,139,159643,1,8,0:0:0:0:
139,139,159939,6,0,B|151:54|122:25|72:4,1,137,2|0,1:2|0:0,0:0:0:0:
49,149,160251,2,0,B|37:234|66:263|116:284,1,137,2|0,1:2|0:0,0:0:0:0:
370,356,160564,2,0,B|303:342|303:342|266:346|266:346|231:346,1,137,10|0,0:0|0:0,0:0:0:0:
155,305,160876,2,0,P|208:285|271:212,1,137,2|0,1:2|0:0,0:0:0:0:
258,160,161121,1,0,0:0:0:0:
258,160,161203,2,0,B|328:133|328:133|342:136|342:136|418:138,1,137,10|0,0:0|0:0,0:0:0:0:
504,333,161531,2,0,B|433:342|433:342|422:330|422:330|366:327,1,137,10|0,0:0|0:0,0:0:0:0:
464,210,161859,2,0,P|483:182|492:238,1,137,2|0,1:2|0:0,0:0:0:0:
507,37,162163,2,0,B|447:-24|381:20|389:101|459:113|498:75,1,205.5,0|0,1:2|0:0,0:0:0:0:
331,10,162511,38,0,B|285:2|285:2|267:9|267:9|228:-10|189:25|189:25|155:53|95:35|95:35|137:71|121:127|121:127|142:111|142:111|193:171|263:150|263:150|257:140|257:140|334:195|296:275|296:275|303:229|273:209|273:209|244:264|182:257|182:257|176:252|176:252|171:259|171:259|107:253|73:297|73:297|118:344|174:321|174:321|148:340|142:373,1,1164.5,4|0,1:2|0:0,0:0:0:0:
289,377,165764,1,8,0:0:0:0:
289,377,165804,1,8,0:0:0:0:
289,377,166088,6,0,P|388:368|436:389,1,137,2|0,1:2|0:0,0:0:0:0:
502,326,166394,2,0,P|444:244|438:192,1,137,2|0,1:2|0:0,0:0:0:0:
245,68,166720,2,0,B|229:107|229:107|337:69,1,137,10|0,0:0|0:0,0:0:0:0:
441,117,167046,2,0,B|360:120|393:164|306:167,1,137,2|0,1:2|0:0,0:0:0:0:
187,22,167356,2,0,B|90:11|90:11|57:47,1,137,10|0,0:0|0:0,0:0:0:0:
120,177,167667,2,0,P|133:121|118:84,1,91.3333333333333,2|0,0:0|0:0,0:0:0:0:
63,40,167875,1,8,0:0:0:0:
13,99,167978,1,8,0:0:0:0:
42,134,168082,1,8,0:0:0:0:
45,160,168185,1,0,1:0:0:0:
45,160,168289,38,0,B|-4:261|75:258|16:369,1,205.5,0|0,1:0|0:0,0:0:0:0:
109,275,168666,6,0,B|234:263|227:371|153:336,1,184.949994355774,0|0,1:2|0:0,0:0:0:0:
187,250,169004,2,0,P|247:247|297:211,1,123.299996237183,2|0,0:0|0:0,0:0:0:0:
401,281,169343,2,0,P|430:197|385:119,1,184.949994355774,2|0,1:2|0:0,0:0:0:0:
411,31,169693,2,0,B|351:17|311:64|311:64|317:44|317:44|256:16|179:70,2,246.599992474365,12|0|2,0:2|0:0|1:2,0:0:0:0:
148,162,170760,2,0,P|53:140|38:35,1,184.949994355774,2|0,1:2|0:0,0:0:0:0:
38,32,171126,1,2,0:0:0:0:
228,133,171459,1,2,1:2:0:0:
23,260,171801,2,0,P|-13:327|90:280,1,246.599992474365,10|2,0:0|0:0,0:0:0:0:
137,43,172482,1,0,1:0:0:0:
315,261,172847,22,0,B|215:240|244:296|150:264,1,137,4|0,1:2|0:0,0:0:0:0:
280,81,173206,2,0,B|280:54|355:17|346:139|288:155,1,137,2|0,0:0|0:0,0:0:0:0:
112,170,173565,2,0,B|90:92|121:45|163:62,1,137,2|0,1:2|0:0,0:0:0:0:
395,242,173924,38,0,B|414:252|414:252|386:293|386:293|371:291|371:291|342:363|260:358|260:358|262:351|262:351|196:337|165:394|165:394|178:365|178:365|152:316|184:267,1,479.5,10|0,0:0|0:0,0:0:0:0:
249,233,174621,2,0,L|316:241,1,68.5,2|0,1:2|0:0,0:0:0:0:
458,113,174970,22,0,B|489:75|485:19|485:19|484:42|452:66,1,137,0|0,1:2|0:0,0:0:0:0:
374,148,175319,2,0,B|325:155|279:124|279:124|299:135|336:119,1,137,2|0,0:0|0:0,0:0:0:0:
133,9,175678,2,0,B|150:54|200:79|200:79|181:67|176:27,1,137,2|0,1:2|0:0,0:0:0:0:
83,176,176037,22,0,B|97:96|-21:86|-43:165|-37:297|119:333,1,365.333333333333,10|0,0:0|0:0,0:0:0:0:
162,299,176582,1,8,0:0:0:0:
218,340,176685,1,8,0:0:0:0:
155,368,176789,1,8,0:0:0:0:
172,296,176893,1,8,0:0:0:0:
281,312,177030,38,0,P|357:319|450:154,1,246.599992474365,2|0,1:2|0:0,0:0:0:0:
303,19,177753,1,2,1:2:0:0:
512,88,178100,2,0,B|366:51|406:167|236:126,2,274,8|0|2,0:0|0:0|1:2,0:0:0:0:
143,75,179159,2,0,B|35:37|15:192|116:181|43:291,1,246.599992474365,0|2,1:2|0:0,0:0:0:0:
249,384,179848,1,2,1:2:0:0:
4,316,180200,2,0,B|72:231|161:275|161:275|188:308|188:308|241:273|298:304,1,328.799989965821,12|0,0:0|0:0,0:0:0:0:
351,350,180766,1,0,1:0:0:0:
410,255,180918,2,0,L|419:195,1,41.0999987457276,0|0,1:0|0:0,0:0:0:0:
110,368,181235,22,0,B|151:329|131:294|100:245,1,137,4|0,1:2|0:0,0:0:0:0:
262,199,181592,2,0,B|248:143|208:143|150:146,1,137,2|0,0:0|0:0,0:0:0:0:
0,84,181949,2,0,B|73:91|62:24|129:36,1,137,2|0,1:2|0:0,0:0:0:0:
376,138,182293,38,0,B|401:132|421:145|421:145|432:126|432:126|472:193|424:254|424:254|438:252|438:252|392:282|388:358|388:358|444:285|532:323,1,496.625,10|0,0:0|0:0,0:0:0:0:
382,376,183006,2,0,L|303:364,1,68.5,2|0,1:2|0:0,0:0:0:0:
180,192,183374,22,0,B|174:242|235:244|233:121,1,137,0|0,1:2|0:0,0:0:0:0:
144,12,183716,2,0,B|97:31|126:85|231:22,1,137,2|0,0:0|0:0,0:0:0:0:
392,78,184059,2,0,B|438:97|409:151|304:88,1,137,2|0,1:2|0:0,0:0:0:0:
70,77,184402,22,0,B|-15:81|-34:197|54:221|54:221|123:237|161:310|105:384|105:384|68:315|124:303,1,479.5,10|0,0:0|0:0,0:0:0:0:
215,294,185088,2,0,P|264:281|309:303,1,102.75,2|0,1:2|0:0,0:0:0:0:
369,366,185434,38,0,B|452:352|452:352|484:299|484:299|441:330,1,184.949994355774,0|0,1:0|0:0,0:0:0:0:
426,252,185781,2,0,B|455:173|455:173|425:118|425:118|430:171,1,184.949994355774,2|0,1:2|0:0,0:0:0:0:
355,145,186128,2,0,B|301:80|301:80|239:78|239:78|287:100,1,184.949994355774,2|0,1:2|0:0,0:0:0:0:
393,31,186475,2,0,P|320:60|164:-12,1,246.599992474365,10|0,0:0|0:0,0:0:0:0:
301,247,187152,1,8,0:0:0:0:
121,131,187481,1,8,0:0:0:0:
56,140,187573,1,8,0:0:0:0:
31,200,187666,1,8,0:0:0:0:
70,251,187758,1,2,1:2:0:0:
277,138,188123,1,10,0:0:0:0:
159,362,188467,2,0,P|130:285|196:322,1,184.949994355774,2|0,1:2|0:0,0:0:0:0:
206,318,188812,2,0,L|361:341,1,123.299996237183,2|0,0:0|0:0,0:0:0:0:
376,129,189157,2,0,P|334:179|346:278,1,123.299996237183,2|0,1:2|0:0,0:0:0:0:
466,52,189527,2,0,B|520:10|520:10|295:28,1,246.599992474365,12|2,0:0|0:0,0:0:0:0:
102,0,190204,1,2,1:2:0:0:
70,325,190561,22,0,B|134:295|19:307|-2:242,1,137,4|0,1:2|0:0,0:0:0:0:
220,178,190913,2,0,B|179:223|247:317|189:276,1,137,2|0,0:0|0:0,0:0:0:0:
391,333,191266,2,0,B|330:320|283:426|289:355,1,137,2|0,1:2|0:0,0:0:0:0:
151,101,191619,38,0,B|233:40|323:98|282:132|379:175|480:123|480:123|408:152|337:105,1,479.5,10|0,0:0|0:0,0:0:0:0:
391,60,192325,2,0,P|424:68|458:62,1,68.5,2|0,1:2|0:0,0:0:0:0:
110,30,192682,22,0,L|129:166,1,137,0|0,1:0|0:0,0:0:0:0:
45,362,193030,2,0,B|50:294|50:294|13:353,1,137,2|0,0:0|0:0,0:0:0:0:
251,265,193379,2,0,B|151:273|151:273|104:243,1,137,2|0,1:2|0:0,0:0:0:0:
400,229,193728,22,0,B|431:239|457:220|457:220|479:227|479:227|513:210|513:210|490:274|532:330|532:330|517:322|517:322|366:334|366:334|411:324|441:293,1,479.5,10|0,0:0|0:0,0:0:0:0:
421,169,194369,1,8,0:0:0:0:
421,169,194426,2,0,P|423:120|389:65,1,102.75,8|0,0:0|0:0,0:0:0:0:
319,34,194764,38,0,B|132:14|132:14|63:50,2,246.599992474365,2|0|2,1:2|0:0|1:2,0:0:0:0:
116,206,195816,2,0,B|90:141|146:111|195:186,1,123.299996237183,10|0,0:0|0:0,0:0:0:0:
249,287,196167,2,0,B|205:342|151:308|192:228,1,123.299996237183
252,131,196491,2,0,B|321:140|319:204|229:209,1,123.299996237183,2|0,0:0|0:0,0:0:0:0:
69,106,196815,2,0,B|10:85|10:85|-17:149|-17:149|38:169|38:169|27:176|27:176|68:243|15:320|15:320|34:310|34:310|68:368|151:353,1,493.199984948731,10|4,0:0|1:2,0:0:0:0:
409,213,197886,2,0,B|264:224|305:143|155:162,1,246.599992474365,2|2,0:0|1:2,0:0:0:0:
346,340,198548,1,10,0:0:0:0:
415,134,198888,2,0,B|423:91|458:80|458:80|508:127|478:209,1,184.949994355774,2|0,1:2|0:0,0:0:0:0:
430,21,199217,2,0,B|392:-26|327:-6|327:-6|319:29|352:57,1,184.949994355774,0|0,1:0|0:0,0:0:0:0:
321,193,199547,2,0,B|352:166|344:130|344:130|278:110|241:157,1,184.949994355774,0|0,1:0|0:0,0:0:0:0:
218,48,199915,22,0,B|116:27|116:27|50:61,1,137,4|0,1:2|0:0,0:0:0:0:
50,231,200255,2,0,B|51:198|51:198|120:120,1,137,2|0,0:0|0:0,0:0:0:0:
196,353,200614,2,0,B|126:275|126:275|125:242,1,137,2|0,1:2|0:0,0:0:0:0:
351,56,200973,38,0,B|412:12|491:67|447:177|364:142|364:142|374:163|374:163|297:191|273:288|328:365,1,479.5,10|0,0:0|0:0,0:0:0:0:
442,335,201692,2,0,B|405:340|420:360|384:368,1,68.5,2|0,1:2|0:0,0:0:0:0:
187,139,202051,22,0,B|104:106|79:111|51:159,1,137,2|0,1:2|0:0,0:0:0:0:
157,330,202399,2,0,B|227:274|235:250|207:202,1,137,2|0,0:0|0:0,0:0:0:0:
61,142,202739,2,0,B|-9:86|-17:62|10:14,1,137,0|0,1:2|0:0,0:0:0:0:
216,219,203080,22,0,B|277:261|336:227|336:227|345:235|345:235|354:228|354:228|404:199|465:234|465:234|436:202|436:202|430:156|430:156|438:148|438:148|427:141|427:141|424:113|424:113|390:153|309:138,1,479.5,10|0,0:0|0:0,0:0:0:0:
271,23,203750,2,0,P|321:29|362:60,1,102.75,10|0,1:2|0:0,0:0:0:0:
237,147,204085,38,0,B|222:73|187:112|175:27,1,137,2|0,1:2|0:0,0:0:0:0:
118,268,204420,2,0,P|165:215|159:144,1,137,2|0,1:2|0:0,0:0:0:0:
415,358,204755,2,0,B|340:337|340:337|321:346|321:346|274:352,1,137,10|0,0:0|0:0,0:0:0:0:
201,339,205082,2,0,L|349:316,1,137,2|0,1:2|0:0,0:0:0:0:
124,100,205401,2,0,B|57:94|57:94|-9:142,1,137,10|0,0:0|0:0,0:0:0:0:
76,325,205732,2,0,L|98:167,1,137,10|0,0:0|0:0,0:0:0:0:
229,14,206063,2,0,B|251:-17|251:-17|268:92,1,137,10|0,0:0|0:0,0:0:0:0:
373,226,206407,2,0,P|369:135|417:178,1,205.5,0|0,1:2|0:0,0:0:0:0:
433,287,206752,38,0,B|386:280|361:305|361:305|362:291|362:291|335:353|247:339|247:339|254:330|254:330|204:289|225:228|225:228|220:201|220:201|126:238|71:163|71:163|128:119|185:148|185:148|176:132|176:132|189:55,1,753.5,4|0,1:2|0:0,0:0:0:0:
17,13,208975,1,8,0:0:0:0:
17,13,209015,1,8,0:0:0:0:
17,13,209295,6,0,P|78:46|139:18,1,137,2|0,1:2|0:0,0:0:0:0:
247,36,209616,2,0,P|308:3|369:31,1,137,2|0,1:2|0:0,0:0:0:0:
0,94,209947,2,0,B|-21:179|-21:179|8:228,1,137,10|0,0:0|0:0,0:0:0:0:
21,322,210262,2,0,P|28:240|82:215,1,137,2|0,1:2|0:0,0:0:0:0:
237,355,210578,2,0,B|155:350|155:350|130:368|130:368|82:378,1,137,10|0,0:0|0:0,0:0:0:0:
337,228,210915,2,0,L|485:256,1,137,10|0,0:0|0:0,0:0:0:0:
277,60,211252,2,0,B|265:160|265:160|303:123,1,137,10|0,0:0|0:0,0:0:0:0:
175,51,211543,2,0,B|309:60|267:-11|406:1,1,205.5,0|0,1:0|0:0,0:0:0:0:
469,30,211911,38,0,B|518:51|524:109|492:150|432:148|403:107|403:107|442:171|409:237|409:237|418:264|418:264|353:230|298:257|298:257|329:306|329:306|312:301|312:301|275:362|213:351|213:351|250:343|268:305,1,753.5,4|0,1:2|0:0,0:0:0:0:
336,155,214022,1,8,0:0:0:0:
336,155,214063,1,8,0:0:0:0:
336,155,214351,6,0,B|338:78|323:82|273:18,1,137,2|0,1:2|0:0,0:0:0:0:
243,193,214680,2,0,B|236:226|197:261|117:239,1,137,2|0,1:2|0:0,0:0:0:0:
5,40,215011,2,0,B|-15:-24|-15:-24|34:23,1,137,10|0,0:0|0:0,0:0:0:0:
124,134,215330,2,0,P|150:90|106:116,1,137,2|0,1:2|0:0,0:0:0:0:
336,155,215649,2,0,B|437:150|437:150|462:118,1,137,10|0,0:0|0:0,0:0:0:0:
388,226,215947,2,0,P|354:260|353:319,1,91.3333333333333,2|0,0:0|0:0,0:0:0:0:
418,330,216162,1,8,0:0:0:0:
317,372,216269,2,0,B|230:351|230:351|215:362|215:362|177:365,1,137,10|0,0:2|0:0,0:0:0:0:
52,270,216592,2,0,B|72:298|59:336|59:336|125:330|125:330|200:372,1,205.5,8|0,0:0|0:0,0:0:0:0:
255,268,216934,38,0,B|256:182|171:135|97:179|97:179|88:172|88:172|58:201|7:180|7:180|5:122|69:102|69:102|98:111|98:111|106:33|193:22|193:22|184:39|184:39|257:-31|335:77|252:121|252:121|308:158|322:222|322:222|329:174|329:174|350:145,1,1027.5,4|0,1:2|0:0,0:0:0:0:
459,90,220030,1,8,0:0:0:0:
459,90,220070,1,8,0:0:0:0:
459,90,220357,6,0,P|478:115|430:92,1,137,2|0,1:2|0:0,0:0:0:0:
512,247,220666,2,0,P|416:224|368:256,1,137,2|0,1:2|0:0,0:0:0:0:
212,354,220993,2,0,B|178:329|178:329|277:347,1,137,10|0,0:0|0:0,0:0:0:0:
167,260,221293,2,0,P|112:304|125:375,1,137,2|0,1:2|0:0,0:0:0:0:
300,156,221626,2,0,B|326:55|326:55|290:92,1,137,10|0,0:0|0:0,0:0:0:0:
156,174,221946,2,0,B|55:200|55:200|92:164,1,137,10|0,0:0|0:0,0:0:0:0:
140,17,222267,2,0,P|52:53|47:105,1,137,0|0,1:2|0:0,0:0:0:0:
132,248,222588,2,0,B|120:290|213:330|242:193|148:171,1,205.5,0|0,1:2|0:0,0:0:0:0:
79,312,222926,38,0,B|115:364|201:370|246:314|246:314|267:335|267:335|312:306|357:338|357:338|346:328|346:328|322:277|322:277|342:219|342:219|405:242|405:242|394:276|394:276|416:246|451:252,1,616.5,4|0,1:2|0:0,0:0:0:0:
512,331,224514,1,8,0:0:0:0:
512,331,224557,1,8,0:0:0:0:
512,331,224865,6,0,P|491:243|528:192,1,137,2|0,1:2|0:0,0:0:0:0:
512,70,225185,2,0,P|446:132|383:125,1,137,2|0,1:2|0:0,0:0:0:0:
163,56,225506,2,0,B|200:46|200:46|298:92,1,137,10|0,0:0|0:0,0:0:0:0:
188,130,225806,2,0,P|120:157|99:235,1,137,2|0,1:2|0:0,0:0:0:0:
265,358,226130,2,0,B|331:373|331:373|283:324,1,137,10|0,0:0|0:0,0:0:0:0:
141,273,226419,2,0,P|106:321|107:361,1,91.3333333333333,2|0,1:2|1:0,0:0:0:0:
184,340,226631,1,8,0:0:0:0:
218,229,226738,2,0,B|315:233|315:233|360:169,1,137,10|0,0:0|0:0,0:0:0:0:
467,52,227048,2,0,B|394:66|394:66|388:55|388:55|394:89|394:89|386:101|386:101|418:112|418:112|447:161,1,205.5,8|0,0:0|0:0,0:0:0:0:
329,13,227370,38,0,B|279:4|279:4|256:20|256:20|158:37|158:37|161:24|161:24|75:16|75:16|127:46|111:103|111:103|122:97|122:97|105:138|134:174|134:174|189:159|191:121|191:121|209:153,1,590.8125,4|0,1:2|0:0,0:0:0:0:
272,256,228974,1,8,0:0:0:0:
272,256,229015,1,8,0:0:0:0:
272,256,229303,6,0,P|272:331|225:298,1,137,2|0,1:2|0:0,0:0:0:0:
342,189,229617,2,0,P|276:162|210:182,1,137,2|0,1:2|0:0,0:0:0:0:
385,263,229931,2,0,P|441:219|457:152,1,137,2|0,1:2|0:0,0:0:0:0:
327,0,230245,2,0,P|373:48|381:115,1,137,2|0,1:2|0:0,0:0:0:0:
157,234,230559,2,0,B|83:225|83:225|45:238|45:238|69:209,1,137,10|0,0:0|0:0,0:0:0:0:
187,307,230854,2,0,P|224:275|238:228,1,91.3333333333333,2|0,1:2|0:0,0:0:0:0:
198,166,231051,1,8,0:0:0:0:
317,237,231150,2,0,P|363:253|410:241,1,91.3333333333333,10|8,0:0|0:0,0:0:0:0:
444,176,231345,1,0,1:2:0:0:
405,106,231442,2,0,P|384:33|459:85,1,205.5,0|0,1:2|0:0,0:0:0:0:
308,45,231773,38,0,B|259:50|218:10|218:10|222:25|222:25|156:1|102:47|102:47|112:85|112:85|54:94|43:145|43:145|31:128|31:128|9:141|-25:132|-25:132|7:275,1,582.25,4|0,1:2|0:0,0:0:0:0:
116,158,233356,1,8,0:0:0:0:
116,158,233395,1,8,0:0:0:0:
116,158,233670,6,0,B|155:119|201:151|240:214,1,137,2|0,1:2|0:0,0:0:0:0:
309,204,233994,2,0,B|323:257|272:281|198:283,1,137,2|0,1:2|0:0,0:0:0:0:
285,69,234318,2,0,B|388:62|388:62|422:89,1,137,10|0,0:0|0:0,0:0:0:0:
462,139,234570,2,0,B|529:146|529:146|495:118,1,91.3333333333333,2|0,1:2|0:0,0:0:0:0:
388,151,234790,2,0,L|399:243,1,68.5,8|8,0:0|0:0,0:0:0:0:
420,366,234959,1,8,0:0:0:0:
364,299,235063,1,8,1:2:0:0:
300,291,235167,1,0,1:0:0:0:
236,282,235271,1,0,1:0:0:0:
172,274,235375,1,0,1:0:0:0:
108,266,235479,2,0,B|26:210|62:104|141:150|103:204,1,205.5,0|0,1:0|0:0,0:0:0:0:
189,155,235790,2,0,P|127:80|30:93,1,205.5,0|0,1:0|0:0,0:0:0:0:
278,60,236149,38,0,B|495:-5|495:-5|450:153|450:153|483:194|479:248|440:279|440:279|487:327|487:327|431:363|371:323|371:323|359:339|359:339|333:258|389:213|389:213|366:185|366:185|393:89|393:89|310:114|310:114|304:128|304:128|292:120|292:120|189:156|189:156|235:111,1,1301.5,4|0,1:2|0:0,0:0:0:0:
27,46,239482,1,8,1:2:0:0:
27,46,239786,6,0,P|0:118|42:162,1,137,2|0,1:2|0:0,0:0:0:0:
101,286,240113,2,0,P|35:290|0:235,1,137,2|0,1:2|0:0,0:0:0:0:
304,128,240433,2,0,B|404:141|404:141|360:164,1,137,10|0,0:0|0:0,0:0:0:0:
242,175,240745,2,0,P|233:94|286:54,1,137,2|0,1:2|0:0,0:0:0:0:
354,307,241062,2,0,B|370:372|370:372|319:323,1,137,10|0,0:0|0:0,0:0:0:0:
403,141,241379,2,0,B|444:50|444:50|450:93,1,137,10|0,0:0|0:0,0:0:0:0:
428,231,241691,2,0,B|354:243|370:202|283:211,1,137,0|0,1:2|0:0,0:0:0:0:
110,326,242011,2,0,B|214:325|235:249|153:191|125:267,1,205.5,0|0,1:2|0:0,0:0:0:0:
213,167,242363,22,0,B|93:124|115:222|-17:176,1,219.2,2|0,1:2|0:0,0:0:0:0:
274,2,243040,2,0,P|322:55|315:118,1,109.6,2|0,1:2|0:0,0:0:0:0:
441,89,243379,2,0,P|343:109|296:226,2,219.2,10|0|2,0:0|0:0|1:2,0:0:0:0:
423,367,244396,2,0,L|411:204,1,164.4,2|0,1:2|0:0,0:0:0:0:
424,180,244735,1,2,0:0:0:0:
244,77,245083,1,2,1:2:0:0:
141,257,245432,2,0,P|91:315|0:295,1,164.4,10|0,0:0|0:0,0:0:0:0:
0,279,245787,1,2,0:0:0:0:
282,235,246012,1,0,1:0:0:0:
358,264,246125,2,0,P|350:192|258:157,1,164.4,0|0,1:0|0:0,0:0:0:0:
194,121,246464,38,0,B|166:95|166:95|269:86|269:86|283:76|283:76|363:107|363:107|414:74|469:97|469:97|466:76|466:76|484:35|484:35|414:8|361:35|361:35|278:4|278:4|243:22|243:22|133:32|133:32|96:70|96:70|41:44|-3:71|-3:71|11:123|59:126|59:126|-7:165|27:248|99:263|152:214|137:160|137:160|156:191|156:191|153:288|238:304|238:304|178:274|195:224|195:224|263:263|324:219|324:219|304:272|304:272|364:303|344:372|344:372|375:291|467:311|467:311|438:297|438:297|465:235|422:179,1,2194.39151568157,2|2,1:2|0:0,0:0:0:0:
144,316,275282,6,0,B|117:244|117:244|127:247|127:247|146:197|146:197|135:189|135:189|109:142,2,178.099991847229,2|2|0,0:1|1:0|1:0,0:0:0:0:
256,156,276287,2,0,B|283:84|283:84|273:87|273:87|254:37|254:37|265:29|265:29|291:-18,2,178.099991847229,2|2|2,0:1|0:1|0:1,0:0:0:0:
218,257,277327,1,0,0:1:0:0:
393,327,277642,2,0,B|366:255|366:255|376:258|376:258|395:208|395:208|384:200|384:200|358:153,1,178.099991847229,2|2,0:1|0:1,0:0:0:0:
478,65,278369,1,2,0:1:0:0:
448,125,278526,1,2,0:1:0:0:
492,54,278683,2,0,B|512:108|512:108|521:99|521:99|508:162|508:162|529:216,1,178.099991847229,2|2,0:1|0:1,0:0:0:0:
425,24,279193,1,0,0:0:0:0:
425,24,279366,2,0,B|378:24|378:24|355:44|355:44|350:36|350:36|293:61|293:61|243:44,1,178.099991847229
189,132,280035,1,2,0:1:0:0:
31,54,280381,6,0,B|56:76|90:66|90:66|106:42|106:42|161:46|183:-7,1,178.099991847229,2|0,0:0|0:0,0:0:0:0:
228,208,281060,1,0,0:0:0:0:
105,132,281409,2,0,B|68:149|58:189|75:225|115:228|135:260|104:314,1,178.099991847229,0|0,0:0|0:0,0:0:0:0:
0,376,282100,2,0,B|23:385|23:385|34:366|34:366|92:353|92:353|90:359|90:359|113:392,1,133.574993885422,2|0,0:1|0:0,0:0:0:0:
160,333,282443,2,0,B|192:323|192:323|222:342|222:342|214:328|214:328|288:343|288:343|315:302,1,178.099991847229,2|0,0:1|0:0,0:0:0:0:
380,212,283129,1,2,0:1:0:0:
400,288,283290,1,0,0:0:0:0:
391,191,283451,2,0,B|316:202|316:202|296:191|296:191|235:204|235:204|255:210|255:210,2,178.099991847229,2|2|2,0:1|0:1|0:1,0:0:0:0:
488,66,284460,6,0,B|452:33|452:33|397:85|308:45,1,178.099991847229,2|2,0:0|0:1,0:0:0:0:
198,0,285119,1,0,0:0:0:0:
247,224,285480,2,0,P|285:148|240:64,2,178.099991847229,0|0|0,0:0|0:0|0:0,0:0:0:0:
367,291,286514,2,0,B|289:283|306:322|230:318,1,133.574993885422,0|0,0:0|0:0,0:0:0:0:
181,285,286859,2,0,B|112:300|112:300|98:306|98:306|75:290|75:290|36:291,1,133.574993885422,2|0,0:1|0:0,0:0:0:0:
107,229,287181,2,0,B|113:200|113:200|121:196|121:196|141:138|141:138|105:167,1,133.574993885422,2|0,0:1|0:0,0:0:0:0:
210,62,287516,2,0,B|159:72|159:72|167:64|167:64|122:67|122:67|67:113,2,178.099991847229,2|0|0,0:1|0:0|0:0,0:0:0:0:
330,161,288526,22,0,B|364:153|392:171|392:171|422:140|422:140|458:154|491:127,2,178.099991847229,2|0|2,0:0|0:0|0:1,0:0:0:0:
443,65,289549,1,2,0:1:0:0:
274,219,289878,2,0,P|251:153|337:83,1,178.099991847229,0|0,0:0|0:0,0:0:0:0:
447,213,290562,1,0,0:0:0:0:
219,294,290901,2,0,P|291:237|397:263,1,178.099991847229
320,353,291580,1,0,0:0:0:0:
167,217,291921,2,0,B|170:175|170:175|187:138|187:138|184:127|184:127|177:71|177:71,1,133.574993885422,2|0,0:1|0:0,0:0:0:0:
120,129,292247,2,0,P|103:85|116:-2,1,133.574993885422
51,140,292573,6,0,B|72:197|41:242|41:242|54:271|54:271|43:331,1,178.099991847229,2|0,0:0|0:0,0:0:0:0:
240,192,293245,1,0,0:0:0:0:
182,382,293592,2,0,B|137:330|180:267|180:267|160:192,1,178.099991847229,2|0,0:0|0:0,0:0:0:0:
105,0,294277,1,0,0:0:0:0:
236,89,294606,2,0,B|298:112|298:112|338:100|338:100|389:101,1,133.574993885422,10|0,0:0|0:0,0:0:0:0:
423,84,294936,2,0,B|377:58|321:66|321:66|357:46,1,133.574993885422,0|0,1:0|0:0,0:0:0:0:
442,94,295284,2,0,L|462:232,1,133.574993885422,2|0,0:0|0:0,0:0:0:0:
485,314,295590,2,0,B|424:302|424:302|474:302|474:302|507:284,1,133.574993885422,10|0,0:0|0:0,0:0:0:0:
374,257,295910,38,0,B|265:263|303:318|231:324,1,154.125005879402,2|0,1:2|0:0,0:0:0:0:
226,250,296260,2,0,P|153:247|90:322,1,154.125005879402,2|0,1:2|0:0,0:0:0:0:
81,365,296598,1,8,0:0:0:0:
20,160,296922,2,0,P|50:119|65:189,1,154.125005879402,2|0,1:2|0:0,0:0:0:0:
150,78,297255,6,0,B|89:94|89:94|-9:75,1,154.125005879402,2|0,1:2|0:0,0:0:0:0:
167,68,297588,1,8,0:0:0:0:
315,175,297922,1,0,1:0:0:0:
261,0,298255,6,0,B|232:42|232:42|249:171,1,154.125005879402,2|0,1:2|0:0,0:0:0:0:
384,189,298579,2,0,B|492:207|492:207|456:169,1,154.125005879402,8|0,0:0|0:0,0:0:0:0:
315,175,298885,2,0,P|285:226|364:246,1,154.125005879402,2|0,1:2|0:0,0:0:0:0:
482,286,299218,2,0,B|392:279|432:338|333:333,1,154.125005879402,2|0,1:2|0:0,0:0:0:0:
491,207,299551,2,0,B|514:163|514:163|473:50,1,154.125005879402,10|0,0:0|0:0,0:0:0:0:
480,45,299867,37,0,1:0:0:0:
412,94,300544,2,0,L|360:84,1,41.0999987457276
303,37,301160,2,0,L|214:53,1,82.1999974914552
211,47,302426,2,0,P|200:30|197:-4,2,41.0999987457276
169,102,303455,1,0,0:0:0:0:
169,102,303779,2,0,P|148:103|117:88,1,41.0999987457276
195,165,304272,1,2,0:0:0:0:
187,172,304354,1,2,0:0:0:0:
179,179,304436,38,0,L|152:309,1,123.299996237183,2|0,1:2|0:0,0:0:0:0:
149,320,305074,2,0,P|123:282|85:265,1,82.1999974914552,2|0,1:2|0:0,0:0:0:0:
223,328,305680,2,0,B|326:303|302:362|405:339,1,164.39999498291,8|2,0:0|0:0,0:0:0:0:
383,342,306862,6,0,P|402:297|391:261,2,82.1999974914552,0|0|2,1:0|0:0|0:0,0:0:0:0:
330,230,307789,1,8,0:0:0:0:
265,193,308099,2,0,P|258:154|277:118,1,82.1999974914552,2|0,0:0|1:0,0:0:0:0:
339,95,308491,1,0,1:0:0:0:
288,52,308589,1,0,1:0:0:0:
288,52,308687,38,0,L|159:31,1,123.299996237183,0|0,1:2|0:0,0:0:0:0:
146,32,309293,2,0,P|174:65|178:105,1,82.1999974914552,2|0,1:2|0:0,0:0:0:0:
100,93,309924,2,0,P|53:139|48:267,1,164.39999498291,8|2,0:0|0:0,0:0:0:0:
36,233,311088,6,0,P|91:233|129:262,2,82.1999974914552,0|0|2,1:0|0:0|0:0,0:0:0:0:
65,305,311970,1,8,0:0:0:0:
188,257,312264,2,0,P|184:217|161:184,1,82.1999974914552,2|0,0:0|1:0,0:0:0:0:
93,165,312672,1,0,1:0:0:0:
143,116,312774,1,0,1:0:0:0:
143,116,312876,38,0,L|161:-9,1,123.299996237183,0|0,1:0|0:0,0:0:0:0:
179,1,313485,2,0,L|192:91,1,82.1999974914552,2|0,1:2|0:0,0:0:0:0:
344,68,314094,2,0,P|282:76|277:175,1,164.39999498291,8|2,0:0|0:0,0:0:0:0:
267,164,315297,6,0,P|280:208|263:263,2,82.1999974914552,0|0|2,1:0|0:0|0:0,0:0:0:0:
223,311,316188,1,8,0:0:0:0:
345,276,316485,2,0,P|313:251|274:243,1,82.1999974914552,2|0,0:0|0:0,0:0:0:0:
431,230,317094,38,0,P|378:172|388:96,1,123.299996237183,0|0,1:0|0:0,0:0:0:0:
382,111,317703,2,0,P|336:138|277:127,1,82.1999974914552,2|0,1:2|0:0,0:0:0:0:
157,46,318328,2,0,L|321:60,1,164.39999498291,8|2,0:0|0:0,0:0:0:0:
321,60,319517,5,0,1:0:0:0:
231,131,319825,2,0,P|212:172|215:232,1,82.1999974914552,0|2,0:0|0:0,0:0:0:0:
290,323,320442,1,8,0:0:0:0:
205,384,320750,2,0,P|201:343|183:306,1,82.1999974914552,2|0,0:0|0:0,0:0:0:0:
66,289,321341,38,0,L|40:140,1,123.299996237183,0|0,1:0|0:0,0:0:0:0:
42,147,321947,2,0,P|79:174|136:175,1,82.1999974914552,2|0,1:2|0:0,0:0:0:0:
186,85,322568,2,0,L|106:100,1,82.1999974914552,8|0,0:0|0:0,0:0:0:0:
281,89,323168,2,0,L|200:74,1,82.1999974914552,2|0,0:0|0:0,0:0:0:0:
246,186,323756,5,0,1:0:0:0:
347,167,324071,1,0,0:0:0:0:
448,148,324387,1,2,0:0:0:0:
340,151,324690,1,8,0:0:0:0:
398,244,324993,2,0,P|422:291|420:327,1,82.1999974914552,2|0,0:0|1:0,0:0:0:0:
369,370,325406,1,0,1:0:0:0:
351,300,325509,1,0,1:0:0:0:
351,300,325613,38,0,P|292:283|240:300,1,82.1999974914552,0|0,1:0|0:0,0:0:0:0:
198,352,326202,2,0,P|139:369|87:352,1,82.1999974914552,2|0,1:2|0:0,0:0:0:0:
142,269,326808,2,0,L|162:84,1,164.39999498291,8|2,0:0|0:0,0:0:0:0:
159,105,328012,6,0,P|198:89|257:92,1,82.1999974914552,0|0,1:0|0:0,0:0:0:0:
302,132,328611,1,2,0:0:0:0:
243,8,328910,1,8,0:0:0:0:
307,52,329209,2,0,L|397:52,1,82.1999974914552,2|0,0:0|1:0,0:0:0:0:
441,97,329623,1,0,1:0:0:0:
486,46,329727,1,0,1:0:0:0:
486,46,329830,38,0,P|512:102|468:160,1,123.299996237183,0|0,1:0|0:0,0:0:0:0:
469,164,330425,2,0,L|453:253,1,82.1999974914552,2|0,1:2|0:0,0:0:0:0:
270,262,331056,2,0,P|379:270|418:342,1,164.39999498291,8|2,0:0|0:0,0:0:0:0:
409,307,332214,6,0,P|355:341|327:326,2,82.1999974914552,0|0|2,1:0|0:0|0:0,0:0:0:0:
251,358,333137,1,8,0:0:0:0:
251,358,333437,2,0,P|194:328|193:296,1,82.1999974914552,2|0,0:0|0:0,0:0:0:0:
216,144,334043,38,0,B|175:120|139:141|139:141|120:154|96:161,1,123.299996237183,0|0,1:0|0:0,0:0:0:0:
82,167,334661,2,0,P|54:134|52:88,1,82.1999974914552,2|0,1:2|0:0,0:0:0:0:
175,200,335280,2,0,L|163:305,1,82.1999974914552,8|0,0:0|0:0,0:0:0:0:
73,303,335898,2,0,L|85:408,1,82.1999974914552,2|0,0:0|0:0,0:0:0:0:
229,323,336474,5,2,1:2:0:0:
175,200,336774,1,0,0:0:0:0:
263,234,337074,1,2,0:0:0:0:
230,337,337380,1,8,0:0:0:0:
271,230,337686,1,2,0:0:0:0:
117,166,338000,1,2,1:2:0:0:
194,87,338315,5,0,0:0:0:0:
194,87,338944,1,0,0:0:0:0:
194,87,339590,1,0,0:0:0:0:
322,131,340197,1,8,0:0:0:0:
322,131,340249,2,0,P|350:132|369:124,1,41.0999987457276,8|0,0:0|0:0,0:0:0:0:
374,121,340509,2,0,L|435:133,1,54.7999983276368,8|0,0:0|0:0,0:0:0:0:
512,152,340822,22,0,L|414:156,1,82.1999974914552,2|0,1:2|0:0,0:0:0:0:
294,236,341447,2,0,B|339:241|335:215|379:216,2,82.1999974914552,0|2|2,0:0|0:0|0:0,0:0:0:0:
294,236,342717,1,8,0:0:0:0:
179,181,343029,1,0,0:0:0:0:
209,266,343185,1,8,0:0:0:0:
209,266,343263,1,0,1:0:0:0:
209,266,343342,6,0,L|215:356,1,82.1999974914552,0|0,1:0|1:0,0:0:0:0:
264,151,343967,1,2,0:0:0:0:
264,151,344626,1,0,1:0:0:0:
111,123,344956,1,2,1:2:0:0:
256,192,345115,12,0,353892,0:0:0:0:
