osu file format v14

[General]
AudioFilename: audio.ogg
AudioLeadIn: 0
PreviewTime: 104841
Countdown: 0
SampleSet: Drum
StackLeniency: 0.7
Mode: 0
LetterboxInBreaks: 0
WidescreenStoryboard: 0

[Editor]
Bookmarks: 39719,84081,146689,240602,251037
DistanceSpacing: 0.5
BeatDivisor: 4
GridSize: 16
TimelineZoom: 2.4

[Metadata]
Title:Castle in the Sky Part II - Pieces of Ruins
TitleUnicode:Castle in the Sky Part II - Pieces of Ruins
Artist:Slice The Cake
ArtistUnicode:Slice The Cake
Creator:nebuwua
Version:Adieu, My Dear Love
Source:
Tags:progressive deathcore metal piano ballad rock english odyssey to the west gareth mason Jonas Johansson Jack Magero Jake Lowe
BeatmapID:4219957
BeatmapSetID:2025534

[Difficulty]
HPDrainRate:3.6
CircleSize:4
OverallDifficulty:7.4
ApproachRate:7.8
SliderMultiplier:2
SliderTickRate:1

[Events]
//Background and Video events
0,0,"Castle in the Sky.jpg",0,0
//Break Periods
//Storyboard Layer 0 (Background)
//Storyboard Layer 1 (Fail)
//Storyboard Layer 2 (Pass)
//Storyboard Layer 3 (Foreground)
//Storyboard Layer 4 (Overlay)
//Storyboard Sound Samples

[TimingPoints]
39719,434.782608695652,6,3,1,60,1,0
39719,-166.666666666667,6,3,1,60,0,0
40371,-166.666666666667,6,3,2,60,0,0
40805,-166.666666666667,6,3,1,60,0,0
41023,-166.666666666667,6,3,3,60,0,0
41240,441.176470588235,6,3,4,40,1,0
41240,-333.333333333333,6,3,4,40,0,0
41460,-333.333333333334,6,3,5,41,0,0
41681,-333.333333333334,6,3,6,51,0,0
41901,-333.333333333334,6,3,7,60,0,0
42122,-333.333333333334,6,3,8,60,0,0
42232,-333.333333333334,6,3,9,60,0,0
42342,434.782608695652,6,3,1,60,1,0
42559,-166.666666666667,6,3,1,60,0,0
42993,-166.666666666667,6,3,2,60,0,0
43428,-166.666666666667,6,3,10,60,0,0
43646,-166.666666666667,6,3,5,60,0,0
44080,-166.666666666667,6,3,3,60,0,0
44298,-166.666666666667,6,3,4,40,0,0
44515,-166.666666666667,6,3,10,60,0,0
45168,-166.666666666667,6,3,2,60,0,0
45602,-166.666666666667,6,3,10,60,0,0
46255,-166.666666666667,6,3,5,60,0,0
46581,-166.666666666667,6,3,1,5,0,0
46689,-166.666666666667,6,3,1,60,0,0
46906,-166.666666666667,6,3,7,60,0,0
47124,-166.666666666667,6,3,1,60,0,0
47341,-166.666666666667,6,3,8,60,0,0
47450,-166.666666666667,6,3,9,60,0,0
47559,-166.666666666667,6,3,1,60,0,0
48210,-166.666666666667,6,3,2,60,0,0
48645,-166.666666666667,6,3,10,60,0,0
48863,-166.666666666667,6,3,5,60,0,0
49297,-166.666666666667,6,3,3,60,0,0
49515,-166.666666666667,6,3,4,40,0,0
49733,-166.666666666667,6,3,10,60,0,0
50385,-166.666666666667,6,3,11,60,0,0
50602,-166.666666666667,6,3,3,60,0,0
50820,-166.666666666667,6,3,10,60,0,0
51037,-166.666666666667,6,3,4,60,0,0
51472,-166.666666666667,6,3,5,60,0,0
51907,-166.666666666667,6,3,1,60,0,0
52124,-166.666666666667,6,3,7,60,0,0
52342,-166.666666666667,6,3,9,60,0,0
52559,-166.666666666667,6,3,1,60,0,0
52776,-166.666666666667,6,3,4,60,0,0
53428,-166.666666666667,6,3,1,60,0,0
54081,-166.666666666667,6,3,6,60,0,0
54515,-166.666666666667,6,3,1,60,0,0
54733,-166.666666666667,6,3,4,40,0,0
54950,-166.666666666667,6,3,1,60,0,0
56689,-166.666666666667,6,3,6,60,0,0
57123,-166.666666666667,6,3,1,60,0,0
57341,-166.666666666667,6,3,7,60,0,0
57558,-166.666666666667,6,3,1,60,0,0
58645,-166.666666666667,6,3,2,60,0,0
59080,-166.666666666667,6,3,10,60,0,0
59298,-166.666666666667,6,3,6,60,0,0
59732,-166.666666666667,6,3,1,60,0,0
59950,-166.666666666667,6,3,4,40,0,0
60168,-166.666666666667,6,3,1,60,0,0
60820,-166.666666666667,6,3,11,60,0,0
61037,-166.666666666667,6,3,3,60,0,0
61255,-166.666666666667,6,3,10,60,0,0
61472,-166.666666666667,6,3,4,60,0,0
61907,-166.666666666667,6,3,7,60,0,0
62124,-166.666666666667,6,3,8,60,0,0
62341,-166.666666666667,6,3,9,60,0,0
62559,-166.666666666667,6,3,1,60,0,0
62776,-166.666666666667,6,3,7,60,0,0
62994,-166.666666666667,6,3,12,60,0,0
63102,-166.666666666667,6,3,13,60,0,0
63211,-166.666666666667,6,3,1,60,0,0
63862,-166.666666666667,6,3,2,60,0,0
64297,-166.666666666667,6,3,10,60,0,0
64515,-166.666666666667,6,3,5,60,0,0
64949,-166.666666666667,6,3,3,60,0,0
65168,-166.666666666667,6,3,4,40,0,0
65385,-166.666666666667,6,3,10,60,0,0
66037,-166.666666666667,6,3,2,60,0,0
66471,-166.666666666667,6,3,10,60,0,0
67124,-166.666666666667,6,3,5,60,0,0
67559,-166.666666666667,6,3,1,60,0,0
67776,-166.666666666667,6,3,7,60,0,0
67994,-166.666666666667,6,3,1,60,0,0
68211,-166.666666666667,6,3,8,60,0,0
68320,-166.666666666667,6,3,9,60,0,0
68428,-166.666666666667,6,3,1,60,0,0
69080,-166.666666666667,6,3,2,60,0,0
69515,-166.666666666667,6,3,10,60,0,0
69733,-166.666666666667,6,3,5,60,0,0
70167,-166.666666666667,6,3,3,60,0,0
70385,-166.666666666667,6,3,4,40,0,0
70602,-166.666666666667,6,3,10,60,0,0
71255,-166.666666666667,6,3,11,60,0,0
71472,-166.666666666667,6,3,3,60,0,0
71689,-166.666666666667,6,3,10,60,0,0
71906,-166.666666666667,6,3,4,60,0,0
72341,-166.666666666667,6,3,5,60,0,0
72776,-166.666666666667,6,3,1,60,0,0
72993,-166.666666666667,6,3,7,60,0,0
73211,-166.666666666667,6,3,9,60,0,0
73428,-166.666666666667,6,3,1,60,0,0
73646,-166.666666666667,6,3,4,60,0,0
74297,-166.666666666667,6,3,1,60,0,0
74950,-166.666666666667,6,3,6,60,0,0
75384,-166.666666666667,6,3,1,60,0,0
75602,-166.666666666667,6,3,4,40,0,0
75820,-166.666666666667,6,3,1,60,0,0
77559,-166.666666666667,6,3,6,60,0,0
77993,-166.666666666667,6,3,1,60,0,0
78211,-166.666666666667,6,3,7,60,0,0
78428,-166.666666666667,6,3,1,60,0,0
78863,-166.666666666667,6,3,1,51,0,0
79081,-166.666666666667,6,3,14,40,0,0
79515,-166.666666666667,6,3,1,51,0,0
79733,-166.666666666667,6,3,14,40,0,0
80167,-166.666666666667,6,3,6,51,0,0
80602,-166.666666666667,6,3,14,40,0,0
81255,-166.666666666667,6,3,6,51,0,0
81580,-166.666666666667,6,3,14,40,0,0
81689,-166.666666666667,6,3,6,51,0,0
82776,-250.000000000001,6,3,6,51,0,0
83211,-333.333333333334,6,3,15,51,0,0
83428,-333.333333333334,6,3,1,51,0,0
83646,-333.333333333334,6,3,16,51,0,0
83863,-333.333333333334,6,3,6,51,0,0
84081,-333.333333333334,6,3,4,60,0,0
84733,-153.846153846154,6,3,1,60,0,0
84950,-153.846153846154,6,3,2,60,0,0
85168,-153.846153846154,6,3,6,60,0,0
85820,-153.846153846154,6,3,4,60,0,0
87341,-153.846153846154,6,3,7,60,0,0
87994,-153.846153846154,6,3,1,60,0,0
88211,-153.846153846154,6,3,17,60,0,0
88428,-153.846153846154,6,3,1,60,0,0
88645,-153.846153846154,6,3,17,60,0,0
88863,-153.846153846154,6,3,1,60,0,0
89081,-153.846153846154,6,3,7,60,0,0
89298,-153.846153846154,6,3,4,60,0,0
89515,-153.846153846154,6,3,1,60,0,0
90602,-153.846153846154,6,3,17,60,0,0
91037,-153.846153846154,6,3,1,60,0,0
93211,-153.846153846154,6,3,7,60,0,0
93646,-153.846153846154,6,3,9,60,0,0
93790,-153.846153846154,6,3,8,60,0,0
93935,-153.846153846154,6,3,12,60,0,0
94081,-153.846153846154,6,3,9,60,0,0
94189,-153.846153846154,6,3,13,60,0,0
94298,-153.846153846154,6,3,7,60,0,0
94515,-153.846153846154,6,3,4,60,0,0
94950,-153.846153846154,6,3,1,60,0,0
95820,-153.846153846154,6,3,10,60,0,0
97124,-153.846153846154,6,3,1,60,0,0
98428,-153.846153846154,6,3,10,60,0,0
98863,-153.846153846154,6,3,1,60,0,0
99733,-133.333333333333,6,3,7,60,0,0
100385,-133.333333333333,6,3,18,60,0,0
100602,-133.333333333333,6,3,1,60,0,0
101037,-133.333333333333,6,3,18,60,0,0
101254,-133.333333333333,6,3,7,60,0,0
101907,-133.333333333333,6,3,18,60,0,0
102124,-133.333333333333,6,3,7,60,0,0
102558,-133.333333333333,6,3,9,60,0,0
102775,-133.333333333333,6,3,7,60,0,0
104081,-153.846153846153,6,3,9,60,0,0
104298,-153.846153846153,6,3,1,60,0,0
104515,-181.818181818181,6,3,13,60,0,0
104732,-181.818181818181,6,3,1,60,0,0
104950,-181.818181818181,6,3,1,60,0,1
105168,-125,6,3,1,60,0,1
105602,-125,6,3,2,60,0,1
106037,-125,6,3,10,60,0,1
106255,-125,6,3,5,60,0,1
106689,-125,6,3,3,60,0,1
106907,-125,6,3,4,40,0,1
107124,-125,6,3,10,60,0,1
107776,-125,6,3,2,60,0,1
108210,-125,6,3,10,60,0,1
108863,-125,6,3,5,60,0,1
109080,-125,6,3,1,60,0,1
109515,-125,6,3,7,60,0,1
109732,-125,6,3,1,60,0,1
109950,-125,6,3,8,60,0,1
110059,-125,6,3,9,60,0,1
110168,-125,6,3,1,60,0,1
110819,-125,6,3,2,60,0,1
111254,-125,6,3,10,60,0,1
111472,-125,6,3,5,60,0,1
111906,-125,6,3,3,60,0,1
112124,-125,6,3,4,40,0,1
112341,-125,6,3,10,60,0,1
112994,-125,6,3,11,60,0,1
113211,-125,6,3,3,60,0,1
113428,-125,6,3,10,60,0,1
113645,-125,6,3,4,60,0,1
114081,-125,6,3,5,60,0,1
114515,-125,6,3,1,60,0,1
114732,-125,6,3,7,60,0,1
114950,-125,6,3,9,60,0,1
115168,-125,6,3,1,60,0,1
115385,-125,6,3,4,60,0,1
116036,-125,6,3,1,60,0,1
116689,-125,6,3,6,60,0,1
117123,-125,6,3,1,60,0,1
117341,-125,6,3,4,40,0,1
117559,-125,6,3,1,60,0,1
119298,-125,6,3,6,60,0,1
119732,-125,6,3,1,60,0,1
119950,-125,6,3,7,60,0,1
120167,-125,6,3,1,60,0,1
121254,-125,6,3,2,60,0,1
121689,-125,6,3,10,60,0,1
121907,-125,6,3,6,60,0,1
122341,-125,6,3,1,60,0,1
122559,-125,6,3,4,40,0,1
122776,-125,6,3,1,60,0,1
123428,-125,6,3,11,60,0,1
123645,-125,6,3,3,60,0,1
123863,-125,6,3,10,60,0,1
124080,-125,6,3,4,60,0,1
124515,-125,6,3,7,60,0,1
124733,-125,6,3,8,60,0,1
124950,-125,6,3,9,60,0,1
125168,-125,6,3,1,60,0,1
125385,-125,6,3,7,60,0,1
125602,-125,6,3,12,60,0,1
125711,-125,6,3,13,60,0,1
125820,-125,6,3,1,60,0,1
126471,-125,6,3,2,60,0,1
126906,-125,6,3,10,60,0,1
127124,-125,6,3,5,60,0,1
127558,-125,6,3,3,60,0,1
127776,-125,6,3,4,40,0,1
127994,-125,6,3,10,60,0,1
128646,-125,6,3,2,60,0,1
129080,-125,6,3,10,60,0,1
129733,-125,6,3,5,60,0,1
130167,-125,6,3,1,60,0,1
130385,-125,6,3,7,60,0,1
130602,-125,6,3,1,60,0,1
130820,-125,6,3,8,60,0,1
130928,-125,6,3,9,60,0,1
131037,-125,6,3,1,60,0,1
131689,-125,6,3,2,60,0,1
132124,-125,6,3,10,60,0,1
132341,-125,6,3,5,60,0,1
132775,-125,6,3,3,60,0,1
132994,-125,6,3,4,40,0,1
133211,-125,6,3,10,60,0,1
133863,-125,6,3,11,60,0,1
134080,-125,6,3,3,60,0,1
134298,-125,6,3,10,60,0,1
134515,-125,6,3,4,60,0,1
134950,-125,6,3,5,60,0,1
135385,-125,6,3,1,60,0,1
135602,-125,6,3,7,60,0,1
135820,-125,6,3,9,60,0,1
136037,-125,6,3,1,60,0,1
136255,-125,6,3,4,60,0,1
136906,-125,6,3,1,60,0,1
137559,-125,6,3,6,60,0,1
137993,-125,6,3,1,60,0,1
138211,-125,6,3,4,40,0,1
138428,-125,6,3,1,60,0,1
140168,-125,6,3,6,60,0,1
140602,-125,6,3,1,60,0,1
140820,-125,6,3,7,60,0,1
141037,-125,6,3,1,60,0,1
142123,-125,6,3,2,60,0,1
142558,-125,6,3,10,60,0,1
142776,-125,6,3,6,60,0,1
143102,-125,6,3,1,5,0,1
143211,-125,6,3,1,60,0,1
143428,-125,6,3,4,40,0,1
143646,-125,6,3,1,60,0,1
144298,-125,6,3,11,60,0,1
144515,-125,6,3,3,60,0,1
144733,-125,6,3,10,60,0,1
144950,-125,6,3,4,60,0,1
145385,-125,6,3,7,60,0,1
145602,-125,6,3,8,60,0,1
145819,-125,6,3,9,60,0,1
146037,-125,6,3,1,60,0,1
146255,-125,6,3,7,60,0,1
146472,-125,6,3,12,60,0,1
146581,-125,6,3,13,60,0,1
146689,-125,6,3,4,60,0,0
147341,-153.846153846154,6,3,1,60,0,0
147558,-153.846153846154,6,3,2,60,0,0
147776,-153.846153846154,6,3,6,60,0,0
148428,-153.846153846154,6,3,4,60,0,0
149950,-153.846153846154,6,3,7,60,0,0
150602,-153.846153846154,6,3,1,60,0,0
150819,-153.846153846154,6,3,17,60,0,0
151037,-153.846153846154,6,3,1,60,0,0
151254,-153.846153846154,6,3,17,60,0,0
151472,-153.846153846154,6,3,1,60,0,0
151689,-153.846153846154,6,3,7,60,0,0
151907,-153.846153846154,6,3,4,60,0,0
152124,-153.846153846154,6,3,1,60,0,0
153211,-153.846153846154,6,3,17,60,0,0
153646,-153.846153846154,6,3,1,60,0,0
155820,-153.846153846154,6,3,7,60,0,0
156255,-153.846153846154,6,3,9,60,0,0
156399,-153.846153846154,6,3,8,60,0,0
156544,-153.846153846154,6,3,12,60,0,0
156689,-153.846153846154,6,3,9,60,0,0
156797,-153.846153846154,6,3,13,60,0,0
156906,-153.846153846154,6,3,7,60,0,0
157124,-153.846153846154,6,3,4,60,0,0
157559,-153.846153846154,6,3,1,60,0,0
158428,-153.846153846154,6,3,10,60,0,0
159733,-153.846153846154,6,3,1,60,0,0
161037,-153.846153846154,6,3,10,60,0,0
161472,-153.846153846154,6,3,1,60,0,0
162341,-133.333333333334,6,3,7,60,0,0
162994,-133.333333333334,6,3,18,60,0,0
163211,-133.333333333334,6,3,1,60,0,0
163646,-133.333333333334,6,3,18,60,0,0
163863,-133.333333333334,6,3,7,60,0,0
164515,-133.333333333334,6,3,18,60,0,0
164732,-133.333333333334,6,3,7,60,0,0
165167,-133.333333333334,6,3,9,60,0,0
165384,-133.333333333334,6,3,7,60,0,0
166689,-153.846153846154,6,3,9,60,0,0
166906,-153.846153846154,6,3,1,60,0,0
167124,-181.818181818182,6,3,13,60,0,0
167341,-181.818181818182,6,3,1,60,0,0
167559,-181.818181818182,6,3,1,60,0,1
167776,-117.647058823529,6,3,1,60,0,1
168210,-117.647058823529,6,3,2,60,0,1
168645,-117.647058823529,6,3,10,60,0,1
168863,-117.647058823529,6,3,5,60,0,1
169297,-117.647058823529,6,3,3,60,0,1
169515,-117.647058823529,6,3,4,40,0,1
169733,-117.647058823529,6,3,10,60,0,1
170385,-117.647058823529,6,3,2,60,0,1
170819,-117.647058823529,6,3,10,60,0,1
171472,-117.647058823529,6,3,5,60,0,1
171689,-117.647058823529,6,3,1,60,0,1
172124,-117.647058823529,6,3,7,60,0,1
172341,-117.647058823529,6,3,1,60,0,1
172559,-117.647058823529,6,3,8,60,0,1
172668,-117.647058823529,6,3,9,60,0,1
172776,-117.647058823529,6,3,1,60,0,1
173428,-117.647058823529,6,3,2,60,0,1
173863,-117.647058823529,6,3,10,60,0,1
174081,-117.647058823529,6,3,5,60,0,1
174515,-117.647058823529,6,3,3,60,0,1
174733,-117.647058823529,6,3,4,40,0,1
174950,-117.647058823529,6,3,10,60,0,1
175602,-117.647058823529,6,3,11,60,0,1
175819,-117.647058823529,6,3,3,60,0,1
176037,-117.647058823529,6,3,10,60,0,1
176254,-117.647058823529,6,3,4,60,0,1
176689,-117.647058823529,6,3,5,60,0,1
177124,-117.647058823529,6,3,1,60,0,1
177341,-117.647058823529,6,3,7,60,0,1
177559,-117.647058823529,6,3,9,60,0,1
177776,-117.647058823529,6,3,1,60,0,1
177994,-117.647058823529,6,3,4,60,0,1
178645,-117.647058823529,6,3,1,60,0,1
179298,-117.647058823529,6,3,6,60,0,1
179732,-117.647058823529,6,3,1,60,0,1
179950,-117.647058823529,6,3,4,40,0,1
180168,-117.647058823529,6,3,1,60,0,1
181907,-117.647058823529,6,3,6,60,0,1
182341,-117.647058823529,6,3,1,60,0,1
182559,-117.647058823529,6,3,7,60,0,1
182776,-117.647058823529,6,3,1,60,0,1
183862,-117.647058823529,6,3,2,60,0,1
184297,-117.647058823529,6,3,10,60,0,1
184515,-117.647058823529,6,3,6,60,0,1
184949,-117.647058823529,6,3,1,60,0,1
185168,-117.647058823529,6,3,4,40,0,1
185385,-117.647058823529,6,3,1,60,0,1
186037,-117.647058823529,6,3,11,60,0,1
186254,-117.647058823529,6,3,3,60,0,1
186472,-117.647058823529,6,3,10,60,0,1
186689,-117.647058823529,6,3,4,60,0,1
187124,-117.647058823529,6,3,7,60,0,1
187341,-117.647058823529,6,3,8,60,0,1
187558,-117.647058823529,6,3,9,60,0,1
187776,-117.647058823529,6,3,1,60,0,1
187994,-117.647058823529,6,3,7,60,0,1
188211,-117.647058823529,6,3,12,60,0,1
188320,-117.647058823529,6,3,13,60,0,1
188428,-117.647058823529,6,3,1,60,0,1
189080,-117.647058823529,6,3,2,60,0,1
189515,-117.647058823529,6,3,10,60,0,1
189733,-117.647058823529,6,3,5,60,0,1
190167,-117.647058823529,6,3,3,60,0,1
190385,-117.647058823529,6,3,4,40,0,1
190602,-117.647058823529,6,3,10,60,0,1
191255,-117.647058823529,6,3,2,60,0,1
191689,-117.647058823529,6,3,10,60,0,1
192341,-117.647058823529,6,3,5,60,0,1
192775,-117.647058823529,6,3,1,60,0,1
192994,-117.647058823529,6,3,7,60,0,1
193211,-117.647058823529,6,3,1,60,0,1
193428,-117.647058823529,6,3,8,60,0,1
193537,-117.647058823529,6,3,9,60,0,1
193646,-117.647058823529,6,3,1,60,0,1
194297,-117.647058823529,6,3,2,60,0,1
194732,-117.647058823529,6,3,10,60,0,1
194950,-117.647058823529,6,3,5,60,0,1
195384,-117.647058823529,6,3,3,60,0,1
195602,-117.647058823529,6,3,4,40,0,1
195820,-117.647058823529,6,3,10,60,0,1
196472,-117.647058823529,6,3,11,60,0,1
196689,-117.647058823529,6,3,3,60,0,1
196907,-117.647058823529,6,3,10,60,0,1
197124,-117.647058823529,6,3,4,60,0,1
197559,-117.647058823529,6,3,5,60,0,1
197994,-117.647058823529,6,3,1,60,0,1
198211,-117.647058823529,6,3,7,60,0,1
198428,-117.647058823529,6,3,9,60,0,1
198646,-117.647058823529,6,3,1,60,0,1
198863,-117.647058823529,6,3,4,60,0,1
199515,-117.647058823529,6,3,1,60,0,1
200168,-117.647058823529,6,3,6,60,0,1
200602,-117.647058823529,6,3,1,60,0,1
200820,-117.647058823529,6,3,4,40,0,1
201037,-117.647058823529,6,3,1,60,0,1
202776,-117.647058823529,6,3,6,60,0,1
203210,-117.647058823529,6,3,1,60,0,1
203428,-117.647058823529,6,3,7,60,0,1
203645,-117.647058823529,6,3,1,60,0,1
204732,-117.647058823529,6,3,2,60,0,1
205167,-117.647058823529,6,3,10,60,0,1
205385,-117.647058823529,6,3,6,60,0,1
205819,-117.647058823529,6,3,1,60,0,1
206037,-117.647058823529,6,3,4,40,0,1
206255,-117.647058823529,6,3,1,60,0,1
206907,-117.647058823529,6,3,11,60,0,1
207124,-117.647058823529,6,3,3,60,0,1
207341,-117.647058823529,6,3,10,60,0,1
207558,-117.647058823529,6,3,4,60,0,1
207994,-117.647058823529,6,3,7,60,0,1
208211,-117.647058823529,6,3,8,60,0,1
208428,-117.647058823529,6,3,9,60,0,1
208646,-117.647058823529,6,3,1,60,0,1
208863,-117.647058823529,6,3,7,60,0,1
209081,-117.647058823529,6,3,12,60,0,1
209189,-117.647058823529,6,3,13,60,0,1
209298,-117.647058823529,6,3,4,60,0,0
209950,-153.846153846154,6,3,1,60,0,0
210167,-153.846153846154,6,3,2,60,0,0
210385,-153.846153846154,6,3,6,60,0,0
211037,-153.846153846154,6,3,4,60,0,0
212559,-153.846153846154,6,3,7,60,0,0
213211,-153.846153846154,6,3,1,60,0,0
213428,-153.846153846154,6,3,17,60,0,0
213646,-153.846153846154,6,3,1,60,0,0
213863,-153.846153846154,6,3,17,60,0,0
214081,-153.846153846154,6,3,1,60,0,0
214298,-153.846153846154,6,3,7,60,0,0
214515,-153.846153846154,6,3,4,60,0,0
214732,-153.846153846154,6,3,1,60,0,0
215820,-153.846153846154,6,3,17,60,0,0
216255,-153.846153846154,6,3,1,60,0,0
218428,-153.846153846154,6,3,7,60,0,0
218863,-153.846153846154,6,3,9,60,0,0
219007,-153.846153846154,6,3,8,60,0,0
219152,-153.846153846154,6,3,12,60,0,0
219298,-153.846153846154,6,3,9,60,0,0
219406,-153.846153846154,6,3,13,60,0,0
219515,-153.846153846154,6,3,7,60,0,0
219733,-153.846153846154,6,3,4,60,0,0
220168,-153.846153846154,6,3,1,60,0,0
221037,-153.846153846154,6,3,10,60,0,0
222341,-153.846153846154,6,3,1,60,0,0
223646,-153.846153846154,6,3,10,60,0,0
224080,-153.846153846154,6,3,1,60,0,0
224950,-133.333333333334,6,3,7,60,0,0
225602,-133.333333333334,6,3,18,60,0,0
225819,-133.333333333334,6,3,1,60,0,0
226255,-133.333333333334,6,3,18,60,0,0
226472,-133.333333333334,6,3,7,60,0,0
227124,-133.333333333334,6,3,18,60,0,0
227341,-133.333333333334,6,3,7,60,0,0
227776,-133.333333333334,6,3,9,60,0,0
227993,-133.333333333334,6,3,7,60,0,0
229298,-153.846153846155,6,3,9,60,0,0
229515,-153.846153846155,6,3,1,60,0,0
229733,-181.818181818183,6,3,13,60,0,0
229950,-181.818181818183,6,3,1,60,0,0
230168,-181.818181818183,6,3,8,60,0,0
232776,-250,6,3,8,60,0,0
233212,-250,6,2,100,60,0,0
233217,-250,6,3,1,60,0,0
233647,-250,6,2,101,60,0,0
233652,-250,6,3,10,60,0,0
234081,-250,6,3,8,60,0,0
234515,-250,6,3,3,60,0,0
234733,-250,6,3,7,60,0,0
235385,-250,6,3,1,60,0,0
237124,-250,6,3,8,60,0,0
237341,-250,6,3,9,60,0,0
237559,-250,6,3,7,60,0,0
237776,-250,6,3,13,60,0,0
237994,-333.333333333333,6,3,1,60,0,0
239298,-666.666666666667,6,3,8,60,0,0

[Colours]
Combo1 : 191,184,182
Combo2 : 149,100,47
Combo3 : 121,134,154
Combo4 : 130,100,78

[HitObjects]
213,44,39719,6,0,P|173:30|109:85,1,120,8|0,2:3|3:0,2:0:0:0:
41,157,40371,2,0,P|81:143|145:198,1,120,8|0,2:3|3:0,2:0:0:0:
193,242,41023,1,8,2:3:0:0:
122,285,41240,2,0,L|115:250,2,29.9999999999999,8|8|8,2:3|2:3|2:3,2:0:0:0:
187,348,41901,1,8,2:3:0:0:
266,309,42122,1,8,2:3:0:0:
266,309,42232,1,8,2:3:0:0:
266,309,42342,5,4,3:2:0:0:
331,359,42559,2,0,P|391:338|457:325,2,120,0|0|0,3:0|3:0|3:0,2:0:0:0:
504,268,43646,2,0,B|532:318|532:318|508:375,1,120,8|0,3:0|3:0,2:0:0:0:
429,304,44298,1,8,2:3:0:0:
429,304,44407,1,8,2:3:0:0:
429,304,44515,1,0,2:0:0:0:
494,262,44733,1,0,3:0:0:0:
387,223,44950,5,2,3:0:0:0:
333,163,45168,2,0,P|360:126|431:135,2,120,0|0|0,3:0|3:0|3:0,2:0:0:0:
265,208,46255,2,0,P|255:157|240:107,1,89.9999999999998,8|0,3:0|2:0,2:0:0:0:
219,95,46689,2,0,B|186:86|186:86|154:107,1,59.9999999999999,4|8,3:2|2:3,2:0:0:0:
108,159,47124,2,0,B|75:168|75:168|43:147,1,59.9999999999999,4|8,3:2|2:3,2:0:0:0:
41,127,47450,1,8,2:3:0:0:
41,127,47559,5,4,3:2:0:0:
0,264,47776,2,0,P|57:247|118:236,2,120,0|0|0,3:0|3:0|3:0,2:0:0:0:
164,340,48863,2,0,P|214:303|197:247,1,120,8|0,3:0|3:0,2:0:0:0:
255,163,49515,1,8,2:3:0:0:
255,163,49624,1,8,2:3:0:0:
255,163,49733,1,0,2:0:0:0:
173,186,49950,1,0,3:0:0:0:
260,150,50168,5,2,3:0:0:0:
202,92,50385,2,0,L|126:79,1,59.9999999999999,8|0,2:3|3:0,2:0:0:0:
193,81,50820,2,0,L|117:68,2,59.9999999999999,8|0|0,2:3|3:0|3:0,2:0:0:0:
264,32,51472,1,8,3:0:0:0:
402,129,51907,2,0,P|408:94|417:66,1,59.9999999999999,4|8,3:2|2:3,2:0:0:0:
442,48,52233,1,8,2:3:0:0:
442,48,52342,1,8,2:3:0:0:
490,156,52559,1,0,3:0:0:0:
490,156,52668,1,4,3:2:0:0:
490,156,52776,5,4,3:2:0:0:
369,204,52994,2,0,P|406:243|476:227,2,120,0|0|0,3:0|3:0|3:0,2:0:0:0:
287,119,54081,2,0,B|276:178|276:178|279:184|279:184|267:252,1,120,10|2,3:0|3:2,2:0:0:0:
188,287,54733,1,8,2:3:0:0:
188,287,54841,1,8,2:3:0:0:
188,287,54950,1,2,2:0:0:0:
277,251,55168,1,0,3:0:0:0:
197,266,55385,5,2,3:2:0:0:
246,384,55602,2,0,P|237:347|209:254,2,120,2|0|0,3:1|3:0|3:0,2:0:0:0:
94,243,56689,2,0,P|120:195|202:209,1,120,10|2,3:0|3:2,2:0:0:0:
251,148,57341,2,0,L|263:88,1,59.9999999999999,8|2,2:3|3:2,2:0:0:0:
206,15,57776,1,2,2:1:0:0:
206,15,57885,1,2,2:1:0:0:
206,15,57994,5,4,3:0:0:0:
140,69,58211,2,0,B|82:81|82:81|25:43,2,120,0|0|0,3:0|3:0|3:0,2:0:0:0:
286,16,59298,2,0,P|362:24|378:69,1,120,10|2,3:0|3:2,2:0:0:0:
329,147,59950,1,8,2:3:0:0:
329,147,60059,1,8,2:3:0:0:
329,147,60168,1,2,2:0:0:0:
406,175,60385,1,0,3:0:0:0:
313,154,60602,5,2,3:0:0:0:
356,236,60820,2,0,L|340:301,1,59.9999999999999,8|0,2:3|3:0,2:0:0:0:
363,250,61255,2,0,L|347:315,2,59.9999999999999,8|0|0,2:3|3:0|3:0,2:0:0:0:
266,345,61907,2,0,L|251:286,2,59.9999999999999,10|8|8,3:0|2:3|2:3,2:0:0:0:
258,361,62559,1,4,3:2:0:0:
155,297,62776,1,8,2:3:0:0:
140,301,62885,1,8,2:3:0:0:
125,305,62994,1,8,2:3:0:0:
110,309,63102,1,8,2:3:0:0:
84,336,63211,5,4,3:2:0:0:
4,266,63428,2,0,P|41:220|97:231,2,120,0|0|0,3:0|3:0|3:0,2:0:0:0:
161,192,64515,2,0,P|152:146|123:63,1,120,8|0,3:0|3:0,2:0:0:0:
50,50,65168,1,8,2:3:0:0:
50,50,65276,1,8,2:3:0:0:
50,50,65385,1,0,2:0:0:0:
117,0,65602,1,0,3:0:0:0:
41,58,65820,5,2,3:0:0:0:
114,112,66037,2,0,B|170:100|170:100|181:102|181:102|233:94,2,120,0|0|0,3:0|3:0|3:0,2:0:0:0:
188,11,67124,1,8,3:0:0:0:
200,0,67559,2,0,P|238:10|256:33,1,59.9999999999999,4|8,3:2|2:3,2:0:0:0:
322,3,67994,2,0,P|334:40|325:67,1,59.9999999999999,4|8,3:2|2:3,2:0:0:0:
310,81,68320,1,8,2:3:0:0:
310,81,68428,5,4,3:2:0:0:
378,132,68646,2,0,P|435:114|494:103,2,120,0|0|0,3:0|3:0|3:0,2:0:0:0:
309,197,69733,2,0,B|274:215|274:215|197:191,1,120,8|0,3:0|3:0,2:0:0:0:
160,106,70385,1,8,2:3:0:0:
160,106,70494,1,8,2:3:0:0:
160,106,70602,1,0,2:0:0:0:
201,175,70820,1,0,3:0:0:0:
137,97,71037,5,2,3:0:0:0:
68,151,71255,2,0,L|57:221,1,59.9999999999999,8|0,2:3|3:0,2:0:0:0:
54,160,71689,2,0,L|43:230,2,59.9999999999999,8|0|0,2:3|3:0|3:0,2:0:0:0:
129,227,72341,1,8,3:0:0:0:
5,339,72776,2,0,P|44:340|71:317,1,59.9999999999999,4|8,3:2|2:3,2:0:0:0:
69,304,73102,1,8,2:3:0:0:
69,304,73211,1,8,2:3:0:0:
141,362,73428,1,0,3:0:0:0:
141,362,73537,1,4,3:2:0:0:
141,362,73646,5,4,3:2:0:0:
192,304,73863,2,0,B|246:288|246:288|264:293|264:293|334:274,2,120,0|0|0,3:0|3:0|3:0,2:0:0:0:
175,180,74950,2,0,P|216:167|267:216,1,120,10|2,3:0|3:2,2:0:0:0:
348,209,75602,1,8,2:3:0:0:
348,209,75711,1,8,2:3:0:0:
348,209,75820,1,2,2:0:0:0:
306,134,76037,1,0,3:0:0:0:
359,199,76255,5,2,3:2:0:0:
435,96,76472,2,0,P|388:103|308:121,2,120,2|0|0,3:1|3:0|3:0,2:0:0:0:
489,35,77559,2,0,B|524:83|524:83|502:150,1,120,10|2,3:0|3:2,2:0:0:0:
425,192,78211,2,0,L|441:261,1,59.9999999999999,8|2,2:3|3:2,2:0:0:0:
506,307,78646,1,2,2:1:0:0:
506,307,78755,1,2,2:1:0:0:
506,307,78863,5,4,3:2:0:0:
433,361,79081,2,0,L|394:353,4,29.9999999999999,8|8|8|8|0,2:3|2:3|2:3|2:3|3:0,2:0:0:0:
355,288,79733,1,8,2:3:0:0:
355,288,79841,1,8,2:3:0:0:
355,288,79950,2,0,L|291:304,1,59.9999999999999,8|0,2:3|3:0,2:0:0:0:
239,371,80385,1,8,2:3:0:0:
185,303,80602,2,0,L|195:268,2,29.9999999999999,8|8|8,2:3|2:3|2:3,2:0:0:0:
112,361,81037,1,8,2:3:0:0:
109,346,81146,1,8,2:3:0:0:
106,331,81255,1,8,2:3:0:0:
104,316,81363,1,8,2:3:0:0:
100,301,81472,6,0,L|92:254,2,29.9999999999999,8|8|8,2:3|2:3|2:3,2:0:0:0:
153,200,81907,1,0,3:0:0:0:
74,169,82124,1,8,2:3:0:0:
162,190,82341,2,0,L|228:177,1,59.9999999999999,8|0,2:3|3:0,2:0:0:0:
248,78,82776,2,0,P|228:65|208:63,1,39.9999999999998,4|0,2:0|3:0,2:0:0:0:
140,111,83211,2,0,L|132:72,1,29.9999999999999,8|0,2:3|3:0,2:0:0:0:
152,6,83646,1,8,2:3:0:0:
68,47,83863,1,8,2:3:0:0:
68,47,83972,1,8,2:3:0:0:
68,47,84081,5,4,3:2:0:0:
219,96,84515,1,4,3:2:0:0:
291,64,84733,2,0,L|302:-4,1,64.9999999999999,4|4,3:2|2:0,2:0:0:0:
368,59,85168,1,0,3:0:0:0:
315,141,85385,2,0,P|347:163|381:163,1,64.9999999999999,12|0,3:0|3:0,2:0:0:0:
478,178,85820,2,0,P|442:194|425:224,1,64.9999999999999,4|0,3:0|3:0,2:0:0:0:
364,300,86255,2,0,P|367:261|350:231,1,64.9999999999999,4|0,3:2|3:0,2:0:0:0:
283,215,86689,5,4,3:2:0:0:
253,348,87124,1,0,3:0:0:0:
253,348,87233,1,0,3:0:0:0:
253,348,87341,1,12,2:3:0:0:
156,257,87776,1,0,3:0:0:0:
156,257,87885,1,0,3:0:0:0:
156,257,87994,2,0,L|88:271,1,64.9999999999999,4|10,3:2|2:3,2:0:0:0:
0,330,88428,2,0,L|68:344,1,64.9999999999999,4|12,3:0|2:3,2:0:0:0:
127,384,88863,1,2,3:1:0:0:
181,330,89081,1,8,2:3:0:0:
146,262,89298,6,0,P|141:224|152:195,1,64.9999999999999,6|2,3:0|2:0,2:0:0:0:
217,161,89733,2,0,P|225:191|220:223,1,64.9999999999999,2|2,2:1|2:0,2:0:0:0:
145,124,90168,2,0,L|70:111,1,64.9999999999999,4|0,2:0|3:0,2:0:0:0:
53,126,90494,1,0,3:0:0:0:
53,126,90602,1,12,2:3:0:0:
157,4,91037,1,4,3:2:0:0:
162,30,91255,1,0,3:0:0:0:
273,86,91689,1,0,3:0:0:0:
269,113,91907,6,0,L|254:186,1,64.9999999999999,4|0,3:2|2:0,2:0:0:0:
314,226,92341,2,0,P|345:205|380:205,1,64.9999999999999,2|0,3:1|3:0,2:0:0:0:
428,152,92776,2,0,P|397:131|362:131,1,64.9999999999999,4|0,2:0|3:0,2:0:0:0:
437,265,93211,1,8,2:3:0:0:
437,265,93320,1,8,2:3:0:0:
437,265,93428,1,0,3:0:0:0:
413,340,93646,2,0,B|443:346|443:346|476:335,2,43.3333333333333,8|8|8,2:3|2:3|2:3,2:0:0:0:
353,281,94081,2,0,L|317:289,1,32.5,8|8,2:3|2:3,2:0:0:0:
340,274,94298,2,0,L|304:282,1,32.5,8|8,2:3|2:3,2:0:0:0:
291,360,94515,5,4,3:2:0:0:
210,237,94950,2,0,P|183:270|182:304,1,64.9999999999999,2|0,3:0|3:0,2:0:0:0:
105,297,95385,2,0,P|117:337|145:357,1,64.9999999999999,2|0,2:3|3:0,2:0:0:0:
211,360,95820,1,10,3:0:0:0:
123,220,96255,2,0,L|57:232,1,64.9999999999999,2|0,3:0|3:0,2:0:0:0:
104,208,96689,2,0,L|38:220,1,64.9999999999999,2|0,3:0|3:0,2:0:0:0:
162,150,97124,6,0,B|169:120|169:120|148:92,2,64.9999999999999,4|0|4,2:3|3:0|2:0,2:0:0:0:
74,57,97776,2,0,B|53:85|53:85|60:114,2,64.9999999999999,0|4|0,3:0|3:2|2:0,2:0:0:0:
147,16,98428,1,12,3:0:0:0:
216,57,98646,2,0,L|296:42,1,64.9999999999999,0|4,3:0|2:0,2:0:0:0:
340,0,99081,2,0,L|420:15,2,64.9999999999999,0|4|0,3:0|3:2|3:0,2:0:0:0:
332,99,99733,6,0,P|362:143|374:181,1,75.0000000000002,12|0,2:3|3:0,2:0:0:0:
347,237,100168,1,0,3:0:0:0:
265,166,100385,2,0,P|235:210|223:248,1,75.0000000000002,12|0,2:3|3:0,2:0:0:0:
250,304,100820,1,0,3:0:0:0:
311,368,101037,2,0,P|338:340|375:345,1,75.0000000000002,12|0,2:3|3:0,2:0:0:0:
481,310,101472,2,0,P|454:282|417:287,1,75.0000000000002,12|0,2:3|3:0,2:0:0:0:
303,358,101907,2,0,P|330:330|367:335,1,75.0000000000002,12|0,2:3|3:0,2:0:0:0:
328,236,102341,6,0,L|248:253,2,75.0000000000002,8|8|0,2:3|2:3|3:0,2:0:0:0:
206,319,102994,2,0,L|126:302,2,75.0000000000002,12|0|0,2:3|3:0|3:0,2:0:0:0:
86,237,103646,6,0,P|56:271|53:306,1,75.0000000000002,8|0,2:3|3:0,2:0:0:0:
164,230,104081,2,0,P|149:187|120:166,1,65.0000000000004,8|0,2:3|3:0,2:0:0:0:
126,300,104515,2,0,P|168:308|199:294,1,55.0000000000002,8|0,2:3|3:0,2:0:0:0:
254,229,104950,5,4,3:2:0:0:
319,294,105168,2,0,B|350:255|350:255|313:138,2,160,0|0|0,3:0|3:0|3:0,2:0:0:0:
254,357,106255,2,0,P|329:385|396:339,1,160,8|0,3:0|3:0,2:0:0:0:
433,272,106907,1,8,2:3:0:0:
433,272,107015,1,8,2:3:0:0:
433,272,107124,1,0,2:0:0:0:
485,334,107341,1,0,3:0:0:0:
414,271,107559,5,2,3:0:0:0:
466,201,107776,2,0,P|480:145|517:36,2,160,0|0|0,3:0|3:0|3:0,2:0:0:0:
360,162,108863,2,0,P|347:109|330:69,1,80,8|0,3:0|2:0,2:0:0:0:
263,33,109298,1,4,3:2:0:0:
202,99,109515,2,0,L|122:81,1,80,8|4,2:3|3:2,2:0:0:0:
82,8,109950,1,8,2:3:0:0:
82,8,110059,1,8,2:3:0:0:
82,8,110168,5,4,3:2:0:0:
17,68,110385,2,0,B|0:116|37:146|42:140|72:169|53:227,2,160,0|0|0,3:0|3:0|3:0,2:0:0:0:
161,157,111472,2,0,P|95:169|-2:193,1,160,8|0,3:0|3:0,2:0:0:0:
56,270,112124,1,8,2:3:0:0:
56,270,112233,1,8,2:3:0:0:
56,270,112341,1,0,2:0:0:0:
13,343,112559,1,0,3:0:0:0:
70,260,112776,5,2,3:0:0:0:
138,318,112994,2,0,L|229:335,1,80,8|0,2:3|3:0,2:0:0:0:
155,304,113428,2,0,L|246:321,2,80,8|0|0,2:3|3:0|3:0,2:0:0:0:
145,217,114081,1,8,3:0:0:0:
267,130,114515,2,0,P|284:168|294:206,1,80,4|8,3:2|2:3,2:0:0:0:
280,232,114841,1,8,2:3:0:0:
280,232,114950,1,8,2:3:0:0:
382,189,115168,1,0,3:0:0:0:
382,189,115276,1,4,3:2:0:0:
382,189,115385,5,4,3:2:0:0:
433,118,115602,2,0,B|456:82|456:82|342:113,2,160,0|0|0,3:0|3:0|3:0,2:0:0:0:
468,196,116689,2,0,P|492:231|427:317,1,160,10|2,3:0|3:2,2:0:0:0:
353,295,117341,1,8,2:3:0:0:
353,295,117450,1,8,2:3:0:0:
353,295,117559,1,2,2:0:0:0:
384,372,117776,1,0,3:0:0:0:
333,285,117994,5,2,3:2:0:0:
272,369,118211,2,0,P|249:287|205:187,2,160,2|0|0,3:1|3:0|3:0,2:0:0:0:
155,290,119298,2,0,P|93:280|42:356,1,160,10|2,3:0|3:2,2:0:0:0:
149,384,119950,2,0,P|159:338|170:293,1,80,8|2,2:3|3:2,2:0:0:0:
101,235,120385,1,2,2:1:0:0:
101,235,120494,1,2,2:1:0:0:
101,235,120602,5,4,3:0:0:0:
26,198,120820,2,0,B|8:163|8:163|54:39,2,160,0|0|0,3:0|3:0|3:0,2:0:0:0:
97,153,121907,2,0,P|137:130|216:209,1,160,10|2,3:0|3:2,2:0:0:0:
296,152,122559,1,8,2:3:0:0:
296,152,122668,1,8,2:3:0:0:
296,152,122776,1,2,2:0:0:0:
237,85,122994,1,0,3:0:0:0:
309,147,123211,5,2,3:0:0:0:
373,90,123428,2,0,L|352:3,1,80,8|0,2:3|3:0,2:0:0:0:
388,77,123863,2,0,L|367:-10,2,80,8|0|0,2:3|3:0|3:0,2:0:0:0:
463,116,124515,1,10,3:0:0:0:
503,183,124733,2,0,P|457:193|412:167,1,80,8|8,2:3|2:3,2:0:0:0:
354,203,125168,1,4,3:2:0:0:
397,282,125385,1,8,2:3:0:0:
416,277,125494,1,8,2:3:0:0:
435,272,125602,1,8,2:3:0:0:
454,267,125711,1,8,2:3:0:0:
494,281,125820,5,4,3:2:0:0:
453,379,126037,2,0,P|372:352|299:335,2,160,0|0|0,3:0|3:0|3:0,2:0:0:0:
405,268,127124,2,0,B|367:242|367:242|240:279,1,160,8|0,3:0|3:0,2:0:0:0:
226,346,127776,1,8,2:3:0:0:
226,346,127885,1,8,2:3:0:0:
226,346,127994,1,0,2:0:0:0:
156,380,128211,1,0,3:0:0:0:
157,301,128428,5,2,3:0:0:0:
80,303,128646,2,0,P|124:231|214:249,2,160,0|0|0,3:0|3:0|3:0,2:0:0:0:
7,250,129733,2,0,P|19:192|49:88,1,160,8|4,3:0|3:2,2:0:0:0:
109,50,130385,2,0,L|187:36,1,80,8|4,2:3|3:2,2:0:0:0:
255,91,130820,1,8,2:3:0:0:
255,91,130928,1,8,2:3:0:0:
255,91,131037,5,4,3:2:0:0:
318,152,131255,2,0,P|337:81|372:-12,2,160,0|0|0,3:0|3:0|3:0,2:0:0:0:
266,240,132341,2,0,B|340:224|340:224|349:227|349:227|431:212,1,160,8|0,3:0|3:0,2:0:0:0:
470,152,132994,1,8,2:3:0:0:
470,152,133102,1,8,2:3:0:0:
470,152,133211,1,0,2:0:0:0:
505,225,133428,1,0,3:0:0:0:
454,160,133646,5,2,3:0:0:0:
388,236,133863,2,0,L|375:317,1,80,8|0,2:3|3:0,2:0:0:0:
404,225,134298,2,0,L|391:306,2,80,8|0|0,2:3|3:0|3:0,2:0:0:0:
350,158,134950,1,8,3:0:0:0:
408,33,135385,2,0,P|373:3|327:3,1,80,4|8,3:2|2:3,2:0:0:0:
317,17,135711,1,8,2:3:0:0:
317,17,135820,1,8,2:3:0:0:
289,100,136037,1,0,3:0:0:0:
289,100,136146,1,4,3:2:0:0:
289,100,136255,5,4,3:2:0:0:
203,67,136472,2,0,B|129:78|129:78|117:89|117:89|32:103,2,160,0|0|0,3:0|3:0|3:0,2:0:0:0:
163,157,137559,2,0,P|144:100|94:9,1,160,10|2,3:0|3:2,2:0:0:0:
41,87,138211,1,8,2:3:0:0:
41,87,138320,1,8,2:3:0:0:
41,87,138428,1,2,2:0:0:0:
6,162,138646,1,0,3:0:0:0:
88,148,138863,5,2,3:2:0:0:
62,228,139081,2,0,P|140:241|216:266,2,160,2|0|0,3:1|3:0|3:0,2:0:0:0:
5,339,140168,2,0,B|52:357|52:357|168:335,1,160,10|2,3:0|3:2,2:0:0:0:
230,254,140820,2,0,L|315:273,1,80,8|2,2:3|3:2,2:0:0:0:
358,347,141255,1,2,2:1:0:0:
358,347,141363,1,2,2:1:0:0:
358,347,141472,5,4,3:0:0:0:
423,294,141689,2,0,B|454:320|454:320|423:185,2,160,0|0|0,3:0|3:0|3:0,2:0:0:0:
322,233,142776,2,0,P|337:171|366:96,1,120,10|0,3:0|2:0,2:0:0:0:
386,96,143211,2,0,B|358:67|358:67|302:78,1,80,2|8,3:2|2:3,2:0:0:0:
263,137,143646,2,0,B|235:166|235:166|179:155,1,80,2|0,2:0|3:0,2:0:0:0:
128,108,144081,5,2,3:0:0:0:
200,25,144298,2,0,L|116:8,1,80,8|0,2:3|3:0,2:0:0:0:
179,35,144733,2,0,L|95:18,2,80,8|0|0,2:3|3:0|3:0,2:0:0:0:
225,94,145385,1,10,3:0:0:0:
276,37,145602,2,0,P|301:70|297:123,1,80,8|8,2:3|2:3,2:0:0:0:
253,163,146037,1,4,3:2:0:0:
312,214,146255,1,8,2:3:0:0:
309,233,146363,1,8,2:3:0:0:
305,252,146472,1,8,2:3:0:0:
301,271,146581,1,8,2:3:0:0:
274,298,146689,5,4,3:2:0:0:
188,239,147124,1,4,3:2:0:0:
132,305,147341,2,0,L|47:287,1,64.9999999999999,4|4,3:2|2:0,2:0:0:0:
28,220,147776,1,0,3:0:0:0:
90,166,147994,2,0,P|114:197|110:231,1,64.9999999999999,12|0,3:0|3:0,2:0:0:0:
70,92,148428,2,0,P|109:89|135:111,1,64.9999999999999,4|0,3:0|3:0,2:0:0:0:
0,63,148863,2,0,P|19:29|52:20,1,64.9999999999999,4|0,3:2|3:0,2:0:0:0:
127,0,149298,5,4,3:2:0:0:
244,70,149733,1,0,3:0:0:0:
244,70,149841,1,0,3:0:0:0:
244,70,149950,1,12,2:3:0:0:
363,7,150385,1,0,3:0:0:0:
363,7,150494,1,0,3:0:0:0:
363,7,150602,2,0,L|376:70,1,64.9999999999999,4|10,3:2|2:3,2:0:0:0:
452,113,151037,2,0,L|467:47,1,64.9999999999999,4|12,3:0|2:3,2:0:0:0:
362,89,151472,1,2,3:1:0:0:
381,165,151689,1,8,2:3:0:0:
437,220,151907,6,0,P|467:202|500:198,1,64.9999999999999,6|2,3:0|2:0,2:0:0:0:
439,295,152341,2,0,P|407:289|379:272,1,64.9999999999999,2|2,2:1|2:0,2:0:0:0:
323,219,152776,2,0,L|258:231,1,64.9999999999999,4|0,2:0|3:0,2:0:0:0:
241,251,153102,1,0,3:0:0:0:
241,251,153211,1,12,2:3:0:0:
140,145,153646,1,4,3:2:0:0:
147,112,153863,1,0,3:0:0:0:
56,200,154298,1,0,3:0:0:0:
62,233,154515,6,0,L|76:305,1,64.9999999999999,4|0,3:2|2:0,2:0:0:0:
143,330,154950,2,0,P|174:312|207:309,1,64.9999999999999,2|0,3:1|3:0,2:0:0:0:
89,384,155385,2,0,P|58:366|25:363,1,64.9999999999999,4|0,2:0|3:0,2:0:0:0:
152,323,155820,1,8,2:3:0:0:
152,323,155928,1,8,2:3:0:0:
152,323,156037,1,0,3:0:0:0:
99,254,156255,2,0,B|125:241|125:241|161:245,2,43.3333333333333,8|8|8,2:3|2:3|2:3,2:0:0:0:
8,280,156689,2,0,L|3:246,3,32.5,8|8|8|8,2:3|2:3|2:3|2:3,2:0:0:0:
52,193,157124,5,4,3:2:0:0:
168,98,157559,2,0,P|135:103|104:112,1,64.9999999999999,2|0,3:0|3:0,2:0:0:0:
194,172,157994,2,0,P|226:177|257:186,1,64.9999999999999,2|0,2:3|3:0,2:0:0:0:
321,138,158428,1,10,3:0:0:0:
388,56,158863,2,0,P|358:32|320:39,1,64.9999999999999,2|0,3:0|3:0,2:0:0:0:
396,47,159298,2,0,P|366:23|328:30,1,64.9999999999999,2|0,3:0|3:0,2:0:0:0:
432,120,159733,6,0,P|471:108|497:104,2,64.9999999999999,4|0|4,2:3|3:0|2:0,2:0:0:0:
370,179,160385,2,0,P|331:167|305:163,2,64.9999999999999,0|4|0,3:0|3:2|2:0,2:0:0:0:
431,232,161037,1,12,3:0:0:0:
358,254,161255,2,0,L|370:318,1,64.9999999999999,0|4,3:0|2:0,2:0:0:0:
440,369,161689,2,0,L|452:305,2,64.9999999999999,0|4|0,3:0|3:2|3:0,2:0:0:0:
289,338,162341,6,0,P|329:357|366:351,1,74.9999999999996,12|0,2:3|3:0,2:0:0:0:
335,273,162776,1,0,3:0:0:0:
255,255,162994,2,0,P|215:274|178:268,1,74.9999999999996,12|0,2:3|3:0,2:0:0:0:
209,190,163428,1,0,3:0:0:0:
273,134,163646,2,0,L|364:155,1,74.9999999999996,12|0,2:3|3:0,2:0:0:0:
208,85,164081,2,0,L|117:106,1,74.9999999999996,12|0,2:3|3:0,2:0:0:0:
287,124,164515,2,0,L|378:145,1,74.9999999999996,12|0,2:3|3:0,2:0:0:0:
243,15,164950,6,0,P|214:30|200:75,2,74.9999999999996,8|8|0,2:3|2:3|3:0,2:0:0:0:
119,55,165602,2,0,P|116:91|138:120,2,74.9999999999996,12|0|0,2:3|3:0|3:0,2:0:0:0:
213,141,166255,2,0,P|195:184|185:222,1,74.9999999999996,8|0,2:3|3:0,2:0:0:0:
117,257,166689,2,0,P|107:226|94:197,1,64.9999999999999,8|0,2:3|3:0,2:0:0:0:
200,280,167124,2,0,P|186:309|176:340,1,54.9999999999999,8|0,2:3|3:0,2:0:0:0:
110,384,167559,5,4,3:2:0:0:
169,341,167776,2,0,B|216:323|255:350|244:360|286:379|331:362,2,170.000000000001,0|0|0,3:0|3:0|3:0,2:0:0:0:
273,247,168863,2,0,B|350:234|350:234|353:230|353:230|448:211,1,170.000000000001,8|0,3:0|3:0,2:0:0:0:
512,148,169515,1,8,2:3:0:0:
512,148,169624,1,8,2:3:0:0:
512,148,169733,1,0,2:0:0:0:
438,99,169950,1,0,3:0:0:0:
512,125,170168,5,2,3:0:0:0:
487,26,170385,2,0,B|459:3|459:3|322:31,2,170.000000000001,0|0|0,3:0|3:0|3:0,2:0:0:0:
413,130,171472,2,0,P|373:112|333:101,1,85.0000000000003,8|0,3:0|2:0,2:0:0:0:
261,138,171907,1,4,3:2:0:0:
202,81,172124,2,0,P|214:35|235:-12,1,85.0000000000003,8|4,2:3|3:2,2:0:0:0:
126,82,172559,1,8,2:3:0:0:
126,82,172668,1,8,2:3:0:0:
126,82,172776,5,4,3:2:0:0:
85,4,172994,2,0,P|12:44|19:124,2,170.000000000001,0|0|0,3:0|3:0|3:0,2:0:0:0:
139,72,174081,2,0,P|108:147|87:240,1,170.000000000001,8|0,3:0|3:0,2:0:0:0:
150,299,174733,1,8,2:3:0:0:
150,299,174841,1,8,2:3:0:0:
150,299,174950,1,0,2:0:0:0:
73,324,175168,1,0,3:0:0:0:
155,277,175385,5,2,3:0:0:0:
214,337,175602,2,0,L|306:354,1,85.0000000000003,8|0,2:3|3:0,2:0:0:0:
230,322,176037,2,0,L|322:339,2,85.0000000000003,8|0|0,2:3|3:0|3:0,2:0:0:0:
222,240,176689,1,8,3:0:0:0:
376,166,177124,2,0,P|357:202|348:246,1,85.0000000000003,4|8,3:2|2:3,2:0:0:0:
372,279,177450,1,8,2:3:0:0:
372,279,177559,1,8,2:3:0:0:
467,287,177776,1,0,3:0:0:0:
467,287,177885,1,4,3:2:0:0:
467,287,177994,5,4,3:2:0:0:
490,196,178211,2,0,B|470:128|470:128|456:108|456:108|436:36,2,170.000000000001,0|0|0,3:0|3:0|3:0,2:0:0:0:
367,157,179298,2,0,P|289:129|202:110,1,170.000000000001,10|2,3:0|3:2,2:0:0:0:
135,188,179950,1,8,2:3:0:0:
135,188,180059,1,8,2:3:0:0:
135,188,180168,1,2,2:0:0:0:
178,264,180385,1,0,3:0:0:0:
143,195,180602,5,2,3:2:0:0:
71,276,180820,2,0,P|133:286|238:327,2,170.000000000001,2|0|0,3:1|3:0|3:0,2:0:0:0:
6,330,181907,2,0,B|-20:290|-20:290|20:175,1,170.000000000001,10|2,3:0|3:2,2:0:0:0:
103,99,182559,2,0,L|128:192,1,85.0000000000003,8|2,2:3|3:2,2:0:0:0:
196,114,182994,1,2,2:1:0:0:
196,114,183102,1,2,2:1:0:0:
196,114,183211,5,4,3:0:0:0:
154,35,183428,2,0,P|204:-5|302:42,2,170.000000000001,0|0|0,3:0|3:0|3:0,2:0:0:0:
268,130,184515,2,0,P|335:106|435:83,1,170.000000000001,10|2,3:0|3:2,2:0:0:0:
495,142,185168,1,8,2:3:0:0:
495,142,185276,1,8,2:3:0:0:
495,142,185385,1,2,2:0:0:0:
433,73,185602,1,0,3:0:0:0:
395,163,185820,5,2,3:0:0:0:
477,157,186037,2,0,L|494:242,1,85.0000000000003,8|0,2:3|3:0,2:0:0:0:
495,167,186472,2,0,L|512:252,2,85.0000000000003,8|0|0,2:3|3:0|3:0,2:0:0:0:
427,241,187124,1,10,3:0:0:0:
345,256,187341,2,0,P|331:295|346:337,1,85.0000000000003,8|8,2:3|2:3,2:0:0:0:
414,313,187776,1,4,3:2:0:0:
338,244,187994,1,8,2:3:0:0:
318,239,188102,1,8,2:3:0:0:
298,234,188211,1,8,2:3:0:0:
278,230,188320,1,8,2:3:0:0:
238,243,188428,5,4,3:2:0:0:
175,186,188646,2,0,P|150:263|128:369,2,170.000000000001,0|0|0,3:0|3:0|3:0,2:0:0:0:
262,143,189733,2,0,B|199:90|199:90|113:117,1,170.000000000001,8|0,3:0|3:0,2:0:0:0:
62,180,190385,1,8,2:3:0:0:
62,180,190494,1,8,2:3:0:0:
62,180,190602,1,0,2:0:0:0:
16,104,190820,1,0,3:0:0:0:
74,167,191037,5,2,3:0:0:0:
129,86,191255,2,0,P|110:130|80:253,2,170.000000000001,0|0|0,3:0|3:0|3:0,2:0:0:0:
184,153,192341,2,0,P|215:232|234:316,1,170.000000000001,8|4,3:0|3:2,2:0:0:0:
124,381,192994,2,0,L|140:296,1,85.0000000000003,8|4,2:3|3:2,2:0:0:0:
216,239,193428,1,8,2:3:0:0:
216,239,193537,1,8,2:3:0:0:
216,239,193646,5,4,3:2:0:0:
290,293,193863,2,0,B|344:306|369:275|365:268|399:238|456:253,2,170.000000000001,0|0|0,3:0|3:0|3:0,2:0:0:0:
315,200,194950,2,0,P|370:225|363:326,1,170.000000000001,8|0,3:0|3:0,2:0:0:0:
445,384,195602,1,8,2:3:0:0:
445,384,195711,1,8,2:3:0:0:
445,384,195820,1,0,2:0:0:0:
498,323,196037,1,0,3:0:0:0:
424,362,196255,5,2,3:0:0:0:
358,310,196472,2,0,L|375:224,1,85.0000000000003,8|0,2:3|3:0,2:0:0:0:
347,295,196907,2,0,L|364:209,2,85.0000000000003,8|0|0,2:3|3:0|3:0,2:0:0:0:
284,362,197559,1,8,3:0:0:0:
151,268,197994,2,0,P|128:301|133:344,1,85.0000000000003,4|8,3:2|2:3,2:0:0:0:
157,363,198320,1,8,2:3:0:0:
157,363,198428,1,8,2:3:0:0:
233,281,198646,1,0,3:0:0:0:
233,281,198755,1,4,3:2:0:0:
233,281,198863,5,4,3:2:0:0:
303,339,199081,2,0,P|385:313|472:298,2,170.000000000001,0|0|0,3:0|3:0|3:0,2:0:0:0:
314,249,200168,2,0,B|343:211|343:211|303:87,1,170.000000000001,10|2,3:0|3:2,2:0:0:0:
214,75,200820,1,8,2:3:0:0:
214,75,200928,1,8,2:3:0:0:
214,75,201037,1,2,2:0:0:0:
287,22,201255,1,0,3:0:0:0:
216,95,201472,5,2,3:2:0:0:
302,12,201689,2,0,P|380:27|466:53,2,170.000000000001,2|0|0,3:1|3:0|3:0,2:0:0:0:
326,120,202776,2,0,B|341:198|341:198|347:204|347:204|364:291,1,170.000000000001,10|2,3:0|3:2,2:0:0:0:
279,343,203428,2,0,L|195:324,1,85.0000000000003,8|2,2:3|3:2,2:0:0:0:
159,234,203863,1,2,2:1:0:0:
159,234,203972,1,2,2:1:0:0:
159,234,204081,5,4,3:0:0:0:
90,310,204298,2,0,B|54:233|54:233|89:156,2,170.000000000001,0|0|0,3:0|3:0|3:0,2:0:0:0:
184,205,205385,2,0,P|215:149|141:95,1,170.000000000001,10|2,3:0|3:2,2:0:0:0:
55,144,206037,1,8,2:3:0:0:
55,144,206146,1,8,2:3:0:0:
55,144,206255,1,2,2:0:0:0:
67,56,206472,1,0,3:0:0:0:
141,21,206689,5,2,3:0:0:0:
220,77,206907,2,0,L|306:62,1,85.0000000000003,8|0,2:3|3:0,2:0:0:0:
230,60,207341,2,0,L|316:45,2,85.0000000000003,8|0|0,2:3|3:0|3:0,2:0:0:0:
156,117,207994,1,10,3:0:0:0:
97,182,208211,2,0,P|154:206|193:188,1,85.0000000000003,8|8,2:3|2:3,2:0:0:0:
233,150,208646,1,4,3:2:0:0:
290,202,208863,1,8,2:3:0:0:
309,198,208972,1,8,2:3:0:0:
328,194,209081,1,8,2:3:0:0:
347,190,209189,1,8,2:3:0:0:
371,164,209298,5,4,3:2:0:0:
436,292,209733,1,4,3:2:0:0:
493,244,209950,2,0,L|482:163,1,64.9999999999999,4|4,3:2|2:0,2:0:0:0:
434,126,210385,1,0,3:0:0:0:
377,76,210602,2,0,P|413:53|451:54,1,64.9999999999999,12|0,3:0|3:0,2:0:0:0:
322,128,211037,2,0,P|286:105|248:106,1,64.9999999999999,4|0,3:0|3:0,2:0:0:0:
371,66,211472,2,0,P|407:43|445:44,1,64.9999999999999,4|0,3:2|3:0,2:0:0:0:
315,1,211907,5,4,3:2:0:0:
195,61,212341,1,0,3:0:0:0:
195,61,212450,1,0,3:0:0:0:
195,61,212559,1,12,2:3:0:0:
72,0,212994,1,0,3:0:0:0:
72,0,213102,1,0,3:0:0:0:
72,0,213211,2,0,L|48:87,1,64.9999999999999,4|10,3:2|2:3,2:0:0:0:
120,109,213646,2,0,L|144:196,1,64.9999999999999,4|12,3:0|2:3,2:0:0:0:
87,236,214081,1,2,3:1:0:0:
10,210,214298,1,8,2:3:0:0:
95,227,214515,6,0,P|123:262|127:298,1,64.9999999999999,6|2,3:0|2:0,2:0:0:0:
205,284,214950,2,0,P|191:326|164:350,1,64.9999999999999,2|2,2:1|2:0,2:0:0:0:
247,384,215385,2,0,L|317:370,1,64.9999999999999,4|0,2:0|3:0,2:0:0:0:
331,350,215711,1,0,3:0:0:0:
331,350,215820,1,12,2:3:0:0:
382,222,216255,1,4,3:2:0:0:
345,230,216472,1,0,3:0:0:0:
229,136,216907,1,0,3:0:0:0:
261,143,217124,6,0,L|330:156,1,64.9999999999999,4|0,3:2|2:0,2:0:0:0:
395,119,217559,2,0,P|413:88|405:52,1,64.9999999999999,2|0,3:1|3:0,2:0:0:0:
321,17,217994,2,0,P|318:48|335:75,1,64.9999999999999,4|0,2:0|3:0,2:0:0:0:
456,0,218428,1,8,2:3:0:0:
456,0,218537,1,8,2:3:0:0:
456,0,218646,1,0,3:0:0:0:
507,59,218863,2,0,B|496:81|496:81|500:108,2,43.3333333333333,8|8|8,2:3|2:3|2:3,2:0:0:0:
415,137,219298,2,0,L|423:92,1,32.5,8|8,2:3|2:3,2:0:0:0:
406,124,219515,2,0,L|414:79,1,32.5,8|8,2:3|2:3,2:0:0:0:
480,171,219733,5,4,3:2:0:0:
339,252,220168,2,0,P|326:214|310:182,1,64.9999999999999,2|0,3:0|3:0,2:0:0:0:
434,230,220602,2,0,P|420:259|410:290,1,64.9999999999999,2|0,2:3|3:0,2:0:0:0:
346,332,221037,1,10,3:0:0:0:
217,384,221472,2,0,P|200:351|211:321,1,64.9999999999999,2|0,3:0|3:0,2:0:0:0:
207,384,221907,2,0,P|190:351|201:321,1,64.9999999999999,2|0,3:0|3:0,2:0:0:0:
225,243,222341,6,0,P|259:252|296:271,2,64.9999999999999,4|0|4,2:3|3:0|2:0,2:0:0:0:
166,190,222994,2,0,P|132:199|95:218,2,64.9999999999999,0|4|0,3:0|3:2|2:0,2:0:0:0:
223,137,223646,1,12,3:0:0:0:
273,77,223863,2,0,L|256:3,1,64.9999999999999,0|4,3:0|2:0,2:0:0:0:
167,38,224298,2,0,L|152:101,2,64.9999999999999,0|4|0,3:0|3:2|3:0,2:0:0:0:
81,0,224950,6,0,P|47:24|42:64,1,74.9999999999996,12|0,2:3|3:0,2:0:0:0:
78,120,225385,1,0,3:0:0:0:
17,171,225602,2,0,P|17:212|48:239,1,74.9999999999996,12|0,2:3|3:0,2:0:0:0:
114,240,226037,1,0,3:0:0:0:
152,308,226255,2,0,L|74:323,1,74.9999999999996,12|0,2:3|3:0,2:0:0:0:
192,236,226689,2,0,L|270:251,1,74.9999999999996,12|0,2:3|3:0,2:0:0:0:
148,319,227124,2,0,L|70:334,1,74.9999999999996,12|0,2:3|3:0,2:0:0:0:
231,384,227559,6,0,P|239:346|216:314,2,74.9999999999996,8|8|0,2:3|2:3|3:0,2:0:0:0:
348,275,228211,2,0,P|329:306|337:341,2,74.9999999999996,12|0|0,2:3|3:0|3:0,2:0:0:0:
232,237,228863,5,8,2:3:0:0:
211,147,229081,1,0,3:0:0:0:
334,123,229298,2,0,L|350:41,1,64.9999999999995,8|0,2:3|3:0,2:0:0:0:
220,69,229733,2,0,L|207:5,1,54.9999999999997,8|0,2:3|3:0,2:0:0:0:
297,0,230168,5,4,3:0:0:0:
256,192,230276,12,0,232559,2:0:0:0:
97,242,232776,6,0,B|150:210|206:243|195:259|245:280|287:248,1,200,4|0,3:0|3:0,0:0:0:0:
347,201,234081,2,0,P|362:238|375:294,1,80,4|0,3:0|3:0,2:0:0:0:
436,332,234733,2,0,P|446:293|461:256,1,80,8|8,2:3|2:3,2:0:0:0:
512,201,235385,1,8,2:3:0:0:
347,49,237124,5,8,2:3:0:0:
378,41,237341,1,8,2:3:0:0:
441,90,237559,1,8,2:3:0:0:
457,94,237776,1,8,2:3:0:0:
505,30,237994,6,0,P|426:52|362:80,1,150,4|0,3:1|2:0,2:0:0:0:
308,138,239298,2,0,P|285:119|286:61,1,89.9999999999999,4|0,3:0|2:0,2:0:0:0:
256,192,240711,12,0,251037,2:0:0:0:
