osu file format v14

[General]
AudioFilename: audio.mp3
AudioLeadIn: 0
PreviewTime: 38301
Countdown: 0
SampleSet: Soft
StackLeniency: 0.4
Mode: 0
LetterboxInBreaks: 0
WidescreenStoryboard: 1

[Editor]
Bookmarks: 24733
DistanceSpacing: 1.3
BeatDivisor: 4
GridSize: 32
TimelineZoom: 2.599999

[Metadata]
Title:Kick Me
TitleUnicode:Kick Me
Artist:Sleeping With Sirens
ArtistUnicode:Sleeping With Sirens
Creator:fieryrage
Version:hyper's Hyper
Source:
Tags:sws madness english metal punk rock post-hardcore ailv kyshiro elsa valentine xlolicore- pishifat bergy dashyy- ayyri eiri- craezy hypercyte underdogs stingy peter petereu
BeatmapID:2171674
BeatmapSetID:1038902

[Difficulty]
HPDrainRate:5
CircleSize:4
OverallDifficulty:7.5
ApproachRate:8.5
SliderMultiplier:1.5
SliderTickRate:1

[Events]
//Background and Video events
0,0,"asdfasd.png",0,0
//Break Periods
2,56179,64167
2,125997,127440
//Storyboard Layer 0 (Background)
//Storyboard Layer 1 (Fail)
//Storyboard Layer 2 (Pass)
//Storyboard Layer 3 (Foreground)
//Storyboard Layer 4 (Overlay)
//Storyboard Sound Samples

[TimingPoints]
479,272.727272727273,4,2,5,5,1,0
10433,-100,4,2,5,10,0,0
10842,-100,4,2,5,15,0,0
12206,-100,4,2,5,15,0,0
12342,-100,4,2,5,5,0,0
12479,-100,4,2,5,50,0,0
13569,-100,4,2,5,40,0,0
14660,-100,4,2,5,50,0,0
15751,-100,4,2,5,40,0,0
16842,-100,4,2,5,50,0,0
17933,-100,4,2,5,40,0,0
19024,-90.9090909090909,4,2,5,60,0,0
21206,-100,4,2,5,60,0,0
22297,-100,4,2,5,50,0,0
23388,-100,4,2,5,60,0,0
24479,-100,4,2,5,50,0,0
25569,-100,4,2,5,60,0,0
26660,-100,4,2,5,50,0,0
27751,-100,4,2,5,60,0,1
27819,-100,4,2,5,60,0,0
29933,-111.111111111111,4,2,5,55,0,0
30206,-111.111111111111,4,2,5,30,0,0
31024,-111.111111111111,4,2,5,35,0,0
31569,-111.111111111111,4,2,5,38,0,0
32115,-111.111111111111,4,2,5,40,0,0
32660,-111.111111111111,4,2,5,43,0,0
33206,-111.111111111111,4,2,5,45,0,0
33479,-111.111111111111,4,2,5,48,0,0
33751,-111.111111111111,4,2,5,50,0,0
34297,-100,4,2,5,50,0,0
34433,-100,4,2,5,40,0,0
34842,-100,4,2,5,55,0,0
34979,-100,4,2,5,40,0,0
35388,-100,4,2,5,60,0,0
35524,-100,4,2,5,45,0,0
35660,-100,4,2,5,50,0,0
35933,-100,4,2,5,55,0,0
36206,-100,4,2,5,60,0,0
36479,-100,4,2,5,60,0,0
36547,-100,4,2,5,45,0,0
36888,-100,4,2,5,45,0,0
37024,-100,4,2,5,35,0,0
38388,-100,4,2,5,60,0,0
38660,-90.9090909090909,4,2,5,70,0,1
45206,-100,4,2,5,70,0,0
45479,-100,4,2,5,60,0,0
45751,-100,4,2,5,70,0,0
46024,-100,4,2,5,60,0,0
46297,-100,4,2,5,65,0,0
47251,-90.9090909090909,4,2,5,70,0,1
53933,-100,4,2,5,70,0,0
54206,-100,4,2,5,60,0,0
54479,-100,4,2,5,70,0,0
54751,-100,4,2,5,60,0,0
55024,-100,4,2,5,70,0,0
55979,-100,4,2,5,65,0,0
56047,-100,4,2,5,55,0,0
59388,-100,4,2,5,60,0,0
60479,-100,4,2,5,55,0,0
61569,-100,4,2,5,60,0,0
63819,-100,4,2,5,5,0,0
64160,-100,4,2,5,65,0,0
64229,-100,4,2,5,5,0,0
64569,-100,4,2,5,60,0,0
64638,-100,4,2,5,5,0,0
64842,-100,4,2,5,55,0,0
64979,-100,4,2,5,50,0,0
66001,-100,4,2,5,50,0,0
66206,-100,4,2,5,50,0,0
66274,-100,4,2,5,50,0,0
66479,-100,4,2,5,50,0,0
71456,-100,4,2,5,5,0,0
72479,-100,4,2,5,50,0,0
73092,-100,4,2,5,5,0,0
73297,-100,4,2,5,20,0,0
73365,-100,4,2,5,35,0,0
73433,-100,4,2,5,40,0,0
73501,-100,4,2,5,50,0,0
73569,-100,4,2,5,60,0,0
74388,-100,4,2,5,60,0,0
75206,-100,4,2,5,58,0,0
75751,-100,4,2,5,58,0,0
76160,-100,4,2,5,55,0,0
76842,-100,4,2,5,52,0,0
80115,-100,4,2,5,60,0,1
80183,-100,4,2,5,60,0,0
82297,-100,4,2,5,60,0,0
82569,-100,4,2,5,32,0,0
82842,-100,4,2,5,35,0,0
83388,-100,4,2,5,38,0,0
83933,-100,4,2,5,40,0,0
84479,-100,4,2,5,42,0,0
85024,-100,4,2,5,45,0,0
85569,-100,4,2,5,50,0,0
85842,-100,4,2,5,40,0,0
85979,-100,4,2,5,50,0,0
86660,-111.111111111111,4,2,5,55,0,0
86797,-111.111111111111,4,2,5,40,0,0
87206,-111.111111111111,4,2,5,55,0,0
87342,-111.111111111111,4,2,5,40,0,0
87751,-111.111111111111,4,2,5,60,0,0
87888,-111.111111111111,4,2,5,40,0,0
88024,-111.111111111111,4,2,5,50,0,0
88297,-111.111111111111,4,2,5,55,0,0
88569,-111.111111111111,4,2,5,60,0,0
88842,-100,4,2,5,65,0,0
88910,-100,4,2,5,50,0,0
89388,-100,4,2,5,40,0,0
90751,-100,4,2,5,65,0,0
91024,-90.9090909090909,4,2,5,70,0,1
97569,-100,4,2,5,75,0,0
97842,-100,4,2,5,60,0,0
98115,-100,4,2,5,75,0,0
98388,-100,4,2,5,60,0,0
98660,-100,4,2,5,75,0,0
99615,-90.9090909090909,4,2,5,75,0,1
99751,-90.9090909090909,4,2,5,70,0,1
106297,-100,4,2,5,75,0,0
106569,-100,4,2,5,60,0,0
106842,-100,4,2,5,75,0,0
107115,-100,4,2,5,60,0,0
107388,-100,4,2,5,75,0,0
108342,-90.9090909090909,4,2,5,75,0,1
115024,-111.111111111111,4,2,5,75,0,0
115297,-111.111111111111,4,2,5,60,0,0
115433,-111.111111111111,4,2,5,50,0,0
115569,-111.111111111111,4,2,5,75,0,0
115842,-111.111111111111,4,2,5,60,0,0
115979,-111.111111111111,4,2,5,50,0,0
116115,-111.111111111111,4,2,5,75,0,0
117069,-90.9090909090909,4,2,5,75,0,1
123751,-111.111111111111,4,2,5,75,0,0
125388,-111.111111111111,4,2,5,70,0,0
125797,-100,4,2,5,70,0,0
128115,-100,4,2,5,5,0,0
129206,-111.111111111111,4,2,5,70,0,0
129274,-111.111111111111,4,2,5,5,0,0
129615,-111.111111111111,4,2,5,70,0,0
129683,-111.111111111111,4,2,5,5,0,0
130024,-100,4,2,5,70,0,0
130092,-100,4,2,5,5,0,0
130229,-100,4,2,5,5,0,0
130297,-100,4,2,5,60,0,0
130365,-100,4,2,5,55,0,0
133569,-111.111111111111,4,2,5,60,0,0
134660,-100,4,2,5,60,0,0
137933,-111.111111111111,4,2,5,60,0,0
139024,-125,4,2,5,70,0,0
146660,-111.111111111111,4,2,5,70,0,0
147751,-111.111111111111,4,2,5,5,0,0
148842,-111.111111111111,4,2,5,25,0,0

[Colours]
Combo1 : 136,136,136
Combo2 : 82,109,90
Combo3 : 196,148,140
Combo4 : 146,192,194

[HitObjects]
256,192,10433,12,0,12342,0:0:0:0:
106,133,12479,6,0,B|163:128|163:128|205:146|205:146|281:139,1,150,2|0,1:0|1:0,0:0:0:0:
299,79,12888,2,0,P|329:128|294:209,1,150,2|0,0:3|0:0,0:0:0:0:
222,223,13297,1,2,1:0:0:0:
219,65,13569,1,0,1:0:0:0:
219,65,13842,1,0,1:0:0:0:
219,65,14115,1,0,1:0:0:0:
219,65,14388,1,0,1:0:0:0:
358,118,14660,6,0,B|414:126|414:126|453:120|453:120|514:127,1,150,2|0,1:0|1:0,0:0:0:0:
453,202,15069,2,0,P|412:246|448:334,1,150,2|0,0:3|0:0,0:0:0:0:
483,270,15479,1,2,1:0:0:0:
325,267,15751,5,0,1:0:0:0:
325,267,16024,1,0,1:0:0:0:
325,267,16297,1,0,1:0:0:0:
325,267,16569,1,0,1:0:0:0:
175,258,16842,6,0,B|143:208|164:146|164:146|192:171,1,150,2|0,1:0|1:0,0:0:0:0:
249,267,17251,2,0,P|212:326|127:316,1,150,2|0,0:3|0:0,0:0:0:0:
82,219,17660,2,0,P|81:179|88:136,1,75,2|0,1:0|0:0,0:0:0:0:
189,60,17933,1,0,1:0:0:0:
189,60,18206,1,0,1:0:0:0:
189,60,18479,1,0,1:0:0:0:
189,60,18751,1,0,1:0:0:0:
226,215,19024,6,0,B|290:216|290:216|323:197|323:197|403:196,1,165.000005035401,14|0,0:0|1:0,0:0:0:0:
427,268,19433,2,0,P|469:201|437:129,1,165.000005035401,12|0,0:0|1:0,0:0:0:0:
357,116,19842,2,0,L|265:117,1,82.5000025177003,12|0,0:0|1:0,0:0:0:0:
288,216,20115,5,2,1:0:0:0:
188,287,20251,2,0,P|151:248|186:147,1,165.000005035401,14|0,0:0|1:0,0:0:0:0:
51,119,20660,2,0,L|57:205,1,82.5000025177003,14|0,0:0|1:0,0:0:0:0:
84,291,20933,2,0,L|78:377,1,82.5000025177003,10|0,0:0|1:0,0:0:0:0:
188,287,21206,6,0,B|235:282|235:282|290:301|290:301|347:295,1,150,6|8,1:2|0:0,0:0:0:0:
376,228,21615,2,0,P|412:312|377:367,1,150,2|0,1:0|1:0,0:0:0:0:
297,218,22024,2,0,P|317:172|366:148,1,75,10|0,0:0|0:0,0:0:0:0:
456,204,22297,5,0,0:0:0:0:
456,204,22569,2,0,L|450:114,1,75,8|0,0:0|0:0,0:0:0:0:
388,25,22842,2,0,L|382:115,1,75,0|0,0:0|0:0,0:0:0:0:
293,49,23115,2,0,P|254:39|206:51,1,75,8|0,0:0|0:0,0:0:0:0:
132,103,23388,6,0,P|151:186|121:253,1,150,2|8,1:0|0:0,0:0:0:0:
71,197,23797,2,0,P|123:172|199:229,1,150,2|0,1:0|1:0,0:0:0:0:
139,327,24206,1,10,0:0:0:0:
139,327,24479,6,0,L|218:324,1,75,0|0,0:0|0:0,0:0:0:0:
291,252,24751,2,0,L|370:255,1,75,8|0,0:0|0:0,0:0:0:0:
281,149,25024,1,0,1:0:0:0:
281,149,25160,1,0,1:0:0:0:
378,89,25297,2,0,L|386:164,1,75,8|0,0:0|0:0,0:0:0:0:
441,41,25569,6,0,P|374:11|306:53,1,150,2|8,1:0|0:0,0:0:0:0:
317,136,25979,2,0,P|382:166|446:132,1,150,2|0,1:0|1:0,0:0:0:0:
408,247,26388,1,10,0:0:0:0:
408,247,26660,6,0,L|414:331,1,75,0|0,0:0|0:0,0:0:0:0:
315,360,26933,2,0,L|321:276,1,75,8|0,0:0|0:0,0:0:0:0:
231,341,27206,1,0,1:0:0:0:
231,341,27342,1,0,1:0:0:0:
266,228,27479,2,0,P|320:206|363:225,1,75,8|0,0:0|1:0,0:0:0:0:
188,186,27751,6,0,B|183:223|183:223|191:266,2,75,14|0|0,0:0|1:0|1:0,0:0:0:0:
103,69,28160,2,0,B|138:81|138:81|168:104,2,75,12|0|0,0:0|1:0|1:0,0:0:0:0:
245,132,28569,2,0,B|280:118|280:118|309:94,2,75,12|0|2,0:0|1:0|1:0,0:0:0:0:
297,19,28979,6,0,P|350:29|378:125,1,150,12|0,0:0|1:0,0:0:0:0:
270,219,29388,1,12,0:0:0:0:
270,219,29660,1,10,0:0:0:0:
270,219,29933,6,0,L|275:313,1,67.4999979400635,6|0,1:2|0:0,0:0:0:0:
201,312,30206,2,0,L|197:379,1,67.4999979400635,10|8,0:3|0:3,0:0:0:0:
116,307,30479,2,0,L|121:213,1,67.4999979400635,10|8,0:0|0:3,0:0:0:0:
47,214,30752,2,0,L|43:146,1,67.4999979400635,10|8,0:0|0:3,0:0:0:0:
103,96,31024,5,10,0:0:0:0:
103,96,31297,2,0,P|145:103|185:94,1,67.4999979400635,10|8,0:0|0:3,0:0:0:0:
233,44,31569,2,0,P|266:40|299:47,1,67.4999979400635,10|8,0:0|0:3,0:0:0:0:
339,117,31842,2,0,P|372:120|405:113,1,67.4999979400635,10|8,0:0|0:3,0:0:0:0:
486,39,32115,5,10,0:0:0:0:
486,39,32388,2,0,B|495:76|495:76|496:120,1,67.4999979400635,10|8,0:0|0:3,0:0:0:0:
443,197,32660,2,0,B|444:235|444:235|455:277,1,67.4999979400635,10|8,0:0|0:3,0:0:0:0:
349,243,32933,2,0,B|315:256|315:256|268:255,1,67.4999979400635,10|8,0:0|0:3,0:0:0:0:
154,201,33206,5,10,0:0:0:0:
154,201,33479,2,0,P|152:160|168:118,1,67.4999979400635,10|8,0:0|0:3,0:0:0:0:
58,310,33751,2,0,B|88:296|88:296|112:272,1,67.4999979400635,10|8,0:0|0:3,0:0:0:0:
253,302,34024,2,0,B|219:290|219:290|193:273,1,67.4999979400635,10|8,0:0|0:3,0:0:0:0:
338,301,34297,6,0,B|375:289|375:289|407:264,1,75,2|8,1:0|0:3,0:0:0:0:
363,174,34569,1,10,1:2:0:0:
363,174,34842,6,0,B|357:138|357:138|366:100,1,75,2|8,1:0|0:3,0:0:0:0:
457,64,35115,1,10,1:2:0:0:
457,64,35388,6,0,B|428:37|428:37|394:24,1,75,2|8,1:2|0:3,0:0:0:0:
296,64,35660,2,0,L|221:68,1,75,10|8,1:2|0:0,0:0:0:0:
158,131,35933,2,0,L|83:127,1,75,10|8,1:2|0:0,0:0:0:0:
199,205,36206,2,0,P|232:173|239:132,1,75,10|8,1:2|0:0,0:0:0:0:
111,207,36479,1,6,1:2:0:0:
111,207,38660,6,0,B|155:228|192:207|192:207|239:184|295:215,1,165.000005035401,6|8,1:2|0:0,0:0:0:0:
257,355,39069,2,0,P|234:316|234:277,1,82.5000025177003,0|0,0:0|1:0,0:0:0:0:
352,187,39342,2,0,P|350:227|328:262,1,82.5000025177003,0|8,1:0|0:0,0:0:0:0:
138,135,39615,6,0,P|56:150|36:232,1,165.000005035401,2|0,1:0|1:0,0:0:0:0:
127,296,40024,1,8,0:0:0:0:
127,296,40297,1,0,1:0:0:0:
222,227,40433,1,0,1:0:0:0:
231,350,40569,1,8,0:0:0:0:
111,376,40706,6,0,P|59:338|66:243,1,165.000005035401,0|0,0:0|0:0,0:0:0:0:
163,186,41115,2,0,L|249:190,1,82.5000025177003,8|0,0:0|0:0,0:0:0:0:
321,101,41388,2,0,L|235:105,1,82.5000025177003,0|0,1:0|1:0,0:0:0:0:
191,28,41660,1,8,0:0:0:0:
364,36,41797,6,0,P|400:99|353:175,1,165.000005035401,2|0,1:0|1:0,0:0:0:0:
239,105,42206,2,0,L|153:109,1,82.5000025177003,8|0,0:0|0:0,0:0:0:0:
44,37,42479,5,0,1:0:0:0:
12,169,42615,1,0,1:0:0:0:
75,66,42751,1,8,0:0:0:0:
164,194,42888,6,0,B|186:236|164:280|164:280|143:321|164:368,1,165.000005035401,0|0,0:0|0:0,0:0:0:0:
94,237,43297,1,8,0:0:0:0:
234,323,43433,2,0,L|319:316,1,82.5000025177003,0|0,0:0|1:0,0:0:0:0:
419,248,43706,2,0,L|336:241,1,82.5000025177003,0|8,1:0|0:0,0:0:0:0:
462,328,43979,6,0,P|501:289|480:183,1,165.000005035401,2|0,1:0|1:0,0:0:0:0:
368,161,44388,1,8,0:0:0:0:
368,161,44660,2,0,L|372:74,1,82.5000025177003,0|0,1:0|1:0,0:0:0:0:
272,35,44933,2,0,L|276:122,1,82.5000025177003,8|0,0:0|0:0,0:0:0:0:
154,179,45206,6,0,B|173:209|173:209|207:194|207:194|231:214|255:220|282:214,1,150,14|0,0:3|0:0,0:0:0:0:
406,275,45751,2,0,B|386:305|386:305|352:290|352:290|328:310|304:316|277:310,1,150,14|0,0:3|0:0,0:0:0:0:
355,202,46297,5,14,0:3:0:0:
503,269,46569,1,14,0:3:0:0:
503,95,46842,1,10,0:0:0:0:
385,107,46979,1,10,0:0:0:0:
452,201,47115,1,8,0:0:0:0:
374,96,47251,6,0,B|349:62|349:62|294:100|211:86,1,165.000005035401,6|0,1:2|0:0,0:0:0:0:
121,66,47660,1,8,0:0:0:0:
101,204,47797,2,0,P|138:182|157:140,1,82.5000025177003,0|0,0:0|1:0,0:0:0:0:
20,189,48069,2,0,P|20:232|47:269,1,82.5000025177003,0|8,1:0|0:0,0:0:0:0:
182,249,48342,2,0,B|228:225|266:245|266:245|304:264|343:247,1,165.000005035401,2|0,1:0|1:0,0:0:0:0:
313,92,48751,2,0,L|305:175,1,82.5000025177003,8|0,0:0|0:0,0:0:0:0:
390,111,49024,1,0,1:0:0:0:
469,23,49160,1,0,1:0:0:0:
346,19,49297,1,8,0:0:0:0:
236,101,49433,6,0,P|281:21|363:29,1,165.000005035401,2|0,0:0|0:0,0:0:0:0:
466,129,49842,2,0,L|465:214,1,82.5000025177003,8|0,0:0|0:0,0:0:0:0:
346,315,50115,2,0,L|345:232,1,82.5000025177003,0|0,1:0|1:0,0:0:0:0:
236,101,50388,2,0,L|235:183,1,82.5000025177003,8|2,0:0|1:0,0:0:0:0:
358,78,50660,6,0,P|429:51|501:102,1,165.000005035401,0|8,0:0|0:0,0:0:0:0:
339,344,51206,1,0,1:0:0:0:
320,232,51342,1,0,1:0:0:0:
331,360,51479,1,8,0:0:0:0:
311,221,51615,6,0,P|240:194|168:245,1,165.000005035401,2|0,0:0|0:0,0:0:0:0:
174,360,52024,1,10,0:0:0:0:
174,360,52297,1,0,1:0:0:0:
101,248,52433,1,0,1:0:0:0:
54,358,52569,1,8,0:0:0:0:
14,269,52706,2,0,B|11:186|11:186|27:95,1,165.000005035401,2|0,1:0|1:0,0:0:0:0:
161,92,53115,1,8,0:0:0:0:
161,92,53388,2,0,B|148:134|148:134|164:187,2,82.5000025177003,0|0|8,1:0|1:0|0:0,0:0:0:0:
294,26,53797,1,2,0:0:0:0:
455,157,53933,6,0,B|431:162|407:156|383:136|383:136|349:151|349:151|330:121,1,150,6|0,1:3|0:0,0:0:0:0:
237,253,54479,2,0,B|260:247|284:253|308:273|308:273|342:258|342:258|361:288,1,150,6|0,1:3|0:0,0:0:0:0:
214,146,55024,5,14,1:3:0:0:
60,234,55296,1,14,1:3:0:0:
64,49,55569,1,8,0:0:0:0:
123,159,55706,1,8,0:0:0:0:
184,51,55842,1,8,0:0:0:0:
229,159,55979,1,6,1:2:0:0:
348,188,64842,6,0,P|295:147|202:176,1,150,6|8,1:2|0:0,0:0:0:0:
351,267,65251,2,0,P|409:241|415:147,1,150,2|0,1:2|1:0,0:0:0:0:
352,84,65660,1,10,0:0:0:0:
348,188,65797,1,0,0:0:0:0:
352,84,65933,5,2,0:0:0:0:
352,84,66206,1,8,0:0:0:0:
352,84,66479,1,2,1:2:0:0:
249,78,66615,1,2,1:2:0:0:
175,172,66751,2,0,L|265:176,1,75,8|0,0:0|0:0,0:0:0:0:
121,106,67024,6,0,P|90:160|133:248,1,150,2|8,1:2|0:0,0:0:0:0:
194,88,67433,2,0,P|151:36|74:47,1,150,2|0,1:2|1:0,0:0:0:0:
14,149,67842,1,8,0:0:0:0:
14,149,68115,5,2,0:2:0:0:
70,224,68251,1,2,1:2:0:0:
10,299,68388,2,0,L|14:378,1,75,8|0,0:0|0:0,0:0:0:0:
104,317,68660,2,0,P|139:307|175:317,1,75,2|0,1:2|1:0,0:0:0:0:
251,373,68933,1,8,0:0:0:0:
251,373,69206,6,0,L|260:206,1,150,2|8,1:2|0:0,0:0:0:0:
349,78,69615,2,0,L|358:245,1,150,2|0,1:2|1:0,0:0:0:0:
368,351,70024,1,8,0:0:0:0:
368,351,70297,5,2,0:2:0:0:
427,288,70433,1,0,1:0:0:0:
303,292,70569,2,0,L|227:301,1,75,8|0,0:0|0:0,0:0:0:0:
110,220,70842,2,0,L|184:228,1,75,2|0,1:2|1:0,0:0:0:0:
78,300,71115,1,8,0:0:0:0:
31,232,71251,1,0,1:0:0:0:
156,304,71388,5,6,1:2:0:0:
256,192,71524,12,2,73433,0:0:0:0:
123,132,73569,6,0,B|160:102|160:102|278:105,1,150,6|8,1:0|0:0,0:0:0:0:
166,194,73979,2,0,P|105:206|49:148,1,150,2|0,1:0|1:0,0:0:0:0:
166,194,74388,2,0,L|161:292,1,75,10|0,0:0|0:0,0:0:0:0:
240,363,74660,6,0,L|235:265,1,75,2|0,0:0|0:0,0:0:0:0:
160,377,74933,1,10,0:0:0:0:
160,377,75479,1,10,0:0:0:0:
236,288,75751,6,0,B|268:253|268:253|397:253,1,150,2|8,1:0|0:0,0:0:0:0:
278,175,76160,2,0,B|278:114|278:114|292:90|292:90|291:18,1,150,2|0,1:0|1:0,0:0:0:0:
357,141,76569,1,8,0:0:0:0:
357,141,77115,1,8,0:0:0:0:
357,141,77660,1,8,0:0:0:0:
277,246,77933,6,0,B|222:245|222:245|185:225|185:225|120:225,1,150,2|8,1:0|0:0,0:0:0:0:
278,322,78342,2,0,P|331:300|341:206,1,150,2|0,1:0|1:0,0:0:0:0:
200,322,78751,2,0,L|101:317,1,75,10|0,0:0|0:0,0:0:0:0:
41,311,79024,5,0,0:0:0:0:
41,311,79297,1,8,0:0:0:0:
41,311,79569,2,0,L|47:237,1,75,0|0,1:0|1:0,0:0:0:0:
129,111,79842,1,8,0:0:0:0:
129,111,80115,6,0,B|170:103|170:103|229:113,2,75,14|0|0,0:0|1:0|1:0,0:0:0:0:
282,89,80524,2,0,B|303:63|303:63|316:23,2,75,12|0|0,0:0|1:0|1:0,0:0:0:0:
300,236,80933,2,0,B|273:205|273:205|262:174,2,75,12|0|2,0:0|1:0|1:0,0:0:0:0:
347,148,81342,5,12,0:0:0:0:
367,275,81479,2,0,P|335:308|283:310,1,75,0|0,1:0|1:0,0:0:0:0:
216,269,81751,1,12,0:0:0:0:
216,269,82024,1,10,0:0:0:0:
216,269,82296,6,0,L|126:277,1,75,6|0,1:2|0:0,0:0:0:0:
113,200,82569,2,0,L|36:195,1,75,8|8,0:0|0:3,0:0:0:0:
157,124,82842,2,0,L|247:132,1,75,8|8,0:0|0:3,0:0:0:0:
260,54,83115,2,0,L|336:50,1,75,8|8,0:0|0:3,0:0:0:0:
429,129,83388,5,8,0:0:0:0:
429,129,83661,2,0,P|422:171|431:211,1,75,8|8,0:0|0:3,0:0:0:0:
468,285,83933,2,0,P|431:276|393:280,1,75,8|8,0:0|0:3,0:0:0:0:
268,348,84206,2,0,P|304:351|341:343,1,75,8|8,0:0|0:3,0:0:0:0:
247,258,84479,5,8,0:0:0:0:
247,258,84752,2,0,B|245:223|245:223|235:180,1,75,8|8,0:0|0:3,0:0:0:0:
98,205,85024,2,0,B|125:220|125:220|166:231,1,75,8|8,0:0|0:3,0:0:0:0:
224,101,85297,2,0,B|190:120|190:120|155:154,1,75,8|8,0:0|0:3,0:0:0:0:
298,141,85569,5,8,0:0:0:0:
338,62,85706,2,0,B|375:48|375:48|412:60,1,75,8|8,0:0|0:0,0:0:0:0:
460,126,85979,1,10,0:3:0:0:
375,207,86115,2,0,L|380:122,1,75,8|8,0:0|0:3,0:0:0:0:
299,301,86388,2,0,L|294:226,1,75,10|8,0:0|0:3,0:0:0:0:
371,342,86660,6,0,P|339:370|293:379,1,67.4999979400635,10|8,1:2|0:3,0:0:0:0:
172,332,86933,1,8,1:2:0:0:
172,332,87206,6,0,L|175:236,1,67.4999979400635,10|8,1:2|0:3,0:0:0:0:
57,163,87478,1,8,1:2:0:0:
57,163,87751,6,0,L|54:259,1,67.4999979400635,10|8,1:2|0:3,0:0:0:0:
124,93,88024,2,0,P|163:85|204:97,1,67.4999979400635,10|8,1:2|0:3,0:0:0:0:
322,167,88297,2,0,P|288:172|256:164,1,67.4999979400635,8|8,1:2|0:0,0:0:0:0:
389,94,88569,2,0,P|422:88|454:96,1,67.4999979400635,10|8,1:2|0:0,0:0:0:0:
291,74,88842,5,6,1:2:0:0:
291,74,91024,6,0,B|247:95|210:74|210:74|163:51|107:82,1,165.000005035401,6|8,1:2|0:0,0:0:0:0:
152,226,91433,2,0,P|172:181|167:145,1,82.5000025177003,0|0,0:0|1:0,0:0:0:0:
276,239,91706,2,0,P|256:194|261:158,1,82.5000025177003,0|8,1:0|0:0,0:0:0:0:
353,274,91979,6,0,P|280:320|211:291,1,165.000005035401,2|0,1:0|1:0,0:0:0:0:
259,162,92388,1,8,0:0:0:0:
259,162,92660,1,0,1:0:0:0:
361,121,92797,1,0,1:0:0:0:
347,234,92933,1,8,0:0:0:0:
248,146,93069,6,0,B|217:117|217:117|87:126,1,165.000005035401,0|0,1:0|0:0,0:0:0:0:
164,274,93479,2,0,P|186:239|187:198,1,82.5000025177003,8|0,0:0|0:0,0:0:0:0:
95,347,93751,2,0,P|73:312|72:271,1,82.5000025177003,0|0,1:0|1:0,0:0:0:0:
188,369,94024,1,8,0:0:0:0:
270,215,94160,2,0,B|289:178|289:178|424:182,1,165.000005035401,2|0,1:0|1:0,0:0:0:0:
362,336,94569,2,0,P|340:301|339:260,1,82.5000025177003,8|0,0:0|0:0,0:0:0:0:
468,372,94842,1,0,1:0:0:0:
446,255,94979,1,0,1:0:0:0:
362,336,95115,1,8,0:0:0:0:
446,255,95251,6,0,B|472:222|472:222|463:93,1,165.000005035401,0|0,1:0|0:0,0:0:0:0:
346,43,95660,1,8,0:0:0:0:
289,190,95797,2,0,L|375:194,1,82.5000025177003,0|0,0:0|1:0,0:0:0:0:
171,109,96069,2,0,L|257:105,1,82.5000025177003,0|8,1:0|0:0,0:0:0:0:
123,188,96342,2,0,P|79:123|106:45,1,165.000005035401,2|0,1:0|1:0,0:0:0:0:
226,28,96751,1,8,0:0:0:0:
226,28,97024,2,0,P|246:66|253:108,1,82.5000025177003,0|0,1:0|1:0,0:0:0:0:
370,71,97297,2,0,P|350:109|343:151,1,82.5000025177003,8|0,0:0|1:0,0:0:0:0:
462,218,97569,6,0,B|443:248|443:248|409:233|409:233|385:253|361:259|334:253,1,150,14|0,0:3|0:0,0:0:0:0:
204,319,98115,2,0,B|223:349|223:349|257:334|257:334|281:354|305:360|332:354,1,150,14|0,0:3|0:0,0:0:0:0:
230,226,98660,5,14,0:3:0:0:
108,341,98933,1,14,0:3:0:0:
73,169,99206,1,10,0:0:0:0:
175,138,99342,1,10,0:0:0:0:
137,244,99479,1,8,0:0:0:0:
175,138,99615,6,0,B|186:98|186:98|213:138|284:144|324:105,1,165.000005035401,6|0,1:2|1:0,0:0:0:0:
365,29,100024,1,8,0:0:0:0:
297,122,100160,2,0,L|301:206,1,82.5000025177003,0|0,0:0|1:0,0:0:0:0:
415,91,100433,2,0,L|411:173,1,82.5000025177003,0|8,1:0|0:0,0:0:0:0:
327,300,100706,6,0,P|409:271|474:314,1,165.000005035401,2|0,1:0|1:0,0:0:0:0:
398,362,101115,1,8,0:0:0:0:
398,362,101388,1,0,1:0:0:0:
304,297,101524,1,0,1:0:0:0:
212,364,101660,1,8,0:0:0:0:
112,264,101797,6,0,B|89:229|89:229|113:105,1,165.000005035401,2|0,1:0|1:0,0:0:0:0:
270,195,102206,2,0,P|230:214|185:214,1,82.5000025177003,8|0,0:0|0:0,0:0:0:0:
331,124,102479,2,0,P|291:105|246:105,1,82.5000025177003,0|0,1:0|1:0,0:0:0:0:
421,176,102751,2,0,P|391:209|350:222,1,82.5000025177003,8|2,0:0|1:0,0:0:0:0:
409,84,103024,2,0,P|477:102|510:185,1,165.000005035401,0|8,0:0|0:0,0:0:0:0:
397,334,103569,1,0,1:0:0:0:
356,221,103706,1,0,1:0:0:0:
386,353,103842,1,8,0:0:0:0:
275,295,103979,6,0,B|212:291|212:291|167:312|167:312|92:306,1,165.000005035401,2|0,1:0|1:0,0:0:0:0:
135,151,104388,2,0,P|152:202|145:241,1,82.5000025177003,10|0,0:0|0:0,0:0:0:0:
30,171,104660,1,0,1:0:0:0:
73,68,104797,1,0,1:0:0:0:
30,171,104933,1,8,0:0:0:0:
88,44,105069,6,0,B|111:8|111:8|240:23,1,165.000005035401,2|0,1:0|1:0,0:0:0:0:
315,138,105479,1,8,0:0:0:0:
315,138,105751,2,0,B|357:151|357:151|410:135,2,82.5000025177003,0|0|8,1:0|1:0|0:0,0:0:0:0:
208,207,106160,1,2,1:0:0:0:
286,282,106297,6,0,B|305:252|305:252|339:267|339:267|363:247|387:241|414:247,1,150,6|0,1:3|0:0,0:0:0:0:
208,207,106842,2,0,B|189:177|189:177|155:192|155:192|131:172|107:166|80:172,1,150,6|0,1:3|0:0,0:0:0:0:
43,360,107388,1,14,1:3:0:0:
226,309,107660,1,14,1:3:0:0:
83,171,107933,1,8,0:0:0:0:
112,283,108069,1,8,0:0:0:0:
192,195,108206,1,8,0:0:0:0:
59,139,108342,6,0,B|20:150|21:94|82:117|82:117|128:130|176:108,1,165.000005035401,6|0,1:2|1:0,0:0:0:0:
282,44,108751,2,0,L|277:139,1,82.5000025177003,8|0,0:0|0:0,0:0:0:0:
388,197,109024,2,0,L|383:102,1,82.5000025177003,0|0,1:0|1:0,0:0:0:0:
317,247,109297,1,8,0:0:0:0:
277,126,109433,6,0,B|201:151|201:92|94:123,1,165.000005035401,2|0,1:0|1:0,0:0:0:0:
27,252,109842,2,0,P|46:314|150:310,1,165.000005035401,8|0,0:0|1:0,0:0:0:0:
157,200,110251,1,0,1:0:0:0:
240,336,110388,2,0,L|331:326,1,82.5000025177003,8|0,0:0|1:0,0:0:0:0:
428,305,110660,6,0,P|385:244|439:162,1,165.000005035401,2|8,0:0|0:0,0:0:0:0:
469,234,111069,1,0,0:0:0:0:
301,251,111206,2,0,L|209:244,1,82.5000025177003,0|0,1:0|1:0,0:0:0:0:
287,169,111479,1,8,0:0:0:0:
141,217,111615,6,0,P|146:282|250:321,1,165.000005035401,2|0,1:0|1:0,0:0:0:0:
301,251,112024,1,8,0:0:0:0:
301,251,112297,2,0,L|214:245,1,82.5000025177003,0|0,1:0|1:0,0:0:0:0:
369,163,112569,2,0,L|286:168,1,82.5000025177003,8|0,0:0|1:0,0:0:0:0:
427,223,112842,6,0,P|446:134|390:84,1,165.000005035401,2|8,0:0|0:0,0:0:0:0:
369,163,113251,1,0,0:0:0:0:
297,55,113388,2,0,B|253:47|253:47|200:57,1,82.5000025177003,0|0,1:0|1:0,0:0:0:0:
129,191,113660,1,8,0:0:0:0:
45,121,113797,6,0,B|133:109|133:109|229:135,1,165.000005035401,2|0,1:0|1:0,0:0:0:0:
183,266,114206,1,8,0:0:0:0:
183,266,114479,2,0,L|81:272,1,82.5000025177003,0|0,1:0|1:0,0:0:0:0:
263,299,114751,2,0,L|345:303,1,82.5000025177003,8|0,0:0|1:0,0:0:0:0:
183,266,115024,2,0,P|150:208|188:138,1,134.999995880127,14|8,0:0|1:3,0:0:0:0:
345,303,115569,2,0,P|378:245|340:175,1,134.999995880127,14|8,0:0|1:3,0:0:0:0:
121,89,116115,2,0,P|184:71|243:116,2,134.999995880127,14|14|14,0:0|0:0|0:0,0:0:0:0:
61,175,116797,1,2,1:0:0:0:
92,255,116933,1,0,1:0:0:0:
142,189,117069,6,0,B|172:149|172:149|204:191|259:199|300:152,1,165.000005035401,6|0,1:2|1:0,0:0:0:0:
253,30,117479,2,0,P|233:72|242:114,1,82.5000025177003,10|0,0:0|1:0,0:0:0:0:
347,197,117751,2,0,P|351:156|332:120,1,82.5000025177003,0|0,1:0|1:0,0:0:0:0:
238,106,118024,1,10,0:0:0:0:
286,246,118160,6,0,P|348:274|423:222,1,165.000005035401,2|0,1:3|1:0,0:0:0:0:
407,75,118569,2,0,P|436:107|441:149,1,82.5000025177003,10|0,0:0|1:0,0:0:0:0:
324,76,118842,2,0,P|331:35|359:6,1,82.5000025177003,0|0,1:0|1:0,0:0:0:0:
238,106,119115,2,0,P|265:135|272:175,1,82.5000025177003,10|0,0:0|1:0,0:0:0:0:
135,92,119388,6,0,P|91:149|126:250,1,165.000005035401,2|10,1:3|0:0,0:0:0:0:
180,172,119797,1,0,1:0:0:0:
261,262,119933,2,0,L|253:348,1,82.5000025177003,0|0,1:0|1:0,0:0:0:0:
166,299,120206,1,10,0:0:0:0:
252,183,120342,6,0,P|325:212|329:300,1,165.000005035401,2|0,1:3|1:0,0:0:0:0:
186,373,120751,2,0,P|113:355|95:269,1,165.000005035401,10|0,0:0|1:0,0:0:0:0:
169,197,121160,1,0,1:0:0:0:
79,130,121297,2,0,L|84:38,1,82.5000025177003,10|0,0:0|1:0,0:0:0:0:
203,114,121569,6,0,P|279:137|348:77,1,165.000005035401,2|10,1:3|0:0,0:0:0:0:
265,58,121979,1,0,1:0:0:0:
370,175,122115,2,0,B|393:208|393:208|387:343,1,165.000005035401,0|10,1:0|0:0,0:0:0:0:
291,278,122524,6,0,P|222:238|131:290,1,165.000005035401,2|0,1:3|1:0,0:0:0:0:
0,257,122933,2,0,L|10:367,1,82.5000025177003,10|0,0:0|1:0,0:0:0:0:
83,161,123206,2,0,L|73:271,1,82.5000025177003,0|0,1:0|1:0,0:0:0:0:
0,83,123479,2,0,L|10:193,1,82.5000025177003,8|0,0:0|1:0,0:0:0:0:
111,63,123751,6,0,B|146:32|146:32|259:32,1,134.999995880127,14|0,1:3|0:0,0:0:0:0:
412,133,124297,2,0,B|377:164|377:164|264:164,1,134.999995880127,14|0,1:3|0:0,0:0:0:0:
434,40,124842,5,14,1:3:0:0:
466,225,125115,1,14,1:3:0:0:
288,164,125388,1,10,0:0:0:0:
325,51,125524,1,10,0:0:0:0:
394,137,125660,1,8,0:0:0:0:
288,164,125797,1,6,1:2:0:0:
256,192,128115,12,0,129069,0:0:0:0:
303,227,129206,6,0,B|239:248|240:203|166:221,1,134.999995880127,6|0,1:2|0:0,0:0:0:0:
367,268,129615,2,0,P|379:214|322:151,1,134.999995880127,6|0,1:2|0:0,0:0:0:0:
300,306,130024,1,10,0:0:0:0:
300,306,130297,6,0,B|275:334|275:334|160:331,1,150,6|0,1:2|0:0,0:0:0:0:
110,171,130842,2,0,L|118:85,2,75,8|0|0,1:2|0:0|0:0,0:0:0:0:
102,267,131251,6,0,P|149:244|234:295,1,150,2|0,0:0|0:0,0:0:0:0:
231,371,131660,1,0,0:0:0:0:
317,281,131933,2,0,L|309:196,1,75,8|0,1:2|0:0,0:0:0:0:
226,167,132206,2,0,L|234:82,1,75,0|0,0:0|0:0,0:0:0:0:
309,206,132479,6,0,B|344:221|344:221|464:198,1,150,6|0,1:3|0:0,0:0:0:0:
307,88,133024,2,0,L|212:93,1,75,8|0,1:2|0:0,0:0:0:0:
181,169,133297,2,0,L|86:164,1,75,0|0,0:0|0:0,0:0:0:0:
53,96,133569,6,0,P|19:150|50:232,1,134.999995880127,6|2,1:3|0:0,0:0:0:0:
116,266,133979,2,0,P|179:250|235:284,1,134.999995880127,2|2,1:3|0:0,0:0:0:0:
313,337,134388,6,0,L|317:257,1,67.4999979400635,2|2,1:3|0:0,0:0:0:0:
325,145,134660,2,0,P|386:180|467:144,1,150,6|0,1:2|0:0,0:0:0:0:
275,82,135206,2,0,P|249:122|249:158,2,75,8|0|0,1:2|0:0|0:0,0:0:0:0:
172,148,135615,6,0,P|104:182|36:141,1,150,2|0,0:0|0:0,0:0:0:0:
106,104,136024,1,0,0:0:0:0:
57,251,136297,2,0,L|61:335,1,75,8|0,1:2|0:0,0:0:0:0:
155,300,136569,2,0,L|151:384,1,75,0|0,0:0|0:0,0:0:0:0:
233,250,136842,6,0,P|302:215|381:260,1,150,6|0,1:3|0:0,0:0:0:0:
300,371,137388,2,0,L|305:295,1,75,8|0,1:2|0:0,0:0:0:0:
365,239,137660,2,0,L|360:163,1,75,0|0,0:3|0:0,0:0:0:0:
259,209,137933,6,0,B|233:232|233:232|122:234,1,134.999995880127,6|2,1:2|0:0,0:0:0:0:
53,163,138342,2,0,B|79:140|79:140|190:138,1,134.999995880127,6|2,1:2|0:0,0:0:0:0:
132,233,138751,1,10,0:0:0:0:
132,233,139024,6,0,P|211:319|320:258,1,240,6|4,1:2|0:3,0:0:0:0:
310,276,140115,6,0,B|276:222|301:156|301:156|370:189|426:155,1,240,14|4,0:3|0:3,0:0:0:0:
411,162,141206,6,0,P|380:74|251:89,1,240,6|4,1:3|0:3,0:0:0:0:
325,140,142024,1,0,1:0:0:0:
206,166,142297,6,0,B|145:173|145:173|70:159,1,120,14|2,0:3|0:0,0:0:0:0:
140,104,142706,2,0,P|162:158|137:223,1,120,6|2,1:3|0:0,0:0:0:0:
84,300,143115,1,6,1:3:0:0:
84,300,143388,6,0,B|38:320|28:284|49:251|121:296|121:296|170:325|220:312,1,240,6|4,1:2|0:3,0:0:0:0:
219,312,144479,6,0,B|278:304|321:255|321:255|366:310|434:314,1,240,14|4,0:3|0:3,0:0:0:0:
423,313,145569,6,0,P|436:192|333:151,1,240,6|4,1:3|0:3,0:0:0:0:
255,205,146388,1,0,1:0:0:0:
129,99,146660,6,0,P|179:79|259:114,1,134.999995880127,14|2,0:3|0:0,0:0:0:0:
130,186,147069,2,0,P|80:206|0:171,1,134.999995880127,6|2,1:3|0:0,0:0:0:0:
129,99,147479,1,10,1:3:0:0:
