osu file format v14

[General]
AudioFilename: audio.mp3
AudioLeadIn: 0
PreviewTime: 38301
Countdown: 0
SampleSet: Soft
StackLeniency: 1
Mode: 0
LetterboxInBreaks: 0
EpilepsyWarning: 1
WidescreenStoryboard: 1

[Editor]
Bookmarks: 94142,124279,130006
DistanceSpacing: 0.2
BeatDivisor: 4
GridSize: 8
TimelineZoom: 1.9

[Metadata]
Title:Kick Me
TitleUnicode:Kick Me
Artist:Sleeping With Sirens
ArtistUnicode:Sleeping With Sirens
Creator:fieryrage
Version:ailv's Extreme
Source:
Tags:sws madness english metal punk rock post-hardcore ailv kyshiro elsa valentine xlolicore- pishifat bergy dashyy- ayyri eiri- craezy hypercyte underdogs stingy peter petereu
BeatmapID:2171680
BeatmapSetID:1038902

[Difficulty]
HPDrainRate:5.8
CircleSize:4.8
OverallDifficulty:9
ApproachRate:9.5
SliderMultiplier:2.7
SliderTickRate:1

[Events]
//Background and Video events
0,0,"asdfasd.png",0,0
//Break Periods
2,127024,128115
//Storyboard Layer 0 (Background)
//Storyboard Layer 1 (Fail)
//Storyboard Layer 2 (Pass)
//Storyboard Layer 3 (Foreground)
//Storyboard Layer 4 (Overlay)
//Storyboard Sound Samples

[TimingPoints]
479,272.727272727273,4,2,5,5,1,0
479,-200,4,2,5,5,0,0
10433,-200,4,2,5,10,0,0
10842,-200,4,2,5,15,0,0
12342,-200,4,2,5,5,0,0
12479,-333.333333333333,4,2,5,50,0,0
13569,-333.333333333333,4,2,5,40,0,0
14660,-333.333333333333,4,2,5,50,0,0
15751,-333.333333333333,4,2,5,40,0,0
16842,-333.333333333333,4,2,5,50,0,0
17933,-333.333333333333,4,2,5,40,0,0
19024,-333.333333333333,4,2,5,60,0,0
19569,-142.857142857143,4,2,5,60,0,0
21206,-200,4,2,5,60,0,0
22297,-200,4,2,5,50,0,0
23388,-200,4,2,5,60,0,0
24479,-200,4,2,5,50,0,0
25569,-200,4,2,5,60,0,0
26660,-200,4,2,5,50,0,0
27751,-200,4,2,5,60,0,0
29933,-200,4,2,5,55,0,0
30206,-200,4,2,5,30,0,0
31024,-200,4,2,5,35,0,0
31569,-200,4,2,5,38,0,0
32115,-200,4,2,5,40,0,0
32660,-200,4,2,5,43,0,0
33206,-200,4,2,5,45,0,0
33479,-200,4,2,5,48,0,0
33751,-200,4,2,5,50,0,0
34297,-133.333333333333,4,2,5,50,0,0
34433,-133.333333333333,4,2,5,40,0,0
34842,-133.333333333333,4,2,5,55,0,0
34979,-133.333333333333,4,2,5,40,0,0
35388,-133.333333333333,4,2,5,60,0,0
35524,-133.333333333333,4,2,5,45,0,0
35660,-200,4,2,5,50,0,0
35933,-200,4,2,5,55,0,0
36206,-200,4,2,5,60,0,0
36547,-200,4,2,5,45,0,0
36888,-200,4,2,5,45,0,0
37024,-200,4,2,5,35,0,0
38388,-200,4,2,5,60,0,0
38660,-100,4,2,5,70,0,1
45206,-333.333333333333,4,2,5,70,0,1
45479,-333.333333333333,4,2,5,60,0,1
45751,-333.333333333333,4,2,5,70,0,1
46024,-333.333333333333,4,2,5,60,0,1
46297,-133.333333333333,4,2,5,65,0,1
47251,-100,4,2,5,70,0,1
53933,-333.333333333333,4,2,5,70,0,1
54206,-333.333333333333,4,2,5,60,0,1
54479,-333.333333333333,4,2,5,70,0,1
54751,-333.333333333333,4,2,5,60,0,1
55024,-133.333333333333,4,2,5,70,0,0
55979,-133.333333333333,4,2,5,65,0,0
56047,-133.333333333333,4,2,5,55,0,0
59388,-133.333333333333,4,2,5,60,0,0
60479,-133.333333333333,4,2,5,55,0,0
61569,-133.333333333333,4,2,5,60,0,0
63819,-133.333333333333,4,2,5,5,0,0
64160,-133.333333333333,4,2,5,65,0,0
64229,-133.333333333333,4,2,5,5,0,0
64569,-133.333333333333,4,2,5,60,0,0
64638,-133.333333333333,4,2,5,5,0,0
64842,-200,4,2,5,55,0,0
64979,-200,4,2,5,50,0,0
66001,-200,4,2,5,50,0,0
66206,-200,4,2,5,50,0,0
66274,-200,4,2,5,50,0,0
66479,-200,4,2,5,50,0,0
71456,-200,4,2,5,5,0,0
72479,-200,4,2,5,50,0,0
73092,-200,4,2,5,5,0,0
73297,-200,4,2,5,20,0,0
73365,-200,4,2,5,35,0,0
73433,-200,4,2,5,40,0,0
73501,-200,4,2,5,50,0,0
73569,-111.111111111111,4,2,5,60,0,0
75206,-111.111111111111,4,2,5,58,0,0
76160,-111.111111111111,4,2,5,55,0,0
76842,-111.111111111111,4,2,5,52,0,0
80115,-111.111111111111,4,2,5,60,0,0
82297,-200,4,2,5,60,0,0
82569,-200,4,2,5,32,0,0
82842,-200,4,2,5,35,0,0
83388,-200,4,2,5,38,0,0
83933,-200,4,2,5,40,0,0
84479,-200,4,2,5,42,0,0
85024,-200,4,2,5,45,0,0
85569,-200,4,2,5,50,0,0
85842,-200,4,2,5,40,0,0
85979,-200,4,2,5,50,0,0
86660,-125,4,2,5,55,0,0
86797,-125,4,2,5,40,0,0
87206,-125,4,2,5,55,0,0
87342,-125,4,2,5,40,0,0
87751,-125,4,2,5,60,0,0
87888,-125,4,2,5,40,0,0
88024,-125,4,2,5,50,0,0
88297,-125,4,2,5,55,0,0
88569,-125,4,2,5,60,0,0
88842,-125,4,2,5,65,0,0
88910,-125,4,2,5,50,0,0
89388,-125,4,2,5,40,0,0
90751,-125,4,2,5,65,0,0
91024,-100,4,2,5,70,0,1
97569,-333.333333333333,4,2,5,75,0,1
97842,-333.333333333333,4,2,5,60,0,1
98115,-333.333333333333,4,2,5,75,0,1
98388,-333.333333333333,4,2,5,60,0,1
98660,-90.9090909090909,4,2,5,75,0,1
99751,-83.3333333333333,4,2,5,70,0,1
106297,-333.333333333333,4,2,5,75,0,1
106569,-333.333333333333,4,2,5,60,0,1
106842,-333.333333333333,4,2,5,75,0,1
107115,-333.333333333333,4,2,5,60,0,1
107388,-100,4,2,5,75,0,1
115297,-100,4,2,5,60,0,1
115433,-100,4,2,5,50,0,1
115569,-100,4,2,5,75,0,1
115842,-100,4,2,5,60,0,1
115979,-100,4,2,5,50,0,1
116115,-100,4,2,5,75,0,1
123751,-66.6666666666667,4,2,5,75,0,1
125388,-66.6666666666667,4,2,5,70,0,1
125797,-66.6666666666667,4,2,5,70,0,0
129206,-133.333333333333,4,2,5,70,0,0
129274,-133.333333333333,4,2,5,5,0,0
129615,-133.333333333333,4,2,5,70,0,0
129683,-133.333333333333,4,2,5,5,0,0
130024,-133.333333333333,4,2,5,70,0,0
130092,-133.333333333333,4,2,5,5,0,0
130229,-133.333333333333,4,2,5,5,0,0
130297,-133.333333333333,4,2,5,60,0,0
130365,-133.333333333333,4,2,5,55,0,0
133569,-133.333333333333,4,2,5,60,0,0
134660,-133.333333333333,4,2,5,60,0,0
137933,-133.333333333333,4,2,5,60,0,0
139024,-200,4,2,5,70,0,0
140115,-200,4,2,5,70,0,0
140660,-200,4,2,5,70,0,0
141206,-200,4,2,5,70,0,0
141751,-200,4,2,5,70,0,0
142297,-200,4,2,5,70,0,0
143388,-200,4,2,5,70,0,0
144479,-200,4,2,5,70,0,0
145024,-200,4,2,5,70,0,0
145569,-200,4,2,5,70,0,0
146115,-200,4,2,5,70,0,0
146660,-200,4,2,5,70,0,0
147615,-200,4,2,5,70,0,0
147751,-200,4,2,5,5,0,0
148842,-200,4,2,5,25,0,0

[Colours]
Combo1 : 136,136,136
Combo2 : 82,109,90
Combo3 : 196,148,140
Combo4 : 146,192,194

[HitObjects]
256,192,10297,12,0,12342,0:0:0:0:
80,144,12479,6,0,L|168:144,1,80.9999975280763,2|0,1:0|1:0,0:0:0:0:
240,88,12888,1,2,0:3:0:0:
240,88,13024,2,0,L|328:88,1,80.9999975280763,0|2,1:0|1:0,0:0:0:0:
512,217,13569,5,0,1:0:0:0:
512,217,13842,1,0,1:0:0:0:
512,217,14115,1,0,1:0:0:0:
512,217,14388,1,0,1:0:0:0:
263,350,14660,6,0,L|171:340,1,80.9999975280763,2|0,1:0|1:0,0:0:0:0:
111,289,15069,1,2,0:3:0:0:
111,289,15206,2,0,L|121:197,1,80.9999975280763,0|2,1:0|1:0,0:0:0:0:
191,31,15751,5,0,1:0:0:0:
191,31,16024,1,0,1:0:0:0:
191,31,16297,1,0,1:0:0:0:
191,31,16570,1,0,1:0:0:0:
299,276,16842,6,0,L|292:195,1,80.9999975280763,2|0,1:0|1:0,0:0:0:0:
308,114,17251,1,2,0:3:0:0:
308,114,17388,2,0,L|389:107,1,80.9999975280763,0|2,1:0|1:0,0:0:0:0:
210,342,17933,5,0,1:0:0:0:
210,342,18206,1,0,1:0:0:0:
210,342,18479,1,0,1:0:0:0:
210,342,18751,5,0,1:0:0:0:
181,199,18888,1,0,1:0:0:0:
154,67,19024,1,14,0:0:0:0:
298,308,19160,6,0,L|352:304,1,40.4999987640381,0|0,1:0|1:0,0:0:0:0:
433,296,19433,5,12,0:0:0:0:
225,261,19569,2,0,L|110:252,1,94.4999971160889,0|0,1:0|1:0,0:0:0:0:
27,97,19842,5,12,0:0:0:0:
101,279,19979,1,0,1:0:0:0:
83,13,20115,5,2,1:0:0:0:
61,200,20251,1,14,0:0:0:0:
223,113,20388,2,0,L|202:-1,1,94.4999971160889,0|0,1:0|1:0,0:0:0:0:
61,200,20660,5,14,0:0:0:0:
299,183,20797,1,0,1:0:0:0:
183,263,20933,5,10,0:0:0:0:
424,244,21069,1,0,1:0:0:0:
494,79,21206,6,0,P|422:26|368:34,1,135,6|8,1:2|0:0,0:0:0:0:
293,150,21615,2,0,P|383:154|408:100,1,135,2|0,1:0|1:0,0:0:0:0:
380,29,22024,1,10,0:0:0:0:
17,171,22297,5,0,0:0:0:0:
17,171,22569,1,8,0:0:0:0:
17,171,22842,1,0,0:0:0:0:
17,171,23115,2,0,L|98:159,1,67.5,8|0,0:0|0:0,0:0:0:0:
148,367,23388,6,0,P|161:321|258:323,1,135,2|8,1:0|0:0,0:0:0:0:
419,282,23797,2,0,P|406:328|309:326,1,135,2|0,1:0|1:0,0:0:0:0:
238,306,24206,1,10,0:0:0:0:
267,40,24479,5,0,0:0:0:0:
267,40,24751,1,8,0:0:0:0:
267,40,25024,1,0,1:0:0:0:
215,204,25160,1,0,1:0:0:0:
256,349,25297,1,8,0:0:0:0:
113,49,25569,6,0,L|262:56,1,135,2|8,1:0|0:0,0:0:0:0:
294,184,25979,2,0,L|428:177,1,135,2|0,1:0|1:0,0:0:0:0:
342,62,26388,1,10,0:0:0:0:
283,353,26660,5,0,0:0:0:0:
128,345,26933,2,0,L|201:333,1,67.5,8|0,0:0|0:0,0:0:0:0:
365,235,27206,1,0,1:0:0:0:
365,235,27342,1,0,1:0:0:0:
267,375,27479,1,8,0:0:0:0:
140,260,27615,1,0,1:0:0:0:
501,216,27751,5,14,0:0:0:0:
249,197,27888,1,0,1:0:0:0:
14,234,28024,1,0,1:0:0:0:
512,241,28160,6,0,L|431:234,1,67.5,12|0,0:0|1:0,0:0:0:0:
256,216,28433,1,0,1:0:0:0:
0,274,28569,5,12,0:0:0:0:
285,384,28706,2,0,L|270:297,1,67.5,0|2,1:0|1:0,0:0:0:0:
0,276,28979,5,12,0:0:0:0:
369,166,29115,2,0,L|357:232,1,67.5,0|0,1:0|1:0,0:0:0:0:
29,109,29388,5,12,0:0:0:0:
161,99,29524,1,0,1:0:0:0:
273,166,29660,2,0,L|181:169,1,67.5,10|0,0:0|1:0,0:0:0:0:
0,231,29933,5,6,1:2:0:0:
410,301,30206,1,10,0:3:0:0:
395,160,30342,1,8,0:3:0:0:
314,315,30479,6,0,L|308:400,1,67.5,10|8,0:0|0:3,0:0:0:0:
410,301,30751,2,0,L|405:233,1,67.5,10|8,0:0|0:3,0:0:0:0:
392,80,31024,1,10,0:0:0:0:
392,80,31297,1,10,0:0:0:0:
392,80,31569,5,10,0:0:0:0:
304,106,31706,1,8,0:3:0:0:
111,53,31842,5,10,0:0:0:0:
229,19,31979,1,8,0:3:0:0:
304,106,32115,2,0,L|292:203,1,67.5,10|8,0:0|0:3,0:0:0:0:
225,344,32388,2,0,L|216:277,1,67.5,10|8,0:0|0:3,0:0:0:0:
163,157,32660,2,0,L|151:254,1,67.5,10|8,0:0|0:3,0:0:0:0:
107,369,32933,5,10,0:0:0:0:
32,334,33069,1,8,0:3:0:0:
337,319,33206,5,10,0:0:0:0:
216,277,33342,1,8,0:3:0:0:
246,374,33479,5,10,0:0:0:0:
307,219,33615,1,8,0:3:0:0:
483,378,33751,6,0,L|470:288,1,67.5,10|8,0:0|0:3,0:0:0:0:
307,219,34024,2,0,L|316:152,1,67.5,10|8,0:0|0:3,0:0:0:0:
75,82,34297,6,0,P|65:43|81:80,1,101.250003862381,2|8,1:0|0:3,0:0:0:0:
12,175,34569,1,10,1:2:0:0:
12,175,34706,1,8,0:3:0:0:
344,47,34842,6,0,P|354:8|338:45,1,101.250003862381,2|8,1:0|0:3,0:0:0:0:
354,190,35115,1,10,1:2:0:0:
354,190,35251,1,8,0:3:0:0:
202,303,35388,6,0,P|192:264|208:301,1,101.250003862381,2|8,1:2|0:3,0:0:0:0:
237,378,35660,5,10,1:2:0:0:
95,345,35797,1,8,0:0:0:0:
379,201,35933,5,10,1:2:0:0:
221,281,36069,1,8,0:0:0:0:
502,300,36206,5,10,1:2:0:0:
262,154,36342,1,8,0:0:0:0:
0,382,36479,5,6,1:2:0:0:
452,78,38660,5,6,1:2:0:0:
353,274,38797,2,0,B|322:209|322:209|361:128,1,135,0|8,0:0|0:0,0:0:0:0:
429,369,39069,1,0,0:0:0:0:
491,183,39206,1,0,1:0:0:0:
512,262,39342,1,0,1:0:0:0:
221,362,39479,5,8,0:0:0:0:
221,362,39547,1,2,0:3:0:0:
221,362,39615,2,0,L|42:344,1,135,2|0,1:0|0:0,0:0:0:0:
108,198,39888,1,0,1:0:0:0:
255,177,40024,2,0,B|291:207|291:207|273:303,1,135,8|0,0:0|0:0,0:0:0:0:
11,153,40297,5,0,1:0:0:0:
190,232,40433,1,0,1:0:0:0:
172,128,40569,1,8,0:0:0:0:
496,149,40706,5,0,0:0:0:0:
496,149,40774,1,2,0:3:0:0:
496,149,40842,1,2,1:0:0:0:
373,77,40979,1,0,0:0:0:0:
389,2,41115,2,0,L|223:14,1,135,8|0,0:0|0:0,0:0:0:0:
226,312,41388,1,0,1:0:0:0:
283,184,41524,1,0,1:0:0:0:
223,139,41660,1,8,0:0:0:0:
372,364,41797,6,0,L|512:351,1,135,2|0,1:0|0:0,0:0:0:0:
374,243,42069,1,0,1:0:0:0:
266,378,42206,2,0,L|249:223,1,135,8|0,0:0|0:0,0:0:0:0:
152,0,42479,1,0,1:0:0:0:
288,162,42615,1,0,1:0:0:0:
192,199,42751,1,8,0:0:0:0:
466,31,42888,5,0,0:0:0:0:
466,31,42956,1,2,0:3:0:0:
466,31,43024,2,0,L|319:20,1,135,2|0,1:0|0:0,0:0:0:0:
269,181,43297,1,8,0:0:0:0:
469,236,43433,2,0,B|499:195|499:195|474:80,1,135,0|0,0:0|1:0,0:0:0:0:
381,226,43706,1,0,1:0:0:0:
420,318,43842,1,8,0:0:0:0:
34,368,43979,6,0,L|180:351,1,135,2|0,1:0|0:0,0:0:0:0:
201,138,44251,1,0,1:0:0:0:
16,223,44388,2,0,L|162:206,1,135,8|0,0:0|0:0,0:0:0:0:
311,369,44660,5,0,1:0:0:0:
297,295,44797,1,0,1:0:0:0:
34,368,44933,6,0,L|25:296,1,67.5,8|0,0:0|0:0,0:0:0:0:
265,182,45069,2,0,L|273:115,1,67.5,0|0,0:0|0:0,0:0:0:0:
332,48,45206,6,0,L|415:52,1,80.9999975280763,14|0,0:3|0:0,0:0:0:0:
494,53,45615,1,0,0:0:0:0:
339,37,45751,6,0,L|255:32,1,80.9999975280763,14|0,0:3|0:0,0:0:0:0:
171,27,46160,1,0,0:0:0:0:
332,48,46297,6,0,L|443:54,1,101.250003862381,14|0,0:3|0:0,0:0:0:0:
137,101,46569,2,0,L|36:99,1,101.250003862381,14|0,0:3|0:0,0:0:0:0:
0,174,46842,5,10,0:0:0:0:
254,206,46979,1,10,0:0:0:0:
512,172,47115,1,8,0:0:0:0:
194,354,47251,6,0,B|122:334|122:334|51:367,1,135,6|0,1:2|0:0,0:0:0:0:
269,329,47524,1,0,0:0:0:0:
296,256,47660,1,8,0:0:0:0:
52,142,47797,2,0,B|13:201|13:201|58:266,1,135,0|0,0:0|1:0,0:0:0:0:
140,25,48069,1,0,1:0:0:0:
60,60,48206,1,8,0:0:0:0:
339,136,48342,6,0,L|529:114,1,135,2|0,1:0|0:0,0:0:0:0:
290,33,48615,1,0,1:0:0:0:
222,193,48751,2,0,L|244:383,1,135,8|0,0:0|0:0,0:0:0:0:
512,253,49024,1,0,1:0:0:0:
339,136,49160,1,0,1:0:0:0:
102,336,49297,5,8,0:0:0:0:
102,336,49365,1,2,0:3:0:0:
102,336,49433,2,0,L|268:324,1,135,2|0,0:0|1:0,0:0:0:0:
171,110,49706,1,0,0:0:0:0:
16,255,49842,2,0,B|1:287|1:287|22:395,1,135,8|0,0:0|0:0,0:0:0:0:
303,179,50115,1,0,1:0:0:0:
27,165,50251,1,0,1:0:0:0:
110,227,50387,1,8,0:0:0:0:
323,66,50524,5,2,1:0:0:0:
393,19,50660,2,0,B|462:31|462:31|489:179,1,135,0|0,0:0|1:0,0:0:0:0:
405,313,50933,2,0,L|419:178,1,135,8|0,0:0|0:0,0:0:0:0:
469,373,51206,1,0,1:0:0:0:
224,222,51342,1,0,1:0:0:0:
320,185,51478,1,8,0:0:0:0:
46,353,51615,5,2,0:0:0:0:
46,353,51683,1,2,0:3:0:0:
46,353,51751,2,0,L|193:364,1,135,0|0,1:0|0:0,0:0:0:0:
134,142,52024,2,0,L|-13:153,1,135,10|0,0:0|0:0,0:0:0:0:
250,265,52297,1,0,1:0:0:0:
290,29,52433,1,0,1:0:0:0:
233,81,52569,1,8,0:0:0:0:
354,328,52706,6,0,L|489:313,1,135,2|0,1:0|0:0,0:0:0:0:
311,246,52978,1,0,1:0:0:0:
496,161,53115,2,0,L|350:178,1,135,8|0,0:0|0:0,0:0:0:0:
164,49,53387,5,0,1:0:0:0:
85,24,53524,1,0,1:0:0:0:
400,14,53660,6,0,L|409:86,1,67.5,8|0,0:0|0:0,0:0:0:0:
72,198,53796,2,0,L|64:265,1,67.5,2|0,0:0|0:0,0:0:0:0:
180,336,53933,6,0,L|96:331,1,80.9999975280763,6|0,1:3|0:0,0:0:0:0:
18,331,54342,1,0,0:0:0:0:
173,347,54478,6,0,L|256:351,1,80.9999975280763,6|0,1:3|0:0,0:0:0:0:
341,357,54887,5,0,0:0:0:0:
180,336,55024,6,0,L|68:329,1,101.250003862381,14|0,1:3|0:3,0:0:0:0:
375,283,55296,2,0,L|475:284,1,101.250003862381,14|0,1:3|0:3,0:0:0:0:
512,210,55569,5,8,0:0:0:0:
512,172,55842,1,8,0:0:0:0:
96,204,55979,6,0,B|158:193|158:193|206:236|206:236|288:219,1,202.500007724762,6|0,1:2|0:0,0:0:0:0:
280,222,56524,1,0,0:0:0:0:
116,307,56660,2,0,L|1:282,1,101.250003862381,8|0,1:2|0:0,0:0:0:0:
368,325,57070,5,2,0:0:0:0:
368,325,57206,2,0,B|298:313|298:313|269:367|269:367|192:354,1,202.500007724762,4|0,1:3|0:0,0:0:0:0:
199,355,57615,1,0,0:0:0:0:
267,138,57751,2,0,L|263:239,2,101.250003862381,8|0|0,1:2|0:0|0:0,0:0:0:0:
18,63,58160,5,0,0:0:0:0:
18,63,58296,2,0,B|67:93|67:93|219:47,1,202.500007724762,6|0,1:3|0:0,0:0:0:0:
110,191,58842,2,0,L|-17:173,2,101.250003862381,8|0|0,1:2|0:0|0:3,0:0:0:0:
509,208,59388,6,0,B|405:182|405:182|317:230,1,202.500007724762,6|2,1:3|0:0,0:0:0:0:
253,326,59797,2,0,B|149:352|149:352|61:304,1,202.500007724762,2|2,0:3|0:0,0:0:0:0:
88,191,60206,1,2,0:3:0:0:
308,0,60479,6,0,B|323:66|323:66|307:117|307:117|335:229,1,202.500007724762,6|0,1:2|0:0,0:0:0:0:
326,195,60888,1,0,0:0:0:0:
220,68,61024,2,0,L|114:82,2,101.250003862381,8|0|0,1:2|0:0|0:0,0:0:0:0:
456,257,61433,5,2,0:0:0:0:
456,257,61569,2,0,B|391:245|391:245|343:290|343:290|260:272,1,202.500007724762,6|0,1:3|0:0,0:0:0:0:
273,275,62115,1,8,1:2:0:0:
413,366,62251,2,0,L|515:341,2,101.250003862381,0|0|0,0:0|0:0|0:0,0:0:0:0:
184,346,62660,6,0,B|119:357|119:357|89:301|89:301|17:313,1,202.500007724762,6|0,1:3|0:0,0:0:0:0:
17,313,63069,1,0,0:0:0:0:
169,253,63205,2,0,L|165:152,1,101.250003862381,8|0,1:2|0:0,0:0:0:0:
284,384,63479,2,0,L|288:283,1,101.250003862381,0|0,0:0|0:0,0:0:0:0:
505,218,63751,6,0,P|391:257|357:174,1,202.500007724762,6|0,1:3|0:0,0:0:0:0:
338,105,64160,2,0,B|385:66|385:66|354:213,1,202.500007724762,6|0,1:3|0:0,0:0:0:0:
240,132,64569,2,0,L|229:-6,1,101.250003862381,10|0,0:0|0:0,0:0:0:0:
0,216,64842,6,0,P|65:198|134:216,1,135,6|8,1:2|0:0,0:0:0:0:
177,346,65251,2,0,L|169:278,1,67.5,2|0,1:2|0:0,0:0:0:0:
233,209,65524,1,0,1:0:0:0:
94,318,65660,1,10,0:0:0:0:
263,351,65797,6,0,B|315:341|315:341|350:361|350:361|412:350,1,135,0|0,0:0|1:0,0:0:0:0:
485,269,66206,2,0,L|479:360,1,67.5,8|0,0:0|0:0,0:0:0:0:
311,384,66479,1,2,1:2:0:0:
461,341,66615,1,2,1:2:0:0:
360,205,66751,2,0,L|365:273,1,67.5,8|0,0:0|0:0,0:0:0:0:
486,137,67024,6,0,B|450:149|450:149|402:138,1,67.5,2|0,1:2|0:0,0:0:0:0:
326,36,67297,1,8,0:0:0:0:
326,36,67433,2,0,B|362:24|362:24|410:35,1,67.5,2|0,1:2|0:0,0:0:0:0:
296,176,67706,1,0,1:0:0:0:
216,79,67842,2,0,L|228:1,1,67.5,8|0,0:0|0:0,0:0:0:0:
112,128,68115,5,2,0:2:0:0:
112,128,68251,1,2,1:2:0:0:
208,225,68388,2,0,L|115:214,1,67.5,8|0,0:0|0:0,0:0:0:0:
49,300,68660,1,2,1:2:0:0:
49,300,68797,1,0,1:0:0:0:
160,384,68933,2,0,L|167:316,1,67.5,8|2,0:0|0:2,0:0:0:0:
296,166,69206,6,0,B|314:203|314:203|311:255,1,67.5,2|0,1:2|0:0,0:0:0:0:
356,358,69479,1,8,0:0:0:0:
356,358,69615,2,0,B|354:331|354:331|372:294,1,67.5,2|0,1:2|0:0,0:0:0:0:
460,207,69888,1,0,1:0:0:0:
512,345,70024,2,0,L|416:341,1,67.5,8|0,0:0|0:0,0:0:0:0:
313,184,70297,6,0,L|297:267,1,67.5,2|0,0:2|1:0,0:0:0:0:
205,359,70569,1,8,0:0:0:0:
128,242,70706,2,0,L|198:235,1,67.5,0|2,0:0|1:2,0:0:0:0:
195,235,70979,1,0,1:0:0:0:
113,140,71115,5,8,0:0:0:0:
34,247,71251,1,0,1:0:0:0:
63,370,71388,5,6,1:2:0:0:
212,66,73569,6,0,P|140:13|76:41,1,121.499996292114,6|0,1:0|0:0,0:0:0:0:
59,162,73842,1,8,0:0:0:0:
220,187,73979,6,0,L|211:59,2,121.499996292114,2|0|0,1:0|0:0|1:0,0:0:0:0:
227,269,74387,1,10,0:0:0:0:
16,313,74660,5,2,0:0:0:0:
16,313,74932,1,10,0:0:0:0:
16,313,75205,1,2,0:0:0:0:
16,313,75478,2,0,L|141:295,1,121.499996292114,10|2,0:0|0:0,0:0:0:0:
471,288,75751,6,0,P|448:346|359:348,1,121.499996292114,2|0,1:0|0:0,0:0:0:0:
261,254,76024,1,8,0:0:0:0:
391,190,76160,6,0,L|518:197,2,121.499996292114,2|0|0,1:0|0:0|1:0,0:0:0:0:
307,185,76569,1,8,0:0:0:0:
84,161,76842,5,0,0:0:0:0:
84,161,77114,1,8,0:0:0:0:
84,161,77388,2,0,L|223:150,1,121.499996292114,0|0,0:0|0:0,0:0:0:0:
205,151,77660,1,8,0:0:0:0:
413,189,77933,6,0,P|356:176|340:110,1,121.499996292114,2|0,1:0|0:0,0:0:0:0:
442,5,78206,1,8,0:0:0:0:
512,131,78342,6,0,L|512:285,2,121.499996292114,2|0|0,1:0|0:0|1:0,0:0:0:0:
337,121,78751,5,10,0:0:0:0:
338,366,79023,1,0,0:0:0:0:
162,243,79296,2,0,L|294:220,1,121.499996292114,8|0,0:0|0:0,0:0:0:0:
347,355,79569,5,0,1:0:0:0:
347,355,79705,1,0,1:0:0:0:
137,379,79842,1,8,0:0:0:0:
8,254,79978,1,0,1:0:0:0:
14,261,80114,5,14,0:0:0:0:
251,214,80251,1,0,1:0:0:0:
508,262,80387,1,0,1:0:0:0:
25,297,80523,6,0,L|154:282,1,121.499996292114,12|0,0:0|1:0,0:0:0:0:
252,188,80796,1,0,1:0:0:0:
512,274,80932,5,12,0:0:0:0:
227,382,81069,2,0,L|245:236,1,121.499996292114,0|2,1:0|1:0,0:0:0:0:
512,276,81342,5,12,0:0:0:0:
134,141,81479,2,0,L|148:261,1,121.499996292114,0|0,1:0|1:0,0:0:0:0:
405,241,81751,5,12,0:0:0:0:
405,241,81888,1,0,1:0:0:0:
466,114,82024,1,10,0:0:0:0:
466,114,82160,1,0,1:0:0:0:
359,0,82297,5,6,1:2:0:0:
198,110,82569,1,8,0:0:0:0:
198,110,82706,1,8,0:3:0:0:
200,214,82842,2,0,L|275:203,1,67.5,8|8,0:0|0:3,0:0:0:0:
198,110,83115,2,0,L|123:99,1,67.5,8|8,0:0|0:3,0:0:0:0:
2,269,83388,5,8,0:0:0:0:
280,249,83660,1,8,0:0:0:0:
280,249,83797,1,8,0:3:0:0:
200,214,83933,2,0,L|190:143,1,67.5,8|8,0:0|0:3,0:0:0:0:
280,249,84206,1,8,0:0:0:0:
237,337,84342,6,0,P|339:335|350:315,1,135,8|8,0:3|0:3,0:0:0:0:
344,128,84751,6,0,L|333:217,1,67.5,8|8,0:0|0:3,0:0:0:0:
405,266,85024,5,8,0:0:0:0:
428,109,85160,1,8,0:3:0:0:
509,240,85297,5,8,0:0:0:0:
322,212,85433,1,8,0:3:0:0:
196,105,85569,5,8,0:0:0:0:
326,184,85706,1,8,0:0:0:0:
237,337,85842,1,8,0:0:0:0:
156,207,85979,5,10,0:3:0:0:
324,93,86115,2,0,L|396:102,1,67.5,8|8,0:0|0:3,0:0:0:0:
512,28,86388,2,0,L|440:37,1,67.5,10|8,0:0|0:3,0:0:0:0:
128,113,86660,6,0,P|106:138|145:117,1,108,10|8,1:2|0:3,0:0:0:0:
181,31,86933,1,8,1:2:0:0:
181,31,87069,1,8,0:3:0:0:
392,229,87206,6,0,P|414:254|375:233,1,108,10|8,1:2|0:3,0:0:0:0:
323,89,87479,1,8,1:2:0:0:
323,89,87615,1,8,0:3:0:0:
162,324,87751,6,0,P|140:349|179:328,1,108,10|8,1:2|0:3,0:0:0:0:
353,262,88024,5,10,1:2:0:0:
116,174,88160,1,8,0:3:0:0:
511,222,88297,5,8,1:2:0:0:
254,289,88433,1,8,0:0:0:0:
323,72,88569,5,10,1:2:0:0:
89,147,88706,1,8,0:0:0:0:
507,196,88842,5,6,1:2:0:0:
445,365,91024,5,6,1:2:0:0:
228,328,91161,2,0,B|360:296,1,135,0|8,0:0|0:0,0:0:0:0:
173,231,91433,1,0,0:0:0:0:
422,166,91570,1,0,1:0:0:0:
384,92,91706,1,0,1:0:0:0:
241,341,91843,5,8,0:0:0:0:
241,341,91910,1,2,0:3:0:0:
241,341,91979,2,0,L|259:162,1,135,2|0,1:0|0:0,0:0:0:0:
82,116,92252,1,0,1:0:0:0:
0,320,92388,2,0,B|30:356|30:356|126:338,1,135,8|0,0:0|0:0,0:0:0:0:
181,382,92661,5,0,1:0:0:0:
153,136,92797,1,0,1:0:0:0:
55,185,92933,1,8,0:0:0:0:
336,327,93070,5,0,1:0:0:0:
336,327,93138,1,2,0:3:0:0:
336,327,93206,1,2,1:0:0:0:
496,216,93343,1,0,0:0:0:0:
445,149,93479,2,0,L|279:137,1,135,8|0,0:0|0:0,0:0:0:0:
451,305,93752,1,0,1:0:0:0:
469,17,93888,1,0,1:0:0:0:
508,93,94024,1,8,0:0:0:0:
245,10,94161,6,0,B|199:62|199:62|226:126,1,135,2|0,1:0|0:0,0:0:0:0:
383,71,94433,1,0,1:0:0:0:
136,23,94570,2,0,L|-22:2,1,135,8|0,0:0|0:0,0:0:0:0:
18,264,94843,1,0,1:0:0:0:
147,116,94979,1,0,1:0:0:0:
136,23,95115,1,8,0:0:0:0:
149,303,95252,5,0,1:0:0:0:
149,303,95320,1,2,0:3:0:0:
149,303,95388,2,0,L|296:314,1,135,2|0,1:2|0:0,0:0:0:0:
331,153,95661,1,8,0:0:0:0:
481,239,95797,2,0,B|447:300|447:300|486:395,1,135,0|0,0:0|1:0,0:0:0:0:
406,195,96070,1,0,1:0:0:0:
506,157,96206,1,8,0:0:0:0:
246,10,96342,5,2,1:0:0:0:
246,10,96410,1,2,0:3:0:0:
246,10,96479,2,0,L|239:144,1,135,0|0,0:0|1:0,0:0:0:0:
204,371,96751,2,0,L|210:236,1,135,8|0,0:0|0:0,0:0:0:0:
504,181,97024,5,0,1:0:0:0:
421,162,97161,1,0,1:0:0:0:
92,170,97297,6,0,L|159:172,1,67.5,8|0,0:0|0:0,0:0:0:0:
320,79,97433,2,0,L|387:81,1,67.5,0|0,1:0|0:0,0:0:0:0:
342,352,97569,6,0,L|330:262,1,80.9999975280763,14|0,0:3|0:0,0:0:0:0:
361,194,97979,1,0,0:0:0:0:
322,363,98115,6,0,L|232:351,1,80.9999975280763,14|0,0:3|0:0,0:0:0:0:
164,382,98525,1,0,0:0:0:0:
435,343,98661,6,0,B|510:339|510:339|449:271,1,148.50000453186,14|0,0:3|0:0,0:0:0:0:
148,222,98933,2,0,B|73:218|73:218|134:150,1,148.50000453186,14|0,0:3|0:0,0:0:0:0:
512,76,99206,5,10,0:0:0:0:
250,81,99343,1,10,0:0:0:0:
2,79,99479,1,8,0:0:0:0:
449,13,99615,6,0,B|377:33|377:33|306:0,1,148.50000453186,6|0,1:2|0:0,0:0:0:0:
250,81,99888,1,0,1:0:0:0:
294,150,100024,1,8,0:0:0:0:
242,371,100161,2,0,B|216:290|216:290|249:219,1,161.999995056153,0|0,0:0|1:0,0:0:0:0:
149,369,100433,1,0,1:0:0:0:
67,327,100570,1,8,0:0:0:0:
32,55,100706,6,0,L|222:77,1,161.999995056153,2|0,1:0|0:0,0:0:0:0:
237,225,100979,1,0,1:0:0:0:
29,258,101115,2,0,B|-11:245|-11:245|17:84,1,161.999995056153,8|0,0:0|0:0,0:0:0:0:
331,218,101388,1,0,1:0:0:0:
285,302,101524,1,0,1:0:0:0:
231,9,101661,5,8,0:0:0:0:
231,9,101729,1,2,0:3:0:0:
231,9,101797,2,0,B|298:47|298:47|397:21,1,161.999995056153,2|0,1:0|0:0,0:0:0:0:
237,225,102070,1,0,1:0:0:0:
494,141,102206,2,0,B|523:97|523:97|490:-11,1,161.999995056153,8|0,0:0|0:0,0:0:0:0:
437,219,102479,1,0,1:0:0:0:
328,8,102615,1,0,1:0:0:0:
304,90,102751,1,8,0:0:0:0:
495,359,102888,5,2,1:0:0:0:
495,359,102956,1,2,0:3:0:0:
495,359,103024,2,0,L|318:339,1,161.999995056153,0|0,0:0|1:0,0:0:0:0:
215,212,103297,2,0,B|193:289|193:289|241:368,1,161.999995056153,8|0,0:0|0:0,0:0:0:0:
264,80,103570,1,0,1:0:0:0:
106,350,103706,1,0,1:0:0:0:
451,171,103842,5,8,0:0:0:0:
451,171,103911,1,2,0:3:0:0:
451,171,103979,2,0,B|377:220|377:220|304:182,1,161.999995056153,2|0,1:0|0:0,0:0:0:0:
488,51,104251,1,0,1:0:0:0:
196,56,104388,2,0,B|122:7|122:7|49:45,1,161.999995056153,10|0,0:0|0:0,0:0:0:0:
250,265,104661,1,0,1:0:0:0:
269,0,104797,1,0,1:0:0:0:
272,104,104933,1,8,0:0:0:0:
5,227,105070,6,0,L|167:245,1,161.999995056153,2|0,1:0|0:0,0:0:0:0:
272,104,105342,1,0,1:0:0:0:
60,19,105479,2,0,B|12:47|12:47|37:163,1,161.999995056153,8|0,0:0|0:0,0:0:0:0:
157,374,105751,5,0,1:0:0:0:
85,360,105888,1,0,1:0:0:0:
504,374,106024,6,0,L|517:285,1,80.9999975280763,8|0,0:0|0:0,0:0:0:0:
274,261,106160,2,0,L|265:179,1,80.9999975280763,2|0,1:0|0:0,0:0:0:0:
180,48,106297,6,0,L|96:52,1,80.9999975280763,6|0,1:3|0:0,0:0:0:0:
18,53,106706,1,0,0:0:0:0:
173,37,106842,6,0,L|256:32,1,80.9999975280763,6|0,1:3|0:0,0:0:0:0:
341,27,107251,5,0,0:0:0:0:
0,334,107388,6,0,L|138:320,1,135,14|0,1:3|0:3,0:0:0:0:
401,272,107660,2,0,L|263:258,1,135,14|0,1:3|0:3,0:0:0:0:
0,212,107933,5,8,0:0:0:0:
257,178,108070,1,8,0:0:0:0:
512,210,108206,1,8,0:0:0:0:
0,212,108342,6,0,L|152:200,1,135,6|0,1:2|0:0,0:0:0:0:
224,241,108615,1,0,1:0:0:0:
242,10,108751,2,0,L|252:144,1,135,8|0,0:0|0:0,0:0:0:0:
382,58,109024,1,0,1:0:0:0:
210,6,109160,1,0,1:0:0:0:
228,178,109297,1,8,0:0:0:0:
512,91,109433,6,0,L|328:79,1,135,2|0,1:0|0:0,0:0:0:0:
301,128,109706,1,0,1:0:0:0:
458,349,109842,2,0,L|466:214,1,135,8|0,0:0|0:0,0:0:0:0:
313,289,110115,1,0,1:0:0:0:
475,367,110251,1,0,1:0:0:0:
455,178,110388,1,8,0:0:0:0:
253,364,110524,6,0,L|99:349,1,135,0|2,1:0|0:0,0:0:0:0:
40,362,110797,1,0,1:0:0:0:
221,153,110933,2,0,L|207:287,1,135,8|0,0:0|0:0,0:0:0:0:
102,178,111206,1,0,1:0:0:0:
306,124,111342,1,0,1:0:0:0:
135,33,111479,1,8,0:0:0:0:
315,222,111615,6,0,L|465:210,1,135,2|0,1:0|0:0,0:0:0:0:
488,285,111888,1,0,1:0:0:0:
254,381,112024,2,0,B|216:304|216:304|237:246,1,135,8|0,0:0|0:0,0:0:0:0:
372,300,112297,1,0,1:0:0:0:
151,380,112433,1,0,1:0:0:0:
193,181,112569,1,8,0:0:0:0:
471,365,112706,6,0,L|487:231,1,135,0|2,1:0|0:0,0:0:0:0:
428,157,112979,1,0,1:0:0:0:
238,338,113115,2,0,L|390:361,1,135,8|0,0:0|0:0,0:0:0:0:
474,193,113388,1,0,1:0:0:0:
303,367,113524,1,0,1:0:0:0:
235,160,113660,1,8,0:0:0:0:
512,321,113797,6,0,L|348:326,1,135,2|0,1:0|0:0,0:0:0:0:
303,367,114069,1,0,1:0:0:0:
431,97,114206,2,0,L|435:231,1,135,8|0,0:0|0:0,0:0:0:0:
234,156,114479,1,0,1:0:0:0:
444,70,114615,1,0,1:0:0:0:
394,301,114751,5,8,0:0:0:0:
150,275,114888,1,0,1:0:0:0:
457,124,115024,6,0,P|442:43|442:127,1,202.5,14|0,0:0|0:0,0:0:0:0:
381,242,115297,1,8,1:3:0:0:
381,242,115433,1,0,1:3:0:0:
220,99,115569,6,0,P|235:18|235:102,1,202.5,14|0,0:0|0:0,0:0:0:0:
258,304,115842,1,8,1:3:0:0:
258,304,115979,1,0,1:3:0:0:
69,141,116115,6,0,P|54:60|54:144,1,202.5,14|0,0:0|0:0,0:0:0:0:
51,384,116388,6,0,L|198:351,1,135,14|0,0:0|1:3,0:0:0:0:
500,244,116660,1,14,0:0:0:0:
213,371,116797,1,2,1:0:0:0:
27,157,116933,1,0,1:0:0:0:
467,265,117070,6,0,L|286:253,1,135,6|0,1:2|0:0,0:0:0:0:
261,300,117342,1,0,1:0:0:0:
336,36,117479,2,0,L|351:175,1,135,10|0,0:0|1:0,0:0:0:0:
175,67,117751,1,0,1:0:0:0:
348,26,117888,1,0,1:0:0:0:
497,131,118024,1,10,0:0:0:0:
135,224,118160,6,0,L|-29:207,1,135,2|0,1:3|1:0,0:0:0:0:
7,133,118433,1,0,1:0:0:0:
191,384,118569,2,0,L|205:241,1,135,10|0,0:0|1:0,0:0:0:0:
18,110,118842,1,0,1:0:0:0:
185,226,118979,1,0,1:0:0:0:
15,365,119115,1,10,0:0:0:0:
259,105,119251,6,0,L|406:105,1,135,0|2,1:0|1:3,0:0:0:0:
451,58,119524,1,0,1:0:0:0:
346,325,119660,2,0,L|346:178,1,135,10|0,0:0|1:0,0:0:0:0:
512,208,119933,1,0,1:0:0:0:
334,165,120069,1,0,1:0:0:0:
213,286,120206,1,10,0:0:0:0:
3,69,120342,6,0,L|157:75,1,135,2|0,1:3|1:0,0:0:0:0:
222,24,120615,1,0,1:0:0:0:
81,299,120751,2,0,L|69:148,1,135,10|0,0:0|1:0,0:0:0:0:
142,42,121024,1,0,1:0:0:0:
0,189,121160,1,0,1:0:0:0:
112,368,121297,1,10,0:0:0:0:
386,164,121433,6,0,L|245:154,1,135,0|2,1:0|1:3,0:0:0:0:
193,205,121706,1,0,1:0:0:0:
428,382,121842,2,0,L|418:242,1,135,10|0,0:0|1:0,0:0:0:0:
376,41,122115,1,0,1:0:0:0:
477,194,122251,1,0,1:0:0:0:
305,335,122388,1,10,0:0:0:0:
213,44,122524,6,0,L|240:212,1,135,2|0,1:3|1:0,0:0:0:0:
179,245,122797,1,0,1:0:0:0:
445,124,122933,2,0,L|306:112,1,135,10|0,0:0|1:0,0:0:0:0:
0,132,123206,1,0,1:0:0:0:
171,217,123342,1,0,1:0:0:0:
289,42,123479,1,8,0:0:0:0:
329,346,123615,5,0,1:0:0:0:
329,346,123683,1,2,0:3:0:0:
329,346,123751,2,0,B|437:329|437:329|326:286|326:286|200:341|200:341|75:306|75:306|200:278,1,607.500023174287,14|0,1:3|0:0,0:0:0:0:
327,102,124297,6,0,B|437:78|437:78|312:43|312:43|186:98|186:98|75:55|75:55|183:38,1,607.500023174287,14|0,1:3|0:0,0:0:0:0:
47,362,124842,6,0,L|30:152,1,202.500007724762,14|0,1:3|0:0,0:0:0:0:
183,37,125115,2,0,L|166:238,1,202.500007724762,14|0,1:3|0:0,0:0:0:0:
301,380,125388,6,0,L|292:274,1,101.250003862381,10|0,0:0|0:0,0:0:0:0:
387,109,125524,2,0,L|378:209,1,101.250003862381,10|0,0:0|0:0,0:0:0:0:
450,378,125660,2,0,L|441:272,1,101.250003862381,8|0,0:0|0:0,0:0:0:0:
417,28,125797,5,6,1:2:0:0:
31,234,129206,6,0,P|116:236|51:163,1,202.500007724762,6|0,1:2|0:0,0:0:0:0:
268,298,129615,6,0,P|183:296|248:369,1,202.500007724762,6|0,1:2|0:0,0:0:0:0:
461,246,130024,6,0,P|390:234|369:327,1,151.875005793572,10|0,0:0|0:0,0:0:0:0:
374,368,130297,6,0,B|341:287|341:287|374:151,1,202.500007724762,6|0,1:2|0:0,0:0:0:0:
368,175,130842,1,8,1:2:0:0:
469,222,130979,2,0,B|494:270|494:270|473:323,1,101.250003862381,0|0,0:0|0:0,0:0:0:0:
258,95,131251,5,2,0:0:0:0:
258,95,131388,2,0,B|177:88|177:88|138:144|138:144|54:135,1,202.500007724762,6|0,1:3|0:0,0:0:0:0:
85,138,131933,1,8,1:2:0:0:
43,53,132069,2,0,B|79:11|79:11|138:23,1,101.250003862381,0|0,0:0|0:0,0:0:0:0:
28,270,132342,5,0,0:0:0:0:
28,270,132479,2,0,B|122:221|122:221|229:280,1,202.500007724762,6|0,1:3|0:0,0:0:0:0:
206,267,133024,1,8,1:2:0:0:
325,360,133160,2,0,L|313:250,1,101.250003862381,0|0,0:0|0:0,0:0:0:0:
422,311,133433,1,0,0:0:0:0:
120,370,133569,6,0,L|100:253,1,101.250003862381,6|0,1:3|0:0,0:0:0:0:
206,267,133774,2,0,L|224:168,1,101.250003862381,2|0,0:3|0:0,0:0:0:0:
176,99,133979,1,2,1:3:0:0:
176,99,134047,1,2,0:3:0:0:
176,99,134115,1,10,0:2:0:0:
307,244,134251,1,2,0:0:0:0:
120,370,134388,2,0,B|78:335|78:335|15:360,1,101.250003862381,2|2,1:3|0:0,0:0:0:0:
268,98,134660,6,0,B|340:86|340:86|384:137|384:137|481:120,1,202.500007724762,6|0,1:2|0:0,0:0:0:0:
444,126,135206,1,8,1:2:0:0:
317,217,135342,2,0,L|228:171,1,101.250003862381,0|0,0:0|0:0,0:0:0:0:
31,27,135615,5,2,0:0:0:0:
31,27,135751,6,0,B|19:106|19:106|63:144|63:144|54:214,1,202.500007724762,6|0,1:3|0:0,0:0:0:0:
55,207,136297,1,8,1:2:0:0:
157,375,136433,2,0,L|126:269,1,101.250003862381,0|0,0:0|0:0,0:0:0:0:
316,239,136706,5,0,0:0:0:0:
316,239,136842,2,0,B|402:195|402:195|495:246,1,202.500007724762,6|0,1:3|0:0,0:0:0:0:
495,246,137388,1,8,1:2:0:0:
447,113,137524,2,0,L|421:7,1,101.250003862381,0|0,0:0|0:3,0:0:0:0:
357,117,137797,1,0,0:0:0:0:
3,184,137933,6,0,L|113:199,1,101.250003862381,6|0,1:2|0:0,0:0:0:0:
141,98,138138,2,0,L|242:85,1,101.250003862381,2|0,0:3|0:0,0:0:0:0:
332,209,138342,1,6,1:2:0:0:
332,209,138410,1,2,0:3:0:0:
332,209,138479,1,0,0:0:0:0:
208,172,138615,1,2,0:0:0:0:
264,366,138751,2,0,L|246:239,1,101.250003862381,10|2,0:0|0:0,0:0:0:0:
8,82,139024,6,0,B|114:50|95:132|214:97,1,202.5,6|0,1:2|0:0,0:0:0:0:
210,81,139569,1,4,0:3:0:0:
207,69,139706,1,0,0:0:0:0:
206,57,139842,1,0,0:0:0:0:
476,217,140115,6,0,B|385:200|385:200|276:236,1,202.5,14|0,0:3|0:0,0:0:0:0:
265,222,140660,1,4,0:3:0:0:
265,205,140797,1,0,0:0:0:0:
265,185,140933,1,0,0:0:0:0:
24,302,141206,6,0,B|95:292|95:292|148:326|148:326|228:313,1,202.5,6|0,1:3|0:0,0:0:0:0:
203,294,141751,1,4,0:3:0:0:
201,273,141888,1,0,0:0:0:0:
198,248,142024,1,0,1:0:0:0:
53,157,142160,5,0,1:0:0:0:
47,138,142229,1,2,0:3:0:0:
40,117,142297,2,0,L|35:211,1,67.5,14|0,0:3|0:0,0:0:0:0:
201,94,142569,2,0,L|197:26,1,67.5,2|6,0:0|1:3,0:0:0:0:
134,195,142842,5,0,0:0:0:0:
182,366,142979,1,2,0:0:0:0:
421,339,143115,2,0,L|314:332,1,101.25,6|0,1:3|0:0,0:0:0:0:
17,308,143388,6,0,B|99:289|99:289|120:330|120:330|197:313,1,202.5,6|0,1:2|0:0,0:0:0:0:
199,294,143933,1,4,0:3:0:0:
199,274,144069,1,0,0:0:0:0:
199,251,144206,1,0,0:0:0:0:
312,18,144479,6,0,B|260:101|260:101|324:204,1,202.5,14|0,0:3|0:0,0:0:0:0:
348,180,145024,1,4,0:3:0:0:
369,186,145160,1,0,0:0:0:0:
387,192,145297,1,0,0:0:0:0:
0,171,145569,6,0,B|101:147|91:215|221:173,1,202.5,6|0,1:3|0:0,0:0:0:0:
195,154,146115,1,4,0:3:0:0:
190,123,146251,1,0,0:0:0:0:
186,97,146387,1,0,1:0:0:0:
272,56,146524,5,0,1:0:0:0:
278,37,146592,1,2,0:3:0:0:
288,13,146660,2,0,L|280:112,1,67.5,14|0,0:3|0:0,0:0:0:0:
426,177,146933,2,0,L|420:109,1,67.5,2|6,0:0|1:3,0:0:0:0:
300,195,147206,1,2,0:0:0:0:
391,283,147342,1,2,0:0:0:0:
405,279,147410,1,2,0:3:0:0:
421,272,147479,2,0,L|504:280,1,67.5,10|2,1:3|0:0,0:0:0:0:
256,192,147751,12,2,148842,0:0:0:0:
