osu file format v14

[General]
AudioFilename: audio.mp3
AudioLeadIn: 0
PreviewTime: 38301
Countdown: 0
SampleSet: Soft
StackLeniency: 0.3
Mode: 0
LetterboxInBreaks: 0
WidescreenStoryboard: 1

[Editor]
DistanceSpacing: 1.1
BeatDivisor: 4
GridSize: 8
TimelineZoom: 1.3

[Metadata]
Title:Kick Me
TitleUnicode:Kick Me
Artist:Sleeping With Sirens
ArtistUnicode:Sleeping With Sirens
Creator:fieryrage
Version:Underdogs' Hard
Source:
Tags:sws madness english metal punk rock post-hardcore ailv kyshiro elsa valentine xlolicore- pishifat bergy dashyy- ayyri eiri- craezy hypercyte underdogs stingy peter petereu
BeatmapID:2171682
BeatmapSetID:1038902

[Difficulty]
HPDrainRate:5
CircleSize:3.5
OverallDifficulty:7.1
ApproachRate:8.1
SliderMultiplier:1.3
SliderTickRate:1

[Events]
//Background and Video events
0,0,"asdfasd.png",0,0
//Break Periods
2,56179,58654
2,125997,128472
//Storyboard Layer 0 (Background)
//Storyboard Layer 1 (Fail)
//Storyboard Layer 2 (Pass)
//Storyboard Layer 3 (Foreground)
//Storyboard Layer 4 (Overlay)
//Storyboard Sound Samples

[TimingPoints]
479,272.727272727273,4,2,5,5,1,0
479,-100,4,2,5,5,0,0
10433,-100,4,2,5,10,0,0
10842,-100,4,2,5,15,0,0
12342,-100,4,2,5,5,0,0
12479,-133.333333333333,4,2,5,50,0,0
13569,-133.333333333333,4,2,5,40,0,0
14660,-133.333333333333,4,2,5,50,0,0
15751,-133.333333333333,4,2,5,40,0,0
16842,-133.333333333333,4,2,5,50,0,0
17933,-133.333333333333,4,2,5,40,0,0
19024,-100,4,2,5,60,0,0
22297,-133.333333333333,4,2,5,50,0,0
23388,-100,4,2,5,60,0,0
24479,-111.111111111111,4,2,5,50,0,0
25569,-100,4,2,5,60,0,0
26660,-111.111111111111,4,2,5,50,0,0
27751,-100,4,2,5,60,0,0
29933,-100,4,2,5,55,0,0
30206,-100,4,2,5,30,0,0
31024,-100,4,2,5,35,0,0
31569,-100,4,2,5,38,0,0
32115,-100,4,2,5,40,0,0
32660,-100,4,2,5,43,0,0
33206,-100,4,2,5,45,0,0
33479,-100,4,2,5,48,0,0
33751,-100,4,2,5,50,0,0
34433,-100,4,2,5,40,0,0
34842,-100,4,2,5,55,0,0
34979,-100,4,2,5,40,0,0
35388,-100,4,2,5,60,0,0
35524,-100,4,2,5,45,0,0
35660,-100,4,2,5,50,0,0
35933,-100,4,2,5,55,0,0
36206,-76.9230769230769,4,2,5,60,0,0
36479,-125,4,2,5,60,0,0
36547,-125,4,2,5,45,0,0
36888,-125,4,2,5,45,0,0
37024,-125,4,2,5,35,0,0
38388,-125,4,2,5,60,0,0
38660,-83.3333333333333,4,2,5,70,0,0
38694,-83.3333333333333,4,2,5,70,0,1
38729,-83.3333333333333,4,2,5,70,0,0
45206,-83.3333333333333,4,2,5,70,0,1
45479,-83.3333333333333,4,2,5,60,0,0
45751,-83.3333333333333,4,2,5,70,0,1
46024,-83.3333333333333,4,2,5,60,0,0
46297,-83.3333333333333,4,2,5,65,0,1
46433,-83.3333333333333,4,2,5,65,0,0
46569,-83.3333333333333,4,2,5,65,0,1
46706,-83.3333333333333,4,2,5,65,0,0
46842,-83.3333333333333,4,2,5,65,0,1
47251,-83.3333333333333,4,2,5,70,0,0
53933,-83.3333333333333,4,2,5,70,0,1
54206,-83.3333333333333,4,2,5,60,0,0
54479,-83.3333333333333,4,2,5,70,0,1
54751,-83.3333333333333,4,2,5,60,0,0
55024,-83.3333333333333,4,2,5,70,0,1
55160,-83.3333333333333,4,2,5,70,0,0
55297,-83.3333333333333,4,2,5,70,0,1
55433,-83.3333333333333,4,2,5,70,0,0
55569,-83.3333333333333,4,2,5,70,0,1
55979,-83.3333333333333,4,2,5,65,0,0
56047,-83.3333333333333,4,2,5,55,0,0
59388,-83.3333333333333,4,2,5,60,0,0
60479,-111.111111111111,4,2,5,55,0,0
61569,-111.111111111111,4,2,5,60,0,0
63819,-111.111111111111,4,2,5,5,0,0
64160,-111.111111111111,4,2,5,65,0,0
64229,-111.111111111111,4,2,5,5,0,0
64569,-111.111111111111,4,2,5,60,0,0
64638,-111.111111111111,4,2,5,5,0,0
64842,-111.111111111111,4,2,5,55,0,0
64979,-111.111111111111,4,2,5,50,0,0
66001,-111.111111111111,4,2,5,50,0,0
66206,-111.111111111111,4,2,5,50,0,0
66274,-111.111111111111,4,2,5,50,0,0
66479,-111.111111111111,4,2,5,50,0,0
71388,-166.666666666666,4,2,5,50,0,0
71456,-166.666666666666,4,2,5,5,0,0
72479,-133.333333333333,4,2,5,50,0,0
73092,-133.333333333333,4,2,5,5,0,0
73297,-133.333333333333,4,2,5,20,0,0
73365,-133.333333333333,4,2,5,35,0,0
73433,-133.333333333333,4,2,5,40,0,0
73501,-133.333333333333,4,2,5,50,0,0
73569,-100,4,2,5,60,0,0
75206,-100,4,2,5,58,0,0
76160,-100,4,2,5,55,0,0
76842,-100,4,2,5,52,0,0
80115,-100,4,2,5,60,0,0
82569,-100,4,2,5,32,0,0
82842,-100,4,2,5,35,0,0
83388,-100,4,2,5,38,0,0
83933,-100,4,2,5,40,0,0
84479,-100,4,2,5,42,0,0
85024,-100,4,2,5,45,0,0
85569,-100,4,2,5,50,0,0
85842,-100,4,2,5,40,0,0
85979,-100,4,2,5,50,0,0
86660,-100,4,2,5,55,0,0
86797,-100,4,2,5,40,0,0
87206,-100,4,2,5,55,0,0
87342,-100,4,2,5,40,0,0
87751,-100,4,2,5,60,0,0
87888,-100,4,2,5,40,0,0
88024,-100,4,2,5,50,0,0
88297,-100,4,2,5,55,0,0
88569,-100,4,2,5,60,0,0
88842,-111.111111111111,4,2,5,65,0,0
88910,-111.111111111111,4,2,5,50,0,0
89388,-111.111111111111,4,2,5,40,0,0
90751,-83.3333333333333,4,2,5,65,0,0
91024,-90.9090909090909,4,2,5,70,0,0
97569,-90.9090909090909,4,2,5,75,0,0
97842,-90.9090909090909,4,2,5,60,0,0
98115,-90.9090909090909,4,2,5,75,0,0
98388,-90.9090909090909,4,2,5,60,0,0
98660,-90.9090909090909,4,2,5,75,0,0
99751,-90.9090909090909,4,2,5,70,0,0
106297,-90.9090909090909,4,2,5,75,0,0
106569,-90.9090909090909,4,2,5,60,0,0
106842,-90.9090909090909,4,2,5,75,0,0
107115,-90.9090909090909,4,2,5,60,0,0
107388,-90.9090909090909,4,2,5,75,0,0
108342,-90.9090909090909,4,2,5,75,0,1
115024,-90.9090909090909,4,2,5,75,0,0
115297,-90.9090909090909,4,2,5,60,0,0
115433,-90.9090909090909,4,2,5,50,0,0
115569,-90.9090909090909,4,2,5,75,0,0
115842,-90.9090909090909,4,2,5,60,0,0
115979,-90.9090909090909,4,2,5,50,0,0
116115,-90.9090909090909,4,2,5,75,0,0
117069,-90.9090909090909,4,2,5,75,0,1
125388,-90.9090909090909,4,2,5,70,0,1
125797,-90.9090909090909,4,2,5,70,0,0
129206,-111.111111111111,4,2,5,70,0,0
129274,-111.111111111111,4,2,5,5,0,0
129615,-111.111111111111,4,2,5,70,0,0
129683,-111.111111111111,4,2,5,5,0,0
130024,-111.111111111111,4,2,5,70,0,0
130092,-111.111111111111,4,2,5,5,0,0
130229,-111.111111111111,4,2,5,5,0,0
130297,-111.111111111111,4,2,5,60,0,0
130365,-111.111111111111,4,2,5,55,0,0
133569,-111.111111111111,4,2,5,60,0,0
139024,-111.111111111111,4,2,5,70,0,0
146660,-76.9230769230769,4,2,5,70,0,0
147751,-76.9230769230769,4,2,5,45,0,0
148842,-76.9230769230769,4,2,5,25,0,0

[Colours]
Combo1 : 136,136,136
Combo2 : 82,109,90
Combo3 : 196,148,140
Combo4 : 146,192,194

[HitObjects]
256,192,10297,12,0,11933,0:0:0:0:
75,81,12479,6,0,P|114:124|70:200,1,146.250005578995,2|2,1:0|0:3,0:0:0:0:
80,195,13297,2,0,L|71:261,1,48.750001859665,2|0,1:0|0:0,0:0:0:0:
114,326,13569,5,0,1:0:0:0:
186,255,13842,1,0,1:0:0:0:
241,329,14115,1,0,1:0:0:0:
305,253,14388,1,0,1:0:0:0:
347,349,14660,6,0,B|406:338|406:338|432:350|432:350|504:333,1,146.250005578995,2|2,1:0|0:3,0:0:0:0:
487,336,15479,2,0,P|477:324|479:283,1,48.750001859665,2|0,1:0|0:0,0:0:0:0:
495,209,15751,1,0,1:0:0:0:
398,189,16024,1,0,1:0:0:0:
436,77,16297,1,0,1:0:0:0:
339,97,16570,1,0,1:0:0:0:
248,29,16842,6,0,B|240:82|240:82|248:113|248:113|234:180,1,146.250005578995,2|2,1:0|0:3,0:0:0:0:
235,173,17660,2,0,L|176:166,1,48.750001859665,2|0,1:0|0:0,0:0:0:0:
110,114,17933,1,0,1:0:0:0:
34,162,18206,1,0,1:0:0:0:
61,261,18479,1,0,1:0:0:0:
158,260,18751,1,0,1:0:0:0:
186,167,19024,6,0,L|343:156,1,130,14|0,0:0|1:0,0:0:0:0:
398,207,19433,2,0,B|430:186|430:186|423:89,1,130,12|0,0:0|1:0,0:0:0:0:
319,93,19842,2,0,L|314:174,1,65,12|0,0:0|1:0,0:0:0:0:
323,271,20115,5,2,1:0:0:0:
323,271,20251,2,0,L|179:260,1,130,14|0,0:0|1:0,0:0:0:0:
51,280,20660,2,0,B|41:309|41:309|59:351,1,65,14|0,0:0|1:0,0:0:0:0:
116,218,20933,2,0,B|126:189|126:189|108:147,1,65,10|0,0:0|1:0,0:0:0:0:
46,117,21206,6,0,L|194:100,1,130,6|8,1:2|0:0,0:0:0:0:
251,38,21615,2,0,L|380:52,1,130,2|0,1:0|1:0,0:0:0:0:
493,119,22024,1,10,0:0:0:0:
261,190,22297,6,0,B|254:171|254:171|262:122,1,48.750001859665,0|0,0:0|0:0,0:0:0:0:
355,182,22569,2,0,L|344:236,1,48.750001859665,8|0,0:0|0:0,0:0:0:0:
432,271,22842,2,0,L|386:301,1,48.750001859665,0|0,0:0|0:0,0:0:0:0:
383,379,23115,2,0,L|329:367,1,48.750001859665,8|0,0:0|0:0,0:0:0:0:
262,294,23388,6,0,B|215:306|215:306|177:295|177:295|136:303,1,130,2|8,1:0|0:0,0:0:0:0:
66,359,23797,2,0,P|43:312|83:229,1,130,2|0,1:0|1:0,0:0:0:0:
149,202,24206,1,10,0:0:0:0:
149,202,24479,6,0,L|155:131,1,58.4999982147217,0|0,0:0|0:0,0:0:0:0:
238,98,24751,2,0,L|242:156,1,58.4999982147217,8|0,0:0|0:0,0:0:0:0:
293,235,25024,1,0,1:0:0:0:
293,235,25160,1,0,1:0:0:0:
333,131,25297,2,0,L|337:72,1,58.4999982147217,8|0,0:0|0:0,0:0:0:0:
460,55,25569,6,0,B|455:100|455:100|465:132|465:132|454:192,1,130,2|8,1:0|0:0,0:0:0:0:
485,271,25979,2,0,P|427:272|368:200,1,130,2|0,1:0|1:0,0:0:0:0:
333,131,26388,2,0,L|343:56,1,65,10|0,0:0|0:0,0:0:0:0:
223,119,26660,6,0,B|248:139|248:139|336:130,1,116.999996429443,0|8,0:0|0:0,0:0:0:0:
165,29,27206,1,0,1:0:0:0:
165,29,27342,1,0,1:0:0:0:
108,90,27479,2,0,L|103:169,1,58.4999982147217,8|0,0:0|1:0,0:0:0:0:
72,231,27751,6,0,B|41:237|41:237|-13:215,2,65,14|0|0,0:0|1:0|1:0,0:0:0:0:
160,214,28160,2,0,B|191:208|191:208|245:230,2,65,12|0|0,0:0|1:0|1:0,0:0:0:0:
126,300,28569,2,0,L|121:377,1,65,12|0,0:0|1:0,0:0:0:0:
227,350,28842,1,2,1:0:0:0:
227,350,28979,6,0,L|221:210,1,130,12|0,0:0|1:0,0:0:0:0:
284,140,29388,2,0,B|292:110|292:110|285:63,1,65,12|0,0:0|1:0,0:0:0:0:
209,44,29660,2,0,B|201:74|201:74|208:121,1,65,10|0,0:0|1:0,0:0:0:0:
286,75,29933,6,0,L|445:60,1,130,6|10,1:2|0:3,0:0:0:0:
482,136,30479,1,10,0:0:0:0:
408,197,30751,1,10,0:0:0:0:
471,312,31024,2,0,L|341:299,1,130,10|10,0:0|0:0,0:0:0:0:
147,279,31569,2,0,P|139:315|157:349,1,65,10|8,0:0|0:3,0:0:0:0:
229,368,31842,2,0,P|237:332|219:298,1,65,10|8,0:0|0:3,0:0:0:0:
147,279,32115,6,0,L|67:274,1,65,10|8,0:0|0:3,0:0:0:0:
31,196,32388,2,0,B|24:167|24:167|45:110,1,65,10|8,0:0|0:3,0:0:0:0:
118,87,32660,2,0,L|198:95,1,65,10|8,0:0|0:3,0:0:0:0:
246,161,32933,2,0,B|253:190|253:190|232:247,1,65,10|8,0:0|0:3,0:0:0:0:
280,318,33206,6,0,L|359:316,1,65,10|8,0:0|0:3,0:0:0:0:
426,360,33479,2,0,P|438:302|423:274,1,65,10|8,0:0|0:3,0:0:0:0:
383,177,33751,2,0,P|371:235|386:263,1,65,10|8,0:0|0:3,0:0:0:0:
468,140,34024,2,0,P|459:81|435:60,1,65,10|8,0:0|0:3,0:0:0:0:
371,36,34297,6,0,B|317:35|317:35|294:48|294:48|222:44,1,130,2|10,1:0|1:2,0:0:0:0:
157,20,34706,1,8,0:3:0:0:
73,44,34842,2,0,P|57:85|100:166,1,130,2|10,1:0|1:2,0:0:0:0:
176,204,35251,1,8,0:3:0:0:
271,188,35388,6,0,L|276:114,1,65,2|8,1:2|0:3,0:0:0:0:
176,204,35660,2,0,L|180:268,1,65,10|8,1:2|0:0,0:0:0:0:
265,342,35933,2,0,L|269:277,1,65,10|8,1:2|0:0,0:0:0:0:
365,164,36206,6,0,B|363:215|363:215|368:231|368:231|363:245|363:245|357:315,1,126.749994197846,10|0,1:2|0:0,0:0:0:0:
360,320,36479,5,6,1:2:0:0:
275,77,38388,1,2,0:0:0:0:
275,77,38660,6,0,P|196:73|108:67,1,155.999995239258,6|8,1:2|0:0,0:0:0:0:
45,142,39069,2,0,P|32:180|55:227,1,77.999997619629,0|0,0:0|1:0,0:0:0:0:
131,251,39342,2,0,P|144:213|121:166,1,77.999997619629,0|8,1:0|0:0,0:0:0:0:
63,302,39615,6,0,L|234:291,1,155.999995239258,2|0,1:0|1:0,0:0:0:0:
297,255,40024,2,0,B|309:221|309:221|303:170,1,77.999997619629,8|0,0:0|0:0,0:0:0:0:
257,91,40297,2,0,L|359:91,1,77.999997619629,0|0,1:0|1:0,0:0:0:0:
382,179,40569,2,0,L|280:179,1,77.999997619629,8|0,0:0|0:0,0:0:0:0:
189,140,40842,6,0,P|173:80|243:3,1,155.999995239258,2|8,1:0|0:0,0:0:0:0:
259,89,41251,1,0,0:0:0:0:
304,179,41388,2,0,L|291:274,1,77.999997619629,0|0,1:0|1:0,0:0:0:0:
203,311,41660,1,8,0:0:0:0:
285,362,41797,6,0,B|361:358|361:358|380:368|380:368|448:367,1,155.999995239258,2|0,1:0|1:0,0:0:0:0:
506,301,42206,2,0,B|517:263|517:263|503:213,1,77.999997619629,8|0,0:0|0:0,0:0:0:0:
418,175,42479,2,0,L|411:271,1,77.999997619629,0|0,1:0|1:0,0:0:0:0:
366,339,42751,1,8,0:0:0:0:
332,222,42888,6,0,B|340:106|340:106|310:49,1,155.999995239258,0|0,0:0|0:0,0:0:0:0:
183,122,43297,2,0,P|218:136|268:126,1,77.999997619629,8|0,0:0|0:0,0:0:0:0:
235,37,43569,1,0,1:0:0:0:
137,51,43706,2,0,B|90:33|30:40|30:40|52:57|63:88,1,155.999995239258,0|2,1:0|1:0,0:0:0:0:
79,171,44115,6,0,L|81:252,1,77.999997619629,0|0,0:0|1:0,0:0:0:0:
119,339,44388,2,0,B|156:351|156:351|205:336,1,77.999997619629,8|0,0:0|0:0,0:0:0:0:
261,271,44660,2,0,B|298:259|298:259|335:271,1,77.999997619629,0|0,1:0|1:0,0:0:0:0:
419,338,44933,1,8,0:0:0:0:
419,338,45069,1,0,0:0:0:0:
419,338,45206,6,0,P|369:283|399:193,1,155.999995239258,14|0,0:3|0:0,0:0:0:0:
348,78,45751,6,0,P|398:133|368:223,1,155.999995239258,14|0,0:3|0:0,0:0:0:0:
117,178,46297,1,14,0:3:0:0:
313,152,46569,1,14,0:3:0:0:
117,282,46842,2,0,L|19:273,2,77.999997619629,10|10|8,0:0|0:0|0:0,0:0:0:0:
210,343,47251,6,0,B|272:334|272:334|307:348|307:348|384:334,1,155.999995239258,6|0,1:2|0:0,0:0:0:0:
444,295,47660,1,8,0:0:0:0:
331,191,47797,2,0,B|313:228|313:228|323:269,1,77.999997619629,0|0,0:0|1:0,0:0:0:0:
417,173,48069,2,0,B|403:134|403:134|367:112,1,77.999997619629,0|8,1:0|0:0,0:0:0:0:
179,186,48342,6,0,B|242:180|242:180|273:196|273:196|345:189,1,155.999995239258,2|0,1:0|1:0,0:0:0:0:
372,116,48751,2,0,P|388:69|368:36,1,77.999997619629,8|0,0:0|0:0,0:0:0:0:
287,18,49024,2,0,L|277:108,1,77.999997619629,0|0,1:0|1:0,0:0:0:0:
250,186,49297,1,8,0:0:0:0:
184,84,49433,6,0,B|121:78|121:78|90:94|90:94|18:87,1,155.999995239258,2|0,0:0|0:0,0:0:0:0:
13,196,49842,2,0,L|101:189,1,77.999997619629,8|0,0:0|0:0,0:0:0:0:
224,267,50115,2,0,L|136:260,1,77.999997619629,0|0,1:0|1:0,0:0:0:0:
21,346,50388,2,0,L|109:339,1,77.999997619629,8|2,0:0|1:0,0:0:0:0:
228,340,50660,6,0,P|203:291|276:212,1,155.999995239258,0|8,0:0|0:0,0:0:0:0:
342,260,51069,1,0,0:0:0:0:
422,194,51206,2,0,L|431:111,2,77.999997619629,0|0|8,1:0|1:0|0:0,0:0:0:0:
329,130,51615,6,0,B|233:114|233:114|163:164,1,155.999995239258,2|0,0:0|0:0,0:0:0:0:
102,213,52024,2,0,P|81:160|97:118,1,77.999997619629,10|0,0:0|0:0,0:0:0:0:
194,70,52297,2,0,L|183:162,1,77.999997619629,0|0,1:0|1:0,0:0:0:0:
197,253,52569,1,8,0:0:0:0:
274,162,52706,6,0,B|328:131|328:131|441:165,1,155.999995239258,2|0,1:0|1:0,0:0:0:0:
466,257,53115,2,0,L|381:275,1,77.999997619629,8|0,0:0|0:0,0:0:0:0:
382,375,53388,2,0,L|309:327,1,77.999997619629,0|0,1:0|1:0,0:0:0:0:
235,384,53660,1,8,0:0:0:0:
224,299,53797,1,2,0:0:0:0:
273,221,53933,6,0,P|225:253|113:221,1,155.999995239258,6|0,1:3|0:0,0:0:0:0:
112,64,54479,2,0,P|160:32|272:64,1,155.999995239258,6|0,1:3|0:0,0:0:0:0:
459,193,55024,2,0,L|448:283,1,77.999997619629,14|0,1:3|0:3,0:0:0:0:
353,303,55297,2,0,L|364:213,1,77.999997619629,14|0,1:3|0:3,0:0:0:0:
318,122,55569,1,8,0:0:0:0:
290,218,55706,2,0,B|329:236|329:236|381:219,1,77.999997619629,8|8,0:0|0:0,0:0:0:0:
458,191,55979,5,6,1:2:0:0:
459,186,59388,6,0,L|469:83,1,77.999997619629,6|0,1:3|0:0,0:0:0:0:
382,49,59660,2,0,L|372:152,1,77.999997619629,2|2,0:0|0:3,0:0:0:0:
340,217,59933,2,0,B|303:187|303:187|183:202,1,155.999995239258,10|2,1:2|0:3,0:0:0:0:
138,277,60342,1,2,0:0:0:0:
46,213,60479,6,0,L|55:90,1,116.999996429443,6|0,1:2|0:0,0:0:0:0:
186,83,61024,2,0,L|195:206,1,116.999996429443,8|0,1:2|0:0,0:0:0:0:
253,318,61569,1,6,1:3:0:0:
363,260,61842,1,0,0:0:0:0:
471,317,62115,1,8,1:2:0:0:
357,272,62388,1,0,0:0:0:0:
457,186,62660,6,0,B|464:138|464:138|455:118|455:118|461:66,1,116.999996429443,6|0,1:3|0:0,0:0:0:0:
320,27,63206,2,0,B|325:73|325:73|316:93|316:93|323:141,1,116.999996429443,8|0,1:2|0:0,0:0:0:0:
226,222,63751,6,0,P|175:199|158:139,1,116.999996429443,6|0,1:3|0:0,0:0:0:0:
234,144,64160,2,0,B|244:178|244:178|217:318,1,175.499994644165,6|10,1:3|0:0,0:0:0:0:
217,315,64842,6,0,L|341:296,1,116.999996429443,6|8,1:2|0:0,0:0:0:0:
407,351,65251,2,0,P|427:297|399:240,1,116.999996429443,2|0,1:2|1:0,0:0:0:0:
325,206,65660,1,10,0:0:0:0:
426,86,65933,6,0,L|433:18,2,58.4999982147217,2|0|8,0:0|1:0|0:0,0:0:0:0:
334,93,66479,2,0,L|341:25,2,58.4999982147217,2|2|8,1:2|1:2|0:0,0:0:0:0:
249,141,66888,1,0,0:0:0:0:
205,53,67024,6,0,P|168:38|93:70,1,116.999996429443,2|8,1:2|0:0,0:0:0:0:
61,140,67433,2,0,L|57:270,1,116.999996429443,2|0,1:2|1:0,0:0:0:0:
118,336,67842,1,8,0:0:0:0:
118,336,68115,6,0,L|203:327,1,58.4999982147217,2|2,0:2|1:2,0:0:0:0:
255,274,68388,1,8,0:0:0:0:
255,274,68660,2,0,L|313:280,1,58.4999982147217,2|0,1:2|1:0,0:0:0:0:
372,342,68933,2,0,L|430:335,1,58.4999982147217,8|2,0:0|0:2,0:0:0:0:
486,268,69206,6,0,B|462:233|462:233|463:131,1,116.999996429443,2|8,1:2|0:0,0:0:0:0:
445,66,69615,2,0,P|403:48|336:82,1,116.999996429443,2|0,1:2|1:0,0:0:0:0:
321,169,70024,1,8,0:0:0:0:
183,34,70297,6,0,L|175:106,1,58.4999982147217,2|0,0:2|1:0,0:0:0:0:
165,182,70569,1,8,0:0:0:0:
165,182,70842,2,0,B|139:186|139:186|94:175,1,58.4999982147217,2|0,1:2|1:0,0:0:0:0:
166,267,71115,2,0,B|192:263|192:263|237:274,1,58.4999982147217,8|0,0:0|1:0,0:0:0:0:
301,213,71388,6,0,B|259:184|259:184|269:52|269:52|322:18,1,233.999992858887,6|0,1:2|0:0,0:0:0:0:
439,87,72479,6,0,B|395:112|395:112|345:102,1,97.50000371933,0|0,0:0|0:0,0:0:0:0:
220,44,73024,2,0,B|174:34|174:34|130:59,1,97.50000371933,0|2,0:0|0:0,0:0:0:0:
83,137,73433,1,2,0:0:0:0:
167,213,73569,6,0,B|155:258|155:258|165:293|165:293|150:367,1,130,6|8,1:0|0:0,0:0:0:0:
239,371,73979,1,2,1:0:0:0:
316,263,74115,2,0,L|234:254,1,65,0|0,0:0|1:0,0:0:0:0:
328,355,74388,2,0,L|410:346,1,65,10|0,0:0|0:0,0:0:0:0:
470,275,74660,6,0,B|439:238|439:238|448:140,1,130,2|10,0:0|0:0,0:0:0:0:
401,64,75069,1,0,0:0:0:0:
346,140,75206,2,0,P|296:161|209:131,1,130,2|10,0:0|0:0,0:0:0:0:
181,48,75615,1,2,0:0:0:0:
104,143,75751,6,0,B|84:188|84:188|107:277,1,130,2|8,1:0|0:0,0:0:0:0:
179,342,76160,2,0,L|333:331,1,130,2|0,1:0|1:0,0:0:0:0:
408,295,76569,2,0,B|421:322|421:322|412:370,1,65,8|0,0:0|0:0,0:0:0:0:
330,240,76842,6,0,L|341:164,1,65,0|0,0:0|0:0,0:0:0:0:
432,112,77115,2,0,L|441:176,1,65,8|0,0:0|0:0,0:0:0:0:
339,78,77388,2,0,L|246:71,1,65,0|0,0:0|0:0,0:0:0:0:
190,123,77660,1,8,0:0:0:0:
250,200,77797,1,0,0:0:0:0:
162,240,77933,6,0,P|94:229|37:282,1,130,2|8,1:0|0:0,0:0:0:0:
153,341,78342,2,0,B|184:361|184:361|300:340,1,130,2|0,1:0|1:0,0:0:0:0:
363,335,78751,2,0,L|368:255,1,65,10|0,0:0|0:0,0:0:0:0:
455,356,79024,6,0,L|464:205,1,130,0|8,0:0|0:0,0:0:0:0:
435,128,79433,2,0,P|388:116|327:167,1,130,0|0,0:0|1:0,0:0:0:0:
267,246,79842,1,8,0:0:0:0:
171,184,79979,1,0,1:0:0:0:
238,66,80115,6,0,L|320:52,2,65,14|0|0,0:0|1:0|1:0,0:0:0:0:
139,96,80524,2,0,L|57:82,2,65,12|0|0,0:0|1:0|1:0,0:0:0:0:
171,184,80933,2,0,P|180:223|165:264,1,65,12|0,0:0|1:0,0:0:0:0:
98,300,81206,1,2,1:0:0:0:
98,300,81342,6,0,L|247:292,1,130,12|0,0:0|1:0,0:0:0:0:
319,247,81751,2,0,L|311:319,1,65,12|0,0:0|1:0,0:0:0:0:
388,368,82024,2,0,L|396:296,1,65,10|0,0:0|1:0,0:0:0:0:
407,141,82297,5,6,1:2:0:0:
234,182,82569,1,8,0:0:0:0:
455,248,82842,1,8,0:0:0:0:
379,39,83115,1,8,0:0:0:0:
255,272,83388,6,0,L|181:267,1,65,8|8,0:0|0:3,0:0:0:0:
110,292,83660,2,0,B|99:263|99:263|112:221,1,65,8|8,0:0|0:3,0:0:0:0:
189,206,83933,2,0,B|200:235|200:235|187:277,1,65,8|8,0:0|0:3,0:0:0:0:
117,146,84206,1,8,0:0:0:0:
149,60,84342,1,8,0:3:0:0:
217,119,84479,6,0,L|354:109,1,130,8|8,0:0|0:0,0:0:0:0:
440,135,84888,1,8,0:3:0:0:
425,234,85024,2,0,L|352:230,1,65,8|8,0:0|0:3,0:0:0:0:
272,242,85297,2,0,B|261:272|261:272|271:314,1,65,8|8,0:0|0:3,0:0:0:0:
182,351,85569,6,0,L|106:347,1,65,8|8,0:0|0:0,0:0:0:0:
41,261,85842,2,0,L|117:257,1,65,8|10,0:0|0:3,0:0:0:0:
186,175,86115,2,0,L|121:171,1,65,8|8,0:0|0:3,0:0:0:0:
55,81,86388,2,0,L|119:77,1,65,10|8,0:0|0:3,0:0:0:0:
200,28,86660,6,0,P|228:12|316:39,1,130,10|8,1:2|1:2,0:0:0:0:
299,125,87069,1,8,0:3:0:0:
299,125,87206,2,0,B|282:162|282:162|299:266,1,130,10|8,1:2|1:2,0:0:0:0:
359,317,87615,1,8,0:3:0:0:
359,317,87751,6,0,L|443:320,1,65,10|8,1:2|0:3,0:0:0:0:
472,238,88024,2,0,L|407:235,1,65,10|8,1:2|0:3,0:0:0:0:
340,162,88297,2,0,P|326:128|339:83,1,65,8|8,1:2|0:0,0:0:0:0:
407,40,88569,2,0,P|421:74|408:119,1,65,10|8,1:2|0:0,0:0:0:0:
329,100,88842,6,0,B|293:95|293:95|277:85|277:85|257:92|257:92|137:76,1,175.499994644165,6|0,1:2|0:0,0:0:0:0:
158,78,90751,2,0,P|129:99|144:48,1,116.999996429443,2|0,0:0|0:0,0:0:0:0:
127,45,91024,6,0,B|114:91|114:91|130:123|130:123|112:207,1,143.000004364014,6|8,1:2|0:0,0:0:0:0:
71,273,91433,2,0,P|117:285|159:269,1,71.5000021820069,0|0,0:0|1:0,0:0:0:0:
237,235,91706,2,0,L|229:331,1,71.5000021820069,0|8,1:0|0:0,0:0:0:0:
332,373,91979,6,0,L|354:198,1,143.000004364014,2|0,1:0|1:0,0:0:0:0:
400,143,92388,2,0,B|435:133|435:133|482:155,1,71.5000021820069,8|0,0:0|0:0,0:0:0:0:
440,226,92660,1,0,1:0:0:0:
349,231,92797,2,0,L|278:225,1,71.5000021820069,0|8,1:0|0:0,0:0:0:0:
237,138,93069,6,0,B|183:134|183:134|156:149|156:149|77:141,1,143.000004364014,0|0,1:0|0:0,0:0:0:0:
27,214,93479,2,0,P|12:249|28:297,1,71.5000021820069,8|0,0:0|0:0,0:0:0:0:
85,347,93751,2,0,L|175:337,1,71.5000021820069,0|0,1:0|1:0,0:0:0:0:
214,268,94024,1,8,0:0:0:0:
302,351,94160,6,0,B|327:321|327:321|320:204,1,143.000004364014,2|0,1:0|1:0,0:0:0:0:
260,137,94569,2,0,L|183:143,1,71.5000021820069,8|0,0:0|0:0,0:0:0:0:
95,113,94842,2,0,P|78:73|105:30,1,71.5000021820069,0|0,1:0|1:0,0:0:0:0:
172,26,95115,1,8,0:0:0:0:
188,142,95251,6,0,B|176:192|176:192|190:228|190:228|177:291,1,143.000004364014,0|0,1:0|0:0,0:0:0:0:
245,359,95660,2,0,P|284:361|317:332,1,71.5000021820069,8|0,0:0|0:0,0:0:0:0:
357,256,95933,2,0,P|396:254|429:283,1,71.5000021820069,0|0,1:0|1:0,0:0:0:0:
439,349,96206,1,8,0:0:0:0:
439,349,96342,6,0,L|450:173,1,143.000004364014,2|0,1:0|1:0,0:0:0:0:
443,107,96751,2,0,B|409:97|409:97|367:109,1,71.5000021820069,8|0,0:0|0:0,0:0:0:0:
323,179,97024,2,0,B|289:189|289:189|247:177,1,71.5000021820069,0|0,1:0|1:0,0:0:0:0:
166,117,97297,1,8,0:0:0:0:
259,72,97433,1,0,1:0:0:0:
152,31,97569,6,0,B|50:22|50:22|5:28,1,143.000004364014,14|0,0:3|0:0,0:0:0:0:
46,230,98115,2,0,B|148:239|148:239|193:233,1,143.000004364014,14|0,0:3|0:0,0:0:0:0:
361,160,98660,2,0,P|370:118|352:82,1,71.5000021820069,14|0,0:3|0:0,0:0:0:0:
281,55,98933,2,0,L|197:58,1,71.5000021820069,14|0,0:3|0:0,0:0:0:0:
130,123,99206,1,10,0:0:0:0:
230,149,99342,1,10,0:0:0:0:
230,149,99479,1,8,0:0:0:0:
188,233,99615,6,0,P|176:272|253:355,1,143.000004364014,6|0,1:2|1:0,0:0:0:0:
306,284,100024,1,8,0:0:0:0:
403,305,100160,2,0,L|386:385,1,71.5000021820069,0|0,0:0|1:0,0:0:0:0:
306,284,100433,2,0,L|291:214,1,71.5000021820069,0|8,1:0|0:0,0:0:0:0:
332,123,100706,6,0,P|377:144|463:90,1,143.000004364014,2|0,1:0|1:0,0:0:0:0:
360,37,101115,2,0,B|324:31|324:31|278:43,1,71.5000021820069,8|0,0:0|0:0,0:0:0:0:
232,113,101388,2,0,B|196:119|196:119|150:107,1,71.5000021820069,0|0,1:0|1:0,0:0:0:0:
94,35,101660,1,8,0:0:0:0:
35,133,101797,6,0,L|32:292,1,143.000004364014,2|0,1:0|1:0,0:0:0:0:
93,357,102206,2,0,L|180:347,1,71.5000021820069,8|0,0:0|0:0,0:0:0:0:
232,280,102479,2,0,L|303:288,1,71.5000021820069,0|0,1:0|1:0,0:0:0:0:
365,367,102751,2,0,L|436:358,1,71.5000021820069,8|2,0:0|1:0,0:0:0:0:
484,269,103024,6,0,B|454:241|454:241|465:114,1,143.000004364014,0|8,0:0|0:0,0:0:0:0:
399,62,103433,1,0,0:0:0:0:
364,153,103569,2,0,L|269:142,2,71.5000021820069,0|0|8,1:0|1:0|0:0,0:0:0:0:
296,51,103979,6,0,L|149:67,1,143.000004364014,2|0,1:0|1:0,0:0:0:0:
70,120,104388,2,0,P|54:71|68:38,1,71.5000021820069,10|0,0:0|0:0,0:0:0:0:
154,159,104660,2,0,L|142:254,1,71.5000021820069,0|0,1:0|1:0,0:0:0:0:
66,293,104933,1,8,0:0:0:0:
143,358,105069,6,0,B|207:345|207:345|229:355|229:355|293:345,1,143.000004364014,2|0,1:0|1:0,0:0:0:0:
373,300,105479,2,0,P|398:266|390:224,1,71.5000021820069,8|0,0:0|0:0,0:0:0:0:
271,195,105751,2,0,P|287:233|328:247,1,71.5000021820069,0|0,1:0|1:0,0:0:0:0:
360,155,106024,2,0,L|365:77,1,71.5000021820069,8|2,0:0|1:0,0:0:0:0:
281,57,106297,6,0,B|268:109|268:109|281:144|281:144|268:205,1,143.000004364014,6|0,1:3|0:0,0:0:0:0:
76,240,106842,2,0,B|65:189|65:189|78:154|78:154|65:102,1,143.000004364014,6|0,1:3|0:0,0:0:0:0:
36,333,107388,2,0,P|89:339|119:326,1,71.5000021820069,14|0,1:3|0:3,0:0:0:0:
185,284,107660,2,0,L|174:206,1,71.5000021820069,14|0,1:3|0:3,0:0:0:0:
252,157,107933,1,8,0:0:0:0:
269,242,108069,1,8,0:0:0:0:
286,331,108206,1,8,0:0:0:0:
377,349,108342,6,0,B|486:330|486:330|460:359,1,143.000004364014,6|0,1:2|1:0,0:0:0:0:
442,255,108751,2,0,P|431:224|441:165,1,71.5000021820069,8|0,0:0|0:0,0:0:0:0:
463,93,109024,2,0,L|369:82,1,71.5000021820069,0|0,1:0|1:0,0:0:0:0:
321,23,109297,1,8,0:0:0:0:
248,96,109433,6,0,B|239:151|239:151|259:184|259:184|247:257,1,143.000004364014,2|0,1:0|1:0,0:0:0:0:
184,327,109842,2,0,L|99:318,1,71.5000021820069,8|0,0:0|0:0,0:0:0:0:
59,232,110115,2,0,L|130:224,1,71.5000021820069,0|0,1:0|1:0,0:0:0:0:
156,118,110388,2,0,B|165:85|165:85|155:38,1,71.5000021820069,8|0,0:0|1:0,0:0:0:0:
69,89,110660,6,0,L|58:237,1,143.000004364014,2|8,0:0|0:0,0:0:0:0:
80,326,111069,1,0,0:0:0:0:
166,264,111206,2,0,L|252:255,1,71.5000021820069,0|0,1:0|1:0,0:0:0:0:
310,306,111479,1,8,0:0:0:0:
310,306,111615,6,0,P|285:269|365:217,1,143.000004364014,2|0,1:0|1:0,0:0:0:0:
432,202,112024,2,0,L|518:213,1,71.5000021820069,8|0,0:0|0:0,0:0:0:0:
384,122,112297,2,0,L|468:102,1,71.5000021820069,0|0,1:0|1:0,0:0:0:0:
297,73,112569,2,0,L|369:26,1,71.5000021820069,8|0,0:0|1:0,0:0:0:0:
206,32,112842,6,0,B|179:80|179:80|217:191,1,143.000004364014,2|8,0:0|0:0,0:0:0:0:
182,251,113251,1,0,0:0:0:0:
108,184,113388,2,0,L|23:177,2,71.5000021820069,0|0|8,1:0|1:0|0:0,0:0:0:0:
182,251,113797,6,0,B|214:238|243:242|243:242|263:252|263:252|294:263|330:239,1,143.000004364014,2|0,1:0|1:0,0:0:0:0:
399,186,114206,2,0,L|406:107,1,71.5000021820069,8|0,0:0|0:0,0:0:0:0:
318,78,114479,2,0,L|310:172,1,71.5000021820069,0|0,1:0|1:0,0:0:0:0:
319,245,114751,1,8,0:0:0:0:
396,299,114888,1,0,1:0:0:0:
314,337,115024,6,0,L|154:337,1,143.000004364014,14|8,0:0|1:3,0:0:0:0:
171,337,115569,2,0,B|147:296|147:296|164:170,1,143.000004364014,14|8,0:0|1:3,0:0:0:0:
159,201,116115,2,0,L|78:206,1,71.5000021820069,14|0,0:0|1:3,0:0:0:0:
34,115,116388,2,0,L|115:110,1,71.5000021820069,14|0,0:0|1:3,0:0:0:0:
180,37,116660,1,14,0:0:0:0:
220,122,116797,1,2,1:0:0:0:
220,122,116933,1,0,1:0:0:0:
343,36,117069,6,0,B|334:86|334:86|344:109|344:109|326:191,1,143.000004364014,6|0,1:2|1:0,0:0:0:0:
265,255,117479,2,0,B|251:293|251:293|266:335,1,71.5000021820069,10|0,0:0|1:0,0:0:0:0:
342,366,117751,2,0,B|356:328|356:328|341:286,1,71.5000021820069,0|0,1:0|1:0,0:0:0:0:
261,321,118024,1,10,0:0:0:0:
177,371,118160,6,0,L|31:353,1,143.000004364014,2|0,1:3|1:0,0:0:0:0:
21,250,118569,2,0,L|109:260,1,71.5000021820069,10|0,0:0|1:0,0:0:0:0:
101,126,118842,2,0,L|156:195,1,71.5000021820069,0|0,1:0|1:0,0:0:0:0:
245,113,119115,2,0,L|235:201,1,71.5000021820069,10|0,0:0|1:0,0:0:0:0:
316,332,119388,6,0,L|332:175,1,143.000004364014,2|10,1:3|0:0,0:0:0:0:
393,117,119797,1,0,1:0:0:0:
330,189,119933,2,0,B|275:181|275:181|249:192|249:192|165:174,1,143.000004364014,0|10,1:0|0:0,0:0:0:0:
148,97,120342,6,0,P|102:150|125:242,1,143.000004364014,2|0,1:3|1:0,0:0:0:0:
178,336,120751,2,0,L|185:261,1,71.5000021820069,10|0,0:0|1:0,0:0:0:0:
275,209,121024,2,0,L|281:280,1,71.5000021820069,0|0,1:0|1:0,0:0:0:0:
339,368,121297,1,10,0:0:0:0:
391,270,121433,6,0,B|361:239|361:239|370:124,1,143.000004364014,0|0,1:0|1:0,0:0:0:0:
382,47,121842,2,0,L|303:61,1,71.5000021820069,10|0,0:0|1:0,0:0:0:0:
232,106,122115,2,0,L|161:93,1,71.5000021820069,0|0,1:0|1:0,0:0:0:0:
93,30,122388,1,10,0:0:0:0:
38,103,122524,6,0,B|31:146|31:146|39:186|39:186|26:248,1,143.000004364014,2|0,1:3|1:0,0:0:0:0:
101,322,122933,2,0,L|185:316,1,71.5000021820069,10|0,0:0|1:0,0:0:0:0:
255,223,123206,2,0,L|171:217,1,71.5000021820069,0|0,1:0|1:0,0:0:0:0:
264,321,123479,2,0,L|342:317,1,71.5000021820069,8|0,0:0|1:0,0:0:0:0:
408,370,123751,6,0,P|429:329|386:242,1,143.000004364014,14|0,1:3|0:0,0:0:0:0:
183,217,124297,2,0,L|338:195,1,143.000004364014,14|0,1:3|0:0,0:0:0:0:
436,65,124842,2,0,L|428:138,1,71.5000021820069,14|0,1:3|0:0,0:0:0:0:
324,196,125115,2,0,L|316:124,1,71.5000021820069,14|0,1:3|0:0,0:0:0:0:
252,37,125388,1,10,0:0:0:0:
194,109,125524,1,10,0:0:0:0:
124,35,125660,1,8,0:0:0:0:
69,126,125797,5,6,1:2:0:0:
159,358,129206,6,0,P|134:327|182:346,1,116.999996429443,6|0,1:2|0:0,0:0:0:0:
185,326,129615,2,0,B|139:355|139:355|99:341|71:353|71:353|10:310,1,175.499994644165,6|10,1:2|0:0,0:0:0:0:
35,109,130297,6,0,L|161:122,1,116.999996429443,6|0,1:2|0:0,0:0:0:0:
326,112,130842,2,0,L|336:45,1,58.4999982147217,8|0,1:2|0:0,0:0:0:0:
336,54,131251,2,0,L|355:196,1,116.999996429443,2|0,0:0|0:0,0:0:0:0:
403,251,131660,1,0,0:0:0:0:
403,251,131933,2,0,L|481:231,1,58.4999982147217,8|0,1:2|0:0,0:0:0:0:
388,347,132206,1,0,0:0:0:0:
316,288,132342,1,0,0:0:0:0:
325,197,132479,6,0,L|189:190,1,116.999996429443,6|0,1:3|0:0,0:0:0:0:
62,242,133024,2,0,L|72:306,1,58.4999982147217,8|0,1:2|0:0,0:0:0:0:
71,299,133433,1,0,0:0:0:0:
184,356,133569,6,0,P|229:362|287:302,1,116.999996429443,6|2,1:3|0:0,0:0:0:0:
258,239,133979,2,0,P|213:233|155:293,1,116.999996429443,2|2,1:3|0:0,0:0:0:0:
160,275,134388,1,2,1:3:0:0:
127,144,134660,6,0,B|134:60|134:60|168:97,1,116.999996429443,6|0,1:2|0:0,0:0:0:0:
348,114,135206,2,0,L|415:101,1,58.4999982147217,8|0,1:2|0:0,0:0:0:0:
406,100,135615,2,0,L|284:85,1,116.999996429443,2|0,0:0|0:0,0:0:0:0:
232,158,136024,1,0,0:0:0:0:
232,158,136297,2,0,L|229:235,1,58.4999982147217,8|0,1:2|0:0,0:0:0:0:
206,313,136569,1,0,0:0:0:0:
138,238,136706,1,0,0:0:0:0:
230,218,136842,6,0,L|366:232,1,116.999996429443,6|0,1:3|0:0,0:0:0:0:
346,229,137388,1,8,1:2:0:0:
387,307,137524,2,0,P|425:273|417:187,1,116.999996429443,0|0,0:0|0:0,0:0:0:0:
362,113,137933,6,0,L|345:234,1,116.999996429443,6|2,1:2|0:0,0:0:0:0:
250,272,138342,2,0,L|267:151,1,116.999996429443,6|2,1:2|0:0,0:0:0:0:
215,74,138751,2,0,B|242:64|242:64|278:69,1,58.4999982147217,10|2,0:0|0:0,0:0:0:0:
172,151,139024,6,0,L|34:138,1,116.999996429443,6|0,1:2|0:0,0:0:0:0:
55,140,139569,1,4,0:3:0:0:
115,348,140115,1,14,0:3:0:0:
181,282,140388,1,0,0:0:0:0:
246,351,140660,1,4,0:3:0:0:
246,351,141206,5,6,1:3:0:0:
382,322,141479,1,0,0:0:0:0:
298,200,141751,1,4,0:3:0:0:
298,200,142297,2,0,L|294:275,1,58.4999982147217,14|0,0:3|0:0,0:0:0:0:
381,156,142569,1,2,0:0:0:0:
381,156,142706,2,0,L|377:231,1,58.4999982147217,6|0,1:3|0:0,0:0:0:0:
464,189,142979,1,2,0:0:0:0:
464,189,143115,2,0,L|467:130,1,58.4999982147217,6|2,1:3|0:0,0:0:0:0:
417,54,143388,6,0,B|361:37|310:82|310:82|270:36|188:43,1,233.999992858887,6|4,1:2|0:3,0:0:0:0:
190,228,144479,2,0,P|230:231|176:133,1,233.999992858887,14|4,0:3|0:3,0:0:0:0:
29,268,145569,1,6,1:3:0:0:
77,368,145842,1,0,0:0:0:0:
144,277,146115,1,4,0:3:0:0:
181,365,146388,1,0,1:0:0:0:
361,193,146660,6,0,B|402:180|402:180|458:194,2,84.4999961318971,14|0|2,0:3|0:0|0:0,0:0:0:0:
302,269,147069,2,0,L|318:364,2,84.4999961318971,6|2|2,1:3|0:0|0:0,0:0:0:0:
234,193,147479,2,0,L|243:97,1,84.4999961318971,10|2,1:3|0:0,0:0:0:0:
308,33,147751,5,2,0:0:0:0:
