osu file format v14

[General]
AudioFilename: audio.mp3
AudioLeadIn: 0
PreviewTime: 38301
Countdown: 0
SampleSet: Soft
StackLeniency: 0.4
Mode: 0
LetterboxInBreaks: 0
WidescreenStoryboard: 1

[Editor]
Bookmarks: 55961,64824,125779,129188
DistanceSpacing: 1.1
BeatDivisor: 2
GridSize: 32
TimelineZoom: 2

[Metadata]
Title:Kick Me
TitleUnicode:Kick Me
Artist:Sleeping With Sirens
ArtistUnicode:Sleeping With Sirens
Creator:fieryrage
Version:Stingy's Advanced
Source:
Tags:sws madness english metal punk rock post-hardcore ailv kyshiro elsa valentine xlolicore- pishifat bergy dashyy- ayyri eiri- craezy hypercyte underdogs stingy peter petereu
BeatmapID:2171677
BeatmapSetID:1038902

[Difficulty]
HPDrainRate:4
CircleSize:2.8
OverallDifficulty:5.2
ApproachRate:6.5
SliderMultiplier:0.8
SliderTickRate:1

[Events]
//Background and Video events
0,0,"asdfasd.png",0,0
//Break Periods
2,65042,72479
2,125997,129206
//Storyboard Layer 0 (Background)
//Storyboard Layer 1 (Fail)
//Storyboard Layer 2 (Pass)
//Storyboard Layer 3 (Foreground)
//Storyboard Layer 4 (Overlay)
//Storyboard Sound Samples

[TimingPoints]
479,272.727272727273,4,2,5,5,1,0
479,-100,4,2,5,5,0,0
10433,-100,4,2,5,10,0,0
10842,-100,4,2,5,15,0,0
12342,-100,4,2,5,5,0,0
12479,-100,4,2,5,50,0,0
13569,-100,4,2,5,40,0,0
14660,-100,4,2,5,50,0,0
15751,-100,4,2,5,40,0,0
16842,-100,4,2,5,50,0,0
17933,-100,4,2,5,40,0,0
19024,-86.9565217391304,4,2,5,60,0,0
20660,-74.0740740740741,4,2,5,60,0,0
21206,-86.9565217391304,4,2,5,60,0,0
22297,-86.9565217391304,4,2,5,50,0,0
23388,-86.9565217391304,4,2,5,60,0,0
24479,-86.9565217391304,4,2,5,50,0,0
25569,-86.9565217391304,4,2,5,60,0,0
26660,-86.9565217391304,4,2,5,50,0,0
27751,-76.9230769230769,4,2,5,60,0,0
29388,-66.6666666666667,4,2,5,60,0,0
29933,-66.6666666666667,4,2,5,55,0,0
30206,-66.6666666666667,4,2,5,30,0,0
31024,-66.6666666666667,4,2,5,35,0,0
31569,-66.6666666666667,4,2,5,38,0,0
32115,-66.6666666666667,4,2,5,40,0,0
32660,-66.6666666666667,4,2,5,43,0,0
33206,-66.6666666666667,4,2,5,45,0,0
33479,-66.6666666666667,4,2,5,48,0,0
33751,-66.6666666666667,4,2,5,50,0,0
34297,-100,4,2,5,50,0,0
34433,-100,4,2,5,40,0,0
34842,-83.3333333333333,4,2,5,55,0,0
34979,-83.3333333333333,4,2,5,40,0,0
35388,-71.4285714285714,4,2,5,60,0,0
35524,-71.4285714285714,4,2,5,45,0,0
35660,-71.4285714285714,4,2,5,50,0,0
35933,-71.4285714285714,4,2,5,55,0,0
36206,-71.4285714285714,4,2,5,60,0,0
36547,-71.4285714285714,4,2,5,45,0,0
36888,-71.4285714285714,4,2,5,45,0,0
37024,-71.4285714285714,4,2,5,35,0,0
38388,-71.4285714285714,4,2,5,60,0,0
38660,-76.9230769230769,4,2,5,70,0,0
45206,-66.6666666666667,4,2,5,70,0,0
45479,-66.6666666666667,4,2,5,60,0,0
45751,-66.6666666666667,4,2,5,70,0,0
46024,-66.6666666666667,4,2,5,60,0,0
46297,-66.6666666666667,4,2,5,65,0,0
47251,-76.923076923077,4,2,5,70,0,0
53933,-66.6666666666667,4,2,5,70,0,0
54206,-66.6666666666667,4,2,5,60,0,0
54479,-66.6666666666667,4,2,5,70,0,0
54751,-66.6666666666667,4,2,5,60,0,0
55024,-66.6666666666667,4,2,5,70,0,0
55979,-100,4,2,5,65,0,0
56047,-100,4,2,5,55,0,0
59388,-100,4,2,5,60,0,0
60479,-100,4,2,5,55,0,0
61569,-100,4,2,5,60,0,0
63819,-100,4,2,5,5,0,0
64160,-100,4,2,5,65,0,0
64229,-100,4,2,5,5,0,0
64569,-100,4,2,5,60,0,0
64638,-100,4,2,5,5,0,0
64842,-100,4,2,5,55,0,0
64979,-100,4,2,5,50,0,0
66001,-100,4,2,5,50,0,0
66206,-100,4,2,5,50,0,0
66274,-100,4,2,5,50,0,0
66479,-100,4,2,5,50,0,0
71456,-100,4,2,5,5,0,0
72479,-100,4,2,5,50,0,0
73092,-100,4,2,5,5,0,0
73297,-100,4,2,5,20,0,0
73365,-100,4,2,5,35,0,0
73433,-100,4,2,5,40,0,0
73501,-100,4,2,5,50,0,0
73569,-86.9565217391305,4,2,5,60,0,0
75206,-86.9565217391305,4,2,5,58,0,0
76160,-86.9565217391305,4,2,5,55,0,0
76842,-86.9565217391305,4,2,5,52,0,0
80115,-76.9230769230769,4,2,5,60,0,0
81751,-66.6666666666667,4,2,5,60,0,0
82569,-66.6666666666667,4,2,5,32,0,0
82842,-66.6666666666667,4,2,5,35,0,0
83388,-66.6666666666667,4,2,5,38,0,0
83933,-66.6666666666667,4,2,5,40,0,0
84479,-66.6666666666667,4,2,5,42,0,0
85024,-66.6666666666667,4,2,5,45,0,0
85569,-66.6666666666667,4,2,5,50,0,0
85842,-66.6666666666667,4,2,5,40,0,0
85979,-66.6666666666667,4,2,5,50,0,0
86660,-100,4,2,5,55,0,0
86797,-100,4,2,5,40,0,0
87206,-83.3333333333333,4,2,5,55,0,0
87342,-83.3333333333333,4,2,5,40,0,0
87751,-71.4285714285714,4,2,5,60,0,0
87888,-71.4285714285714,4,2,5,40,0,0
88024,-71.4285714285714,4,2,5,50,0,0
88297,-71.4285714285714,4,2,5,55,0,0
88569,-71.4285714285714,4,2,5,60,0,0
88842,-71.4285714285714,4,2,5,65,0,0
88910,-71.4285714285714,4,2,5,50,0,0
89388,-71.4285714285714,4,2,5,40,0,0
90751,-71.4285714285714,4,2,5,65,0,0
91024,-76.9230769230769,4,2,5,70,0,0
97569,-66.6666666666667,4,2,5,75,0,0
97842,-66.6666666666667,4,2,5,60,0,0
98115,-66.6666666666667,4,2,5,75,0,0
98388,-66.6666666666667,4,2,5,60,0,0
98660,-66.6666666666667,4,2,5,75,0,0
99615,-76.9230769230769,4,2,5,75,0,0
99751,-76.9230769230769,4,2,5,70,0,0
106297,-66.6666666666667,4,2,5,75,0,0
106569,-66.6666666666667,4,2,5,60,0,0
106842,-66.6666666666667,4,2,5,75,0,0
107115,-66.6666666666667,4,2,5,60,0,0
107388,-66.6666666666667,4,2,5,75,0,0
108342,-66.6666666666667,4,2,5,75,0,0
115024,-57.1428571428571,4,2,5,75,0,0
115297,-57.1428571428571,4,2,5,60,0,0
115433,-57.1428571428571,4,2,5,50,0,0
115569,-57.1428571428571,4,2,5,75,0,0
115842,-57.1428571428571,4,2,5,60,0,0
115979,-57.1428571428571,4,2,5,50,0,0
116115,-57.1428571428571,4,2,5,75,0,0
117069,-66.6666666666667,4,2,5,75,0,0
123615,-57.1428571428571,4,2,5,75,0,0
125388,-57.1428571428571,4,2,5,70,0,0
125797,-57.1428571428571,4,2,5,70,0,0
129274,-57.1428571428571,4,2,5,5,0,0
129615,-57.1428571428571,4,2,5,70,0,0
129683,-57.1428571428571,4,2,5,5,0,0
130024,-57.1428571428571,4,2,5,70,0,0
130092,-57.1428571428571,4,2,5,5,0,0
130229,-57.1428571428571,4,2,5,5,0,0
130297,-100,4,2,5,60,0,0
130365,-100,4,2,5,55,0,0
133433,-66.6666666666667,4,2,5,55,0,0
133569,-66.6666666666667,4,2,5,60,0,0
134660,-100,4,2,5,60,0,0
137933,-66.6666666666667,4,2,5,60,0,0
139024,-133.333333333333,4,2,5,70,0,0
142297,-80,4,2,5,70,0,0
143388,-133.333333333333,4,2,5,70,0,0
146660,-80,4,2,5,70,0,0
147751,-80,4,2,5,5,0,0
148842,-80,4,2,5,25,0,0

[Colours]
Combo1 : 136,136,136
Combo2 : 82,109,90
Combo3 : 196,148,140
Combo4 : 146,192,194

[HitObjects]
21,134,12479,6,0,L|30:31,1,80,2|0,1:0|1:0,0:0:0:0:
107,26,12888,2,0,L|116:129,1,80,2|0,0:3|0:0,0:0:0:0:
123,189,13297,1,2,1:0:0:0:
109,355,13569,2,0,L|118:252,1,80,0|0,1:0|1:0,0:0:0:0:
128,106,14115,2,0,L|119:3,1,80,0|0,1:0|1:0,0:0:0:0:
260,121,14660,6,0,L|363:112,1,80,2|0,1:0|1:0,0:0:0:0:
366,35,15069,2,0,L|263:26,1,80,2|0,0:3|0:0,0:0:0:0:
205,19,15478,1,2,1:0:0:0:
41,33,15751,2,0,L|144:24,1,80,0|0,1:0|1:0,0:0:0:0:
288,14,16297,2,0,L|391:23,1,80,0|0,1:0|1:0,0:0:0:0:
466,157,16842,6,0,P|472:196|466:242,1,80,2|0,1:0|1:0,0:0:0:0:
383,236,17251,2,0,P|377:197|383:151,1,80,2|0,0:3|0:0,0:0:0:0:
425,84,17660,1,2,1:0:0:0:
288,14,17933,2,0,L|185:23,1,80,0|0,1:0|1:0,0:0:0:0:
57,96,18479,2,0,L|160:105,1,80,0|0,1:0|1:0,0:0:0:0:
211,168,18888,1,0,1:0:0:0:
211,168,19024,6,0,L|256:163,2,46.0000008773804,14|0|0,0:0|1:0|1:0,0:0:0:0:
130,222,19433,2,0,L|84:217,2,46.0000008773804,12|0|0,0:0|1:0|1:0,0:0:0:0:
198,290,19842,2,0,L|193:335,2,46.0000008773804,12|0|2,0:0|1:0|1:0,0:0:0:0:
269,224,20251,2,0,L|265:178,2,46.0000008773804,14|0|0,0:0|1:0|1:0,0:0:0:0:
365,270,20660,6,0,P|371:239|371:204,1,54.0000002059937,14|0,0:0|1:0,0:0:0:0:
466,177,20933,2,0,P|472:208|472:243,1,54.0000002059937,10|0,0:0|1:0,0:0:0:0:
509,343,21206,6,0,P|460:354|414:344,1,92.0000017547608,6|8,1:2|0:0,0:0:0:0:
341,306,21615,2,0,P|292:295|246:305,1,92.0000017547608,2|0,1:0|1:0,0:0:0:0:
169,334,22024,1,10,0:0:0:0:
80,241,22297,1,0,0:0:0:0:
129,123,22569,1,8,0:0:0:0:
253,138,22842,2,0,L|346:138,1,92.0000017547608,0|8,0:0|0:0,0:0:0:0:
418,185,23251,1,0,0:0:0:0:
418,185,23388,6,0,P|428:133|415:88,1,92.0000017547608,2|8,1:0|0:0,0:0:0:0:
342,52,23797,2,0,L|249:52,1,92.0000017547608,2|0,1:0|1:0,0:0:0:0:
162,52,24206,1,10,0:0:0:0:
90,158,24479,1,0,0:0:0:0:
162,265,24751,1,8,0:0:0:0:
234,158,25024,1,0,1:0:0:0:
162,52,25297,1,8,0:0:0:0:
55,190,25569,6,0,P|47:221|56:294,1,92.0000017547608,2|8,1:0|0:0,0:0:0:0:
108,348,25979,2,0,P|139:356|212:347,1,92.0000017547608,2|0,1:0|1:0,0:0:0:0:
254,283,26388,2,0,P|260:237|251:193,1,92.0000017547608,10|0,0:0|0:0,0:0:0:0:
158,98,26933,1,8,0:0:0:0:
259,13,27206,2,0,L|309:8,1,46.0000008773804,0|0,1:0|1:0,0:0:0:0:
389,30,27479,2,0,L|439:25,1,46.0000008773804,8|0,0:0|1:0,0:0:0:0:
505,93,27751,6,0,P|503:119|507:154,2,51.999997619629,14|0|0,0:0|1:0|1:0,0:0:0:0:
419,151,28160,2,0,P|426:176|441:207,2,51.999997619629,12|0|0,0:0|1:0|1:0,0:0:0:0:
355,232,28569,2,0,P|370:253|395:277,2,51.999997619629,12|0|2,0:0|1:0|1:0,0:0:0:0:
326,331,28978,2,0,P|347:345|379:359,2,51.999997619629,12|0|0,0:0|1:0|1:0,0:0:0:0:
265,263,29388,6,0,P|261:231|265:199,1,60.0000022888184,12|0,0:0|1:0,0:0:0:0:
330,143,29660,2,0,P|334:111|330:79,1,60.0000022888184,10|0,0:0|1:0,0:0:0:0:
265,0,29933,5,6,1:2:0:0:
256,192,32115,12,10,33751,0:0:0:0:
80,240,34297,6,0,B|84:212|84:212|79:152,1,80,2|10,1:0|1:2,0:0:0:0:
176,248,34842,2,0,B|180:214|180:214|174:143,1,95.9999970703126,2|10,1:0|1:2,0:0:0:0:
272,248,35388,2,0,B|277:207|277:207|270:119,1,111.999996582031,2|10,1:2|1:2,0:0:0:0:
376,248,35933,6,0,L|365:308,1,55.9999982910157,10|8,1:2|0:0,0:0:0:0:
480,304,36206,2,0,L|469:244,1,55.9999982910157,10|8,1:2|0:0,0:0:0:0:
424,144,36479,5,6,1:2:0:0:
149,86,38660,6,0,P|126:88|97:85,2,51.999997619629,6|0|8,1:2|0:0|0:0,0:0:0:0:
234,62,39069,2,0,P|291:51|353:72,1,103.999995239258,0|0,0:0|1:0,0:0:0:0:
415,114,39479,1,8,0:0:0:0:
415,114,39615,2,0,P|426:171|405:233,1,103.999995239258,2|0,1:0|1:0,0:0:0:0:
360,284,40024,1,8,0:0:0:0:
188,326,40297,2,0,L|135:322,2,51.999997619629,0|0|8,1:0|1:0|0:0,0:0:0:0:
226,245,40706,6,0,L|116:236,1,103.999995239258,0|0,0:0|0:0,0:0:0:0:
34,227,41115,1,8,0:0:0:0:
196,159,41388,2,0,L|247:162,2,51.999997619629,0|0|8,1:0|1:0|0:0,0:0:0:0:
184,75,41797,2,0,L|293:83,1,103.999995239258,2|0,1:0|1:0,0:0:0:0:
375,93,42206,1,8,0:0:0:0:
428,261,42479,1,0,1:0:0:0:
428,261,42615,2,0,L|377:264,1,51.999997619629,0|8,1:0|0:0,0:0:0:0:
306,319,42888,6,0,P|287:269|338:182,1,155.999992858887,0|8,0:0|0:0,0:0:0:0:
413,148,43433,2,0,P|376:109|326:98,1,103.999995239258,0|0,0:0|1:0,0:0:0:0:
241,114,43842,1,8,0:0:0:0:
241,114,43979,2,0,P|184:121|129:108,1,103.999995239258,2|0,1:0|1:0,0:0:0:0:
58,149,44388,2,0,P|51:206|64:261,1,103.999995239258,8|0,0:0|1:0,0:0:0:0:
110,324,44797,2,0,L|105:375,2,51.999997619629,0|8|0,1:0|0:0|0:0,0:0:0:0:
200,272,45206,6,0,B|224:256|224:256|256:264|256:264|288:248|288:248|320:256,1,120.000004577637,14|0,0:3|0:0,0:0:0:0:
512,216,45751,2,0,B|488:200|488:200|456:208|456:208|424:192|424:192|392:200,1,120.000004577637,14|0,0:3|0:0,0:0:0:0:
232,88,46297,5,14,0:3:0:0:
375,200,46569,1,14,0:3:0:0:
211,170,46842,2,0,L|138:172,2,60.0000022888184,10|10|8,0:0|0:0|0:0,0:0:0:0:
232,88,47251,6,0,B|254:67|254:67|384:61,1,155.999992858887,6|8,1:2|0:0,0:0:0:0:
452,111,47797,2,0,P|442:168|455:224,1,103.999995239258,0|0,0:0|1:0,0:0:0:0:
482,303,48206,1,8,0:0:0:0:
482,303,48342,2,0,P|425:293|369:306,1,103.999995239258,2|0,1:0|1:0,0:0:0:0:
294,325,48751,2,0,P|237:335|181:322,1,103.999995239258,8|0,0:0|1:0,0:0:0:0:
115,282,49160,2,0,P|100:264|90:236,1,51.999997619629,0|8,1:0|0:0,0:0:0:0:
75,149,49433,6,0,B|183:139,1,103.999995239258,2|0,0:0|0:0,0:0:0:0:
267,132,49842,1,8,0:0:0:0:
385,249,50115,2,0,L|380:301,2,51.999997619629,0|0|8,1:0|1:0|0:0,0:0:0:0:
470,94,50660,2,0,B|362:104,1,103.999995239258,0|8,0:0|0:0,0:0:0:0:
250,234,51206,1,0,1:0:0:0:
250,234,51342,2,0,L|193:241,1,51.999997619629,0|8,1:0|0:0,0:0:0:0:
150,315,51615,6,0,B|186:340|186:340|307:324,1,155.999992858887,2|10,0:0|0:0,0:0:0:0:
341,186,52297,1,0,1:0:0:0:
341,186,52433,2,0,L|334:129,1,51.999997619629,0|8,1:0|0:0,0:0:0:0:
260,86,52706,2,0,B|235:122|235:122|251:243,1,155.999992858887,2|8,1:0|0:0,0:0:0:0:
388,342,53388,2,0,L|441:334,2,51.999997619629,0|0|8,1:0|1:0|0:0,0:0:0:0:
317,288,53797,1,2,0:0:0:0:
249,233,53933,6,0,B|201:238|201:238|157:234|157:234|186:255,1,120.000004577637,6|0,1:3|0:0,0:0:0:0:
0,150,54479,2,0,B|48:155|48:155|92:151|92:151|63:172,1,120.000004577637,6|0,1:3|0:0,0:0:0:0:
206,65,55024,1,14,1:3:0:0:
249,233,55297,1,14,1:3:0:0:
185,144,55569,1,8,0:0:0:0:
251,138,55706,1,8,0:0:0:0:
316,132,55842,1,8,0:0:0:0:
382,127,55979,6,0,B|461:139|461:139|507:124,1,120,6|0,1:2|0:0,0:0:0:0:
476,228,56660,2,0,L|395:238,1,80,8|0,1:2|0:0,0:0:0:0:
269,201,57206,2,0,L|188:191,1,80,4|0,1:3|0:0,0:0:0:0:
83,246,57751,2,0,L|2:256,1,80,8|0,1:2|0:0,0:0:0:0:
9,136,58297,6,0,L|90:126,1,80,6|0,1:3|0:0,0:0:0:0:
189,191,58842,2,0,P|206:140|188:56,1,120,8|0,1:2|0:0,0:0:0:0:
174,37,59388,5,6,1:3:0:0:
88,126,59660,1,2,0:0:0:0:
116,253,59933,1,10,1:2:0:0:
116,253,60069,2,0,P|148:278|193:287,1,80,2|2,0:0|0:0,0:0:0:0:
230,291,60479,6,0,L|316:283,1,80,6|0,1:2|0:0,0:0:0:0:
412,213,61024,2,0,L|420:127,1,80,8|0,1:2|0:0,0:0:0:0:
298,93,61569,2,0,L|306:179,1,80,6|0,1:3|0:0,0:0:0:0:
228,246,62115,2,0,L|142:238,1,80,8|0,1:2|0:0,0:0:0:0:
109,130,62660,6,0,L|195:122,1,80,6|0,1:3|0:0,0:0:0:0:
298,93,63206,2,0,L|384:101,1,80,8|0,1:2|0:0,0:0:0:0:
464,179,63751,2,0,B|453:211|453:211|465:300,2,120,6|6|10,1:3|1:3|0:0,0:0:0:0:
505,80,64842,5,6,1:2:0:0:
66,161,73569,6,0,P|123:166|170:158,1,92.0000017547608,6|8,1:0|0:0,0:0:0:0:
242,136,73979,2,0,P|299:131|346:139,1,92.0000017547608,2|0,1:0|1:0,0:0:0:0:
417,161,74388,1,10,0:0:0:0:
287,217,74660,1,2,0:0:0:0:
157,161,74933,1,10,0:0:0:0:
287,105,75206,1,2,0:0:0:0:
295,253,75479,1,10,0:0:0:0:
295,253,75615,1,2,0:0:0:0:
295,253,75751,6,0,L|391:246,1,92.0000017547608,2|8,1:0|0:0,0:0:0:0:
448,183,76160,2,0,L|441:87,1,92.0000017547608,2|0,1:0|1:0,0:0:0:0:
376,31,76569,1,8,0:0:0:0:
376,31,76705,1,0,0:0:0:0:
376,31,76842,2,0,L|280:24,1,92.0000017547608,0|8,0:0|0:0,0:0:0:0:
145,133,77388,2,0,L|241:126,1,92.0000017547608,0|8,0:0|0:0,0:0:0:0:
391,207,77933,6,0,P|400:260|392:304,1,92.0000017547608,2|8,1:0|0:0,0:0:0:0:
336,363,78342,2,0,P|283:372|239:364,1,92.0000017547608,2|0,1:0|1:0,0:0:0:0:
166,327,78751,1,10,0:0:0:0:
116,192,79024,2,0,P|169:183|213:191,1,92.0000017547608,0|8,0:0|0:0,0:0:0:0:
293,202,79433,2,0,P|284:149|292:105,1,92.0000017547608,0|0,0:0|1:0,0:0:0:0:
326,31,79842,1,8,0:0:0:0:
326,31,79979,1,0,1:0:0:0:
326,31,80115,6,0,L|382:27,2,51.999997619629,14|0|0,0:0|1:0|1:0,0:0:0:0:
289,111,80524,2,0,L|229:117,2,51.999997619629,12|0|0,0:0|1:0|1:0,0:0:0:0:
378,156,80933,2,0,L|434:152,2,51.999997619629,12|0|2,0:0|1:0|1:0,0:0:0:0:
341,236,81342,2,0,L|280:241,2,51.999997619629,12|0|0,0:0|1:0|1:0,0:0:0:0:
264,332,81751,6,0,P|235:319|211:293,1,60.0000022888184,12|0,0:0|1:0,0:0:0:0:
212,180,82024,2,0,P|233:159|260:147,1,60.0000022888184,10|0,0:0|1:0,0:0:0:0:
341,236,82297,5,6,1:2:0:0:
256,192,84479,12,10,86115,0:0:0:0:
136,216,86660,6,0,B|128:152|128:152|136:136,1,80,10|8,1:2|1:2,0:0:0:0:
232,216,87206,2,0,B|222:141|222:141|232:123,1,95.9999970703126,10|8,1:2|1:2,0:0:0:0:
328,216,87751,2,0,B|317:129|317:129|328:107,1,111.999996582031,10|10,1:2|1:2,0:0:0:0:
424,216,88297,6,0,P|418:248|405:272,1,55.9999982910157,8|8,1:2|0:0,0:0:0:0:
335,326,88569,2,0,P|309:338|282:342,1,55.9999982910157,10|8,1:2|0:0,0:0:0:0:
160,343,88842,5,6,1:2:0:0:
0,190,91024,6,0,L|4:136,1,51.999997619629,6|0,1:2|0:0,0:0:0:0:
69,78,91297,1,8,0:0:0:0:
69,78,91433,2,0,P|120:92|170:81,1,103.999995239258,0|0,0:0|1:0,0:0:0:0:
254,56,91842,1,8,0:0:0:0:
254,56,91978,2,0,P|305:42|355:53,1,103.999995239258,2|0,1:0|1:0,0:0:0:0:
428,101,92388,1,8,0:0:0:0:
307,197,92660,2,0,L|311:251,2,51.999997619629,0|0|8,1:0|1:0|0:0,0:0:0:0:
220,176,93069,6,0,L|228:289,1,103.999995239258,0|0,1:0|0:0,0:0:0:0:
139,265,93479,2,0,L|131:152,1,103.999995239258,8|0,0:0|1:0,0:0:0:0:
190,94,93888,2,0,L|193:42,1,51.999997619629,0|8,1:0|0:0,0:0:0:0:
274,6,94160,2,0,P|308:38|365:51,1,103.999995239258,2|0,1:0|1:0,0:0:0:0:
451,49,94569,1,8,0:0:0:0:
494,220,94842,1,0,1:0:0:0:
494,220,94979,2,0,L|442:216,1,51.999997619629,0|8,1:0|0:0,0:0:0:0:
368,168,95251,1,0,1:0:0:0:
368,168,95388,6,0,P|352:220|369:271,1,103.999995239258,2|8,1:2|0:0,0:0:0:0:
417,338,95797,2,0,P|365:354|314:337,1,103.999995239258,0|0,0:0|1:0,0:0:0:0:
249,285,96206,1,8,0:0:0:0:
249,285,96342,2,0,B|255:255|255:255|248:179,1,103.999995239258,2|0,1:0|1:0,0:0:0:0:
177,128,96751,2,0,B|147:134|147:134|71:127,1,103.999995239258,8|0,0:0|1:0,0:0:0:0:
56,40,97160,1,0,1:0:0:0:
56,40,97297,2,0,L|108:46,1,51.999997619629,8|0,0:0|1:0,0:0:0:0:
202,8,97569,6,0,B|233:20|233:20|283:9|283:9|317:23,1,120.000004577637,14|0,0:3|0:0,0:0:0:0:
485,137,98115,2,0,B|454:125|454:125|404:136|404:136|370:122,1,120.000004577637,14|0,0:3|0:0,0:0:0:0:
208,246,98660,1,14,0:3:0:0:
264,114,98933,1,14,0:3:0:0:
369,226,99206,1,10,0:0:0:0:
392,287,99342,1,10,0:0:0:0:
397,353,99479,1,8,0:0:0:0:
340,356,99615,6,0,P|299:350|230:362,1,103.999995239258,6|0,1:2|1:0,0:0:0:0:
152,353,100024,1,8,0:0:0:0:
152,353,100160,2,0,P|111:359|42:347,1,103.999995239258,0|0,0:0|1:0,0:0:0:0:
3,273,100569,1,8,0:0:0:0:
3,273,100706,2,0,L|14:170,1,103.999995239258,2|0,1:0|1:0,0:0:0:0:
96,137,101115,2,0,L|107:240,1,103.999995239258,8|0,0:0|1:0,0:0:0:0:
195,279,101524,1,0,1:0:0:0:
195,279,101660,1,8,0:0:0:0:
195,279,101797,6,0,P|199:223|218:173,1,103.999995239258,2|0,1:0|1:0,0:0:0:0:
275,113,102206,2,0,P|323:95|375:92,1,103.999995239258,8|0,0:0|1:0,0:0:0:0:
463,108,102615,1,0,1:0:0:0:
463,108,102751,1,8,0:0:0:0:
344,239,103024,2,0,P|347:290|364:339,1,103.999995239258,0|8,0:0|0:0,0:0:0:0:
507,236,103569,2,0,P|508:211|502:182,2,51.999997619629,0|0|8,1:0|1:0|0:0,0:0:0:0:
419,216,103979,6,0,L|314:207,1,103.999995239258,2|0,1:0|1:0,0:0:0:0:
226,199,104388,1,10,0:0:0:0:
122,55,104660,2,0,P|121:30|127:1,2,51.999997619629,0|0|8,1:0|1:0|0:0,0:0:0:0:
210,35,105070,2,0,L|315:26,1,103.999995239258,2|0,1:0|1:0,0:0:0:0:
402,19,105479,1,8,0:0:0:0:
256,117,105751,2,0,L|191:122,1,51.999997619629,0|0,1:0|1:0,0:0:0:0:
203,210,106024,2,0,L|267:204,1,51.999997619629,8|2,0:0|1:0,0:0:0:0:
344,268,106297,6,0,B|338:247|338:247|346:226|346:226|350:204|346:170|324:148,1,120.000004577637,6|0,1:3|0:0,0:0:0:0:
115,150,106842,2,0,B|121:171|121:171|113:192|113:192|109:214|113:248|135:270,1,120.000004577637,6|0,1:3|0:0,0:0:0:0:
307,365,107388,2,0,L|372:370,1,60.0000022888184,14|0,1:3|0:3,0:0:0:0:
444,321,107660,2,0,L|439:256,1,60.0000022888184,14|0,1:3|0:3,0:0:0:0:
392,184,107933,2,0,L|397:119,1,60.0000022888184,8|8,0:0|0:0,0:0:0:0:
445,47,108206,1,8,0:0:0:0:
445,47,108342,6,0,P|381:33|331:59,1,120.000004577637,6|0,1:2|1:0,0:0:0:0:
267,107,108751,2,0,P|203:121|153:95,1,120.000004577637,8|0,0:0|1:0,0:0:0:0:
0,162,109297,1,8,0:0:0:0:
0,162,109433,2,0,L|10:294,1,120.000004577637,2|0,1:0|1:0,0:0:0:0:
93,288,109842,2,0,L|103:156,1,120.000004577637,8|0,0:0|1:0,0:0:0:0:
150,100,110251,1,0,1:0:0:0:
150,100,110388,1,8,0:0:0:0:
289,198,110660,6,0,P|358:208|419:197,1,120.000004577637,2|8,0:0|0:0,0:0:0:0:
479,48,111206,2,0,P|410:38|349:49,1,120.000004577637,0|8,1:0|0:0,0:0:0:0:
282,76,111615,2,0,P|213:86|152:75,1,120.000004577637,2|0,1:0|1:0,0:0:0:0:
83,105,112024,2,0,P|73:174|84:235,1,120.000004577637,8|0,0:0|1:0,0:0:0:0:
129,307,112433,1,0,1:0:0:0:
129,307,112569,1,8,0:0:0:0:
129,307,112706,6,0,L|259:301,1,120.000004577637,0|0,1:0|1:0,0:0:0:0:
325,266,113115,2,0,L|455:272,1,120.000004577637,8|0,0:0|1:0,0:0:0:0:
503,113,113660,1,8,0:0:0:0:
503,113,113797,2,0,L|373:119,1,120.000004577637,2|0,1:0|1:0,0:0:0:0:
307,154,114206,2,0,L|177:148,1,120.000004577637,8|0,0:0|1:0,0:0:0:0:
110,113,114615,2,0,L|44:116,2,60.0000022888184,0|8|0,1:0|0:0|1:0,0:0:0:0:
177,41,115024,6,0,B|193:47|193:47|226:26|284:25|313:75,1,140.000001335144,14|8,0:0|1:3,0:0:0:0:
262,254,115569,2,0,B|246:248|246:248|213:269|155:270|126:220,1,140.000001335144,14|8,0:0|1:3,0:0:0:0:
12,77,116115,2,0,L|2:152,1,70.000000667572,14|0,0:0|1:3,0:0:0:0:
45,223,116388,2,0,L|55:298,1,70.000000667572,14|0,0:0|1:3,0:0:0:0:
127,340,116660,1,14,0:0:0:0:
189,349,116797,1,2,1:0:0:0:
251,358,116933,1,0,1:0:0:0:
312,367,117069,6,0,B|332:340|332:340|340:247,1,120.000004577637,6|0,1:2|1:0,0:0:0:0:
266,209,117479,1,10,0:0:0:0:
266,209,117615,2,0,L|261:147,2,60.0000022888184,0|0|0,1:0|1:0|1:0,0:0:0:0:
187,239,118024,1,10,0:0:0:0:
187,239,118160,2,0,P|129:251|68:238,1,120.000004577637,2|0,1:3|1:0,0:0:0:0:
1,189,118569,1,10,0:0:0:0:
130,81,118842,2,0,P|188:69|249:82,1,120.000004577637,0|10,1:0|0:0,0:0:0:0:
318,125,119251,6,0,B|343:147|343:147|433:154,1,120.000004577637,0|0,1:0|1:0,0:0:0:0:
501,197,119660,2,0,P|506:224|505:265,2,60.0000022888184,10|0|0,0:0|1:0|1:0,0:0:0:0:
437,40,120206,1,10,0:0:0:0:
437,40,120342,2,0,L|316:30,1,120.000004577637,2|0,1:3|1:0,0:0:0:0:
233,20,120751,1,10,0:0:0:0:
72,70,121024,2,0,P|67:43|68:2,1,60.0000022888184,0|0,1:0|1:0,0:0:0:0:
143,115,121297,2,0,P|148:142|147:183,1,60.0000022888184,10|0,0:0|1:0,0:0:0:0:
110,249,121569,6,0,P|105:276|106:317,2,60.0000022888184,2|0|10,1:3|1:0|0:0,0:0:0:0:
175,194,121979,1,0,1:0:0:0:
175,194,122115,2,0,L|304:187,1,120.000004577637,0|10,1:0|0:0,0:0:0:0:
366,232,122524,2,0,P|379:179|333:111,1,120.000004577637,2|0,1:3|1:0,0:0:0:0:
271,107,122933,1,10,0:0:0:0:
271,107,123069,1,0,1:0:0:0:
271,107,123206,2,0,L|142:100,1,120.000004577637,0|8,1:0|0:0,0:0:0:0:
74,38,123615,1,0,1:0:0:0:
74,38,123751,6,0,B|54:31|54:31|37:49|42:66|42:66|66:83|66:83|61:108|71:138,1,140.000001335144,14|0,1:3|0:0,0:0:0:0:
189,230,124297,2,0,B|209:237|209:237|226:219|221:202|221:202|197:185|197:185|202:160|192:130,1,140.000001335144,14|0,1:3|0:0,0:0:0:0:
79,239,124842,1,14,1:3:0:0:
207,324,125115,1,14,1:3:0:0:
334,239,125388,1,10,0:0:0:0:
339,183,125524,1,10,0:0:0:0:
345,127,125660,1,8,0:0:0:0:
351,71,125797,5,6,1:2:0:0:
58,92,130297,6,0,L|154:85,1,80,6|0,1:2|0:0,0:0:0:0:
288,141,130842,2,0,L|345:136,2,40,8|0|0,1:2|0:0|0:0,0:0:0:0:
229,195,131251,2,0,L|222:291,1,80,2|0,0:0|0:0,0:0:0:0:
220,355,131660,1,0,0:0:0:0:
114,234,131933,2,0,L|109:176,1,40,8|0,1:2|0:0,0:0:0:0:
145,121,132206,2,0,L|149:63,1,40,0|0,0:0|0:0,0:0:0:0:
191,13,132479,6,0,P|227:35|274:38,1,80,6|0,1:3|0:0,0:0:0:0:
413,95,133024,2,0,P|436:92|458:95,2,40,8|0|0,1:2|0:0|0:0,0:0:0:0:
321,136,133433,1,0,0:0:0:0:
321,136,133569,6,0,B|310:151|310:151|316:208,1,60.0000022888184,6|0,1:3|0:0,0:0:0:0:
224,243,133842,2,0,B|235:228|235:228|229:171,1,60.0000022888184,2|2,0:0|1:3,0:0:0:0:
216,91,134115,1,10,0:2:0:0:
216,91,134251,2,0,B|231:102|231:102|348:95,1,120.000004577637,2|2,0:0|0:0,0:0:0:0:
413,58,134660,6,0,P|423:100|409:144,1,80,6|0,1:2|0:0,0:0:0:0:
386,293,135206,2,0,P|383:310|385:335,2,40,8|0|0,1:2|0:0|0:0,0:0:0:0:
328,230,135615,2,0,P|277:224|228:237,1,80,2|0,0:0|0:0,0:0:0:0:
173,260,136024,1,0,0:0:0:0:
38,173,136297,1,8,1:2:0:0:
38,173,136433,1,0,0:0:0:0:
38,173,136569,1,0,0:0:0:0:
133,44,136842,6,0,L|218:50,1,80,6|0,1:3|0:0,0:0:0:0:
304,181,137388,2,0,L|356:184,1,40,8|0,1:2|0:0,0:0:0:0:
421,155,137660,2,0,L|473:151,1,40,0|0,0:3|0:0,0:0:0:0:
490,230,137933,6,0,P|485:257|515:351,1,120.000004577637,6|2,1:2|0:0,0:0:0:0:
433,297,138342,2,0,P|406:292|312:322,1,120.000004577637,6|2,1:2|0:0,0:0:0:0:
247,365,138751,1,10,0:0:0:0:
97,226,139024,6,0,B|97:215|97:215|105:208|105:208|100:185|100:185|108:169|101:152|101:152|103:134|103:134|91:122|95:111,1,120.000004577637,6|4,1:2|0:3,0:0:0:0:
243,36,140115,2,0,B|241:53|241:53|247:61|258:63|258:63|251:76|249:93|249:93|243:93|243:93|253:112|248:138,1,120.000004577637,14|4,0:3|0:3,0:0:0:0:
231,290,141206,2,0,B|240:278|240:278|253:283|253:283|265:272|289:269|289:269|307:280|307:280|323:277|341:279,1,120.000004577637,6|4,1:3|0:3,0:0:0:0:
430,163,142297,2,0,P|433:140|430:112,1,50,14|0,0:3|0:0,0:0:0:0:
374,49,142569,2,0,P|351:46|323:49,1,50,2|6,0:0|1:3,0:0:0:0:
247,80,142842,1,0,0:0:0:0:
247,80,142979,2,0,P|224:83|196:80,1,50,2|6,0:0|1:3,0:0:0:0:
116,60,143251,1,2,0:0:0:0:
116,60,143388,6,0,B|111:78|111:78|120:101|120:101|114:117|108:127|108:127|126:140|115:172,1,120.000004577637,6|4,1:2|0:3,0:0:0:0:
262,236,144479,2,0,B|273:230|273:230|289:223|304:227|304:227|315:221|315:221|321:233|332:236|332:236|352:234|369:221,1,120.000004577637,14|4,0:3|0:3,0:0:0:0:
459,86,145569,2,0,B|449:94|449:94|428:92|408:84|408:84|388:99|388:99|374:89|374:89|347:95,1,120.000004577637,6|4,1:3|0:3,0:0:0:0:
191,35,146660,2,0,P|194:56|190:88,1,50,14|0,0:3|0:0,0:0:0:0:
166,166,146933,2,0,P|163:187|167:219,1,50,2|6,0:0|1:3,0:0:0:0:
195,297,147206,1,2,0:0:0:0:
249,287,147342,1,2,0:0:0:0:
303,278,147479,1,10,1:3:0:0:
357,269,147615,5,2,0:0:0:0:
256,192,147751,12,2,148842,0:0:0:0:
