osu file format v14

[General]
AudioFilename: audio.mp3
AudioLeadIn: 0
PreviewTime: 38301
Countdown: 0
SampleSet: Soft
StackLeniency: 0.5
Mode: 0
LetterboxInBreaks: 0
WidescreenStoryboard: 1

[Editor]
Bookmarks: 55961,64824,76006,125779,129188
DistanceSpacing: 1
BeatDivisor: 4
GridSize: 4
TimelineZoom: 1.6

[Metadata]
Title:Kick Me
TitleUnicode:Kick Me
Artist:Sleeping With Sirens
ArtistUnicode:Sleeping With Sirens
Creator:fieryrage
Version:Peter's Normal
Source:
Tags:sws madness english metal punk rock post-hardcore ailv kyshiro elsa valentine xlolicore- pishifat bergy dashyy- ayyri eiri- craezy hypercyte underdogs stingy peter petereu
BeatmapID:2171678
BeatmapSetID:1038902

[Difficulty]
HPDrainRate:3
CircleSize:3
OverallDifficulty:3
ApproachRate:5
SliderMultiplier:1
SliderTickRate:1

[Events]
//Background and Video events
0,0,"asdfasd.png",0,0
//Break Periods
2,36679,37460
2,56179,63642
2,89043,89824
2,125997,128006
//Storyboard Layer 0 (Background)
//Storyboard Layer 1 (Fail)
//Storyboard Layer 2 (Pass)
//Storyboard Layer 3 (Foreground)
//Storyboard Layer 4 (Overlay)
//Storyboard Sound Samples

[TimingPoints]
479,272.727272727273,4,2,5,5,1,0
479,-100,4,2,5,5,0,0
10433,-100,4,2,5,10,0,0
10842,-100,4,2,5,15,0,0
12342,-100,4,2,5,5,0,0
12479,-100,4,2,5,50,0,0
13569,-100,4,2,5,40,0,0
14660,-100,4,2,5,50,0,0
15751,-100,4,2,5,40,0,0
16842,-100,4,2,5,50,0,0
17933,-100,4,2,5,40,0,0
19024,-100,4,2,5,60,0,0
22297,-100,4,2,5,50,0,0
23388,-100,4,2,5,60,0,0
24479,-100,4,2,5,50,0,0
25569,-100,4,2,5,60,0,0
26660,-100,4,2,5,50,0,0
27751,-100,4,2,5,60,0,0
29933,-100,4,2,5,55,0,0
30206,-100,4,2,5,30,0,0
31024,-100,4,2,5,35,0,0
31569,-100,4,2,5,38,0,0
32115,-100,4,2,5,40,0,0
32660,-100,4,2,5,43,0,0
33206,-100,4,2,5,45,0,0
33479,-100,4,2,5,48,0,0
33751,-100,4,2,5,50,0,0
34433,-100,4,2,5,40,0,0
34842,-100,4,2,5,55,0,0
34979,-100,4,2,5,40,0,0
35388,-100,4,2,5,60,0,0
35524,-100,4,2,5,45,0,0
35660,-100,4,2,5,50,0,0
35933,-100,4,2,5,55,0,0
36206,-100,4,2,5,60,0,0
36547,-100,4,2,5,45,0,0
36888,-100,4,2,5,45,0,0
37024,-100,4,2,5,35,0,0
38388,-100,4,2,5,60,0,0
38660,-90.9090909090909,4,2,5,70,0,1
45206,-100,4,2,5,70,0,0
45479,-100,4,2,5,60,0,0
45751,-100,4,2,5,70,0,0
46024,-100,4,2,5,60,0,0
46297,-100,4,2,5,65,0,0
47251,-90.9090909090909,4,2,5,70,0,1
54206,-90.9090909090909,4,2,5,60,0,1
54479,-90.9090909090909,4,2,5,70,0,1
54751,-90.9090909090909,4,2,5,60,0,1
55024,-90.9090909090909,4,2,5,70,0,1
55979,-100,4,2,5,65,0,0
56047,-100,4,2,5,55,0,0
59388,-100,4,2,5,60,0,0
60479,-100,4,2,5,55,0,0
61569,-100,4,2,5,60,0,0
63819,-100,4,2,5,5,0,0
64160,-100,4,2,5,65,0,0
64229,-100,4,2,5,5,0,0
64569,-100,4,2,5,60,0,0
64638,-100,4,2,5,5,0,0
64842,-100,4,2,5,55,0,0
64979,-100,4,2,5,50,0,0
66001,-100,4,2,5,50,0,0
66206,-100,4,2,5,50,0,0
66274,-100,4,2,5,50,0,0
66479,-100,4,2,5,50,0,0
71456,-100,4,2,5,5,0,0
72479,-100,4,2,5,50,0,0
73092,-100,4,2,5,5,0,0
73297,-100,4,2,5,20,0,0
73365,-100,4,2,5,35,0,0
73433,-100,4,2,5,40,0,0
73501,-100,4,2,5,50,0,0
73569,-100,4,2,5,60,0,0
75206,-100,4,2,5,58,0,0
76160,-100,4,2,5,55,0,0
76842,-100,4,2,5,52,0,0
80115,-100,4,2,5,60,0,0
82569,-100,4,2,5,32,0,0
82842,-100,4,2,5,35,0,0
83388,-100,4,2,5,38,0,0
83933,-100,4,2,5,40,0,0
84479,-100,4,2,5,42,0,0
85024,-100,4,2,5,45,0,0
85569,-100,4,2,5,50,0,0
85842,-100,4,2,5,40,0,0
85979,-100,4,2,5,50,0,0
86660,-100,4,2,5,55,0,0
86797,-100,4,2,5,40,0,0
87206,-100,4,2,5,55,0,0
87342,-100,4,2,5,40,0,0
87751,-100,4,2,5,60,0,0
87888,-100,4,2,5,40,0,0
88024,-100,4,2,5,50,0,0
88297,-100,4,2,5,55,0,0
88569,-100,4,2,5,60,0,0
88842,-100,4,2,5,65,0,0
88910,-100,4,2,5,50,0,0
89388,-100,4,2,5,40,0,0
90751,-100,4,2,5,65,0,0
91024,-90.9090909090909,4,2,5,70,0,1
97569,-100,4,2,5,75,0,0
97842,-100,4,2,5,60,0,0
98115,-100,4,2,5,75,0,0
98388,-100,4,2,5,60,0,0
98660,-100,4,2,5,75,0,0
99615,-90.9090909090909,4,2,5,75,0,1
99751,-90.9090909090909,4,2,5,70,0,1
106297,-100,4,2,5,75,0,0
106569,-100,4,2,5,60,0,0
106842,-100,4,2,5,75,0,0
107115,-100,4,2,5,60,0,0
107388,-100,4,2,5,75,0,0
108342,-90.9090909090909,4,2,5,75,0,1
115024,-100,4,2,5,75,0,0
115297,-100,4,2,5,60,0,0
115433,-100,4,2,5,50,0,0
115569,-100,4,2,5,75,0,0
115842,-100,4,2,5,60,0,0
115979,-100,4,2,5,50,0,0
116115,-100,4,2,5,75,0,0
117069,-90.9090909090909,4,2,5,75,0,1
123751,-100,4,2,5,75,0,0
125388,-100,4,2,5,70,0,0
125797,-100,4,2,5,70,0,0
129274,-100,4,2,5,5,0,0
129615,-100,4,2,5,70,0,0
129683,-100,4,2,5,5,0,0
130024,-100,4,2,5,70,0,0
130092,-100,4,2,5,5,0,0
130229,-100,4,2,5,5,0,0
130297,-100,4,2,5,60,0,0
130365,-100,4,2,5,55,0,0
133569,-100,4,2,5,60,0,0
139024,-100,4,2,5,70,0,0
147751,-100,4,2,5,5,0,0
148842,-100,4,2,5,25,0,0

[Colours]
Combo1 : 136,136,136
Combo2 : 82,109,90
Combo3 : 196,148,140
Combo4 : 146,192,194

[HitObjects]
33,31,12479,6,0,P|27:152|18:238,1,200,2|0,1:0|1:0,0:0:0:0:
79,310,13297,1,2,1:0:0:0:
171,272,13569,2,0,L|293:273,1,100,0|0,1:0|1:0,0:0:0:0:
341,343,14115,1,0,1:0:0:0:
429,295,14388,1,0,1:0:0:0:
390,203,14660,6,0,B|341:114|421:115|373:10,1,200,2|0,1:0|1:0,0:0:0:0:
289,65,15479,1,2,1:0:0:0:
194,24,15751,2,0,L|75:20,1,100,0|0,1:0|1:0,0:0:0:0:
28,97,16297,1,0,1:0:0:0:
93,172,16569,1,0,1:0:0:0:
20,241,16842,6,0,P|119:267|188:190,1,200,2|0,1:0|1:0,0:0:0:0:
258,141,17660,1,2,1:0:0:0:
340,197,17933,2,0,L|443:198,1,100,0|0,1:0|1:0,0:0:0:0:
498,116,18479,1,0,1:0:0:0:
452,27,18751,1,0,1:0:0:0:
354,48,19024,6,0,B|250:17|253:78|150:42,1,200,14|0,0:0|1:0,0:0:0:0:
61,15,19842,1,12,0:0:0:0:
3,96,20115,2,0,L|12:200,1,100,2|0,1:0|1:0,0:0:0:0:
96,250,20660,2,0,L|89:355,1,100,14|10,0:0|0:0,0:0:0:0:
188,372,21206,6,0,P|255:325|369:348,1,200,6|0,1:2|0:0,0:0:0:0:
451,293,22024,1,10,0:0:0:0:
385,217,22297,2,0,L|391:112,1,100,0|8,0:0|0:0,0:0:0:0:
292,99,22842,2,0,L|286:-6,1,100,0|8,0:0|0:0,0:0:0:0:
194,40,23388,6,0,L|204:254,1,200,2|0,1:0|0:0,0:0:0:0:
207,339,24206,1,10,0:0:0:0:
118,291,24479,2,0,P|50:299|6:287,1,100,0|8,0:0|0:0,0:0:0:0:
65,203,25024,1,0,1:0:0:0:
14,119,25297,1,8,0:0:0:0:
87,55,25569,6,0,B|155:52|155:52|217:86|217:86|288:81,1,200,2|0,1:0|0:0,0:0:0:0:
369,40,26388,1,10,0:0:0:0:
441,108,26660,1,0,0:0:0:0:
394,196,26933,2,0,L|397:313,1,100,8|0,0:0|1:0,0:0:0:0:
334,375,27479,1,8,0:0:0:0:
244,330,27751,6,0,P|161:310|88:339,1,150,14|12,0:0|0:0,0:0:0:0:
17,205,28569,2,0,L|25:45,1,150,12|12,0:0|0:0,0:0:0:0:
147,141,29388,1,12,0:0:0:0:
222,75,29660,1,10,0:0:0:0:
305,129,29933,6,0,L|410:126,1,100,6|10,1:2|0:3,0:0:0:0:
505,123,30479,1,10,0:0:0:0:
464,214,30751,1,10,0:0:0:0:
511,302,31024,2,0,P|469:310|406:293,1,100,10|10,0:0|0:0,0:0:0:0:
321,258,31569,2,0,P|279:250|216:267,1,100,10|10,0:0|0:0,0:0:0:0:
144,324,32115,5,10,0:0:0:0:
77,248,32388,1,10,0:0:0:0:
120,158,32660,2,0,L|111:40,1,100,10|10,0:0|0:0,0:0:0:0:
210,79,33206,2,0,L|219:197,1,100,10|10,0:0|0:0,0:0:0:0:
225,278,33751,1,10,0:0:0:0:
307,221,34024,1,10,0:0:0:0:
393,271,34297,6,0,P|473:275|506:260,1,100,2|10,1:0|1:2,0:0:0:0:
488,168,34842,2,0,P|408:164|375:179,1,100,2|10,1:0|1:2,0:0:0:0:
307,221,35388,2,0,P|227:225|194:210,1,100,2|10,1:2|1:2,0:0:0:0:
116,180,35933,1,10,1:2:0:0:
128,80,36206,1,10,1:2:0:0:
40,32,36479,5,6,1:2:0:0:
45,114,38660,6,0,L|49:242,1,110.000003356934,6|8,1:2|0:0,0:0:0:0:
92,325,39206,2,0,P|148:310|217:333,1,110.000003356934,0|8,1:0|0:0,0:0:0:0:
242,353,39615,2,0,B|298:340|297:367|350:356,1,110.000003356934,2|0,1:0|1:0,0:0:0:0:
404,342,40024,1,8,0:0:0:0:
492,277,40297,1,0,1:0:0:0:
420,196,40569,1,8,0:0:0:0:
500,124,40842,6,0,L|499:-2,1,110.000003356934,2|8,1:0|0:0,0:0:0:0:
392,36,41388,2,0,P|342:57|273:42,1,110.000003356934,0|8,1:0|0:0,0:0:0:0:
240,24,41797,2,0,L|130:24,1,110.000003356934,2|0,1:0|1:0,0:0:0:0:
76,20,42205,1,8,0:0:0:0:
44,128,42479,2,0,L|180:129,1,110.000003356934,0|8,1:0|0:0,0:0:0:0:
224,216,43024,6,0,P|207:284|229:335,1,110.000003356934,2|8,1:0|0:0,0:0:0:0:
320,354,43569,2,0,B|385:376|383:336|451:363,1,110.000003356934,0|8,1:0|0:0,0:0:0:0:
482,368,43979,2,0,P|482:313|478:258,1,110.000003356934,2|0,1:0|1:0,0:0:0:0:
472,203,44388,1,8,0:0:0:0:
394,123,44660,1,0,1:0:0:0:
493,75,44933,1,8,0:0:0:0:
406,27,45206,6,0,L|301:22,1,100,14|0,0:3|0:0,0:0:0:0:
239,94,45751,2,0,L|134:99,1,100,14|0,0:3|0:0,0:0:0:0:
53,45,46297,2,0,P|40:96|53:148,1,100,14|14,0:3|0:3,0:0:0:0:
114,218,46842,2,0,P|116:254|110:281,1,50,10|10,0:0|0:0,0:0:0:0:
64,366,47251,6,0,L|173:363,1,110.000003356934,6|0,1:2|0:0,0:0:0:0:
229,362,47660,1,8,0:0:0:0:
319,299,47933,2,0,L|441:302,1,110.000003356934,0|8,1:0|0:0,0:0:0:0:
484,304,48342,2,0,P|465:252|473:198,1,110.000003356934,2|0,1:0|1:0,0:0:0:0:
496,148,48751,1,8,0:0:0:0:
392,110,49024,1,0,1:0:0:0:
478,41,49297,1,8,0:0:0:0:
372,9,49569,6,0,L|246:5,1,110.000003356934,0|8,1:0|0:0,0:0:0:0:
227,113,50115,2,0,L|353:109,1,110.000003356934,0|8,1:0|0:0,0:0:0:0:
392,110,50524,2,0,P|375:161|392:212,1,110.000003356934,2|0,1:0|1:0,0:0:0:0:
418,261,50933,1,8,0:0:0:0:
489,345,51206,1,0,1:0:0:0:
380,363,51479,1,8,0:0:0:0:
276,327,51751,6,0,L|161:331,1,110.000003356934,0|10,1:0|0:0,0:0:0:0:
112,234,52297,2,0,L|227:230,1,110.000003356934,0|8,1:0|0:0,0:0:0:0:
276,222,52706,2,0,P|253:172|262:119,1,110.000003356934,2|0,1:0|1:0,0:0:0:0:
293,74,53114,1,8,0:0:0:0:
360,161,53388,2,0,B|417:147|418:183|492:157,1,110.000003356934,0|8,1:0|0:0,0:0:0:0:
510,61,53933,5,6,1:3:0:0:
468,277,54479,1,6,1:3:0:0:
256,336,55024,2,0,L|269:209,1,110.000003356934,14|14,1:3|1:3,0:0:0:0:
375,210,55569,2,0,L|368:134,1,55.0000016784668,8|8,0:0|0:0,0:0:0:0:
357,64,55979,1,6,1:2:0:0:
70,330,64842,6,0,P|145:290|254:327,1,200,6|0,1:2|0:0,0:0:0:0:
333,376,65660,1,10,0:0:0:0:
398,299,65933,2,0,P|382:246|401:188,1,100,2|8,0:0|0:0,0:0:0:0:
452,123,66479,2,0,P|468:70|449:12,1,100,2|8,1:2|0:0,0:0:0:0:
365,64,67024,6,0,B|269:96|268:28|149:70,1,200,2|0,1:2|0:0,0:0:0:0:
80,111,67842,1,8,0:0:0:0:
127,199,68115,2,0,L|120:314,1,100,2|8,0:2|0:0,0:0:0:0:
220,291,68660,2,0,L|227:176,1,100,2|8,1:2|0:0,0:0:0:0:
318,152,69206,6,0,P|360:180|495:117,1,200,2|0,1:2|0:0,0:0:0:0:
396,91,70024,1,8,0:0:0:0:
304,50,70297,2,0,L|197:54,1,100,2|8,0:2|0:0,0:0:0:0:
161,144,70842,2,0,L|54:140,1,100,2|8,1:2|0:0,0:0:0:0:
1,221,71388,5,6,1:2:0:0:
419,339,73569,6,0,P|448:229|391:161,1,200,6|0,1:0|0:0,0:0:0:0:
317,222,74388,1,10,0:0:0:0:
239,159,74660,2,0,L|133:158,1,100,2|10,0:0|0:0,0:0:0:0:
120,256,75206,2,0,L|226:255,1,100,2|10,0:0|0:0,0:0:0:0:
317,222,75751,6,0,B|361:117|277:117|326:24,1,200,2|0,1:0|0:0,0:0:0:0:
409,79,76569,1,8,0:0:0:0:
504,48,76842,2,0,L|496:160,1,100,0|8,0:0|0:0,0:0:0:0:
426,218,77388,2,0,L|434:330,1,100,0|8,0:0|0:0,0:0:0:0:
344,363,77933,6,0,B|284:362|284:362|218:327|218:327|146:328,1,200,2|0,1:0|0:0,0:0:0:0:
54,371,78751,1,10,0:0:0:0:
25,275,79024,2,0,L|29:169,1,100,0|8,0:0|0:0,0:0:0:0:
78,88,79569,1,0,1:0:0:0:
157,148,79842,1,8,0:0:0:0:
238,90,80115,6,0,P|296:71|389:90,1,150,14|12,0:0|0:0,0:0:0:0:
476,202,80933,2,0,L|461:359,1,150,12|12,0:0|0:0,0:0:0:0:
331,277,81751,1,12,0:0:0:0:
257,344,82024,1,10,0:0:0:0:
186,272,82297,6,0,P|135:263|72:274,1,100,6|8,1:2|0:0,0:0:0:0:
6,327,82842,1,8,0:0:0:0:
0,227,83115,1,8,0:0:0:0:
77,163,83388,2,0,L|86:46,1,100,8|8,0:0|0:0,0:0:0:0:
181,89,83933,2,0,L|190:206,1,100,8|8,0:0|0:0,0:0:0:0:
237,276,84479,5,8,0:0:0:0:
313,211,84752,1,8,0:0:0:0:
400,259,85024,2,0,L|504:253,1,100,8|8,0:0|0:0,0:0:0:0:
495,155,85569,2,0,L|391:161,1,100,8|8,0:0|0:0,0:0:0:0:
313,211,86115,1,8,0:0:0:0:
236,146,86388,1,10,0:0:0:0:
182,230,86661,6,0,P|133:219|70:223,1,100,10|8,1:2|1:2,0:0:0:0:
3,160,87206,2,0,L|6:53,1,100,10|8,1:2|1:2,0:0:0:0:
97,20,87751,2,0,L|95:127,1,100,10|10,1:2|1:2,0:0:0:0:
83,220,88297,1,8,1:2:0:0:
176,185,88570,1,10,1:2:0:0:
230,268,88843,5,6,1:2:0:0:
389,100,91024,6,0,L|277:89,1,110.000003356934,6|8,1:2|0:0,0:0:0:0:
181,39,91569,2,0,L|69:50,1,110.000003356934,0|8,1:0|0:0,0:0:0:0:
18,66,91979,2,0,P|41:119|25:170,1,110.000003356934,2|0,1:0|1:0,0:0:0:0:
0,215,92387,1,8,0:0:0:0:
23,322,92661,1,0,1:0:0:0:
114,261,92933,1,8,0:0:0:0:
195,335,93206,6,0,L|312:341,1,110.000003356934,2|8,1:0|0:0,0:0:0:0:
401,285,93752,2,0,P|386:232|409:166,1,110.000003356934,0|8,1:0|0:0,0:0:0:0:
423,130,94161,2,0,L|313:126,1,110.000003356934,2|0,1:0|1:0,0:0:0:0:
258,128,94569,1,8,0:0:0:0:
187,43,94842,2,0,L|53:47,1,110.000003356934,0|8,1:0|0:0,0:0:0:0:
16,138,95388,6,0,P|4:206|39:256,1,110.000003356934,2|8,1:2|0:0,0:0:0:0:
116,295,95933,2,0,B|244:293,1,110.000003356934,0|8,1:0|0:0,0:0:0:0:
281,293,96343,2,0,P|330:316|384:310,1,110.000003356934,2|0,1:0|1:0,0:0:0:0:
434,287,96751,1,8,0:0:0:0:
342,225,97024,1,0,1:0:0:0:
444,184,97297,1,8,0:0:0:0:
365,121,97570,6,0,L|371:4,1,100,14|0,0:3|0:0,0:0:0:0:
273,47,98115,2,0,L|279:164,1,100,14|0,0:3|0:0,0:0:0:0:
342,225,98661,2,0,P|283:244|234:234,1,100,14|14,0:3|0:3,0:0:0:0:
154,198,99206,2,0,L|90:196,1,50,10|10,0:0|0:0,0:0:0:0:
9,253,99615,6,0,P|-8:201|4:148,1,110.000003356934,6|0,1:2|1:0,0:0:0:0:
30,100,100023,1,8,0:0:0:0:
139,114,100297,2,0,L|264:122,1,110.000003356934,0|8,1:0|0:0,0:0:0:0:
298,145,100706,2,0,L|407:137,1,110.000003356934,2|0,1:0|1:0,0:0:0:0:
462,131,101114,1,8,0:0:0:0:
511,230,101388,1,0,1:0:0:0:
434,308,101660,1,8,0:0:0:0:
330,271,101933,6,0,P|269:258|206:278,1,110.000003356934,0|8,0:0|0:0,0:0:0:0:
143,344,102479,2,0,P|80:358|23:343,1,110.000003356934,0|8,1:0|0:0,0:0:0:0:
1,306,102888,2,0,L|0:196,1,110.000003356934,2|0,1:0|1:0,0:0:0:0:
1,141,103296,1,8,0:0:0:0:
93,81,103570,2,0,B|151:96|150:64|213:84,1,110.000003356934,0|8,1:0|0:0,0:0:0:0:
297,135,104115,6,0,L|416:133,1,110.000003356934,0|10,0:0|0:0,0:0:0:0:
503,82,104660,2,0,P|524:138|506:196,1,110.000003356934,0|8,1:0|0:0,0:0:0:0:
486,234,105070,2,0,L|499:343,1,110.000003356934,2|0,1:0|1:0,0:0:0:0:
461,383,105479,1,8,0:0:0:0:
372,318,105751,1,0,1:0:0:0:
273,367,106024,1,8,0:0:0:0:
179,331,106297,6,0,P|129:320|74:326,1,100,6|0,1:3|0:0,0:0:0:0:
20,244,106842,2,0,L|20:125,1,100,6|0,1:3|0:0,0:0:0:0:
96,79,107388,2,0,P|146:90|201:84,1,100,14|14,1:3|1:3,0:0:0:0:
288,56,107933,2,0,L|353:63,1,50,8|8,0:0|0:0,0:0:0:0:
445,85,108342,6,0,P|432:137|446:194,1,110.000003356934,6|0,1:2|1:0,0:0:0:0:
468,240,108751,1,8,0:0:0:0:
380,306,109025,2,0,P|324:291|255:314,1,110.000003356934,0|8,1:0|0:0,0:0:0:0:
230,335,109434,2,0,B|120:330,1,110.000003356934,2|0,1:0|1:0,0:0:0:0:
65,330,109842,1,8,0:0:0:0:
4,237,110116,1,0,1:0:0:0:
113,225,110388,1,8,0:0:0:0:
47,136,110661,6,0,P|30:74|54:12,1,110.000003356934,2|8,0:0|0:0,0:0:0:0:
140,80,111207,2,0,B|198:97|198:64|252:83,1,110.000003356934,0|8,1:0|0:0,0:0:0:0:
302,92,111616,2,0,L|292:201,1,110.000003356934,2|0,1:0|1:0,0:0:0:0:
281,255,112024,1,8,0:0:0:0:
172,275,112297,2,0,L|183:401,1,110.000003356934,0|8,1:0|0:0,0:0:0:0:
291,376,112843,6,0,P|342:358|414:372,1,110.000003356934,2|8,0:0|0:0,0:0:0:0:
481,293,113388,2,0,B|480:161,1,110.000003356934,0|8,1:0|0:0,0:0:0:0:
478,127,113798,2,0,P|426:143|373:129,1,110.000003356934,2|0,1:0|0:0,0:0:0:0:
323,107,114206,1,8,0:0:0:0:
261,15,114479,1,0,1:0:0:0:
201,107,114752,1,8,0:0:0:0:
134,32,115025,6,0,L|29:27,1,100,14|8,0:0|1:3,0:0:0:0:
8,123,115569,2,0,L|113:118,1,100,14|8,0:0|1:3,0:0:0:0:
166,200,116116,2,0,P|153:251|166:303,1,100,14|14,0:0|0:0,0:0:0:0:
252,341,116661,2,0,L|317:337,1,50,14|2,0:0|1:0,0:0:0:0:
409,363,117070,6,0,P|424:310|405:253,1,110.000003356934,6|0,1:2|1:0,0:0:0:0:
386,208,117478,1,10,0:0:0:0:
321,118,117752,2,0,P|266:138|199:120,1,110.000003356934,0|10,1:0|0:0,0:0:0:0:
169,99,118161,2,0,P|118:79|64:87,1,110.000003356934,2|0,1:3|1:0,0:0:0:0:
22,121,118569,1,10,0:0:0:0:
109,187,118842,1,0,1:0:0:0:
8,232,119115,1,10,0:0:0:0:
95,298,119388,6,0,P|150:312|215:295,1,110.000003356934,2|10,1:3|0:0,0:0:0:0:
302,259,119933,2,0,L|422:262,1,110.000003356934,0|10,1:0|0:0,0:0:0:0:
467,260,120343,2,0,P|445:210|454:156,1,110.000003356934,2|0,1:3|1:0,0:0:0:0:
479,108,120751,1,10,0:0:0:0:
391,40,121025,2,0,L|278:41,1,110.000003356934,0|10,1:0|0:0,0:0:0:0:
261,149,121570,6,0,L|151:144,1,110.000003356934,2|10,1:3|0:0,0:0:0:0:
127,36,122115,2,0,L|17:41,1,110.000003356934,0|10,1:0|0:0,0:0:0:0:
1,94,122525,2,0,P|24:143|15:202,1,110.000003356934,2|0,1:3|1:0,0:0:0:0:
1,249,122933,1,10,0:0:0:0:
35,353,123206,1,0,1:0:0:0:
118,283,123479,1,8,0:0:0:0:
179,361,123752,6,0,L|284:366,1,100,14|0,1:3|0:0,0:0:0:0:
325,277,124297,2,0,L|430:272,1,100,14|0,1:3|0:0,0:0:0:0:
508,328,124843,2,0,P|521:277|508:225,1,100,14|14,1:3|1:3,0:0:0:0:
434,167,125388,2,0,P|432:131|438:104,1,50,10|10,0:0|0:0,0:0:0:0:
456,19,125797,1,6,1:2:0:0:
135,198,129206,6,0,P|105:249|136:345,2,150,6|6|10,1:2|1:2|0:0,0:0:0:0:
203,270,130297,2,0,L|306:275,1,100,6|0,1:2|0:0,0:0:0:0:
386,219,130842,2,0,L|489:214,1,100,8|0,1:2|0:0,0:0:0:0:
467,114,131388,6,0,L|265:106,1,200,6|8,1:3|1:2,0:0:0:0:
183,50,132206,1,0,0:0:0:0:
88,82,132479,2,0,P|82:139|96:190,1,100,6|0,1:3|0:0,0:0:0:0:
180,225,133024,2,0,P|186:282|172:333,1,100,8|0,1:2|0:0,0:0:0:0:
88,370,133569,6,0,B|161:352|162:398|244:375,2,150,6|2|2,1:3|1:3|1:3,0:0:0:0:
24,292,134660,2,0,L|30:171,1,100,6|0,1:2|0:0,0:0:0:0:
116,143,135206,2,0,L|111:242,1,100,8|0,1:2|0:0,0:0:0:0:
196,295,135751,6,0,P|281:224|366:240,1,200,6|8,1:3|1:2,0:0:0:0:
449,287,136569,1,0,0:0:0:0:
497,199,136842,2,0,L|498:95,1,100,6|0,1:3|0:0,0:0:0:0:
409,51,137388,2,0,L|410:155,1,100,8|0,1:2|0:3,0:0:0:0:
330,211,137933,6,0,P|249:184|181:208,2,150,6|6|10,1:2|1:2|0:0,0:0:0:0:
258,280,139024,1,6,1:2:0:0:
114,58,140115,5,14,0:3:0:0:
75,335,141206,1,6,1:3:0:0:
455,211,142297,6,0,L|465:52,2,150,14|6|6,0:3|1:3|1:3,0:0:0:0:
367,161,143388,1,6,1:2:0:0:
50,332,144479,5,14,0:3:0:0:
376,101,145569,1,6,1:3:0:0:
51,179,146660,6,0,L|61:20,2,150,14|6|10,0:3|1:3|1:3,0:0:0:0:
75,222,147615,1,2,0:0:0:0:
