osu file format v14

[General]
AudioFilename: audio.mp3
AudioLeadIn: 0
PreviewTime: 38301
Countdown: 0
SampleSet: Soft
StackLeniency: 0.2
Mode: 0
LetterboxInBreaks: 0
EpilepsyWarning: 1
WidescreenStoryboard: 1

[Editor]
Bookmarks: 12461,21188,29915,38642,47233,55961,64824,73551,82279,91006,99597,108324,117051,125779,130279,139006,148824
DistanceSpacing: 0.5
BeatDivisor: 4
GridSize: 4
TimelineZoom: 2.999999

[Metadata]
Title:Kick Me
TitleUnicode:Kick Me
Artist:Sleeping With Sirens
ArtistUnicode:Sleeping With Sirens
Creator:fieryrage
Version:Loli's Extreme
Source:
Tags:sws madness english metal punk rock post-hardcore ailv kyshiro elsa valentine xlolicore- pishifat bergy dashyy- ayyri eiri- craezy hypercyte underdogs stingy peter petereu
BeatmapID:2171676
BeatmapSetID:1038902

[Difficulty]
HPDrainRate:5
CircleSize:4.7
OverallDifficulty:9
ApproachRate:9.5
SliderMultiplier:1.8
SliderTickRate:1

[Events]
//Background and Video events
0,0,"asdfasd.png",0,0
//Break Periods
2,125997,127590
//Storyboard Layer 0 (Background)
//Storyboard Layer 1 (Fail)
//Storyboard Layer 2 (Pass)
//Storyboard Layer 3 (Foreground)
//Storyboard Layer 4 (Overlay)
//Storyboard Sound Samples

[TimingPoints]
479,272.727272727273,4,2,0,5,1,0
3751,-142.857142857143,4,2,0,15,0,0
5660,-200,4,2,0,15,0,0
5865,-200,4,2,0,5,0,0
5933,-142.857142857143,4,2,0,15,0,0
7842,-200,4,2,0,15,0,0
8047,-200,4,2,0,5,0,0
8115,-142.857142857143,4,2,0,15,0,0
8660,-125,4,2,0,15,0,0
8865,-125,4,2,0,5,0,0
8933,-125,4,2,0,15,0,0
10433,-125,4,2,0,10,0,0
10842,-125,4,2,0,15,0,0
12342,-125,4,2,0,5,0,0
12479,-100,4,2,5,50,0,0
13569,-100,4,2,5,40,0,0
13774,-100,4,2,5,5,0,0
13842,-100,4,2,5,40,0,0
14660,-100,4,2,5,50,0,0
15751,-100,4,2,5,40,0,0
15956,-100,4,2,5,5,0,0
16024,-100,4,2,5,40,0,0
16842,-100,4,2,5,50,0,0
17933,-100,4,2,5,40,0,0
19024,-100,4,2,5,60,0,0
21206,-100,4,2,5,60,0,0
21410,-100,4,2,5,5,0,0
21479,-100,4,2,5,60,0,0
21819,-100,4,2,5,5,0,0
21888,-100,4,2,5,60,0,0
22297,-100,4,2,5,50,0,0
22774,-100,4,2,5,5,0,0
22842,-100,4,2,5,50,0,0
23047,-100,4,2,5,5,0,0
23115,-100,4,2,5,50,0,0
23388,-100,4,2,5,60,0,0
23592,-100,4,2,5,5,0,0
23660,-100,4,2,5,60,0,0
24001,-100,4,2,5,5,0,0
24069,-100,4,2,5,60,0,0
24479,-100,4,2,5,50,0,0
24683,-100,4,2,5,5,0,0
24751,-100,4,2,5,50,0,0
24956,-100,4,2,5,5,0,0
25024,-100,4,2,5,50,0,0
25501,-100,4,2,5,5,0,0
25569,-100,4,2,5,60,0,0
25774,-100,4,2,5,5,0,0
25842,-100,4,2,5,60,0,0
26183,-100,4,2,5,5,0,0
26251,-100,4,2,5,60,0,0
26660,-100,4,2,5,50,0,0
26865,-100,4,2,5,5,0,0
26933,-100,4,2,5,50,0,0
27751,-100,4,2,5,60,0,0
29933,-125,4,2,5,55,0,0
30206,-125,4,2,5,30,0,0
31024,-125,4,2,5,35,0,0
31229,-125,4,2,5,5,0,0
31297,-125,4,2,5,35,0,0
31569,-125,4,2,5,38,0,0
32115,-125,4,2,5,40,0,0
32660,-125,4,2,5,43,0,0
33206,-125,4,2,5,45,0,0
33479,-125,4,2,5,48,0,0
33751,-125,4,2,5,50,0,0
34229,-125,4,2,5,5,0,0
34297,-125,4,2,5,50,0,0
34433,-125,4,2,5,40,0,0
34842,-125,4,2,5,55,0,0
34979,-125,4,2,5,40,0,0
35388,-125,4,2,5,60,0,0
35524,-125,4,2,5,45,0,0
35660,-125,4,2,5,50,0,0
35933,-125,4,2,5,55,0,0
36206,-125,4,2,5,60,0,0
36479,-200,4,2,5,60,0,0
36547,-200,4,2,5,45,0,0
36888,-200,4,2,5,45,0,0
37024,-200,4,2,5,35,0,0
37842,-333.333333333333,4,2,5,35,0,0
37910,-333.333333333333,4,2,5,5,0,0
38388,-333.333333333333,4,2,5,60,0,0
38660,-83.3333333333333,4,2,5,70,0,1
40910,-83.3333333333333,4,2,5,5,0,1
40979,-83.3333333333333,4,2,5,70,0,1
43229,-83.3333333333333,4,2,5,5,0,1
43297,-83.3333333333333,4,2,5,70,0,1
45206,-90.9090909090909,4,2,5,70,0,1
45410,-90.9090909090909,4,2,5,5,0,1
45479,-90.9090909090909,4,2,5,60,0,1
45751,-90.9090909090909,4,2,5,70,0,1
45956,-90.9090909090909,4,2,5,5,0,1
46024,-90.9090909090909,4,2,5,60,0,1
46297,-83.3333333333333,4,2,5,65,0,1
47251,-83.3333333333333,4,2,5,70,0,1
48547,-83.3333333333333,4,2,5,5,0,1
48615,-83.3333333333333,4,2,5,70,0,1
50319,-83.3333333333333,4,2,5,5,0,1
50388,-83.3333333333333,4,2,5,70,0,1
51819,-83.3333333333333,4,2,5,5,0,1
51888,-83.3333333333333,4,2,5,70,0,1
53933,-90.9090909090909,4,2,5,70,0,1
54138,-90.9090909090909,4,2,5,5,0,1
54206,-90.9090909090909,4,2,5,60,0,1
54479,-90.9090909090909,4,2,5,70,0,1
54683,-90.9090909090909,4,2,5,5,0,1
54751,-90.9090909090909,4,2,5,60,0,1
55024,-83.3333333333333,4,2,5,70,0,1
55979,-111.111111111111,4,2,5,65,0,0
56047,-111.111111111111,4,2,5,55,0,0
56388,-125,4,2,5,55,0,0
56592,-125,4,2,5,5,0,0
56660,-125,4,2,5,55,0,0
57069,-111.111111111111,4,2,5,55,0,0
57479,-125,4,2,5,55,0,0
58297,-111.111111111111,4,2,5,55,0,0
58501,-111.111111111111,4,2,5,5,0,0
58569,-125,4,2,5,55,0,0
59388,-99.9999999999999,4,2,5,60,0,0
60479,-111.111111111111,4,2,5,55,0,0
60888,-125,4,2,5,55,0,0
61433,-111.111111111111,4,2,5,55,0,0
61569,-111.111111111111,4,2,5,60,0,0
61638,-111.111111111111,4,2,5,5,0,0
61706,-125,4,2,5,60,0,0
62660,-111.111111111111,4,2,5,60,0,0
62865,-111.111111111111,4,2,5,5,0,0
62933,-125,4,2,5,60,0,0
63751,-100,4,2,5,60,0,0
63819,-100,4,2,5,5,0,0
64160,-90.9090909090909,4,2,5,65,0,0
64229,-90.9090909090909,4,2,5,5,0,0
64569,-111.111111111111,4,2,5,60,0,0
64638,-111.111111111111,4,2,5,5,0,0
64842,-99.9999999999999,4,2,5,55,0,0
64979,-99.9999999999999,4,2,5,50,0,0
65047,-99.9999999999999,4,2,5,5,0,0
65115,-99.9999999999999,4,2,5,50,0,0
65456,-99.9999999999999,4,2,5,5,0,0
65524,-99.9999999999999,4,2,5,50,0,0
66206,-99.9999999999999,4,2,5,50,0,0
66479,-99.9999999999999,4,2,5,50,0,0
67229,-99.9999999999999,4,2,5,5,0,0
67297,-99.9999999999999,4,2,5,50,0,0
67638,-99.9999999999999,4,2,5,5,0,0
67706,-99.9999999999999,4,2,5,50,0,0
69410,-99.9999999999999,4,2,5,5,0,0
69479,-99.9999999999999,4,2,5,50,0,0
69819,-99.9999999999999,4,2,5,5,0,0
69888,-99.9999999999999,4,2,5,50,0,0
71456,-99.9999999999999,4,2,5,5,0,0
72479,-99.9999999999999,4,2,5,50,0,0
73092,-99.9999999999999,4,2,5,5,0,0
73297,-90.9090909090909,4,2,5,40,0,0
73365,-90.9090909090909,4,2,5,35,0,0
73433,-90.9090909090909,4,2,5,40,0,0
73501,-90.9090909090909,4,2,5,50,0,0
73569,-95.2380952380952,4,2,5,60,0,0
74660,-111.111111111111,4,2,5,60,0,0
74865,-111.111111111111,4,2,5,5,0,0
74933,-111.111111111111,4,2,5,60,0,0
75206,-111.111111111111,4,2,5,58,0,0
75410,-111.111111111111,4,2,5,5,0,0
75479,-95.2380952380952,4,2,5,58,0,0
76160,-95.2380952380952,4,2,5,55,0,0
76842,-111.111111111111,4,2,5,52,0,0
77933,-95.2380952380952,4,2,5,52,0,0
79024,-111.111111111111,4,2,5,52,0,0
79229,-111.111111111111,4,2,5,5,0,0
79297,-111.111111111111,4,2,5,52,0,0
80115,-95.2380952380952,4,2,5,60,0,0
82297,-125,4,2,5,60,0,0
82569,-125,4,2,5,32,0,0
82842,-125,4,2,5,35,0,0
83388,-125,4,2,5,38,0,0
83592,-125,4,2,5,5,0,0
83660,-125,4,2,5,38,0,0
83933,-125,4,2,5,40,0,0
84479,-125,4,2,5,42,0,0
85024,-125,4,2,5,45,0,0
85569,-125,4,2,5,50,0,0
85842,-125,4,2,5,40,0,0
85979,-125,4,2,5,50,0,0
86592,-125,4,2,5,5,0,0
86660,-125,4,2,5,55,0,0
86797,-125,4,2,5,40,0,0
87206,-125,4,2,5,55,0,0
87342,-125,4,2,5,40,0,0
87751,-125,4,2,5,60,0,0
87888,-125,4,2,5,40,0,0
88024,-125,4,2,5,50,0,0
88297,-125,4,2,5,55,0,0
88569,-125,4,2,5,60,0,0
88842,-200,4,2,5,65,0,0
88910,-200,4,2,5,50,0,0
88979,-200,4,2,5,50,0,0
89388,-200,4,2,5,40,0,0
90751,-200,4,2,5,65,0,0
90956,-200,4,2,5,5,0,0
91024,-83.3333333333333,4,2,5,70,0,1
93274,-83.3333333333333,4,2,5,5,0,1
93342,-83.3333333333333,4,2,5,70,0,1
95592,-83.3333333333333,4,2,5,5,0,1
95660,-83.3333333333333,4,2,5,70,0,1
97569,-90.9090909090909,4,2,5,75,0,1
97774,-90.9090909090909,4,2,5,5,0,1
97842,-90.9090909090909,4,2,5,60,0,1
98115,-90.9090909090909,4,2,5,75,0,1
98319,-90.9090909090909,4,2,5,5,0,1
98388,-90.9090909090909,4,2,5,60,0,1
98660,-90.9090909090909,4,2,5,75,0,1
99615,-83.3333333333333,4,2,5,75,0,1
99751,-83.3333333333333,4,2,5,70,0,1
100910,-83.3333333333333,4,2,5,5,0,1
100979,-83.3333333333333,4,2,5,70,0,1
102683,-83.3333333333333,4,2,5,5,0,1
102751,-83.3333333333333,4,2,5,70,0,1
104183,-83.3333333333333,4,2,5,5,0,1
104251,-83.3333333333333,4,2,5,70,0,1
106297,-90.9090909090909,4,2,5,75,0,1
106501,-90.9090909090909,4,2,5,5,0,1
106569,-90.9090909090909,4,2,5,60,0,1
106842,-90.9090909090909,4,2,5,75,0,1
107047,-90.9090909090909,4,2,5,5,0,1
107115,-90.9090909090909,4,2,5,60,0,1
107388,-83.3333333333333,4,2,5,75,0,1
108342,-83.3333333333333,4,2,5,75,0,0
108956,-83.3333333333333,4,2,5,5,0,0
109024,-83.3333333333333,4,2,5,75,0,0
112229,-83.3333333333333,4,2,5,5,0,0
112297,-83.3333333333333,4,2,5,75,0,0
113047,-83.3333333333333,4,2,5,5,0,0
113115,-83.3333333333333,4,2,5,75,0,0
114001,-83.3333333333333,4,2,5,5,0,0
114069,-83.3333333333333,4,2,5,75,0,0
115024,-90.9090909090909,4,2,5,75,0,0
115297,-90.9090909090909,4,2,5,60,0,0
115433,-90.9090909090909,4,2,5,50,0,0
115569,-90.9090909090909,4,2,5,75,0,0
115842,-90.9090909090909,4,2,5,60,0,0
115979,-90.9090909090909,4,2,5,50,0,0
116115,-83.3333333333333,4,2,5,75,0,0
117683,-83.3333333333333,4,2,5,5,0,0
117751,-83.3333333333333,4,2,5,75,0,0
123751,-90.9090909090909,4,2,5,75,0,0
124842,-83.3333333333333,4,2,5,75,0,0
125388,-83.3333333333333,4,2,5,70,0,0
125797,-166.666666666667,4,2,5,70,0,0
128115,-166.666666666667,4,2,5,35,0,0
128933,-166.666666666667,4,2,5,5,0,0
129206,-100,4,2,5,70,0,0
129274,-100,4,2,5,5,0,0
129615,-90.9090909090909,4,2,5,70,0,0
129683,-90.9090909090909,4,2,5,5,0,0
130024,-83.3333333333333,4,2,5,70,0,0
130092,-83.3333333333333,4,2,5,5,0,0
130229,-83.3333333333333,4,2,5,5,0,0
130297,-125,4,2,5,60,0,0
130365,-125,4,2,5,55,0,0
130501,-125,4,2,5,5,0,0
130569,-125,4,2,5,55,0,0
131865,-125,4,2,5,5,0,0
131933,-125,4,2,5,55,0,0
132683,-125,4,2,5,5,0,0
132751,-125,4,2,5,55,0,0
133229,-125,4,2,5,5,0,0
133297,-125,4,2,5,55,0,0
133569,-100,4,2,5,60,0,0
134660,-125,4,2,5,60,0,0
134865,-125,4,2,5,5,0,0
134933,-125,4,2,5,60,0,0
136229,-125,4,2,5,5,0,0
136297,-125,4,2,5,60,0,0
137047,-125,4,2,5,5,0,0
137115,-125,4,2,5,60,0,0
137592,-125,4,2,5,5,0,0
137660,-125,4,2,5,60,0,0
137933,-100,4,2,5,60,0,0
139024,-142.857142857143,4,2,5,70,0,0
142297,-111.111111111111,4,2,5,70,0,0
143388,-142.857142857143,4,2,5,70,0,0
146660,-111.111111111111,4,2,5,70,0,0
147751,-111.111111111111,4,2,5,45,0,0
147768,-111.111111111111,4,2,5,5,0,0
148842,-111.111111111111,4,2,5,25,0,0

[Colours]
Combo1 : 136,136,136
Combo2 : 82,109,90
Combo3 : 196,148,140
Combo4 : 146,192,194

[HitObjects]
325,333,3751,6,0,P|358:279|434:279,1,125.999996154785,2|2,0:0|0:0,0:0:0:0:
462,336,4297,1,10,0:0:0:0:
416,271,4433,1,0,0:0:0:0:
452,199,4569,1,0,0:0:0:0:
324,50,4706,6,0,P|354:102|415:112,1,125.999996154785,10|8,0:0|0:0,0:0:0:0:
458,34,5115,2,0,L|396:40,1,62.9999980773926,2|0,0:0|0:0,0:0:0:0:
250,58,5388,1,8,0:0:0:0:
324,50,5524,1,8,0:0:0:0:
176,68,5660,6,0,L|94:62,1,67.5
44,32,5933,6,0,B|68:72|68:72|59:167,1,125.999996154785,2|2,0:0|0:0,0:0:0:0:
50,228,6479,1,10,0:0:0:0:
60,150,6615,1,0,0:0:0:0:
122,197,6751,1,0,0:0:0:0:
32,338,6888,6,0,B|72:314|72:314|167:323,1,125.999996154785,10|8,0:0|0:0,0:0:0:0:
237,362,7297,2,0,L|243:283,1,62.9999980773926,2|0,0:0|0:0,0:0:0:0:
248,221,7569,1,8,0:0:0:0:
248,221,7706,1,8,0:0:0:0:
325,333,7842,6,0,P|357:341|389:332,1,67.5
455,263,8115,6,0,P|404:232|356:267,1,125.999996154785,2|2,0:0|0:0,0:0:0:0:
355,267,8660,6,0,P|379:213|354:151,1,108,10|0,0:0|0:0,0:0:0:0:
359,155,8933,1,0,0:0:0:0:
387,67,9069,6,0,L|472:75,1,72,10|0,0:0|0:0,0:0:0:0:
511,22,9342,1,8,0:0:0:0:
387,67,9479,6,0,L|315:60,1,72,2|0,0:0|0:0,0:0:0:0:
239,51,9751,1,8,0:0:0:0:
239,51,9888,1,8,0:0:0:0:
194,116,10024,1,0,0:0:0:0:
315,60,10160,1,8,0:0:0:0:
161,42,10297,5,2,0:0:0:0:
256,192,10365,12,0,12342,0:0:0:0:
307,337,12479,6,0,L|405:328,1,90,2|0,1:0|0:0,0:0:0:0:
470,323,12751,1,0,1:0:0:0:
382,254,12888,2,0,P|368:203|383:163,1,90,2|0,0:3|1:0,0:0:0:0:
433,110,13160,1,0,0:0:0:0:
322,26,13297,2,0,L|215:36,1,90,2|0,1:0|0:0,0:0:0:0:
59,60,13569,6,0,P|77:109|156:127,1,135,0|0,1:0|0:0,0:0:0:0:
168,122,13842,1,0,1:0:0:0:
65,236,13979,2,0,P|102:212|154:212,1,90,0|0,0:0|1:0,0:0:0:0:
227,233,14251,2,0,P|270:257|287:306,1,90,0|0,0:0|1:0,0:0:0:0:
262,363,14524,1,0,0:0:0:0:
124,316,14660,6,0,L|223:306,1,90,2|0,1:0|0:0,0:0:0:0:
262,363,14933,1,0,1:0:0:0:
343,241,15069,2,0,P|360:285|346:338,1,90,2|0,0:3|1:0,0:0:0:0:
286,292,15342,1,0,0:0:0:0:
456,362,15479,2,0,B|443:322|443:322|452:270,1,90,2|0,1:0|0:0,0:0:0:0:
507,120,15751,6,0,P|481:179|418:196,1,135,0|0,1:0|0:0,0:0:0:0:
412,178,16024,2,0,P|370:153|298:162,1,90,0|0,1:0|0:0,0:0:0:0:
276,203,16297,1,0,1:0:0:0:
409,69,16433,2,0,L|300:77,1,90,0|0,0:0|1:0,0:0:0:0:
243,82,16706,1,0,0:0:0:0:
146,210,16842,6,0,B|157:167|157:167|147:123,1,90,2|0,1:0|0:0,0:0:0:0:
121,53,17115,1,0,1:0:0:0:
56,202,17251,2,0,L|154:210,1,90,2|0,0:3|1:0,0:0:0:0:
219,219,17524,1,0,0:0:0:0:
122,367,17660,1,2,1:0:0:0:
122,367,17797,2,0,B|110:324|110:324|120:280,1,90,0|0,0:0|1:0,0:0:0:0:
270,164,18069,6,0,P|292:206|271:278,1,90,0|0,0:0|1:0,0:0:0:0:
351,354,18342,2,0,P|376:313|449:296,1,90,0|0,0:0|1:0,0:0:0:0:
474,195,18615,2,0,P|426:193|374:138,1,90,0|0,0:0|1:0,0:0:0:0:
334,120,18888,1,0,1:0:0:0:
444,32,19024,6,0,L|451:122,1,90,14|0,0:0|1:0,0:0:0:0:
392,169,19297,1,0,1:0:0:0:
495,320,19433,6,0,P|457:296|413:295,1,90,12|0,0:0|1:0,0:0:0:0:
351,354,19706,1,0,1:0:0:0:
219,219,19842,6,0,B|228:262|228:262|219:306,1,90,12|0,0:0|1:0,0:0:0:0:
183,372,20115,1,2,1:0:0:0:
60,366,20251,5,14,0:0:0:0:
293,309,20388,1,0,1:0:0:0:
106,192,20524,1,0,1:0:0:0:
219,307,20660,5,14,0:0:0:0:
121,53,20797,1,0,1:0:0:0:
135,278,20933,5,10,0:0:0:0:
278,15,21069,1,0,1:0:0:0:
474,195,21206,6,0,B|390:181|431:242|326:224,1,135,6|0,1:2|0:0,0:0:0:0:
362,153,21479,1,8,0:0:0:0:
403,356,21615,6,0,P|358:308|268:325,1,135,2|0,1:0|0:0,0:0:0:0:
219,307,21888,1,0,1:0:0:0:
94,353,22024,2,0,P|124:320|134:277,1,90,10|0,0:0|0:0,0:0:0:0:
60,285,22297,6,0,L|52:195,1,90,0|0,0:0|0:0,0:0:0:0:
48,47,22569,2,0,P|68:104|166:109,1,135,8|0,0:0|0:0,0:0:0:0:
120,52,22842,6,0,L|259:45,1,135,0|0,0:0|0:0,0:0:0:0:
323,15,23115,1,8,0:0:0:0:
268,117,23251,1,0,0:0:0:0:
470,139,23388,6,0,B|426:134|426:134|397:111|397:111|327:104,1,135,2|0,1:0|0:0,0:0:0:0:
268,117,23660,1,8,0:0:0:0:
152,241,23797,6,0,P|171:178|114:116,1,135,2|0,1:0|0:0,0:0:0:0:
101,188,24069,1,0,1:0:0:0:
173,314,24206,2,0,P|229:293|266:299,1,90,10|0,0:0|0:0,0:0:0:0:
361,349,24479,6,0,P|419:349|461:277,1,135,0|0,0:0|0:0,0:0:0:0:
389,281,24751,2,0,P|375:225|392:145,1,135,8|0,0:0|0:0,0:0:0:0:
435,89,25024,6,0,P|483:91|521:66,1,90,0|0,1:0|1:0,0:0:0:0:
286,28,25297,2,0,P|312:89|311:156,1,135,8|0,0:0|0:0,0:0:0:0:
223,223,25569,6,0,B|144:234|169:168|66:192,1,135,2|0,1:0|0:0,0:0:0:0:
108,261,25842,1,8,0:0:0:0:
287,337,25979,6,0,P|323:283|388:280,1,135,2|0,1:0|0:0,0:0:0:0:
359,346,26251,1,0,1:0:0:0:
453,245,26388,2,0,P|463:288|494:320,1,90,10|0,0:0|0:0,0:0:0:0:
499,94,26660,6,0,P|480:156|419:178,1,135,0|0,0:0|0:0,0:0:0:0:
427,105,26933,1,8,0:0:0:0:
388,280,27069,6,0,L|299:274,1,90,0|0,0:0|1:0,0:0:0:0:
180,357,27342,2,0,B|190:313|190:313|181:269,1,90,0|8,1:0|0:0,0:0:0:0:
152,197,27615,1,0,1:0:0:0:
47,44,27751,6,0,L|151:51,1,90,14|0,0:0|1:0,0:0:0:0:
215,60,28024,1,0,1:0:0:0:
95,249,28160,6,0,P|75:200|89:151,1,90,12|0,0:0|1:0,0:0:0:0:
152,197,28433,1,0,1:0:0:0:
20,359,28569,6,0,P|64:342|118:344,1,90,12|0,0:0|1:0,0:0:0:0:
180,357,28842,1,2,1:0:0:0:
4,266,28979,5,12,0:0:0:0:
152,197,29115,1,0,1:0:0:0:
47,44,29251,1,0,1:0:0:0:
81,164,29388,5,12,0:0:0:0:
244,0,29524,1,0,1:0:0:0:
201,259,29660,5,10,0:0:0:0:
146,23,29797,1,0,1:0:0:0:
359,202,29933,6,0,P|298:167|231:185,1,144,6|10,1:2|0:3,0:0:0:0:
201,259,30342,1,8,0:3:0:0:
338,351,30479,2,0,L|347:280,1,72,10|8,0:0|0:3,0:0:0:0:
434,178,30751,2,0,P|436:217|456:255,1,72,10|8,0:0|0:3,0:0:0:0:
508,365,31024,6,0,P|459:332|406:340,1,108,10|0,0:0|0:0,0:0:0:0:
338,351,31297,2,0,L|263:349,1,72,10|8,0:0|0:3,0:0:0:0:
201,259,31569,1,10,0:0:0:0:
266,349,31706,1,8,0:3:0:0:
132,347,31842,1,10,0:0:0:0:
275,245,31979,6,0,P|244:198|154:200,1,144,8|8,0:3|0:3,0:0:0:0:
66,285,32388,2,0,P|84:254|89:219,1,72,10|8,0:0|0:3,0:0:0:0:
42,124,32660,1,10,0:0:0:0:
162,194,32797,1,8,0:3:0:0:
13,226,32933,1,10,0:0:0:0:
13,226,33069,1,8,0:3:0:0:
131,110,33206,6,0,L|127:12,1,72,10|8,0:0|0:3,0:0:0:0:
162,194,33479,1,10,0:0:0:0:
42,124,33615,1,8,0:3:0:0:
208,16,33751,6,0,L|210:87,1,72,10|8,0:0|0:3,0:0:0:0:
340,154,34024,2,0,P|370:116|445:111,1,108,10|0,0:0|0:0,0:0:0:0:
410,178,34297,6,0,B|405:264|405:263,1,72,2|8,1:0|0:3,0:0:0:0:
468,355,34569,1,10,1:2:0:0:
326,231,34706,1,8,0:3:0:0:
484,67,34842,6,0,P|460:93|405:104,1,72,2|8,1:0|0:3,0:0:0:0:
264,2,35115,1,10,1:2:0:0:
420,30,35251,1,8,0:3:0:0:
340,154,35388,6,0,P|294:160|270:178,1,72,2|8,1:2|0:3,0:0:0:0:
152,304,35660,5,10,1:2:0:0:
210,87,35797,1,8,0:0:0:0:
229,351,35933,1,10,1:2:0:0:
73,260,36069,1,8,0:0:0:0:
273,174,36206,1,10,1:2:0:0:
152,304,36342,1,8,0:0:0:0:
98,96,36479,6,0,P|91:49|107:-3,1,90,6|0,1:2|0:0,0:0:0:0:
297,103,37024,6,0,P|256:101|206:143,1,90
273,174,37433,1,2,0:0:0:0:
379,31,37842,6,0,P|388:82|388:137,1,94.4999971160889,2|0,0:0|0:0,0:0:0:0:
347,187,38388,1,2,0:0:0:0:
470,279,38660,5,6,1:2:0:0:
303,352,38797,2,0,B|287:301|287:301|303:235,1,107.999996704102,0|8,0:0|0:0,0:0:0:0:
388,124,39069,1,0,0:0:0:0:
262,14,39206,2,0,P|213:53|147:46,1,107.999996704102,0|0,1:0|1:0,0:0:0:0:
101,8,39479,1,8,0:0:0:0:
83,251,39615,6,0,B|204:262|143:161|284:174,1,215.999993408203,2|0,1:0|1:0,0:0:0:0:
353,272,40024,2,0,P|301:258|248:260,1,107.999996704102,8|0,0:0|0:0,0:0:0:0:
104,165,40297,1,0,1:0:0:0:
192,329,40433,1,0,1:0:0:0:
272,173,40569,1,8,0:0:0:0:
55,108,40706,6,0,P|118:92|178:159,1,161.999995056153,0|0,0:0|0:0,0:0:0:0:
104,165,40979,1,0,0:0:0:0:
315,0,41115,2,0,P|300:56|307:111,1,107.999996704102,8|0,0:0|0:0,0:0:0:0:
460,233,41388,1,0,1:0:0:0:
380,90,41524,1,0,1:0:0:0:
272,173,41660,1,8,0:0:0:0:
320,363,41797,6,0,B|356:354|393:358|393:358|429:315|429:315|467:329|514:304,1,215.999993408203,2|0,1:0|1:0,0:0:0:0:
190,222,42206,2,0,P|198:290|188:342,1,107.999996704102,8|0,0:0|0:0,0:0:0:0:
129,371,42479,1,0,1:0:0:0:
0,168,42615,2,0,P|42:180|114:157,1,107.999996704102,0|8,1:0|0:0,0:0:0:0:
267,236,42888,1,0,0:0:0:0:
254,90,43024,6,0,P|205:126|202:247,1,161.999995056153,2|0,1:0|0:0,0:0:0:0:
267,236,43297,1,8,0:0:0:0:
99,59,43433,2,0,P|112:110|102:163,1,107.999996704102,0|0,0:0|1:0,0:0:0:0:
16,312,43706,2,0,L|144:293,1,107.999996704102,0|8,1:0|0:0,0:0:0:0:
15,115,43979,1,2,1:0:0:0:
266,235,44115,6,0,B|389:218|331:320|466:300,1,215.999993408203,0|8,0:0|0:0,0:0:0:0:
292,320,44524,1,0,0:0:0:0:
431,218,44660,5,0,1:0:0:0:
459,301,44797,1,0,1:0:0:0:
484,148,44933,5,8,0:0:0:0:
400,365,45069,1,0,0:0:0:0:
305,105,45206,6,0,P|364:115|418:46,1,148.50000453186,14|0,0:3|0:0,0:0:0:0:
345,43,45479,2,0,P|301:30|246:60,1,99.0000030212403,0|0,0:0|0:0,0:0:0:0:
121,176,45751,6,0,P|180:186|234:117,1,148.50000453186,14|0,0:3|0:0,0:0:0:0:
155,15,46024,2,0,L|161:114,1,99.0000030212403,0|0,0:0|0:0,0:0:0:0:
305,105,46297,6,0,P|351:117|406:86,1,107.999996704102,14|0,0:3|0:0,0:0:0:0:
356,295,46569,2,0,P|297:284|243:315,1,107.999996704102,14|0,0:3|0:0,0:0:0:0:
68,299,46842,5,10,0:0:0:0:
311,358,46979,1,10,0:0:0:0:
254,50,47115,1,8,0:0:0:0:
153,263,47251,6,0,B|224:260|224:260|249:246|249:246|274:255|274:255|375:248,1,215.999993408203,6|0,1:2|0:0,0:0:0:0:
459,301,47660,1,8,0:0:0:0:
395,74,47797,2,0,P|361:104|276:95,1,107.999996704102,0|0,0:0|1:0,0:0:0:0:
254,50,48069,1,0,1:0:0:0:
468,94,48206,1,8,0:0:0:0:
222,215,48342,6,0,P|283:199|367:257,1,161.999995056153,2|0,1:0|0:0,0:0:0:0:
375,323,48615,1,0,1:0:0:0:
151,250,48751,2,0,P|146:194|184:146,1,107.999996704102,8|0,0:0|0:0,0:0:0:0:
300,107,49024,1,0,1:0:0:0:
44,31,49160,2,0,P|72:75|66:128,1,107.999996704102,0|8,1:0|0:0,0:0:0:0:
8,286,49433,6,0,B|55:228|150:249|150:249|113:342,1,215.999993408203,2|0,0:0|0:0,0:0:0:0:
280,382,49842,2,0,B|262:338|262:338|288:258,1,107.999996704102,8|0,0:0|0:0,0:0:0:0:
373,171,50115,2,0,B|498:185|498:185|464:146,1,161.999995056153,0|0,1:0|0:0,0:0:0:0:
421,103,50388,2,0,L|432:-7,1,107.999996704102,8|2,0:0|1:0,0:0:0:0:
446,354,50660,6,0,P|399:280|257:300,1,215.999993408203,0|8,0:0|0:0,0:0:0:0:
107,378,51069,1,0,0:0:0:0:
236,218,51206,1,0,1:0:0:0:
91,77,51342,2,0,B|73:129|73:129|94:189,1,107.999996704102,0|8,1:0|0:0,0:0:0:0:
280,279,51615,6,0,P|304:188|233:142,1,161.999995056153,2|0,0:0|0:0,0:0:0:0:
189,158,51888,1,0,0:0:0:0:
47,15,52024,2,0,P|98:2|146:24,1,107.999996704102,10|0,0:0|0:0,0:0:0:0:
261,147,52297,1,0,1:0:0:0:
152,318,52433,2,0,P|103:339|52:327,1,107.999996704102,0|8,1:0|0:0,0:0:0:0:
236,63,52706,6,0,B|356:44|302:147|445:120,1,215.999993408203,2|0,1:0|1:0,0:0:0:0:
266,254,53115,2,0,P|268:198|259:142,1,107.999996704102,8|0,0:0|0:0,0:0:0:0:
171,40,53388,5,0,1:0:0:0:
395,40,53524,2,0,P|457:39|503:76,1,107.999996704102,0|8,1:0|0:0,0:0:0:0:
414,219,53797,1,2,0:0:0:0:
112,83,53933,6,0,P|177:111|237:72,1,148.50000453186,6|0,1:3|0:0,0:0:0:0:
171,40,54206,2,0,P|128:12|73:21,1,99.0000030212403,0|0,0:0|0:0,0:0:0:0:
290,122,54479,6,0,P|309:68|250:-1,1,148.50000453186,6|0,1:3|0:0,0:0:0:0:
237,71,54751,2,0,P|217:119|228:162,1,99.0000030212403,0|0,0:0|0:0,0:0:0:0:
362,295,55024,6,0,P|312:261|248:272,1,107.999996704102,14|0,1:3|0:3,0:0:0:0:
402,102,55297,2,0,P|455:102|498:71,1,107.999996704102,14|0,1:3|0:3,0:0:0:0:
236,73,55569,5,8,0:0:0:0:
296,334,55706,1,8,0:0:0:0:
433,33,55842,1,8,0:0:0:0:
372,343,55979,6,0,P|342:272|266:263,1,161.999995056153,6|0,1:2|0:0,0:0:0:0:
137,349,56388,6,0,P|160:305|146:243,1,108,0|0,0:0|0:0,0:0:0:0:
90,292,56660,1,8,1:2:0:0:
227,164,56797,2,0,P|191:165|156:156,1,72,0|0,0:0|0:0,0:0:0:0:
28,142,57069,6,0,B|119:148|74:76|185:84,1,161.999995056153,2|0,0:0|0:0,0:0:0:0:
31,0,57479,6,0,P|39:34|41:70,1,72,0|0,0:0|0:0,0:0:0:0:
156,156,57751,1,8,1:2:0:0:
218,26,57888,1,0,0:0:0:0:
171,83,58024,1,0,0:0:0:0:
171,83,58160,1,0,0:0:0:0:
215,201,58297,6,0,P|266:198|291:115,1,121.499996292114,6|0,1:3|0:0,0:0:0:0:
289,123,58569,6,0,L|380:123,1,72,0|0,0:0|0:0,0:0:0:0:
499,12,58842,2,0,P|467:29|432:32,1,72,8|0,1:2|0:0,0:0:0:0:
358,47,59115,1,0,0:3:0:0:
436,109,59251,1,0,0:0:0:0:
374,213,59388,6,0,P|423:183|462:187,1,90,6|0,1:3|0:0,0:0:0:0:
324,356,59660,2,0,P|329:312|312:272,1,90,2|2,0:0|0:3,0:0:0:0:
255,191,59933,5,10,1:2:0:0:
181,343,60069,2,0,L|85:334,1,90,2|2,0:0|0:3,0:0:0:0:
14,214,60342,1,2,0:0:0:0:
62,271,60479,6,0,P|131:235|200:272,1,161.999995056153,6|0,1:2|0:0,0:0:0:0:
92,335,60888,5,0,0:0:0:0:
92,335,61024,1,8,1:2:0:0:
62,271,61160,2,0,P|52:224|68:187,1,72,0|0,0:0|0:0,0:0:0:0:
126,102,61433,6,0,P|71:100|41:32,1,121.499996292114,2|0,0:0|0:0,0:0:0:0:
44,27,61706,5,0,0:0:0:0:
194,68,61842,2,0,P|202:103|193:138,1,72,0|0,0:0|0:0,0:0:0:0:
318,137,62115,6,0,P|309:103|317:68,1,72,8|0,1:2|0:0,0:0:0:0:
468,27,62388,1,0,0:0:0:0:
468,27,62524,1,0,0:0:0:0:
386,102,62660,6,0,P|441:100|471:32,1,121.499996292114,6|0,1:3|0:0,0:0:0:0:
468,27,62933,6,0,P|430:16|378:29,1,72,0|0,0:0|0:0,0:0:0:0:
317,68,63206,2,0,P|309:102|318:137,1,72,8|0,1:2|0:0,0:0:0:0:
385,193,63479,1,0,0:0:0:0:
385,193,63615,1,0,0:0:0:0:
365,270,63751,6,0,B|347:239|358:210|384:193|384:193|430:198|442:223|440:262,1,180,6|0,1:3|0:0,0:0:0:0:
399,341,64160,6,0,B|288:363|330:267|211:290,1,198.000006042481,6|0,1:3|0:0,0:0:0:0:
79,323,64569,6,0,P|116:362|151:322,1,121.499996292114,10|0,0:0|0:0,0:0:0:0:
218,288,64842,6,0,P|153:285|117:211,1,135,6|0,1:2|0:0,0:0:0:0:
152,164,65115,1,8,0:0:0:0:
25,97,65251,6,0,L|160:88,1,135,2|0,1:2|0:0,0:0:0:0:
221,132,65524,1,0,1:0:0:0:
347,54,65660,1,10,0:0:0:0:
285,14,65797,6,0,P|275:57|290:100,1,90,0|2,0:0|0:0,0:0:0:0:
359,129,66069,1,0,1:0:0:0:
502,73,66206,2,0,P|458:64|418:82,1,90,8|0,0:0|0:0,0:0:0:0:
370,205,66479,5,2,1:2:0:0:
359,129,66615,1,2,1:2:0:0:
347,54,66751,1,8,0:0:0:0:
466,137,66888,6,0,L|460:184,1,45,0|0,0:0|0:0,0:0:0:0:
384,281,67024,6,0,P|434:272|491:332,1,135,2|0,1:2|0:0,0:0:0:0:
421,343,67297,1,8,0:0:0:0:
312,254,67433,6,0,P|301:319|235:349,1,135,2|0,1:2|0:0,0:0:0:0:
244,277,67706,1,0,1:0:0:0:
370,205,67842,2,0,P|349:159|358:108,1,90,8|0,0:0|0:0,0:0:0:0:
500,62,68115,6,0,P|447:87|402:72,1,90,2|2,0:2|1:2,0:0:0:0:
370,205,68388,2,0,P|325:180|265:193,1,90,8|0,0:0|0:0,0:0:0:0:
244,277,68660,5,2,1:2:0:0:
312,254,68797,1,0,1:0:0:0:
197,222,68933,1,8,0:0:0:0:
222,346,69069,1,2,0:2:0:0:
197,222,69206,6,0,B|123:211|148:264|59:247,1,135,2|0,1:2|0:0,0:0:0:0:
92,178,69479,1,8,0:0:0:0:
124,59,69615,6,0,P|164:110|229:108,1,135,2|0,1:2|0:0,0:0:0:0:
195,45,69888,1,0,1:0:0:0:
287,182,70024,2,0,P|331:181|369:204,1,90,8|0,0:0|0:0,0:0:0:0:
386,363,70297,6,0,P|373:321|387:279,1,90,2|0,0:2|1:0,0:0:0:0:
442,227,70569,1,8,0:0:0:0:
300,322,70706,2,0,P|265:349|221:345,1,90,0|2,0:0|1:2,0:0:0:0:
147,280,70979,2,0,P|103:276|68:302,1,90,0|8,1:0|0:0,0:0:0:0:
35,368,71251,1,0,1:0:0:0:
222,270,71388,5,6,1:2:0:0:
256,192,71524,12,0,73160,0:0:0:0:
425,189,73297,6,0,B|340:176|372:249|264:225,1,148.50000453186,2|2,0:0|0:0,0:0:0:0:
305,157,73569,6,0,P|299:112|299:48,1,94.499997116089,6|0,1:0|0:0,0:0:0:0:
487,296,73842,2,0,P|453:265|406:259,1,94.499997116089,8|2,0:0|1:0,0:0:0:0:
346,308,74115,5,0,0:0:0:0:
425,189,74251,1,0,1:0:0:0:
346,308,74388,2,0,P|311:338|265:344,1,94.499997116089,10|0,0:0|0:0,0:0:0:0:
102,359,74660,6,0,P|39:344|23:289,1,121.499996292114,2|0,0:0|0:0,0:0:0:0:
34,279,74933,2,0,P|43:233|28:191,1,80.9999975280763,10|0,0:0|0:0,0:0:0:0:
17,62,75206,6,0,P|48:111|106:122,1,121.499996292114,2|0,0:0|0:0,0:0:0:0:
89,51,75479,1,10,0:0:0:0:
141,187,75615,1,2,0:0:0:0:
172,16,75751,6,0,P|135:44|88:50,1,94.499997116089,2|0,1:0|0:0,0:0:0:0:
17,62,76024,1,8,0:0:0:0:
221,180,76160,6,0,P|211:134|229:91,1,94.499997116089,2|0,1:0|0:0,0:0:0:0:
371,56,76433,1,0,1:0:0:0:
255,23,76569,1,8,0:0:0:0:
283,141,76706,1,0,0:0:0:0:
424,7,76842,6,0,P|441:43|438:83,1,80.9999975280763,0|0,0:0|0:0,0:0:0:0:
380,131,77115,1,8,0:0:0:0:
380,131,77251,1,0,0:0:0:0:
477,228,77388,6,0,P|443:205|403:203,1,80.9999975280763,0|0,0:0|0:0,0:0:0:0:
335,238,77660,1,8,0:0:0:0:
335,238,77797,2,0,L|338:289,1,40.4999987640381,0|0,0:0|0:0,0:0:0:0:
350,358,77933,6,0,L|256:352,1,94.499997116089,2|0,1:0|0:0,0:0:0:0:
182,347,78206,1,8,0:0:0:0:
68,202,78342,6,0,B|87:253|87:253|74:292,1,94.499997116089,2|0,1:0|0:0,0:0:0:0:
67,367,78615,1,0,1:0:0:0:
141,187,78751,2,0,B|128:144|128:144|145:92,1,94.499997116089,10|0,0:0|0:0,0:0:0:0:
312,52,79024,6,0,P|257:76|204:52,1,121.499996292114,0|0,0:0|0:0,0:0:0:0:
259,4,79297,1,8,0:0:0:0:
364,104,79433,6,0,P|391:74|430:65,1,80.9999975280763,0|0,0:0|1:0,0:0:0:0:
492,102,79706,1,0,1:0:0:0:
428,138,79842,1,8,0:0:0:0:
312,52,79979,1,0,1:0:0:0:
492,174,80115,6,0,L|484:278,1,94.499997116089,14|0,0:0|1:0,0:0:0:0:
476,344,80388,1,0,1:0:0:0:
283,204,80524,6,0,P|329:205|366:177,1,94.499997116089,12|0,0:0|1:0,0:0:0:0:
364,104,80797,1,0,1:0:0:0:
338,354,80933,6,0,P|301:325|255:326,1,94.499997116089,12|0,0:0|1:0,0:0:0:0:
182,347,81206,1,2,1:0:0:0:
105,363,81342,5,12,0:0:0:0:
255,326,81479,1,0,1:0:0:0:
52,250,81615,1,0,1:0:0:0:
182,347,81751,5,12,0:0:0:0:
257,112,81888,1,0,1:0:0:0:
255,326,82024,5,10,0:0:0:0:
204,52,82160,1,0,1:0:0:0:
29,181,82297,6,0,P|97:193|123:259,1,144,6|8,1:2|0:0,0:0:0:0:
52,250,82706,1,8,0:3:0:0:
16,110,82842,2,0,P|58:106|94:81,1,72,8|8,0:0|0:3,0:0:0:0:
204,52,83115,2,0,P|179:91|186:143,1,72,8|8,0:0|0:3,0:0:0:0:
196,252,83388,6,0,P|230:212|284:204,1,108,8|0,0:0|0:0,0:0:0:0:
350,237,83660,2,0,L|440:246,1,72,8|8,0:0|0:3,0:0:0:0:
484,337,83933,1,8,0:0:0:0:
421,244,84069,1,8,0:3:0:0:
491,156,84206,1,8,0:0:0:0:
375,301,84342,6,0,P|353:269|399:175,1,144,8|8,0:3|0:3,0:0:0:0:
486,72,84751,2,0,P|457:92|422:98,1,72,8|8,0:0|0:3,0:0:0:0:
292,33,85024,1,8,0:0:0:0:
432,26,85160,1,8,0:3:0:0:
491,156,85297,1,8,0:0:0:0:
491,156,85433,1,8,0:3:0:0:
303,292,85569,6,0,L|375:301,1,72,8|8,0:0|0:0,0:0:0:0:
484,337,85842,1,8,0:0:0:0:
388,179,85979,1,10,0:3:0:0:
259,356,86115,6,0,L|330:364,1,72,8|8,0:0|0:3,0:0:0:0:
322,222,86388,2,0,P|275:226|231:290,1,108,10|0,0:0|0:0,0:0:0:0:
181,329,86660,6,0,P|140:311|95:317,1,72,10|8,1:2|0:3,0:0:0:0:
8,366,86933,1,8,1:2:0:0:
174,215,87069,1,8,0:3:0:0:
16,110,87206,6,0,P|51:108|83:92,1,72,10|8,1:2|0:3,0:0:0:0:
246,6,87479,1,8,1:2:0:0:
94,179,87615,1,8,0:3:0:0:
235,268,87751,6,0,P|266:284|302:285,1,72,10|8,1:2|0:3,0:0:0:0:
456,153,88024,5,10,1:2:0:0:
284,214,88160,1,8,0:3:0:0:
418,335,88297,1,8,1:2:0:0:
349,125,88433,1,8,0:0:0:0:
302,285,88569,1,10,1:2:0:0:
417,86,88706,1,8,0:0:0:0:
486,311,88842,6,0,P|461:276|409:263,1,90,6|2,1:2|0:0,0:0:0:0:
233,333,89388,6,0,P|275:320|301:284,1,90,2|2,0:0|0:0,0:0:0:0:
234,260,89933,5,2,0:0:0:0:
373,337,90479,1,2,0:0:0:0:
234,260,90751,6,0,L|160:254,1,67.5,2|0,0:0|0:0,0:0:0:0:
96,248,91024,5,6,1:2:0:0:
43,72,91160,2,0,P|86:102|139:100,1,107.999996704102,0|8,0:0|0:0,0:0:0:0:
276,20,91433,1,0,0:0:0:0:
417,262,91569,2,0,P|373:231|318:237,1,107.999996704102,0|0,1:0|1:0,0:0:0:0:
355,301,91842,1,8,0:0:0:0:
478,80,91979,6,0,B|406:91|406:91|366:140|366:140|269:155,1,215.999993408203,2|0,1:0|1:0,0:0:0:0:
128,4,92388,2,0,B|157:48|157:48|135:109,1,107.999996704102,8|0,0:0|0:0,0:0:0:0:
29,286,92660,1,0,1:0:0:0:
195,169,92797,1,0,1:0:0:0:
43,72,92933,1,8,0:0:0:0:
233,231,93069,6,0,P|266:184|203:97,1,161.999995056153,0|0,1:0|0:0,0:0:0:0:
195,169,93342,1,0,0:0:0:0:
310,35,93479,2,0,P|350:80|410:81,1,107.999996704102,8|0,0:0|0:0,0:0:0:0:
512,47,93751,1,0,1:0:0:0:
320,235,93888,1,0,1:0:0:0:
379,13,94024,1,8,0:0:0:0:
415,275,94160,6,0,B|454:234|397:179|397:179|303:185|323:269,1,215.999993408203,2|0,1:0|1:0,0:0:0:0:
182,370,94569,2,0,P|191:317|170:268,1,107.999996704102,8|0,0:0|0:0,0:0:0:0:
51,172,94842,1,0,1:0:0:0:
219,38,94979,2,0,P|188:81|138:99,1,107.999996704102,0|8,1:0|0:0,0:0:0:0:
19,64,95251,1,0,1:0:0:0:
103,294,95388,6,0,P|128:211|222:222,1,161.999995056153,2|0,1:2|0:0,0:0:0:0:
241,257,95660,1,8,0:0:0:0:
138,99,95797,2,0,P|188:133|248:137,1,107.999996704102,0|0,0:0|1:0,0:0:0:0:
332,338,96069,2,0,P|365:296|414:274,1,107.999996704102,0|8,1:0|0:0,0:0:0:0:
499,345,96342,1,2,1:0:0:0:
414,96,96479,6,0,B|289:114|343:11|211:39,1,215.999993408203,0|8,0:0|0:0,0:0:0:0:
384,14,96888,1,0,0:0:0:0:
251,117,97024,5,0,1:0:0:0:
218,37,97160,1,0,1:0:0:0:
212,193,97297,5,8,0:0:0:0:
297,3,97433,1,0,1:0:0:0:
295,238,97569,6,0,P|362:221|415:278,1,148.50000453186,14|0,0:3|0:0,0:0:0:0:
344,292,97842,2,0,P|299:311|251:296,1,99.0000030212403,0|0,0:0|0:0,0:0:0:0:
489,193,98115,6,0,P|432:175|422:79,1,148.50000453186,14|0,0:3|0:0,0:0:0:0:
492,21,98388,2,0,L|480:120,1,99.0000030212403,0|0,0:0|0:0,0:0:0:0:
428,333,98660,6,0,P|383:296|340:292,1,99.0000030212403,14|0,0:3|0:0,0:0:0:0:
335,75,98933,2,0,P|299:108|250:116,1,99.0000030212403,14|0,0:3|0:0,0:0:0:0:
103,294,99206,5,10,0:0:0:0:
267,44,99342,1,10,0:0:0:0:
357,368,99479,1,8,0:0:0:0:
73,213,99615,6,0,B|194:192|140:294|280:270,1,215.999993408203,6|0,1:2|1:0,0:0:0:0:
234,189,100024,1,8,0:0:0:0:
46,371,100160,2,0,P|99:331|98:280,1,107.999996704102,0|0,0:0|1:0,0:0:0:0:
73,213,100433,1,0,1:0:0:0:
248,361,100569,1,8,0:0:0:0:
155,113,100706,6,0,P|231:112|266:43,1,161.999995056153,2|0,1:0|0:0,0:0:0:0:
194,51,100979,1,0,1:0:0:0:
102,293,101115,2,8,P|147:251|151:182,1,107.999996704102,8|0,0:0|0:0,0:0:0:0:
134,11,101388,1,0,1:0:0:0:
18,127,101524,2,0,P|31:178|72:212,1,107.999996704102,0|8,1:0|0:0,0:0:0:0:
234,328,101797,6,0,B|174:349|174:349|118:299|162:190,1,215.999993408203,2|0,1:0|1:0,0:0:0:0:
282,268,102206,2,0,P|309:326|293:378,1,107.999996704102,8|0,0:0|0:0,0:0:0:0:
489,193,102479,6,0,B|456:225|416:226|416:226|379:204|371:153,1,161.999995056153,0|0,1:0|0:0,0:0:0:0:
400,95,102751,2,0,P|452:89|495:120,1,107.999996704102,8|2,0:0|1:0,0:0:0:0:
444,318,103024,6,0,P|346:346|281:267,1,215.999993408203,0|8,0:0|0:0,0:0:0:0:
265,42,103433,1,0,0:0:0:0:
374,254,103569,1,0,1:0:0:0:
155,207,103706,2,0,B|207:214|207:214|263:179,1,107.999996704102,0|8,1:0|0:0,0:0:0:0:
433,30,103979,6,0,P|376:26|331:120,1,161.999995056153,2|0,1:0|0:0,0:0:0:0:
372,161,104251,1,0,1:0:0:0:
419,351,104388,2,0,P|366:352|328:317,1,107.999996704102,10|0,0:0|0:0,0:0:0:0:
254,184,104660,1,0,1:0:0:0:
184,316,104797,2,0,P|145:352|92:351,1,107.999996704102,0|8,1:0|0:0,0:0:0:0:
56,129,105069,6,0,B|182:105|122:207|272:181,1,215.999993408203,2|0,1:0|1:0,0:0:0:0:
312,49,105479,2,0,P|346:88|414:89,1,107.999996704102,8|0,0:0|0:0,0:0:0:0:
505,18,105751,5,0,1:0:0:0:
485,233,105888,2,0,P|451:194|383:193,1,107.999996704102,0|8,1:0|0:0,0:0:0:0:
256,277,106160,1,2,1:0:0:0:
91,210,106297,6,0,P|149:206|179:108,1,148.50000453186,6|0,1:3|0:0,0:0:0:0:
106,43,106569,2,0,P|117:91|115:141,1,99.0000030212403,0|0,0:0|0:0,0:0:0:0:
18,361,106842,6,0,P|46:295|117:284,1,148.50000453186,6|0,1:3|0:0,0:0:0:0:
186,372,107115,2,0,P|140:356|91:352,1,99.0000030212403,0|0,0:0|0:0,0:0:0:0:
0,173,107388,6,0,P|39:208|92:209,1,107.999996704102,14|0,1:3|0:3,0:0:0:0:
212,62,107660,2,0,P|255:39|316:51,1,107.999996704102,14|0,1:3|0:3,0:0:0:0:
413,259,107933,5,8,0:0:0:0:
115,141,108069,1,8,0:0:0:0:
411,37,108206,1,8,0:0:0:0:
311,343,108342,6,0,B|193:361|238:256|103:285,1,215.999993408203,6|0,1:2|1:0,0:0:0:0:
186,131,108751,2,0,P|138:72|63:90,1,161.999995056153,8|0,0:0|0:0,0:0:0:0:
43,154,109024,1,0,1:0:0:0:
149,365,109160,1,0,1:0:0:0:
257,120,109297,1,8,0:0:0:0:
115,282,109433,6,0,B|186:290|186:290|224:331|224:331|331:346,1,215.999993408203,2|0,1:0|1:0,0:0:0:0:
510,235,109842,2,0,B|464:266|464:266|409:258,1,107.999996704102,8|0,0:0|0:0,0:0:0:0:
271,234,110115,1,0,1:0:0:0:
447,371,110251,1,0,1:0:0:0:
337,169,110388,2,0,L|443:185,1,107.999996704102,8|0,0:0|1:0,0:0:0:0:
249,23,110660,6,0,B|255:89|255:89|247:117|247:117|261:143|261:143|272:248,1,215.999993408203,2|8,0:0|0:0,0:0:0:0:
401,100,111069,1,0,0:0:0:0:
190,183,111206,2,0,L|204:301,1,107.999996704102,0|0,1:0|1:0,0:0:0:0:
213,364,111479,1,8,0:0:0:0:
28,199,111615,6,0,B|149:200|72:91|219:99,1,215.999993408203,2|0,1:0|1:0,0:0:0:0:
380,169,112024,2,0,P|454:149|467:74,1,161.999995056153,8|0,0:0|0:0,0:0:0:0:
414,24,112297,1,0,1:0:0:0:
414,24,112433,1,0,1:0:0:0:
462,290,112569,2,0,P|432:248|380:245,1,107.999996704102,8|0,0:0|1:0,0:0:0:0:
202,290,112842,6,0,P|166:359|79:346,1,161.999995056153,2|0,0:0|0:0,0:0:0:0:
33,306,113115,2,0,L|27:193,1,107.999996704102,8|0,0:0|0:0,0:0:0:0:
202,98,113388,1,0,1:0:0:0:
15,33,113524,1,0,1:0:0:0:
115,150,113660,1,8,0:0:0:0:
177,13,113797,6,0,P|211:81|288:78,1,161.999995056153,2|0,1:0|0:0,0:0:0:0:
340,28,114069,1,0,1:0:0:0:
500,166,114206,2,0,P|463:114|472:61,1,107.999996704102,8|0,0:0|0:0,0:0:0:0:
499,7,114479,1,0,1:0:0:0:
379,245,114615,5,0,1:0:0:0:
288,78,114751,1,8,0:0:0:0:
466,247,114888,1,0,1:0:0:0:
281,349,115024,6,0,P|288:257|379:245,1,198.000006042481,14|8,0:0|1:3,0:0:0:0:
340,307,115433,1,0,1:3:0:0:
120,295,115569,6,0,B|140:352|83:376|83:376|24:363|33:298,1,198.000006042481,14|8,0:0|1:3,0:0:0:0:
69,239,115979,1,0,1:3:0:0:
202,98,116115,6,0,P|154:134|88:125,1,107.999996704102,14|0,0:0|1:3,0:0:0:0:
245,342,116388,2,0,P|293:306|359:315,1,107.999996704102,14|0,0:0|1:3,0:0:0:0:
452,359,116660,5,14,0:0:0:0:
331,161,116797,1,2,1:0:0:0:
499,7,116933,1,0,1:0:0:0:
363,231,117069,6,0,B|243:254|293:143|155:175,1,215.999993408203,6|0,1:2|1:0,0:0:0:0:
72,354,117479,2,0,P|137:378|200:301,1,161.999995056153,10|0,0:0|0:0,0:0:0:0:
201,253,117751,1,0,1:0:0:0:
84,149,117888,1,0,1:0:0:0:
39,295,118024,1,10,0:0:0:0:
167,172,118160,5,2,1:3:0:0:
4,111,118297,1,0,1:0:0:0:
146,87,118433,1,0,1:0:0:0:
39,295,118569,2,0,P|83:274|150:298,1,107.999996704102,10|0,0:0|1:0,0:0:0:0:
258,369,118842,5,0,1:0:0:0:
167,172,118979,1,0,1:0:0:0:
363,231,119115,2,0,P|319:210|252:234,1,107.999996704102,10|0,0:0|1:0,0:0:0:0:
509,336,119388,6,0,P|471:299|465:246,1,107.999996704102,2|0,1:3|1:0,0:0:0:0:
468,78,119660,2,0,P|462:131|425:168,1,107.999996704102,10|0,0:0|1:0,0:0:0:0:
310,283,119933,1,0,1:0:0:0:
398,100,120069,1,0,1:0:0:0:
465,246,120206,1,10,0:0:0:0:
330,75,120342,6,0,P|371:32|431:35,1,107.999996704102,2|0,1:3|1:0,0:0:0:0:
468,78,120615,1,0,1:0:0:0:
236,22,120751,2,0,L|246:129,1,107.999996704102,10|0,0:0|1:0,0:0:0:0:
310,283,121024,1,0,1:0:0:0:
330,75,121160,1,0,1:0:0:0:
167,172,121297,2,0,L|48:161,1,107.999996704102,10|0,0:0|1:0,0:0:0:0:
93,348,121569,6,0,P|139:318|197:325,1,107.999996704102,2|0,1:3|1:0,0:0:0:0:
393,366,121842,2,0,B|370:321|370:321|388:267,1,107.999996704102,10|0,0:0|1:0,0:0:0:0:
424,168,122115,1,0,1:0:0:0:
261,338,122251,1,0,1:0:0:0:
246,129,122388,1,10,0:0:0:0:
388,267,122524,6,0,P|445:273|496:245,1,107.999996704102,2|0,1:3|1:0,0:0:0:0:
424,168,122797,1,0,1:0:0:0:
261,338,122933,2,0,P|273:286|244:229,1,107.999996704102,10|0,0:0|1:0,0:0:0:0:
167,172,123206,1,0,1:0:0:0:
167,172,123342,1,0,1:0:0:0:
237,44,123479,2,0,L|362:31,1,107.999996704102,8|0,0:0|1:0,0:0:0:0:
501,203,123751,6,0,B|537:152|488:112|488:112|415:116|424:195,1,198.000006042481,14|0,1:3|0:0,0:0:0:0:
436,240,124160,1,0,0:0:0:0:
344,32,124297,6,0,B|228:15|281:109|148:83,1,198.000006042481,14|0,1:3|0:0,0:0:0:0:
105,35,124706,1,0,0:0:0:0:
318,114,124842,6,0,P|309:160|309:231,1,107.999996704102,14|0,1:3|0:0,0:0:0:0:
184,355,125115,2,0,P|183:305|172:247,1,107.999996704102,14|0,1:3|0:0,0:0:0:0:
55,115,125388,5,10,0:0:0:0:
436,240,125524,1,10,0:0:0:0:
93,348,125660,1,8,0:0:0:0:
344,32,125797,5,6,1:2:0:0:
256,192,128115,12,0,128933,0:0:0:0:
69,71,129206,6,0,B|79:25|136:22|136:22|183:60|160:100,1,180,6|0,1:2|0:0,0:0:0:0:
307,136,129615,6,0,B|259:116|221:138|221:138|199:177|150:181|108:157,1,198.000006042481,6|0,1:2|0:0,0:0:0:0:
39,252,130024,6,0,P|99:237|60:305,1,161.999995056153,10|0,0:0|0:0,0:0:0:0:
83,329,130297,6,0,P|126:299|191:307,1,108,6|0,1:2|0:0,0:0:0:0:
239,343,130569,2,0,P|270:360|317:353,1,72,0|0,0:0|0:0,0:0:0:0:
368,311,130842,1,8,1:2:0:0:
368,311,130979,1,0,0:0:0:0:
430,359,131115,1,0,0:0:0:0:
304,267,131251,1,2,0:0:0:0:
373,234,131388,5,6,1:3:0:0:
440,279,131524,1,0,0:0:0:0:
443,201,131660,2,0,B|428:165|428:165|458:85,1,108,0|0,0:0|0:0,0:0:0:0:
441,81,131933,6,0,L|341:90,1,72,8|0,1:2|0:0,0:0:0:0:
317,32,132206,1,0,0:0:0:0:
317,32,132342,1,0,0:0:0:0:
160,99,132479,6,0,P|208:107|259:61,1,108,6|0,1:3|0:0,0:0:0:0:
259,94,132751,2,0,L|252:177,1,72,0|0,0:0|0:0,0:0:0:0:
197,243,133024,6,0,P|176:201|111:180,1,108,8|0,1:2|0:0,0:0:0:0:
100,176,133297,1,0,0:0:0:0:
100,176,133433,1,0,0:0:0:0:
49,286,133569,6,0,P|81:256|126:253,1,90,6|0,1:3|0:0,0:0:0:0:
291,348,133842,2,0,P|246:344|214:314,1,90,2|2,0:0|1:3,0:0:0:0:
196,243,134115,5,10,0:2:0:0:
377,380,134251,2,0,P|371:323|395:287,1,90,2|2,0:0|1:3,0:0:0:0:
447,249,134524,1,2,0:0:0:0:
367,170,134660,6,0,L|474:177,1,108,6|0,1:2|0:0,0:0:0:0:
491,168,134933,2,0,B|501:134|501:134|492:100,1,72,0|0,0:0|0:0,0:0:0:0:
462,31,135206,1,8,1:2:0:0:
462,31,135342,1,0,0:0:0:0:
417,92,135479,1,0,0:0:0:0:
387,23,135615,1,2,0:0:0:0:
491,99,135751,5,6,1:3:0:0:
342,84,135888,1,0,0:0:0:0:
312,15,136024,2,0,P|309:68|254:100,1,108,0|0,0:0|0:0,0:0:0:0:
250,104,136297,6,0,L|159:101,1,72,8|0,1:2|0:0,0:0:0:0:
110,63,136569,1,0,0:0:0:0:
110,63,136706,1,0,0:0:0:0:
25,182,136842,6,0,P|77:178|111:138,1,108,6|0,1:3|0:0,0:0:0:0:
112,156,137115,2,0,P|143:182|191:186,1,72,0|0,0:0|0:0,0:0:0:0:
173,304,137388,6,0,P|138:263|86:258,1,108,8|0,1:2|0:0,0:0:0:0:
69,265,137660,1,0,0:3:0:0:
69,265,137797,1,0,0:0:0:0:
32,370,137933,6,0,P|75:361|106:329,1,90,6|0,1:2|0:0,0:0:0:0:
256,199,138206,2,0,P|242:241|255:283,1,90,2|6,0:0|1:2,0:0:0:0:
303,346,138479,5,0,0:0:0:0:
323,172,138615,2,0,P|289:134|225:133,1,90,2|10,0:0|0:0,0:0:0:0:
192,165,138888,1,2,0:0:0:0:
69,65,139024,6,0,B|140:56|114:103|201:91,1,125.999996154785,6|0,1:2|0:0,0:0:0:0:
390,210,139569,1,4,0:3:0:0:
323,172,139706,2,0,P|308:107|352:52,1,125.999996154785,0|0,0:0|0:0,0:0:0:0:
444,63,140115,6,0,P|475:115|459:174,1,125.999996154785,14|0,0:3|0:0,0:0:0:0:
411,313,140660,2,0,P|455:259|518:256,1,125.999996154785,4|0,0:3|0:0,0:0:0:0:
411,313,141206,6,0,L|269:305,1,125.999996154785,6|0,1:3|0:0,0:0:0:0:
106,328,141751,1,4,0:3:0:0:
140,264,141888,2,0,P|146:231|140:196,1,62.9999980773926,0|0,0:0|1:0,0:0:0:0:
98,144,142160,1,0,1:0:0:0:
57,84,142297,6,0,P|97:71|145:88,1,80.9999975280763,14|0,0:3|0:0,0:0:0:0:
260,206,142569,2,0,L|250:110,1,80.9999975280763,2|6,0:0|1:3,0:0:0:0:
241,51,142842,5,0,0:0:0:0:
388,41,142979,2,0,L|379:121,1,80.9999975280763,2|6,0:0|1:3,0:0:0:0:
372,196,143251,1,2,0:0:0:0:
355,346,143388,6,0,P|400:311|361:270,1,125.999996154785,6|0,1:2|0:0,0:0:0:0:
215,351,143933,1,4,0:3:0:0:
157,303,144069,2,0,P|114:351|45:352,1,125.999996154785,0|0,0:0|0:0,0:0:0:0:
51,168,144479,6,0,P|112:174|152:220,1,125.999996154785,14|0,0:3|0:0,0:0:0:0:
246,331,145024,2,0,L|261:192,1,125.999996154785,4|0,0:3|0:0,0:0:0:0:
241,51,145569,6,0,P|200:97|138:98,1,125.999996154785,6|0,1:3|0:0,0:0:0:0:
35,15,146115,1,4,0:3:0:0:
108,24,146251,2,0,L|171:32,1,62.9999980773926,0|0,0:0|1:0,0:0:0:0:
241,51,146524,1,0,1:0:0:0:
372,14,146660,6,0,P|405:42|455:41,1,80.9999975280763,14|0,0:3|0:0,0:0:0:0:
448,152,146933,2,0,P|418:125|378:120,1,80.9999975280763,2|6,0:0|1:3,0:0:0:0:
314,160,147206,5,2,0:0:0:0:
434,306,147342,2,0,L|441:216,1,80.9999975280763,2|10,0:0|1:3,0:0:0:0:
448,152,147615,1,2,0:0:0:0:
365,281,147751,6,0,L|363:299,64,10.1249996910095,2|0|0|0|0|0|0|0|0|0|0|0|0|0|0|0|0|0|0|0|0|0|0|0|0|0|0|0|0|0|0|0|0|0|0|0|0|0|0|0|0|0|0|0|0|0|0|0|0|0|0|0|0|0|0|0|0|0|0|0|0|0|0|0|2,0:0|0:0|0:0|0:0|0:0|0:0|0:0|0:0|0:0|0:0|0:0|0:0|0:0|0:0|0:0|0:0|0:0|0:0|0:0|0:0|0:0|0:0|0:0|0:0|0:0|0:0|0:0|0:0|0:0|0:0|0:0|0:0|0:0|0:0|0:0|0:0|0:0|0:0|0:0|0:0|0:0|0:0|0:0|0:0|0:0|0:0|0:0|0:0|0:0|0:0|0:0|0:0|0:0|0:0|0:0|0:0|0:0|0:0|0:0|0:0|0:0|0:0|0:0|0:0|0:0,0:0:0:0:
