osu file format v14

[General]
AudioFilename: audio.mp3
AudioLeadIn: 0
PreviewTime: 38301
Countdown: 0
SampleSet: Soft
StackLeniency: 0.5
Mode: 0
LetterboxInBreaks: 0
EpilepsyWarning: 1
WidescreenStoryboard: 1

[Editor]
Bookmarks: 55961,64824,125779,129188
DistanceSpacing: 1.7
BeatDivisor: 4
GridSize: 8
TimelineZoom: 1

[Metadata]
Title:Kick Me
TitleUnicode:Kick Me
Artist:Sleeping With Sirens
ArtistUnicode:Sleeping With Sirens
Creator:fieryrage
Version:Kyshiro's Extreme
Source:
Tags:sws madness english metal punk rock post-hardcore ailv kyshiro elsa valentine xlolicore- pishifat bergy dashyy- ayyri eiri- craezy hypercyte underdogs stingy peter petereu
BeatmapID:2171675
BeatmapSetID:1038902

[Difficulty]
HPDrainRate:6
CircleSize:4.3
OverallDifficulty:9.5
ApproachRate:9.8
SliderMultiplier:1.7
SliderTickRate:1

[Events]
//Background and Video events
0,0,"wallhaven-45655.jpg",0,0
//Break Periods
2,56179,58845
2,60679,64297
2,71588,73090
2,125997,128727
//Storyboard Layer 0 (Background)
//Storyboard Layer 1 (Fail)
//Storyboard Layer 2 (Pass)
//Storyboard Layer 3 (Foreground)
//Storyboard Layer 4 (Overlay)
//Storyboard Sound Samples

[TimingPoints]
479,272.727272727273,4,2,5,5,1,0
479,-100,4,2,5,5,0,0
10433,-100,4,2,5,10,0,0
10842,-100,4,2,5,15,0,0
12206,-120.481927710843,4,2,5,15,0,0
12342,-120.481927710843,4,2,5,5,0,0
12479,-120.481927710843,4,2,5,50,0,0
13569,-120.481927710843,4,2,5,40,0,0
14660,-120.481927710843,4,2,5,50,0,0
15751,-120.481927710843,4,2,5,40,0,0
16842,-120.481927710843,4,2,5,50,0,0
17933,-120.481927710843,4,2,5,40,0,0
19024,-120.481927710843,4,2,5,60,0,0
21206,-100,4,2,5,60,0,0
22297,-120.481927710843,4,2,5,50,0,0
23388,-100,4,2,5,60,0,0
24479,-120.481927710843,4,2,5,50,0,0
25569,-100,4,2,5,60,0,0
26660,-120.481927710843,4,2,5,50,0,0
27751,-100,4,2,5,60,0,0
29933,-120.481927710843,4,2,5,55,0,0
30206,-120.481927710843,4,2,5,30,0,0
31024,-120.481927710843,4,2,5,35,0,0
31569,-120.481927710843,4,2,5,38,0,0
32115,-120.481927710843,4,2,5,40,0,0
32660,-120.481927710843,4,2,5,43,0,0
33206,-120.481927710843,4,2,5,45,0,0
33479,-120.481927710843,4,2,5,48,0,0
33751,-120.481927710843,4,2,5,50,0,0
34433,-120.481927710843,4,2,5,40,0,0
34842,-120.481927710843,4,2,5,55,0,0
34979,-120.481927710843,4,2,5,40,0,0
35388,-120.481927710843,4,2,5,60,0,0
35524,-120.481927710843,4,2,5,45,0,0
35660,-120.481927710843,4,2,5,50,0,0
35933,-120.481927710843,4,2,5,55,0,0
36206,-120.481927710843,4,2,5,60,0,0
36547,-120.481927710843,4,2,5,45,0,0
36888,-120.481927710843,4,2,5,45,0,0
37024,-120.481927710843,4,2,5,35,0,0
38388,-120.481927710843,4,2,5,60,0,0
38660,-90.0900900900901,4,2,5,70,0,1
45206,-111.111111111111,4,2,5,70,0,0
45479,-111.111111111111,4,2,5,60,0,0
45751,-111.111111111111,4,2,5,70,0,0
46024,-111.111111111111,4,2,5,60,0,0
46297,-111.111111111111,4,2,5,65,0,0
47251,-90.0900900900901,4,2,5,70,0,1
54206,-133.333333333333,4,2,5,60,0,0
54479,-133.333333333333,4,2,5,70,0,0
54751,-133.333333333333,4,2,5,60,0,0
55024,-133.333333333333,4,2,5,70,0,0
55979,-90.0900900900901,4,2,5,65,0,0
56047,-90.0900900900901,4,2,5,55,0,0
59388,-125,4,2,5,60,0,0
60479,-125,4,2,5,55,0,0
61569,-125,4,2,5,60,0,0
63819,-125,4,2,5,5,0,0
64160,-125,4,2,5,65,0,0
64229,-125,4,2,5,5,0,0
64569,-125,4,2,5,60,0,0
64638,-125,4,2,5,5,0,0
64842,-111.111111111111,4,2,5,55,0,0
64979,-111.111111111111,4,2,5,50,0,0
66001,-111.111111111111,4,2,5,5,0,0
66206,-111.111111111111,4,2,5,50,0,0
66274,-111.111111111111,4,2,5,5,0,0
66479,-111.111111111111,4,2,5,50,0,0
71456,-111.111111111111,4,2,5,5,0,0
72479,-111.111111111111,4,2,5,50,0,0
73092,-111.111111111111,4,2,5,5,0,0
73297,-111.111111111111,4,2,5,20,0,0
73365,-111.111111111111,4,2,5,35,0,0
73433,-111.111111111111,4,2,5,40,0,0
73501,-111.111111111111,4,2,5,50,0,0
73569,-100,4,2,5,60,0,0
75206,-100,4,2,5,58,0,0
76160,-100,4,2,5,55,0,0
76842,-100,4,2,5,52,0,0
79024,-120.481927710843,4,2,5,52,0,0
80115,-100,4,2,5,60,0,0
82297,-125,4,2,5,60,0,0
82569,-125,4,2,5,32,0,0
82842,-125,4,2,5,35,0,0
83388,-125,4,2,5,38,0,0
83933,-125,4,2,5,40,0,0
84479,-125,4,2,5,42,0,0
85024,-125,4,2,5,45,0,0
85569,-125,4,2,5,50,0,0
85842,-125,4,2,5,40,0,0
85979,-125,4,2,5,50,0,0
86660,-100,4,2,5,55,0,0
86797,-100,4,2,5,40,0,0
87206,-100,4,2,5,55,0,0
87342,-100,4,2,5,40,0,0
87751,-100,4,2,5,60,0,0
87888,-100,4,2,5,40,0,0
88024,-100,4,2,5,50,0,0
88297,-100,4,2,5,55,0,0
88569,-100,4,2,5,60,0,0
88842,-100,4,2,5,65,0,0
88910,-100,4,2,5,50,0,0
89388,-100,4,2,5,40,0,0
90751,-100,4,2,5,65,0,0
91024,-90.0900900900901,4,2,5,70,0,1
97569,-90.0900900900901,4,2,5,75,0,0
97842,-90.0900900900901,4,2,5,60,0,0
98115,-90.0900900900901,4,2,5,75,0,0
98388,-90.0900900900901,4,2,5,60,0,0
98660,-90.0900900900901,4,2,5,75,0,0
99615,-90.0900900900901,4,2,5,75,0,1
99751,-90.0900900900901,4,2,5,70,0,1
106297,-90.0900900900901,4,2,5,75,0,0
106569,-90.0900900900901,4,2,5,60,0,0
106842,-90.0900900900901,4,2,5,75,0,0
107115,-90.0900900900901,4,2,5,60,0,0
107388,-90.0900900900901,4,2,5,75,0,0
108342,-90.0900900900901,4,2,5,75,0,1
115024,-113.636363636364,4,2,5,75,0,0
115297,-113.636363636364,4,2,5,60,0,0
115433,-113.636363636364,4,2,5,50,0,0
115569,-113.636363636364,4,2,5,75,0,0
115842,-113.636363636364,4,2,5,60,0,0
115979,-113.636363636364,4,2,5,50,0,0
116115,-113.636363636364,4,2,5,75,0,0
117069,-83.3333333333333,4,2,5,75,0,1
123751,-83.3333333333333,4,2,5,75,0,0
125388,-83.3333333333333,4,2,5,70,0,0
125797,-111.111111111111,4,2,5,70,0,0
129274,-111.111111111111,4,2,5,5,0,0
129615,-111.111111111111,4,2,5,70,0,0
129683,-111.111111111111,4,2,5,5,0,0
130024,-75.7575757575758,4,2,5,70,0,0
130092,-75.7575757575758,4,2,5,5,0,0
130229,-75.7575757575758,4,2,5,5,0,0
130297,-133.333333333333,4,2,5,60,0,0
130365,-133.333333333333,4,2,5,55,0,0
133569,-133.333333333333,4,2,5,60,0,0
139024,-166.666666666667,4,2,5,70,0,0
143388,-200,4,2,5,70,0,0
147751,-200,4,2,5,45,0,0
148842,-200,4,2,5,25,0,0

[Colours]
Combo1 : 190,249,166
Combo2 : 235,190,231
Combo3 : 179,213,255
Combo4 : 244,176,179

[HitObjects]
256,192,10297,12,0,12206,0:0:0:0:
85,240,12479,6,2,B|138:212|138:212|235:230,1,141.100002045364,2|0,1:0|1:0,0:0:0:0:
153,312,12888,1,2,0:3:0:0:
55,149,13024,2,0,P|50:91|58:62,1,70.5500010226822,0|0,1:0|0:0,0:0:0:0:
228,95,13297,2,0,L|152:111,1,70.5500010226822,2|0,1:0|0:0,0:0:0:0:
315,173,13569,5,0,1:0:0:0:
315,173,13842,1,0,1:0:0:0:
315,173,14115,1,0,1:0:0:0:
315,173,14388,1,0,1:0:0:0:
315,173,14660,6,2,P|384:171|453:132,1,141.100002045364,2|0,1:0|1:0,0:0:0:0:
236,238,15069,2,0,P|216:278|209:318,1,70.5500010226822,2|0,0:3|1:0,0:0:0:0:
337,274,15342,1,0,0:0:0:0:
215,136,15479,2,0,P|175:114|135:106,1,70.5500010226822,2|0,1:0|0:0,0:0:0:0:
45,195,15751,5,0,1:0:0:0:
45,195,16024,1,0,1:0:0:0:
45,195,16297,1,0,1:0:0:0:
45,195,16569,1,0,1:0:0:0:
45,195,16842,6,2,L|61:344,1,141.100002045364,2|0,1:0|1:0,0:0:0:0:
189,112,17251,2,2,L|173:261,1,141.100002045364,2|0,0:3|0:0,0:0:0:0:
270,332,17660,2,0,P|320:333|346:326,1,70.5500010226822,2|0,1:0|0:0,0:0:0:0:
443,187,17933,5,0,1:0:0:0:
443,187,18206,1,0,1:0:0:0:
443,187,18479,1,0,1:0:0:0:
443,187,18751,1,0,1:0:0:0:
353,152,18888,1,0,1:0:0:0:
443,187,19024,5,14,0:0:0:0:
294,215,19160,1,0,1:0:0:0:
346,73,19297,1,0,1:0:0:0:
401,285,19433,5,12,0:0:0:0:
210,243,19569,1,0,1:0:0:0:
343,101,19706,1,0,1:0:0:0:
294,338,19842,5,12,0:0:0:0:
130,193,19978,1,0,1:0:0:0:
336,126,20115,1,2,1:0:0:0:
170,313,20251,5,14,0:0:0:0:
375,244,20387,1,0,1:0:0:0:
214,99,20524,1,0,1:0:0:0:
301,349,20660,5,14,0:0:0:0:
60,273,20797,1,0,1:0:0:0:
336,334,20933,1,10,0:0:0:0:
24,287,21070,1,0,1:0:0:0:
301,145,21206,6,2,P|223:136|146:194,1,170,6|8,1:2|0:0,0:0:0:0:
405,236,21615,2,2,P|434:197|443:155,2,85,2|0|0,1:0|0:0|1:0,0:0:0:0:
272,66,22024,2,0,P|293:103|300:151,1,85,10|0,0:0|0:0,0:0:0:0:
231,294,22297,5,0,0:0:0:0:
43,94,22569,1,8,0:0:0:0:
43,94,23115,1,8,0:0:0:0:
207,106,23388,2,2,P|195:159|176:191,2,85,2|0|8,1:0|0:0|0:0,0:0:0:0:
53,276,23797,2,2,B|114:255|114:255|250:287,1,170,2|0,1:0|1:0,0:0:0:0:
119,358,24206,1,10,0:0:0:0:
243,289,24342,1,0,0:0:0:0:
52,183,24479,5,0,0:0:0:0:
392,305,24751,1,8,0:0:0:0:
397,129,25024,2,0,L|394:210,1,70.5500010226822,0|0,1:0|1:0,0:0:0:0:
392,305,25297,1,8,0:0:0:0:
110,197,25569,6,2,P|191:209|267:164,1,170,2|8,1:0|0:0,0:0:0:0:
176,16,25979,2,0,L|171:104,1,85,2|0,1:0|0:0,0:0:0:0:
299,258,26251,1,0,1:0:0:0:
374,62,26388,2,0,L|286:57,1,85,10|0,0:0|0:0,0:0:0:0:
401,186,26660,5,0,0:0:0:0:
125,268,26933,1,8,0:0:0:0:
109,86,27206,2,0,L|115:175,1,70.5500010226822,0|0,1:0|1:0,0:0:0:0:
125,268,27479,1,8,0:0:0:0:
26,222,27615,1,0,1:0:0:0:
218,199,27751,6,0,P|271:207|307:225,1,85,14|0,0:0|1:0,0:0:0:0:
412,295,28024,1,0,1:0:0:0:
359,89,28160,6,0,P|390:132|403:170,1,85,12|0,0:0|1:0,0:0:0:0:
290,340,28433,1,0,1:0:0:0:
209,106,28569,6,0,L|219:1,1,85,12|0,0:0|1:0,0:0:0:0:
299,220,28842,1,2,1:0:0:0:
152,247,28979,6,0,P|78:236|55:226,1,85,12|0,0:0|1:0,0:0:0:0:
87,106,29251,1,0,1:0:0:0:
278,352,29388,5,12,0:0:0:0:
306,132,29524,1,0,1:0:0:0:
59,325,29660,1,10,0:0:0:0:
378,250,29797,1,0,1:0:0:0:
22,202,29933,5,6,1:2:0:0:
22,202,30206,2,0,P|12:154|10:127,1,70.5500010226822,10|8,0:3|0:3,0:0:0:0:
123,154,30479,2,0,P|138:107|150:83,1,70.5500010226822,10|8,0:0|0:3,0:0:0:0:
232,143,30751,2,0,P|268:110|290:95,1,70.5500010226822,10|8,0:0|0:3,0:0:0:0:
430,254,31024,5,10,0:0:0:0:
430,254,31297,2,0,L|438:331,1,70.5500010226822,10|8,0:0|0:3,0:0:0:0:
358,172,31570,2,0,L|420:126,1,70.5500010226822,10|8,0:0|0:3,0:0:0:0:
326,274,31842,2,0,L|255:242,1,70.5500010226822,10|8,0:0|0:3,0:0:0:0:
53,136,32115,5,10,0:0:0:0:
17,220,32251,1,8,0:3:0:0:
108,212,32388,1,10,0:0:0:0:
60,150,32524,1,8,0:3:0:0:
27,245,32660,1,10,0:0:0:0:
128,228,32797,1,8,0:3:0:0:
67,159,32933,1,10,0:0:0:0:
36,279,33069,1,8,0:3:0:0:
158,246,33206,5,10,0:0:0:0:
242,345,33342,1,8,0:3:0:0:
194,175,33479,1,10,0:0:0:0:
223,351,33615,1,8,0:3:0:0:
262,132,33751,1,10,0:0:0:0:
200,356,33888,1,8,0:3:0:0:
342,125,34024,1,10,0:0:0:0:
180,358,34160,1,8,0:3:0:0:
76,121,34297,6,0,P|64:62|65:28,1,70.5500010226822,2|8,1:0|0:3,0:0:0:0:
164,196,34569,1,10,1:2:0:0:
164,196,34706,1,8,0:3:0:0:
273,78,34842,2,0,L|190:96,1,70.5500010226822,2|8,1:0|0:3,0:0:0:0:
327,222,35115,1,10,1:2:0:0:
327,222,35251,1,8,0:3:0:0:
436,126,35388,6,0,L|450:42,1,70.5500010226822,2|8,1:2|0:3,0:0:0:0:
239,292,35660,1,10,1:2:0:0:
239,292,35797,1,8,0:0:0:0:
411,256,35933,1,10,1:2:0:0:
205,182,36069,1,8,0:0:0:0:
440,266,36206,1,10,1:2:0:0:
175,171,36342,1,8,0:0:0:0:
312,23,36479,6,0,B|303:69|331:104|331:104|308:124|308:124|341:163|320:236,1,211.650003068047,6|0,1:2|0:0,0:0:0:0:
33,106,38388,5,2,0:0:0:0:
47,90,38660,6,0,P|156:74|224:136,1,188.700004606934,6|8,1:2|0:0,0:0:0:0:
258,315,39069,1,0,0:0:0:0:
143,259,39206,2,0,B|115:222|115:222|120:170,1,94.3500023034669,0|0,1:0|1:0,0:0:0:0:
280,33,39479,1,8,0:0:0:0:
422,191,39615,6,0,B|375:229|375:229|231:208,1,188.700004606934,2|0,1:0|1:0,0:0:0:0:
342,120,40024,1,8,0:0:0:0:
271,306,40160,1,0,0:0:0:0:
468,274,40297,1,0,1:0:0:0:
253,192,40433,1,0,1:0:0:0:
378,347,40569,1,8,0:0:0:0:
449,160,40706,1,0,0:0:0:0:
227,196,40842,6,0,L|126:180,1,94.3500023034669,2|0,1:0|0:0,0:0:0:0:
315,90,41115,2,0,L|416:74,1,94.3500023034669,8|0,0:0|0:0,0:0:0:0:
184,68,41388,1,0,1:0:0:0:
371,209,41524,1,0,1:0:0:0:
167,55,41660,1,8,0:0:0:0:
389,222,41797,6,0,P|397:284|392:322,1,94.3500023034669,2|0,1:0|0:0,0:0:0:0:
238,191,42069,1,0,1:0:0:0:
336,64,42206,2,0,P|398:56|436:61,1,94.3500023034669,8|0,0:0|0:0,0:0:0:0:
156,282,42479,1,0,1:0:0:0:
157,59,42615,1,0,1:0:0:0:
348,171,42751,1,8,0:0:0:0:
91,170,42888,6,0,P|34:163|-2:147,1,94.3500023034669,0|2,0:0|1:0,0:0:0:0:
157,59,43160,1,0,0:0:0:0:
283,281,43297,2,0,P|305:333|310:373,1,94.3500023034669,8|0,0:0|0:0,0:0:0:0:
156,282,43569,1,0,1:0:0:0:
284,68,43706,2,0,P|318:22|350:-1,1,94.3500023034669,0|8,1:0|0:0,0:0:0:0:
494,183,43979,6,0,B|439:212|439:212|312:182,1,188.700004606934,2|0,1:0|1:0,0:0:0:0:
420,80,44388,1,8,0:0:0:0:
214,162,44524,1,0,0:0:0:0:
366,322,44660,2,0,L|382:220,1,94.3500023034669,0|0,1:0|1:0,0:0:0:0:
193,42,44933,2,0,L|207:135,1,94.3500023034669,8|0,0:0|0:0,0:0:0:0:
317,66,45206,5,14,0:3:0:0:
55,130,45479,5,0,0:0:0:0:
40,204,45615,1,0,0:0:0:0:
317,66,45751,1,14,0:3:0:0:
290,203,46024,5,0,0:0:0:0:
305,277,46160,1,0,0:0:0:0:
55,130,46296,1,14,0:3:0:0:
436,231,46569,5,14,0:3:0:0:
154,165,46842,5,10,0:0:0:0:
380,95,46979,1,10,0:0:0:0:
82,114,47115,1,8,0:0:0:0:
451,145,47251,6,0,P|477:232|446:326,1,188.700004606934,6|0,1:2|0:0,0:0:0:0:
330,233,47660,1,8,0:0:0:0:
185,350,47797,2,0,L|282:342,1,94.3500023034669,0|0,0:0|1:0,0:0:0:0:
106,237,48069,2,0,L|9:229,1,94.3500023034669,0|8,1:0|0:0,0:0:0:0:
232,46,48342,6,0,B|259:117|259:117|232:238,1,188.700004606934,2|0,1:0|1:0,0:0:0:0:
132,117,48751,1,8,0:0:0:0:
364,61,48888,1,0,0:0:0:0:
115,123,49024,2,0,P|49:117|14:103,1,94.3500023034669,0|0,1:0|1:0,0:0:0:0:
217,24,49297,1,8,0:0:0:0:
288,273,49433,1,2,0:0:0:0:
425,134,49569,6,0,L|447:22,1,94.3500023034669,0|0,1:0|0:0,0:0:0:0:
484,236,49842,1,8,0:0:0:0:
321,74,49979,1,0,0:0:0:0:
244,229,50115,2,0,P|300:221|345:201,1,94.3500023034669,0|0,1:0|1:0,0:0:0:0:
125,109,50388,2,0,P|80:92|34:86,1,94.3500023034669,8|2,0:0|1:0,0:0:0:0:
116,323,50660,6,0,L|129:224,1,94.3500023034669,0|0,0:0|1:0,0:0:0:0:
6,263,50933,1,8,0:0:0:0:
241,292,51069,1,0,0:0:0:0:
142,100,51206,1,0,1:0:0:0:
112,348,51342,1,0,1:0:0:0:
338,247,51479,1,8,0:0:0:0:
102,23,51615,6,0,L|127:226,1,188.700004606934,2|0,0:0|0:0,0:0:0:0:
305,70,52024,2,0,B|262:51|262:51|212:56,1,94.3500023034669,10|0,0:0|0:0,0:0:0:0:
375,200,52297,2,0,B|422:204|422:204|465:185,1,94.3500023034669,0|0,1:0|1:0,0:0:0:0:
317,53,52569,1,8,0:0:0:0:
244,224,52706,6,0,L|235:345,1,94.3500023034669,2|0,1:0|0:0,0:0:0:0:
100,225,52979,1,0,1:0:0:0:
210,63,53115,2,0,L|331:72,1,94.3500023034669,8|0,0:0|0:0,0:0:0:0:
327,256,53388,1,0,1:0:0:0:
121,119,53524,1,0,1:0:0:0:
406,199,53660,1,8,0:0:0:0:
31,173,53797,1,2,0:0:0:0:
469,271,53933,5,6,1:3:0:0:
156,264,54206,6,0,L|225:255,1,63.7500024318696,0|0,0:0|0:0,0:0:0:0:
24,72,54479,1,6,1:3:0:0:
325,112,54751,6,0,L|256:103,1,63.7500024318696,0|0,0:0|0:0,0:0:0:0:
506,4,55024,1,14,1:3:0:0:
102,188,55297,5,14,1:3:0:0:
262,300,55569,5,8,0:0:0:0:
290,38,55706,1,8,0:0:0:0:
431,228,55842,1,8,0:0:0:0:
115,91,55979,1,6,1:2:0:0:
118,172,59388,6,0,L|110:256,1,68,6|0,1:3|0:0,0:0:0:0:
216,113,59660,2,0,L|209:45,1,68,2|2,0:0|0:3,0:0:0:0:
46,127,59933,1,10,1:2:0:0:
244,203,60069,1,2,0:0:0:0:
25,139,60206,1,2,0:3:0:0:
264,190,60342,1,2,0:0:0:0:
117,275,60479,1,6,1:2:0:0:
57,94,64842,6,2,P|122:87|203:136,1,152.999995330811,6|8,1:2|0:0,0:0:0:0:
103,208,65251,1,2,1:2:0:0:
258,230,65388,2,0,L|342:222,1,76.4999976654053,0|0,0:0|1:0,0:0:0:0:
480,137,65660,2,0,L|396:129,1,76.4999976654053,10|0,0:0|0:0,0:0:0:0:
166,287,65933,6,0,L|172:333,1,38.2499988327027,2|0,0:0|0:0,0:0:0:0:
200,268,66206,2,0,L|204:230,1,38.2499988327027,8|0,0:0|0:0,0:0:0:0:
79,227,66479,1,2,1:2:0:0:
300,289,66615,1,2,1:2:0:0:
45,302,66751,1,8,0:0:0:0:
333,213,66887,1,0,0:0:0:0:
17,170,67024,6,2,P|0:107|17:18,1,152.999995330811,2|8,1:2|0:0,0:0:0:0:
202,147,67433,2,0,L|122:138,1,76.4999976654053,2|0,1:2|0:0,0:0:0:0:
294,42,67706,1,0,1:0:0:0:
359,169,67842,2,0,L|350:249,1,76.4999976654053,8|0,0:0|0:0,0:0:0:0:
460,211,68115,5,2,0:2:0:0:
237,243,68251,1,2,1:2:0:0:
468,282,68388,1,8,0:0:0:0:
228,171,68524,1,0,0:0:0:0:
482,207,68660,1,2,1:2:0:0:
214,246,68796,1,0,1:0:0:0:
493,293,68933,1,8,0:0:0:0:
203,160,69069,1,2,0:2:0:0:
437,107,69206,6,2,P|382:115|291:59,1,152.999995330811,2|8,1:2|0:0,0:0:0:0:
119,24,69615,2,0,P|130:65|131:106,1,76.4999976654053,2|0,1:2|0:0,0:0:0:0:
46,185,69888,1,0,1:0:0:0:
228,266,70024,2,0,L|236:181,1,76.4999976654053,8|0,0:0|0:0,0:0:0:0:
105,295,70297,5,2,0:2:0:0:
325,230,70433,1,0,1:0:0:0:
22,271,70569,1,8,0:0:0:0:
22,271,70842,1,2,1:2:0:0:
72,74,70979,1,0,1:0:0:0:
105,295,71115,2,0,L|114:378,1,76.4999976654053,8|0,0:0|1:0,0:0:0:0:
284,34,71388,5,6,1:2:0:0:
484,151,73569,6,0,B|428:182|428:182|321:152,1,170,6|8,1:0|0:0,0:0:0:0:
412,74,73979,1,2,1:0:0:0:
491,257,74115,2,0,L|477:349,1,85,0|0,0:0|1:0,0:0:0:0:
283,267,74388,2,0,L|375:281,1,85,10|0,0:0|0:0,0:0:0:0:
196,342,74660,5,2,0:0:0:0:
38,93,74933,1,10,0:0:0:0:
38,93,75206,1,2,0:0:0:0:
38,93,75479,1,10,0:0:0:0:
38,93,75751,5,2,1:0:0:0:
235,140,75888,1,0,0:0:0:0:
162,21,76024,1,8,0:0:0:0:
107,217,76160,2,0,L|120:311,1,85,2|0,1:0|0:0,0:0:0:0:
1,280,76433,1,0,1:0:0:0:
296,264,76569,2,0,P|241:258|211:243,1,85,8|0,0:0|0:0,0:0:0:0:
426,153,76842,5,0,0:0:0:0:
426,153,77115,1,8,0:0:0:0:
426,153,77388,1,0,0:0:0:0:
426,153,77660,1,8,0:0:0:0:
426,153,77933,6,0,P|437:108|436:62,1,85,2|0,1:0|0:0,0:0:0:0:
257,144,78206,1,8,0:0:0:0:
399,276,78342,2,0,L|496:266,1,85,2|0,1:0|0:0,0:0:0:0:
330,52,78615,1,0,1:0:0:0:
279,261,78751,2,0,L|289:358,1,85,10|0,0:0|0:0,0:0:0:0:
124,233,79024,5,0,0:0:0:0:
124,233,79297,1,8,0:0:0:0:
116,54,79569,5,0,1:0:0:0:
118,142,79706,1,0,1:0:0:0:
124,233,79842,1,8,0:0:0:0:
8,184,79979,1,0,1:0:0:0:
238,168,80115,5,14,0:0:0:0:
67,306,80251,1,0,1:0:0:0:
30,88,80388,1,0,1:0:0:0:
327,148,80524,5,12,0:0:0:0:
124,233,80660,1,0,1:0:0:0:
149,13,80797,1,0,1:0:0:0:
433,233,80933,5,12,0:0:0:0:
215,201,81069,1,0,1:0:0:0:
349,26,81206,1,2,1:0:0:0:
313,280,81342,5,12,0:0:0:0:
450,104,81478,1,0,1:0:0:0:
232,75,81615,1,0,1:0:0:0:
377,168,81751,5,12,0:0:0:0:
86,195,81888,1,0,1:0:0:0:
433,219,82024,1,10,0:0:0:0:
29,143,82161,1,0,1:0:0:0:
214,298,82297,6,0,L|229:219,1,68,6|0,1:2|0:0,0:0:0:0:
288,110,82569,2,0,L|209:95,1,68,8|8,0:0|0:3,0:0:0:0:
96,35,82842,2,0,L|81:114,1,68,8|8,0:0|0:3,0:0:0:0:
22,223,83114,2,0,L|101:238,1,68,8|8,0:0|0:3,0:0:0:0:
330,216,83388,5,8,0:0:0:0:
160,161,83524,1,8,0:3:0:0:
356,224,83660,1,8,0:0:0:0:
133,152,83796,1,8,0:3:0:0:
369,132,83933,5,8,0:0:0:0:
120,244,84069,1,8,0:3:0:0:
392,122,84205,1,8,0:0:0:0:
97,254,84341,1,8,0:3:0:0:
435,339,84479,5,8,0:0:0:0:
424,223,84615,1,8,0:3:0:0:
309,233,84751,1,8,0:0:0:0:
319,349,84888,1,8,0:3:0:0:
495,166,85024,5,8,0:0:0:0:
237,137,85160,1,8,0:3:0:0:
373,284,85297,1,8,0:0:0:0:
352,69,85433,1,8,0:3:0:0:
250,297,85569,6,0,L|262:372,1,68,8|8,0:0|0:0,0:0:0:0:
381,251,85842,2,0,L|456:239,1,68,8|10,0:0|0:3,0:0:0:0:
336,113,86115,2,0,L|324:38,1,68,8|8,0:0|0:3,0:0:0:0:
205,159,86388,2,0,L|130:171,1,68,10|8,0:0|0:3,0:0:0:0:
446,68,86660,6,0,P|469:127|473:163,1,85,10|8,1:2|0:3,0:0:0:0:
297,211,86933,1,8,1:2:0:0:
297,211,87069,1,8,0:3:0:0:
153,54,87206,2,0,L|263:59,1,85,10|8,1:2|0:3,0:0:0:0:
196,293,87479,1,8,1:2:0:0:
196,293,87615,1,8,0:3:0:0:
401,256,87751,6,0,P|406:199|393:158,1,85,10|8,1:2|0:3,0:0:0:0:
176,148,88024,1,10,1:2:0:0:
335,317,88160,1,8,0:3:0:0:
406,96,88297,1,8,1:2:0:0:
116,201,88433,1,8,0:0:0:0:
409,342,88569,1,10,1:2:0:0:
391,17,88706,1,8,0:0:0:0:
220,367,88842,5,6,1:2:0:0:
59,206,90751,5,2,0:0:0:0:
74,216,91024,6,0,B|126:251|126:251|266:226,1,188.700004606934,6|8,1:2|0:0,0:0:0:0:
162,53,91433,2,0,L|150:153,1,94.3500023034669,0|0,0:0|1:0,0:0:0:0:
25,88,91706,1,0,1:0:0:0:
283,120,91842,1,8,0:0:0:0:
150,340,91979,6,0,P|128:282|127:234,1,94.3500023034669,2|0,1:0|0:0,0:0:0:0:
162,53,92251,1,0,1:0:0:0:
250,228,92388,1,8,0:0:0:0:
23,198,92524,1,0,0:0:0:0:
302,103,92660,2,0,P|361:97|407:111,1,94.3500023034669,0|0,1:0|1:0,0:0:0:0:
166,156,92933,1,8,0:0:0:0:
333,284,93069,6,0,B|268:321|268:321|147:297,1,188.700004606934,0|0,1:0|0:0,0:0:0:0:
259,129,93479,2,0,L|254:226,1,94.3500023034669,8|0,0:0|0:0,0:0:0:0:
397,180,93751,1,0,1:0:0:0:
207,64,93888,1,0,1:0:0:0:
208,284,94024,1,8,0:0:0:0:
460,88,94160,6,0,P|375:74|297:135,1,188.700004606934,2|0,1:0|1:0,0:0:0:0:
396,302,94569,2,0,L|398:196,1,94.3500023034669,8|0,0:0|0:0,0:0:0:0:
125,147,94842,1,0,1:0:0:0:
308,225,94979,1,0,1:0:0:0:
349,32,95115,1,8,0:0:0:0:
178,263,95251,6,0,P|177:333|197:375,1,94.3500023034669,0|2,1:0|1:2,0:0:0:0:
237,137,95524,1,0,0:0:0:0:
71,244,95660,1,8,0:0:0:0:
289,301,95797,2,0,L|404:290,1,94.3500023034669,0|0,0:0|1:0,0:0:0:0:
212,134,96069,2,0,L|97:123,1,94.3500023034669,0|8,1:0|0:0,0:0:0:0:
348,32,96342,6,0,B|372:145|372:145|340:218,1,188.700004606934,2|0,1:0|1:0,0:0:0:0:
240,39,96751,1,8,0:0:0:0:
454,151,96888,1,0,0:0:0:0:
268,311,97024,2,0,L|249:206,1,94.3500023034669,0|0,1:0|1:0,0:0:0:0:
415,248,97297,1,8,0:0:0:0:
146,286,97433,1,0,1:0:0:0:
481,301,97569,5,14,0:3:0:0:
170,138,97842,5,0,0:0:0:0:
158,212,97979,1,0,0:0:0:0:
0,5,98115,1,14,0:3:0:0:
331,52,98388,5,0,0:0:0:0:
343,126,98525,1,0,0:0:0:0:
512,5,98660,1,14,0:3:0:0:
106,68,98933,5,14,0:3:0:0:
441,121,99206,5,10,0:0:0:0:
203,242,99342,1,10,0:0:0:0:
434,279,99479,1,8,0:0:0:0:
198,83,99615,6,0,P|110:68|20:127,1,188.700004606934,6|0,1:2|1:0,0:0:0:0:
161,265,100024,1,8,0:0:0:0:
292,147,100160,2,0,B|317:107|317:107|309:54,1,94.3500023034669,0|0,0:0|1:0,0:0:0:0:
69,237,100433,2,0,B|61:283|61:283|86:323,1,94.3500023034669,0|8,1:0|0:0,0:0:0:0:
339,272,100706,6,0,B|282:241|282:241|153:266,1,188.700004606934,2|0,1:0|1:0,0:0:0:0:
266,355,101115,1,8,0:0:0:0:
369,176,101251,1,0,0:0:0:0:
162,178,101388,1,0,1:0:0:0:
401,315,101524,2,0,L|505:299,1,94.3500023034669,0|8,1:0|0:0,0:0:0:0:
271,71,101797,6,0,B|251:132|251:132|276:183|276:183|251:252,1,188.700004606934,2|0,1:0|1:0,0:0:0:0:
164,63,102206,1,8,0:0:0:0:
380,144,102342,1,0,0:0:0:0:
156,201,102479,2,0,P|106:189|66:162,1,94.3500023034669,0|0,1:0|1:0,0:0:0:0:
313,274,102751,2,0,P|328:323|325:371,1,94.3500023034669,8|2,0:0|1:0,0:0:0:0:
298,100,103024,2,0,P|333:63|376:42,1,94.3500023034669,0|0,0:0|1:0,0:0:0:0:
215,295,103297,5,8,0:0:0:0:
189,89,103433,1,0,0:0:0:0:
342,179,103569,1,0,1:0:0:0:
93,202,103706,2,0,L|-4:188,1,94.3500023034669,0|8,1:0|0:0,0:0:0:0:
287,341,103979,6,0,L|488:320,1,188.700004606934,2|0,1:0|1:0,0:0:0:0:
207,229,104388,2,0,B|188:272|188:272|201:325,1,94.3500023034669,10|0,0:0|0:0,0:0:0:0:
354,110,104660,2,0,B|365:64|365:64|346:21,1,94.3500023034669,0|0,1:0|1:0,0:0:0:0:
203,90,104933,1,8,0:0:0:0:
347,249,105069,6,0,P|403:253|448:237,1,94.3500023034669,2|0,1:0|0:0,0:0:0:0:
261,20,105342,1,0,1:0:0:0:
108,176,105479,2,0,L|116:298,1,94.3500023034669,8|0,0:0|0:0,0:0:0:0:
306,151,105751,1,0,1:0:0:0:
76,94,105888,1,0,1:0:0:0:
367,84,106024,1,8,0:0:0:0:
14,160,106161,1,2,1:0:0:0:
432,223,106297,5,6,1:3:0:0:
188,336,106569,5,0,0:0:0:0:
112,326,106706,1,0,0:0:0:0:
432,223,106842,1,6,1:3:0:0:
99,172,107115,5,0,0:0:0:0:
115,97,107252,1,0,0:0:0:0:
322,334,107388,1,14,1:3:0:0:
115,97,107660,5,14,1:3:0:0:
325,318,107933,5,8,0:0:0:0:
384,27,108069,1,8,0:0:0:0:
488,262,108206,1,8,0:0:0:0:
197,203,108342,6,0,P|119:196|23:261,1,188.700004606934,6|0,1:2|1:0,0:0:0:0:
345,118,108751,2,0,B|381:87|381:87|389:38,1,94.3500023034669,8|0,0:0|0:0,0:0:0:0:
335,268,109024,2,0,B|343:314|343:314|382:346,1,94.3500023034669,0|0,1:0|1:0,0:0:0:0:
475,197,109297,1,8,0:0:0:0:
99,171,109433,6,0,B|164:212|164:212|284:186,1,188.700004606934,2|0,1:0|1:0,0:0:0:0:
191,88,109842,1,8,0:0:0:0:
62,259,109979,1,0,0:0:0:0:
274,284,110115,1,0,1:0:0:0:
63,125,110251,1,0,1:0:0:0:
158,350,110388,1,8,0:0:0:0:
304,155,110524,1,0,1:0:0:0:
38,267,110660,6,0,P|21:327|24:366,1,94.3500023034669,2|0,0:0|1:0,0:0:0:0:
197,103,110933,2,0,P|196:56|181:11,1,94.3500023034669,8|0,0:0|0:0,0:0:0:0:
39,117,111206,1,0,1:0:0:0:
206,258,111342,1,0,1:0:0:0:
19,99,111479,1,8,0:0:0:0:
226,276,111615,6,0,L|418:252,1,188.700004606934,2|0,1:0|1:0,0:0:0:0:
108,199,112024,2,0,L|-5:181,1,94.3500023034669,8|0,0:0|0:0,0:0:0:0:
246,38,112297,2,0,L|228:151,1,94.3500023034669,0|0,1:0|1:0,0:0:0:0:
105,59,112569,1,8,0:0:0:0:
343,165,112706,1,0,1:0:0:0:
182,351,112842,6,0,B|158:294|158:294|179:237|179:237|156:175,1,188.700004606934,2|8,0:0|0:0,0:0:0:0:
251,65,113251,1,0,0:0:0:0:
264,291,113388,1,0,1:0:0:0:
62,188,113524,1,0,1:0:0:0:
343,165,113660,1,8,0:0:0:0:
125,302,113797,6,0,P|62:315|22:309,1,94.3500023034669,2|0,1:0|0:0,0:0:0:0:
121,65,114069,1,0,1:0:0:0:
358,173,114206,2,0,L|368:280,1,94.3500023034669,8|0,0:0|0:0,0:0:0:0:
220,207,114479,1,0,1:0:0:0:
462,145,114615,1,0,1:0:0:0:
176,142,114751,1,8,0:0:0:0:
505,209,114887,1,0,1:0:0:0:
115,263,115024,6,2,P|78:226|57:117,1,149.60000456543,14|8,0:0|1:3,0:0:0:0:
219,306,115433,1,0,1:3:0:0:
215,56,115569,2,2,L|207:212,1,149.60000456543,14|8,0:0|1:3,0:0:0:0:
335,118,115979,1,0,1:3:0:0:
395,269,116115,6,0,P|350:260|318:243,1,74.8000022827149,14|0,0:0|1:3,0:0:0:0:
35,157,116388,2,0,P|68:141|105:135,1,74.8000022827149,14|0,0:0|1:3,0:0:0:0:
383,172,116660,1,14,0:0:0:0:
96,244,116797,1,2,1:0:0:0:
412,322,116933,1,0,1:0:0:0:
40,77,117069,6,0,P|127:64|224:135,1,203.999993774414,6|0,1:2|1:0,0:0:0:0:
129,336,117479,2,0,P|95:260|98:232,1,101.999996887207,10|0,0:0|1:0,0:0:0:0:
325,107,117751,1,0,1:0:0:0:
238,311,117888,1,0,1:0:0:0:
105,134,118024,1,10,0:0:0:0:
368,235,118160,6,0,L|381:346,1,101.999996887207,2|0,1:3|1:0,0:0:0:0:
471,163,118433,1,0,1:0:0:0:
105,134,118569,2,0,B|164:167|164:167|301:139,1,203.999993774414,10|0,0:0|1:0,0:0:0:0:
182,46,118979,1,0,1:0:0:0:
264,259,119115,1,10,0:0:0:0:
192,8,119251,1,0,1:0:0:0:
253,296,119388,6,0,P|202:319|157:320,1,101.999996887207,2|0,1:3|1:0,0:0:0:0:
359,145,119660,2,0,P|409:147|455:168,1,101.999996887207,10|0,0:0|1:0,0:0:0:0:
208,155,119933,1,0,1:0:0:0:
383,273,120069,1,0,1:0:0:0:
396,61,120206,1,10,0:0:0:0:
186,165,120342,6,0,L|176:270,1,101.999996887207,2|0,1:3|1:0,0:0:0:0:
416,184,120615,1,0,1:0:0:0:
259,52,120751,2,0,P|176:35|71:109,1,203.999993774414,10|0,0:0|1:0,0:0:0:0:
352,273,121160,1,0,1:0:0:0:
365,31,121297,1,10,0:0:0:0:
151,140,121433,1,0,1:0:0:0:
450,156,121569,6,0,P|471:97|469:53,1,101.999996887207,2|0,1:3|1:0,0:0:0:0:
326,283,121842,2,0,P|326:333|345:380,1,101.999996887207,10|0,0:0|1:0,0:0:0:0:
277,134,122115,2,0,L|169:119,1,101.999996887207,0|0,1:0|1:0,0:0:0:0:
198,311,122388,1,10,0:0:0:0:
452,246,122524,6,0,B|486:128|486:128|439:41,1,203.999993774414,2|0,1:3|1:0,0:0:0:0:
251,235,122933,2,0,P|316:230|359:200,1,101.999996887207,10|0,0:0|1:0,0:0:0:0:
269,61,123206,1,0,1:0:0:0:
176,309,123342,1,0,1:0:0:0:
11,100,123479,1,8,0:0:0:0:
293,210,123615,1,0,1:0:0:0:
32,253,123751,5,14,1:3:0:0:
473,145,124297,5,14,1:3:0:0:
15,50,124842,5,14,1:3:0:0:
256,113,125115,1,14,1:3:0:0:
109,212,125388,5,10,0:0:0:0:
426,155,125525,1,10,0:0:0:0:
36,138,125660,1,8,0:0:0:0:
499,229,125797,1,6,1:2:0:0:
239,108,129206,6,2,P|286:71|328:136,1,152.999995330811,6|0,1:2|0:0,0:0:0:0:
191,248,129615,2,2,P|136:226|171:157,1,152.999995330811,6|0,1:2|0:0,0:0:0:0:
337,219,130024,2,0,B|306:330|306:330|266:285,1,168.299999486389,10|0,0:0|0:0,0:0:0:0:
260,275,130297,6,2,L|250:140,1,127.500004863739,6|0,1:2|0:0,0:0:0:0:
250,148,130842,1,8,1:2:0:0:
346,187,130979,1,0,0:0:0:0:
169,209,131115,1,0,0:0:0:0:
180,73,131251,6,2,P|241:47|318:71,1,127.500004863739,2|0,0:0|0:0,0:0:0:0:
86,131,131660,2,0,P|56:105|38:75,1,63.7500024318696,0|0,0:0|0:0,0:0:0:0:
184,176,131933,2,0,P|176:214|159:245,1,63.7500024318696,8|0,1:2|0:0,0:0:0:0:
69,290,132206,1,0,0:0:0:0:
69,290,132342,1,0,0:0:0:0:
232,332,132479,6,2,B|282:315|282:315|375:332,1,127.500004863739,6|0,1:3|0:0,0:0:0:0:
355,328,133024,1,8,1:2:0:0:
456,263,133160,1,0,0:0:0:0:
293,230,133296,1,0,0:0:0:0:
395,165,133433,1,0,0:0:0:0:
272,239,133569,6,0,P|223:241|188:233,1,63.7500024318696,6|0,1:3|0:0,0:0:0:0:
359,74,133842,2,0,P|408:72|443:80,1,63.7500024318696,2|2,0:0|1:3,0:0:0:0:
226,108,134115,1,10,0:2:0:0:
414,208,134251,1,2,0:0:0:0:
196,115,134388,1,2,1:3:0:0:
443,200,134524,1,2,0:0:0:0:
166,123,134660,6,2,P|150:196|162:255,1,127.500004863739,6|0,1:2|0:0,0:0:0:0:
159,247,135206,2,0,L|234:236,1,63.7500024318696,8|0,1:2|0:0,0:0:0:0:
306,289,135479,1,0,0:0:0:0:
165,348,135615,2,2,L|31:334,1,127.500004863739,2|0,0:0|0:0,0:0:0:0:
0,237,136024,1,0,0:0:0:0:
0,237,136297,1,8,1:2:0:0:
194,188,136433,1,0,0:0:0:0:
56,177,136569,1,0,0:0:0:0:
236,264,136705,1,0,0:0:0:0:
341,147,136842,6,2,P|350:93|335:15,1,127.500004863739,6|0,1:3|0:0,0:0:0:0:
337,21,137388,2,0,L|269:32,1,63.7500024318696,8|0,1:2|0:0,0:0:0:0:
428,104,137660,2,0,L|496:114,1,63.7500024318696,0|0,0:3|0:0,0:0:0:0:
235,201,137933,5,6,1:2:0:0:
395,246,138069,1,0,0:0:0:0:
183,264,138206,1,2,0:0:0:0:
446,182,138342,1,6,1:2:0:0:
176,139,138479,2,0,L|92:132,1,63.7500024318696,0|2,0:0|0:0,0:0:0:0:
316,45,138751,1,10,0:0:0:0:
316,45,139024,6,2,P|347:142|299:240,1,203.999993774414,6|4,1:2|0:3,0:0:0:0:
121,101,140115,6,2,P|196:169|203:278,1,203.999993774414,14|4,0:3|0:3,0:0:0:0:
0,259,141206,6,2,P|99:280|160:371,1,203.999993774414,6|4,1:3|0:3,0:0:0:0:
133,59,142297,6,0,L|120:114,1,50.9999984436036,14|0,0:3|0:0,0:0:0:0:
211,126,142569,1,2,0:0:0:0:
211,126,142706,2,0,L|224:181,1,50.9999984436036,6|0,1:3|0:0,0:0:0:0:
152,236,142979,1,2,0:0:0:0:
152,236,143115,2,0,L|139:291,1,50.9999984436036,6|2,1:3|0:0,0:0:0:0:
195,27,143388,6,2,P|123:61|72:140,1,170,6|4,1:2|0:3,0:0:0:0:
259,130,144479,6,2,P|214:195|209:289,1,170,14|4,0:3|0:3,0:0:0:0:
371,183,145569,6,2,P|365:262|408:345,1,170,6|4,1:3|0:3,0:0:0:0:
475,149,146388,6,0,L|478:106,1,42.5,0|0,1:0|1:0,0:0:0:0:
376,32,146660,2,2,P|326:23|254:31,1,85,14|2,0:3|0:0,0:0:0:0:
214,117,147069,2,2,L|228:224,1,85,6|2,1:3|0:0,0:0:0:0:
97,247,147479,2,2,L|38:237,1,42.5,10|2,1:3|0:0,0:0:0:0:
200,328,147751,5,2,0:0:0:0:
