osu file format v14

[General]
AudioFilename: audio.mp3
AudioLeadIn: 0
PreviewTime: 38301
Countdown: 0
SampleSet: Soft
StackLeniency: 0.4
Mode: 0
LetterboxInBreaks: 0
WidescreenStoryboard: 1

[Editor]
DistanceSpacing: 1
BeatDivisor: 4
GridSize: 8
TimelineZoom: 1.3

[Metadata]
Title:Kick Me
TitleUnicode:Kick Me
Artist:Sleeping With Sirens
ArtistUnicode:Sleeping With Sirens
Creator:fieryrage
Version:Fiery Rage
Source:
Tags:sws madness english metal punk rock post-hardcore ailv kyshiro elsa valentine xlolicore- pishifat bergy dashyy- ayyri eiri- craezy hypercyte underdogs stingy peter petereu
BeatmapID:2238881
BeatmapSetID:1038902

[Difficulty]
HPDrainRate:5
CircleSize:4
OverallDifficulty:9.6
ApproachRate:10
SliderMultiplier:2
SliderTickRate:1

[Events]
//Background and Video events
0,0,"asdfasd.png",0,0
//Break Periods
2,125997,128115
//Storyboard Layer 0 (Background)
//Storyboard Layer 1 (Fail)
//Storyboard Layer 2 (Pass)
//Storyboard Layer 3 (Foreground)
//Storyboard Layer 4 (Overlay)
//Storyboard Sound Samples

[TimingPoints]
479,272.727272727273,4,2,5,5,1,0
479,-200,4,2,5,5,0,0
10433,-200,4,2,5,10,0,0
10842,-200,4,2,5,15,0,0
12342,-200,4,2,5,5,0,0
12479,-200,4,2,5,50,0,0
13569,-200,4,2,5,40,0,0
14660,-200,4,2,5,50,0,0
15751,-200,4,2,5,40,0,0
16842,-200,4,2,5,50,0,0
17933,-200,4,2,5,40,0,0
19024,-100,4,2,5,60,0,1
19092,-100,4,2,5,60,0,0
21206,-125,4,2,5,60,0,0
22297,-200,4,2,5,50,0,0
23388,-125,4,2,5,60,0,0
24479,-200,4,2,5,50,0,0
25569,-125,4,2,5,60,0,0
26660,-200,4,2,5,50,0,0
27751,-100,4,2,5,60,0,1
27819,-100,4,2,5,60,0,0
29933,-200,4,2,5,55,0,0
30206,-200,4,2,5,30,0,0
31024,-200,4,2,5,35,0,0
31569,-200,4,2,5,38,0,0
32115,-200,4,2,5,40,0,0
32660,-200,4,2,5,43,0,0
33206,-200,4,2,5,45,0,0
33479,-200,4,2,5,48,0,0
33751,-200,4,2,5,50,0,0
34024,-100,4,2,5,50,0,0
34297,-125,4,2,5,50,0,0
34433,-125,4,2,5,40,0,0
34842,-100,4,2,5,55,0,0
34979,-100,4,2,5,40,0,0
35388,-83.3333333333333,4,2,5,60,0,0
35524,-83.3333333333333,4,2,5,45,0,0
35660,-83.3333333333333,4,2,5,50,0,0
35933,-83.3333333333333,4,2,5,55,0,0
36206,-83.3333333333333,4,2,5,60,0,0
36479,-200,4,2,5,60,0,0
36547,-200,4,2,5,45,0,0
37024,-200,4,2,5,35,0,0
38388,-125,4,2,5,60,0,0
38660,-90.9090909090909,4,2,5,70,0,1
45206,-125,4,2,5,70,0,0
45479,-125,4,2,5,60,0,0
45751,-125,4,2,5,70,0,0
46024,-125,4,2,5,60,0,0
46297,-100,4,2,5,65,0,1
47183,-100,4,2,5,65,0,0
47251,-90.9090909090909,4,2,5,70,0,1
53933,-125,4,2,5,70,0,0
54206,-125,4,2,5,60,0,0
54479,-125,4,2,5,70,0,0
54751,-125,4,2,5,60,0,0
55024,-100,4,2,5,70,0,1
55979,-125,4,2,5,65,0,0
56047,-125,4,2,5,55,0,0
59388,-83.3333333333333,4,2,5,60,0,1
60479,-125,4,2,5,55,0,0
61569,-100,4,2,5,60,0,0
62115,-125,4,2,5,60,0,0
63751,-200,4,2,5,60,0,0
63819,-200,4,2,5,5,0,0
64160,-100,4,2,5,65,0,0
64229,-100,4,2,5,5,0,0
64569,-125,4,2,5,60,0,0
64638,-125,4,2,5,5,0,0
64842,-200,4,2,5,55,0,0
64979,-200,4,2,5,50,0,0
71388,-400,4,2,5,50,0,0
71456,-400,4,2,5,5,0,0
72479,-400,4,2,5,50,0,0
73092,-400,4,2,5,5,0,0
73297,-100,4,2,5,20,0,0
73365,-100,4,2,5,35,0,0
73433,-100,4,2,5,40,0,0
73501,-100,4,2,5,50,0,0
73569,-125,4,2,5,60,0,0
74388,-83.3333333333333,4,2,5,60,0,1
75206,-83.3333333333333,4,2,5,58,0,1
75751,-125,4,2,5,58,0,0
76160,-125,4,2,5,55,0,0
76842,-125,4,2,5,52,0,0
80115,-100,4,2,5,60,0,1
80183,-100,4,2,5,60,0,0
82297,-125,4,2,5,60,0,0
82569,-200,4,2,5,32,0,0
82842,-200,4,2,5,35,0,0
83388,-125,4,2,5,38,0,0
83933,-125,4,2,5,40,0,0
84479,-125,4,2,5,42,0,0
85024,-125,4,2,5,45,0,0
85569,-125,4,2,5,50,0,0
85842,-125,4,2,5,40,0,0
85979,-125,4,2,5,50,0,0
86115,-125,4,2,5,50,0,0
86388,-83.3333333333333,4,2,5,50,0,0
86660,-100,4,2,5,55,0,0
86797,-100,4,2,5,40,0,0
87206,-83.3333333333333,4,2,5,55,0,0
87342,-83.3333333333333,4,2,5,40,0,0
87751,-71.4285714285714,4,2,5,60,0,0
87888,-71.4285714285714,4,2,5,40,0,0
88024,-71.4285714285714,4,2,5,50,0,0
88297,-71.4285714285714,4,2,5,55,0,0
88569,-71.4285714285714,4,2,5,60,0,0
88842,-200,4,2,5,65,0,0
88910,-200,4,2,5,50,0,0
89388,-200,4,2,5,40,0,0
90751,-125,4,2,5,65,0,0
91024,-90.9090909090909,4,2,5,70,0,1
97569,-125,4,2,5,75,0,0
97842,-125,4,2,5,60,0,0
98115,-125,4,2,5,75,0,0
98388,-125,4,2,5,60,0,0
98660,-100,4,2,5,75,0,1
99547,-100,4,2,5,75,0,0
99615,-90.9090909090909,4,2,5,75,0,1
99751,-90.9090909090909,4,2,5,70,0,1
106297,-125,4,2,5,75,0,0
106569,-125,4,2,5,60,0,0
106842,-125,4,2,5,75,0,0
107115,-125,4,2,5,60,0,0
107388,-100,4,2,5,75,0,1
108274,-100,4,2,5,75,0,0
108342,-83.3333333333333,4,2,5,75,0,1
115024,-100,4,2,5,75,0,0
115297,-100,4,2,5,60,0,0
115433,-100,4,2,5,50,0,0
115569,-83.3333333333333,4,2,5,75,0,0
115842,-83.3333333333333,4,2,5,60,0,0
115979,-83.3333333333333,4,2,5,50,0,0
116115,-71.4285714285714,4,2,5,75,0,1
116388,-66.6666666666667,4,2,5,75,0,1
116660,-62.5,4,2,5,75,0,1
117001,-62.5,4,2,5,75,0,0
117069,-83.3333333333333,4,2,5,75,0,1
123683,-83.3333333333333,4,2,5,75,0,0
123751,-100,4,2,5,75,0,1
124024,-100,4,2,5,75,0,0
124297,-83.3333333333333,4,2,5,75,0,1
124569,-83.3333333333333,4,2,5,75,0,0
124842,-71.4285714285714,4,2,5,75,0,1
125115,-62.5,4,2,5,75,0,1
125388,-55.5555555555556,4,2,5,70,0,1
125797,-200,4,2,5,70,0,0
129206,-200,4,2,5,70,0,0
129274,-200,4,2,5,5,0,0
129615,-125,4,2,5,70,0,0
129683,-125,4,2,5,5,0,0
130024,-50,4,2,5,70,0,0
130092,-50,4,2,5,5,0,0
130297,-125,4,2,5,60,0,1
130365,-125,4,2,5,55,0,0
133569,-100,4,2,5,60,0,1
134660,-125,4,2,5,60,0,0
137933,-83.3333333333333,4,2,5,60,0,1
139024,-200,4,2,5,70,0,0
140115,-125,4,2,5,70,0,1
140660,-200,4,2,5,70,0,0
141206,-125,4,2,5,70,0,1
141751,-200,4,2,5,70,0,0
142297,-100,4,2,5,70,0,1
143388,-200,4,2,5,70,0,0
144479,-125,4,2,5,70,0,1
145024,-200,4,2,5,70,0,0
145569,-125,4,2,5,70,0,1
146115,-200,4,2,5,70,0,0
146660,-100,4,2,5,70,0,1
147615,-400,4,2,5,70,0,1
147751,-400,4,2,5,5,0,0
148842,-400,4,2,5,25,0,0

[Colours]
Combo1 : 136,136,136
Combo2 : 82,109,90
Combo3 : 196,148,140
Combo4 : 146,192,194

[HitObjects]
256,192,10297,12,0,12342,0:0:0:0:
83,112,12479,6,0,P|137:119|197:99,1,100,2|0,1:0|1:0,0:0:0:0:
275,55,12888,1,2,0:3:0:0:
275,55,13024,2,0,L|278:160,1,100,0|2,1:0|1:0,0:0:0:0:
413,362,13569,5,0,1:0:0:0:
435,285,13842,1,0,1:0:0:0:
406,210,14115,1,0,1:0:0:0:
428,133,14388,1,0,1:0:0:0:
210,249,14660,6,0,P|156:254|105:233,1,100,2|0,1:0|1:0,0:0:0:0:
59,148,15069,1,2,0:3:0:0:
59,148,15206,2,0,L|61:27,1,100,0|2,1:0|1:0,0:0:0:0:
385,89,15751,5,0,1:0:0:0:
308,114,16024,1,0,1:0:0:0:
230,95,16297,1,0,1:0:0:0:
153,120,16570,1,0,1:0:0:0:
376,314,16842,6,0,P|387:266|375:211,1,100,2|0,1:0|1:0,0:0:0:0:
308,114,17251,1,2,0:3:0:0:
308,114,17388,2,0,L|425:111,1,100,0|2,1:0|1:0,0:0:0:0:
229,329,17933,5,0,1:0:0:0:
130,313,18206,1,0,1:0:0:0:
88,221,18479,1,0,1:0:0:0:
118,126,18751,5,0,1:0:0:0:
130,313,18888,1,0,1:0:0:0:
226,56,19024,5,14,0:0:0:0:
30,318,19160,2,0,L|154:311,1,100,0|0,1:0|1:0,0:0:0:0:
68,0,19433,5,12,0:0:0:0:
305,239,19569,2,0,L|205:233,1,100,0|0,1:0|1:0,0:0:0:0:
390,0,19842,5,12,0:0:0:0:
118,126,19979,1,0,1:0:0:0:
469,93,20115,5,2,1:0:0:0:
89,129,20251,1,14,0:0:0:0:
389,288,20388,2,0,P|398:242|384:181,1,100,0|0,1:0|1:0,0:0:0:0:
155,40,20660,5,14,0:0:0:0:
139,339,20797,1,0,1:0:0:0:
253,25,20933,5,10,0:0:0:0:
277,358,21069,1,0,1:0:0:0:
354,18,21206,6,0,P|431:8|505:44,1,160,6|8,1:2|0:0,0:0:0:0:
257,184,21615,2,0,L|252:18,1,160,2|0,1:0|1:0,0:0:0:0:
389,288,22024,1,10,0:0:0:0:
170,141,22297,5,0,0:0:0:0:
416,95,22569,1,8,0:0:0:0:
199,251,22842,1,0,0:0:0:0:
445,205,23115,2,0,L|387:215,1,50,8|0,0:0|0:0,0:0:0:0:
170,141,23388,6,0,P|230:115|325:123,1,160,2|8,1:0|0:0,0:0:0:0:
466,305,23797,2,0,P|387:314|313:286,1,160,2|0,1:0|1:0,0:0:0:0:
512,138,24206,1,10,0:0:0:0:
199,251,24479,5,0,0:0:0:0:
204,5,24751,1,8,0:0:0:0:
423,119,25024,1,0,1:0:0:0:
423,119,25160,1,0,1:0:0:0:
260,106,25297,1,8,0:0:0:0:
460,232,25569,6,0,L|296:227,1,160,2|8,1:0|0:0,0:0:0:0:
197,343,25979,2,0,L|361:338,1,160,2|0,1:0|1:0,0:0:0:0:
153,153,26388,1,10,0:0:0:0:
357,339,26660,5,0,0:0:0:0:
29,244,26933,2,0,L|94:242,1,50,8|0,0:0|0:0,0:0:0:0:
309,173,27206,1,0,1:0:0:0:
309,173,27342,1,0,1:0:0:0:
214,325,27479,1,8,0:0:0:0:
163,90,27615,1,0,1:0:0:0:
427,163,27751,5,14,0:0:0:0:
50,253,27888,1,0,1:0:0:0:
293,58,28024,1,0,1:0:0:0:
33,268,28160,2,0,L|146:264,1,100,12|0,0:0|1:0,0:0:0:0:
357,339,28433,1,0,1:0:0:0:
181,14,28569,5,12,0:0:0:0:
215,337,28706,2,0,L|216:221,1,100,0|2,1:0|1:0,0:0:0:0:
398,67,28979,5,12,0:0:0:0:
24,180,29115,2,0,L|137:176,1,100,0|0,1:0|1:0,0:0:0:0:
473,115,29388,5,12,0:0:0:0:
103,67,29524,1,0,1:0:0:0:
357,339,29660,2,0,L|358:213,1,100,10|0,0:0|1:0,0:0:0:0:
262,0,29933,5,6,1:2:0:0:
214,325,30206,1,10,0:3:0:0:
212,310,30342,1,8,0:3:0:0:
209,295,30479,2,0,L|207:354,1,50,10|8,0:0|0:3,0:0:0:0:
357,239,30751,2,0,L|359:298,1,50,10|8,0:0|0:3,0:0:0:0:
183,158,31024,6,0,L|181:217,1,50,10|8,0:0|0:3,0:0:0:0:
383,100,31297,1,10,0:0:0:0:
273,76,31433,1,8,0:3:0:0:
412,107,31569,1,10,0:0:0:0:
244,71,31706,1,8,0:3:0:0:
357,239,31842,1,10,0:0:0:0:
402,6,31979,1,8,0:3:0:0:
183,158,32115,6,0,L|251:156,1,50,10|8,0:0|0:3,0:0:0:0:
406,240,32388,2,0,L|338:238,1,50,10|8,0:0|0:3,0:0:0:0:
140,317,32660,6,0,L|208:315,1,50,10|8,0:0|0:3,0:0:0:0:
455,241,32933,2,0,L|387:239,1,50,10|8,0:0|0:3,0:0:0:0:
141,42,33206,5,10,0:0:0:0:
174,224,33342,1,8,0:3:0:0:
253,7,33479,5,10,0:0:0:0:
270,268,33615,1,8,0:3:0:0:
367,0,33751,5,10,0:0:0:0:
379,310,33888,1,8,0:3:0:0:
474,14,34024,2,0,L|472:124,1,100,10|8,0:0|0:3,0:0:0:0:
223,185,34297,6,0,P|270:174|305:178,1,80,2|8,1:0|0:3,0:0:0:0:
509,282,34569,1,10,1:2:0:0:
472,113,34706,1,8,0:3:0:0:
272,367,34842,6,0,L|269:264,1,100,2|8,1:0|0:3,0:0:0:0:
353,27,35115,1,10,1:2:0:0:
130,108,35251,1,8,0:3:0:0:
487,135,35388,5,2,1:2:0:0:
102,104,35524,1,8,0:3:0:0:
462,252,35660,5,10,1:2:0:0:
73,102,35797,1,8,0:0:0:0:
512,31,35933,5,10,1:2:0:0:
46,100,36069,1,8,0:0:0:0:
512,138,36206,5,10,1:2:0:0:
19,98,36342,1,8,0:0:0:0:
492,258,36479,6,0,B|382:279|396:227|294:254,1,200,6|0,1:2|0:0,0:0:0:0:
294,253,38388,5,2,0:0:0:0:
84,74,38660,6,0,L|212:70,1,110.000003356934,6|0,1:2|0:0,0:0:0:0:
434,145,38933,1,8,0:0:0:0:
294,253,39069,1,0,0:0:0:0:
395,22,39206,1,0,1:0:0:0:
467,310,39342,1,0,1:0:0:0:
281,49,39479,1,8,0:0:0:0:
348,340,39615,6,0,B|255:375|203:296|203:296|178:314|146:310,1,220.000006713867,2|0,1:0|1:0,0:0:0:0:
281,49,40024,2,0,P|302:102|291:168,1,110.000003356934,8|0,0:0|0:0,0:0:0:0:
34,266,40297,1,0,1:0:0:0:
84,74,40433,1,0,1:0:0:0:
29,286,40569,1,8,0:0:0:0:
191,168,40706,6,0,P|245:149|309:157,1,110.000003356934,0|2,0:0|1:0,0:0:0:0:
405,295,40979,1,0,0:0:0:0:
446,39,41115,2,0,L|450:163,1,110.000003356934,8|0,0:0|0:0,0:0:0:0:
174,79,41388,1,0,1:0:0:0:
346,46,41524,1,0,1:0:0:0:
184,275,41660,1,8,0:0:0:0:
449,148,41797,6,0,L|326:145,1,110.000003356934,2|0,1:0|0:0,0:0:0:0:
174,79,42069,1,0,1:0:0:0:
347,343,42206,2,0,P|355:273|343:230,1,110.000003356934,8|0,0:0|0:0,0:0:0:0:
111,167,42479,1,0,1:0:0:0:
152,310,42615,1,0,1:0:0:0:
268,79,42751,1,8,0:0:0:0:
111,167,42888,6,0,L|-12:164,1,110.000003356934,0|2,0:0|1:0,0:0:0:0:
345,235,43160,1,0,0:0:0:0:
174,79,43297,1,8,0:0:0:0:
152,310,43433,1,0,0:0:0:0:
291,96,43569,1,0,1:0:0:0:
269,327,43705,1,0,1:0:0:0:
111,167,43842,1,8,0:0:0:0:
454,234,43979,6,0,L|335:235,1,110.000003356934,2|0,1:0|0:0,0:0:0:0:
152,310,44251,1,0,1:0:0:0:
467,141,44388,2,0,L|357:141,1,110.000003356934,8|0,0:0|0:0,0:0:0:0:
122,190,44660,1,0,1:0:0:0:
234,0,44797,1,0,1:0:0:0:
349,342,44933,2,0,P|355:284|337:220,1,110.000003356934,8|0,0:0|0:0,0:0:0:0:
58,102,45206,6,0,L|228:99,1,160,14|0,0:3|0:0,0:0:0:0:
360,95,45615,1,0,0:0:0:0:
38,194,45751,6,0,L|208:191,1,160,14|0,0:3|0:0,0:0:0:0:
340,187,46160,1,0,0:0:0:0:
20,290,46297,6,0,L|146:288,1,100,14|0,0:3|0:0,0:0:0:0:
317,100,46569,2,0,L|191:98,1,100,14|0,0:3|0:0,0:0:0:0:
427,384,46842,5,10,0:0:0:0:
123,205,46979,1,10,0:0:0:0:
512,137,47115,1,8,0:0:0:0:
63,299,47251,6,0,B|183:321|167:262|281:293,1,220.000006713867,6|0,1:2|0:0,0:0:0:0:
94,35,47660,1,8,0:0:0:0:
317,100,47797,2,0,L|426:97,1,110.000003356934,0|0,0:0|1:0,0:0:0:0:
123,205,48069,1,0,1:0:0:0:
426,300,48206,1,8,0:0:0:0:
259,29,48342,6,0,P|220:104|318:95,1,220.000006713867,2|0,1:0|1:0,0:0:0:0:
13,207,48751,2,0,L|140:204,1,110.000003356934,8|0,0:0|0:0,0:0:0:0:
426,300,49024,1,0,1:0:0:0:
237,342,49160,1,0,1:0:0:0:
385,63,49297,1,8,0:0:0:0:
122,204,49433,6,0,P|69:219|15:213,1,110.000003356934,2|0,0:0|1:0,0:0:0:0:
218,35,49706,1,0,0:0:0:0:
426,300,49842,2,0,L|428:163,1,110.000003356934,8|0,0:0|0:0,0:0:0:0:
237,342,50115,2,0,L|235:205,1,110.000003356934,0|0,1:0|1:0,0:0:0:0:
327,0,50388,1,8,0:0:0:0:
130,106,50524,1,2,1:0:0:0:
427,190,50660,6,0,P|368:201|304:188,1,110.000003356934,0|0,0:0|1:0,0:0:0:0:
73,22,50933,2,0,P|132:11|196:24,1,110.000003356934,8|0,0:0|0:0,0:0:0:0:
235,232,51206,1,0,1:0:0:0:
327,0,51342,1,0,1:0:0:0:
35,130,51479,1,8,0:0:0:0:
344,232,51615,6,0,L|220:231,1,110.000003356934,2|0,0:0|1:0,0:0:0:0:
377,82,51888,1,0,0:0:0:0:
35,130,52024,2,0,L|159:129,1,110.000003356934,10|0,0:0|0:0,0:0:0:0:
430,166,52297,1,0,1:0:0:0:
234,231,52433,1,0,1:0:0:0:
327,0,52569,1,8,0:0:0:0:
419,249,52706,6,0,P|476:256|425:168,1,220.000006713867,2|0,1:0|1:0,0:0:0:0:
237,340,53115,2,0,L|233:222,1,110.000003356934,8|0,0:0|0:0,0:0:0:0:
327,0,53388,1,0,1:0:0:0:
122,103,53524,1,0,1:0:0:0:
419,249,53660,2,0,P|347:263|300:251,1,110.000003356934,8|2,0:0|0:0,0:0:0:0:
122,103,53933,6,0,P|107:176|128:267,1,160,6|0,1:3|0:0,0:0:0:0:
237,340,54342,1,0,0:0:0:0:
172,52,54479,6,0,P|137:118|132:211,1,160,6|0,1:3|0:0,0:0:0:0:
237,340,54888,1,0,0:0:0:0:
312,20,55024,6,0,L|317:131,1,100,14|0,1:3|0:3,0:0:0:0:
126,301,55297,2,0,L|130:201,1,100,14|0,1:3|0:3,0:0:0:0:
448,56,55569,5,8,0:0:0:0:
237,340,55706,1,8,0:0:0:0:
148,0,55842,1,8,0:0:0:0:
494,252,55979,6,0,P|425:266|335:223,1,160,6|0,1:2|0:0,0:0:0:0:
448,56,56388,1,0,0:0:0:0:
448,56,56524,1,0,0:0:0:0:
236,121,56660,2,0,L|323:119,1,80,8|0,1:2|0:0,0:0:0:0:
512,152,56933,1,0,0:0:0:0:
291,214,57069,6,0,L|211:215,1,80,2|4,0:2|1:3,0:0:0:0:
312,40,57342,1,0,0:0:0:0:
312,40,57479,2,0,P|320:78|316:118,1,80,0|0,0:0|0:0,0:0:0:0:
254,331,57751,1,8,1:2:0:0:
187,187,57888,1,0,0:0:0:0:
365,266,58024,2,0,P|406:268|449:255,1,80
237,40,58297,6,0,L|235:119,1,80,6|0,1:3|0:0,0:0:0:0:
69,234,58569,2,0,P|141:211|227:233,1,160,0|8,0:0|1:2,0:0:0:0:
304,332,58979,1,0,0:0:0:0:
341,152,59115,2,0,L|343:231,1,80,0|0,0:3|0:0,0:0:0:0:
151,331,59388,6,0,L|153:211,1,119.999996337891,6|0,1:3|0:0,0:0:0:0:
339,32,59660,2,0,L|341:152,1,119.999996337891,2|2,0:0|0:3,0:0:0:0:
115,37,59933,1,10,1:2:0:0:
401,235,60069,2,0,P|343:250|286:237,1,119.999996337891,2|2,0:0|0:3,0:0:0:0:
479,0,60342,1,2,0:0:0:0:
54,128,60479,6,0,P|123:138|208:98,1,160,6|0,1:2|0:0,0:0:0:0:
339,32,60888,1,0,0:0:0:0:
339,32,61024,2,0,L|341:128,1,80,8|0,1:2|0:0,0:0:0:0:
173,232,61297,2,0,L|174:152,1,80,0|2,0:0|0:0,0:0:0:0:
462,292,61569,6,0,B|363:312|363:312|255:248,1,200,6|0,1:3|0:0,0:0:0:0:
468,98,61979,1,0,0:0:0:0:
468,98,62115,2,0,L|373:100,1,80,8|0,1:2|0:0,0:0:0:0:
198,260,62388,2,0,L|293:262,1,80,0|0,0:0|0:0,0:0:0:0:
107,57,62660,6,0,P|63:105|140:91,1,160,6|0,1:3|0:0,0:0:0:0:
23,207,63069,1,0,0:0:0:0:
23,207,63206,2,0,P|63:228|106:228,1,80,8|0,1:2|0:0,0:0:0:0:
181,34,63479,2,0,P|141:37|106:56,1,80,0|0,0:0|0:0,0:0:0:0:
268,340,63751,6,0,L|269:205,1,125,6|0,1:3|0:0,0:0:0:0:
387,101,64160,6,0,P|438:129|341:134,1,250,6|0,1:3|0:0,0:0:0:0:
150,220,64569,6,0,B|182:213|182:213|211:217|211:217|239:207|268:215,1,120,10|0,0:0|0:0,0:0:0:0:
158,122,64842,6,0,P|144:171|152:225,1,100,6|8,1:2|0:0,0:0:0:0:
268,340,65251,1,2,1:2:0:0:
317,214,65388,2,0,L|262:215,1,50,0|0,0:3|1:0,0:0:0:0:
114,312,65660,1,10,0:0:0:0:
149,219,65797,1,0,0:0:0:0:
268,340,65933,6,0,B|327:342|327:342|366:319,1,100,2|10,0:2|0:0,0:0:0:0:
317,214,66342,1,0,0:0:0:0:
454,282,66479,1,2,1:2:0:0:
454,282,66615,1,2,1:2:0:0:
412,110,66751,2,0,P|405:142|408:172,1,50,8|0,0:0|0:0,0:0:0:0:
469,33,67024,6,0,P|418:19|358:32,1,100,2|8,1:2|0:0,0:0:0:0:
197,88,67433,2,0,P|248:102|308:89,1,100,2|0,1:2|1:0,0:0:0:0:
512,186,67842,2,0,L|455:185,1,50,8|0,0:0|0:0,0:0:0:0:
232,250,68115,5,2,0:2:0:0:
232,250,68251,1,2,1:2:0:0:
293,95,68388,1,8,0:0:0:0:
293,95,68524,1,0,0:0:0:0:
401,340,68660,5,2,1:2:0:0:
293,95,68797,1,0,1:0:0:0:
232,250,68933,1,8,0:0:0:0:
462,185,69069,1,2,0:2:0:0:
212,263,69206,6,0,L|109:266,1,100,2|8,1:2|0:0,0:0:0:0:
193,92,69615,2,0,L|296:95,1,100,2|0,1:2|1:0,0:0:0:0:
55,177,70024,2,0,L|-17:179,1,50,8|0,0:0|0:0,0:0:0:0:
193,92,70297,5,2,0:2:0:0:
193,92,70433,1,0,1:0:0:0:
334,194,70569,2,0,L|284:192,1,50,8|0,0:0|0:0,0:0:0:0:
434,7,70842,1,2,1:2:0:0:
434,7,70979,1,0,1:0:0:0:
334,194,71115,1,8,0:0:0:0:
249,0,71251,1,0,1:0:0:0:
417,210,71388,6,0,P|432:252|342:190,1,325,6|0,1:2|0:0,0:0:0:0:
485,127,73297,6,2,L|427:128,3,50,2|2|2|2,0:0|0:0|0:0|0:0,0:0:0:0:
511,42,73569,6,0,L|329:45,1,160,6|8,1:0|0:0,0:0:0:0:
173,191,73979,2,0,L|355:194,1,160,2|0,1:0|1:0,0:0:0:0:
150,7,74388,6,0,L|-10:10,1,119.999996337891,10|0,0:0|0:0,0:0:0:0:
257,99,74660,2,0,L|417:102,1,119.999996337891,2|0,0:0|0:0,0:0:0:0:
119,202,74933,2,0,L|-41:205,1,119.999996337891,10|0,0:0|0:0,0:0:0:0:
196,3,75205,2,0,L|356:6,1,119.999996337891,2|0,0:0|0:0,0:0:0:0:
211,270,75479,1,10,0:0:0:0:
111,71,75615,1,2,0:0:0:0:
386,174,75751,6,0,L|306:175,1,80,2|0,1:0|0:0,0:0:0:0:
211,270,76024,1,8,0:0:0:0:
211,270,76160,2,0,P|179:187|193:119,1,160,2|0,1:0|1:0,0:0:0:0:
293,64,76569,1,8,0:0:0:0:
196,3,76706,1,0,0:0:0:0:
312,80,76842,6,0,L|402:79,1,80,0|0,0:0|0:0,0:0:0:0:
213,190,77115,2,0,L|372:192,1,160,8|0,0:0|0:0,0:0:0:0:
440,120,77524,1,0,0:0:0:0:
232,79,77660,2,0,L|312:80,1,80,8|0,0:0|0:0,0:0:0:0:
55,192,77933,6,0,B|97:206|139:190|139:190|173:178|216:190,1,160,2|8,1:0|0:0,0:0:0:0:
85,32,78342,2,0,P|54:86|135:76,1,160,2|0,1:0|1:0,0:0:0:0:
209,267,78751,2,0,P|216:225|207:175,1,80,10|0,0:0|0:0,0:0:0:0:
52,113,79024,6,0,P|47:152|54:191,1,80,0|0,0:0|0:0,0:0:0:0:
198,12,79297,1,8,0:0:0:0:
248,103,79433,1,0,0:0:0:0:
109,38,79569,1,0,1:0:0:0:
109,38,79706,1,0,1:0:0:0:
355,58,79842,1,8,0:0:0:0:
199,251,79979,1,0,1:0:0:0:
434,0,80115,5,14,0:0:0:0:
109,174,80251,1,0,1:0:0:0:
451,91,80388,1,0,1:0:0:0:
11,40,80524,2,0,P|61:30|127:45,1,100,12|0,0:0|3:0,3:0:0:0:
199,251,80797,1,0,1:0:0:0:
261,21,80933,5,12,0:0:0:0:
196,350,81069,2,0,L|199:243,1,100,0|2,1:0|1:0,0:0:0:0:
265,0,81342,5,12,0:0:0:0:
359,365,81478,2,0,L|356:258,1,100,0|0,1:0|1:0,0:0:0:0:
108,37,81751,5,12,0:0:0:0:
457,107,81888,1,0,1:0:0:0:
98,251,82024,2,0,L|216:249,1,100,10|0,0:0|1:0,0:0:0:0:
484,100,82297,5,6,1:2:0:0:
108,37,82569,1,8,0:0:0:0:
123,38,82706,1,8,0:3:0:0:
137,38,82842,2,0,L|206:37,1,50,8|8,0:0|0:3,0:0:0:0:
55,142,83115,2,0,L|104:142,1,50,8|8,0:0|0:3,0:0:0:0:
347,91,83388,6,0,L|255:90,1,80,8|8,0:0|0:3,0:0:0:0:
55,142,83660,1,8,0:0:0:0:
186,37,83797,1,8,0:3:0:0:
150,203,83933,1,8,0:0:0:0:
81,44,84069,1,8,0:3:0:0:
151,232,84206,1,8,0:0:0:0:
186,37,84342,1,8,0:3:0:0:
53,221,84479,6,0,L|55:124,1,80,8|8,0:0|0:3,0:0:0:0:
236,254,84751,2,0,L|234:157,1,80,8|8,0:0|0:3,0:0:0:0:
51,300,85024,6,0,L|53:203,1,80,8|8,0:0|0:3,0:0:0:0:
237,333,85297,2,0,L|235:236,1,80,8|8,0:0|0:3,0:0:0:0:
81,44,85569,5,8,0:0:0:0:
144,318,85706,1,8,0:0:0:0:
193,12,85842,5,8,0:0:0:0:
237,333,85979,1,10,0:3:0:0:
304,16,86115,5,8,0:0:0:0:
144,318,86251,1,8,0:3:0:0:
409,47,86388,2,0,L|402:181,1,119.999996337891,10|8,0:0|0:3,0:0:0:0:
122,333,86660,6,0,P|106:270|115:226,1,100,10|8,1:2|0:3,0:0:0:0:
286,103,86933,1,8,1:2:0:0:
95,78,87069,1,8,0:3:0:0:
351,193,87206,6,0,L|222:197,1,119.999996337891,10|8,1:2|0:3,0:0:0:0:
439,24,87479,1,8,1:2:0:0:
479,267,87615,1,8,0:3:0:0:
336,18,87751,5,10,1:2:0:0:
371,321,87888,1,8,0:3:0:0:
231,0,88024,5,10,1:2:0:0:
230,355,88160,1,8,0:3:0:0:
439,24,88297,5,8,1:2:0:0:
75,273,88433,1,8,0:0:0:0:
498,143,88569,5,10,1:2:0:0:
20,101,88706,1,8,0:0:0:0:
478,266,88842,6,0,B|368:287|382:235|280:262,1,200,6|0,1:2|0:0,0:0:0:0:
281,262,90751,5,2,0:0:0:0:
389,33,91024,6,0,P|408:95|401:144,1,110.000003356934,6|0,1:2|0:0,0:0:0:0:
203,22,91297,1,8,0:0:0:0:
281,262,91433,1,0,0:0:0:0:
318,95,91569,1,0,1:0:0:0:
121,292,91706,1,0,1:0:0:0:
392,348,91842,1,8,0:0:0:0:
203,22,91979,6,0,P|189:98|264:39,1,220.000006713867,2|0,1:0|1:0,0:0:0:0:
0,176,92388,2,0,L|118:172,1,110.000003356934,8|0,0:0|0:0,0:0:0:0:
381,256,92660,1,0,1:0:0:0:
247,108,92797,1,0,1:0:0:0:
413,262,92933,1,8,0:0:0:0:
121,292,93069,6,0,L|11:295,1,110.000003356934,0|2,1:0|1:0,0:0:0:0:
160,94,93342,1,0,0:0:0:0:
354,347,93479,2,0,P|368:301|358:234,1,110.000003356934,8|0,0:0|0:0,0:0:0:0:
272,29,93751,1,0,1:0:0:0:
223,297,93888,1,0,1:0:0:0:
424,60,94024,1,8,0:0:0:0:
226,188,94160,6,0,P|179:196|113:178,1,110.000003356934,2|0,1:0|0:0,0:0:0:0:
42,89,94433,1,0,1:0:0:0:
223,297,94569,2,0,L|226:167,1,110.000003356934,8|0,0:0|0:0,0:0:0:0:
227,0,94842,1,0,1:0:0:0:
374,124,94979,1,0,1:0:0:0:
42,89,95115,1,8,0:0:0:0:
395,126,95251,6,0,L|400:257,1,110.000003356934,0|2,1:0|1:0,0:0:0:0:
130,297,95524,1,0,0:0:0:0:
237,98,95660,1,8,0:0:0:0:
322,331,95797,1,0,0:0:0:0:
239,77,95933,1,0,1:0:0:0:
109,312,96069,1,0,1:0:0:0:
389,239,96206,1,8,0:0:0:0:
234,66,96342,6,0,P|182:57|122:82,1,110.000003356934,2|0,1:0|0:0,0:0:0:0:
54,199,96615,1,0,1:0:0:0:
315,132,96751,2,0,P|284:88|224:64,1,110.000003356934,8|0,0:0|0:0,0:0:0:0:
41,206,97024,1,0,1:0:0:0:
255,249,97160,1,0,1:0:0:0:
141,24,97297,5,8,0:0:0:0:
104,367,97433,1,0,1:0:0:0:
306,33,97569,5,14,0:3:0:0:
314,39,97842,2,0,L|312:133,1,80
206,351,98115,5,14,0:3:0:0:
198,345,98388,2,0,L|200:251,1,80,0|0,0:0|0:0,0:0:0:0:
61,115,98660,6,0,P|111:101|166:112,1,100,14|0,0:3|0:0,0:0:0:0:
451,269,98933,2,0,P|401:283|346:272,1,100,14|0,0:3|0:0,0:0:0:0:
219,5,99206,5,10,0:0:0:0:
490,150,99342,1,10,0:0:0:0:
114,293,99479,1,8,0:0:0:0:
469,17,99615,6,0,B|495:71|495:71|483:263,1,220.000006713867,6|0,1:2|1:0,0:0:0:0:
204,289,100024,1,8,0:0:0:0:
408,88,100160,2,0,L|281:90,1,110.000003356934,0|0,0:0|1:0,0:0:0:0:
114,293,100433,1,0,1:0:0:0:
413,327,100569,1,8,0:0:0:0:
205,97,100706,6,0,B|94:71|94:71|-9:122,1,220.000006713867,2|0,1:0|1:0,0:0:0:0:
288,353,101115,2,0,L|290:216,1,110.000003356934,8|0,0:0|0:0,0:0:0:0:
290,15,101388,1,0,1:0:0:0:
127,239,101524,1,0,1:0:0:0:
411,140,101660,1,8,0:0:0:0:
105,36,101797,6,0,P|93:100|107:151,1,110.000003356934,2|0,1:0|0:0,0:0:0:0:
289,243,102069,1,0,1:0:0:0:
58,349,102206,2,0,L|167:344,1,110.000003356934,8|0,0:0|0:0,0:0:0:0:
299,92,102479,2,0,L|189:87,1,110.000003356934,0|0,1:0|1:0,0:0:0:0:
361,358,102751,1,8,0:0:0:0:
431,96,102888,1,2,1:0:0:0:
189,248,103024,6,0,P|138:253|76:230,1,110.000003356934,0|0,0:0|1:0,0:0:0:0:
298,35,103297,2,0,L|301:178,1,110.000003356934,8|0,0:0|0:0,0:0:0:0:
201,363,103569,1,0,1:0:0:0:
417,248,103706,1,0,1:0:0:0:
150,124,103842,1,8,0:0:0:0:
439,257,103979,6,0,L|446:372,1,110.000003356934,2|0,1:0|0:0,0:0:0:0:
189,248,104251,1,0,1:0:0:0:
490,163,104388,2,0,P|435:151|381:167,1,110.000003356934,10|0,0:0|0:0,0:0:0:0:
201,363,104660,1,0,1:0:0:0:
439,257,104797,1,0,1:0:0:0:
70,218,104933,1,8,0:0:0:0:
414,45,105069,6,0,B|448:116|448:116|436:288,1,220.000006713867,2|0,1:0|1:0,0:0:0:0:
150,124,105479,2,0,L|158:14,1,110.000003356934,8|0,0:0|0:0,0:0:0:0:
305,199,105751,1,0,1:0:0:0:
70,218,105888,1,0,1:0:0:0:
327,198,106024,1,8,0:0:0:0:
47,220,106160,1,2,1:0:0:0:
390,281,106297,6,0,P|405:208|384:117,1,160,6|0,1:3|0:0,0:0:0:0:
275,44,106706,1,0,0:0:0:0:
340,332,106843,6,0,P|375:266|380:173,1,160,6|0,1:3|0:0,0:0:0:0:
275,44,107252,1,0,0:0:0:0:
200,364,107388,6,0,L|195:253,1,100,14|0,1:3|0:3,0:0:0:0:
386,83,107661,2,0,L|382:183,1,100,14|0,1:3|0:3,0:0:0:0:
64,328,107933,5,8,0:0:0:0:
275,44,108070,1,8,0:0:0:0:
364,384,108206,1,8,0:0:0:0:
41,53,108342,6,0,B|122:24|122:24|279:44,1,239.999992675781,6|0,1:2|1:0,0:0:0:0:
448,215,108751,1,8,0:0:0:0:
223,173,108888,1,0,0:0:0:0:
481,98,109024,1,0,1:0:0:0:
193,182,109160,1,0,1:0:0:0:
512,293,109297,1,8,0:0:0:0:
106,122,109433,6,0,P|77:188|192:165,1,239.999992675781,2|0,1:0|1:0,0:0:0:0:
410,0,109842,2,0,L|415:128,1,119.999996337891,8|0,0:0|0:0,0:0:0:0:
236,281,110115,1,0,1:0:0:0:
297,84,110251,1,0,1:0:0:0:
436,320,110388,2,0,P|378:341|317:330,1,119.999996337891,8|0,0:0|1:0,0:0:0:0:
106,122,110660,6,0,P|164:113|220:134,1,119.999996337891,2|0,0:0|1:0,0:0:0:0:
321,332,110933,1,8,0:0:0:0:
414,119,111069,1,0,0:0:0:0:
154,206,111206,1,0,1:0:0:0:
365,236,111342,1,0,1:0:0:0:
177,18,111479,1,8,0:0:0:0:
484,234,111615,6,0,L|355:236,1,119.999996337891,2|0,1:0|0:0,0:0:0:0:
154,206,111888,1,0,1:0:0:0:
496,135,112024,2,0,L|367:137,1,119.999996337891,8|0,0:0|0:0,0:0:0:0:
134,219,112297,1,0,1:0:0:0:
258,43,112433,1,0,1:0:0:0:
14,217,112569,2,0,L|143:219,1,119.999996337891,8|0,0:0|1:0,0:0:0:0:
409,315,112842,6,0,P|469:261|361:243,1,239.999992675781,2|8,0:0|0:0,0:0:0:0:
288,384,113251,1,0,0:0:0:0:
215,160,113388,1,0,1:0:0:0:
204,316,113524,1,0,1:0:0:0:
311,112,113660,1,8,0:0:0:0:
84,317,113797,6,0,L|223:315,1,119.999996337891,2|0,1:0|0:0,0:0:0:0:
364,235,114069,1,0,1:0:0:0:
14,217,114206,2,0,L|153:215,1,119.999996337891,8|0,0:0|0:0,0:0:0:0:
311,112,114479,1,0,1:0:0:0:
203,315,114615,1,0,1:0:0:0:
145,48,114751,1,8,0:0:0:0:
208,341,114888,1,0,1:0:0:0:
410,110,115024,6,0,L|289:112,1,100,14|0,0:0|1:0,0:0:0:0:
120,214,115297,1,8,1:3:0:0:
364,235,115433,1,0,1:3:0:0:
0,211,115569,6,0,L|137:214,1,119.999996337891,14|0,0:0|1:0,0:0:0:0:
394,306,115842,1,8,1:3:0:0:
313,84,115979,1,0,1:3:0:0:
277,384,116115,5,14,0:0:0:0:
317,62,116251,1,0,1:3:0:0:
473,288,116388,5,14,0:0:0:0:
111,230,116524,1,0,1:3:0:0:
497,78,116660,5,14,0:0:0:0:
277,384,116797,1,2,1:0:0:0:
152,30,116933,1,0,1:0:0:0:
473,288,117069,6,0,P|407:318|440:218,1,239.999992675781,6|0,1:2|1:0,0:0:0:0:
149,304,117479,2,0,L|283:299,1,119.999996337891,10|0,0:0|1:0,0:0:0:0:
391,91,117751,1,0,1:0:0:0:
436,217,117888,1,0,1:0:0:0:
278,54,118024,6,0,L|144:49,1,119.999996337891,10|2,0:0|1:3,0:0:0:0:
41,200,118297,1,0,1:0:0:0:
205,152,118433,1,0,1:0:0:0:
12,0,118569,6,0,P|0:61|12:117,1,119.999996337891,10|0,0:0|1:0,0:0:0:0:
277,252,118842,1,0,1:0:0:0:
41,200,118979,1,0,1:0:0:0:
324,149,119115,6,0,L|186:152,1,119.999996337891,10|0,0:0|1:0,0:0:0:0:
42,325,119388,1,2,1:3:0:0:
106,82,119524,1,0,1:0:0:0:
216,326,119660,6,0,P|275:343|342:327,1,119.999996337891,10|0,0:0|1:0,0:0:0:0:
423,125,119933,1,0,1:0:0:0:
456,384,120069,1,0,1:0:0:0:
419,94,120206,6,0,L|296:90,1,119.999996337891,10|2,0:0|1:3,0:0:0:0:
41,200,120479,1,0,1:0:0:0:
277,252,120615,1,0,1:0:0:0:
32,72,120751,6,0,L|155:68,1,119.999996337891,10|0,0:0|1:0,0:0:0:0:
423,125,121024,1,0,1:0:0:0:
151,231,121160,1,0,1:0:0:0:
413,9,121297,6,0,P|431:78|419:132,1,119.999996337891,10|0,0:0|1:0,0:0:0:0:
134,242,121569,1,2,1:3:0:0:
392,273,121706,1,0,1:0:0:0:
163,17,121842,6,0,L|161:143,1,119.999996337891,10|0,0:0|1:0,0:0:0:0:
392,273,122115,1,0,1:0:0:0:
314,0,122251,1,0,1:0:0:0:
134,242,122388,6,0,P|181:258|256:241,1,119.999996337891,10|2,0:0|1:3,0:0:0:0:
413,9,122660,1,0,1:0:0:0:
161,136,122797,1,0,1:0:0:0:
512,278,122933,6,0,L|381:273,1,119.999996337891,10|0,0:0|1:0,0:0:0:0:
217,61,123206,1,0,1:0:0:0:
449,137,123342,1,0,1:0:0:0:
89,196,123479,2,0,P|142:222|202:219,1,119.999996337891,8|0,0:0|1:0,0:0:0:0:
448,52,123751,6,0,L|452:255,1,200,14|0,1:3|0:0,0:0:0:0:
307,29,124160,1,0,0:0:0:0:
307,29,124297,6,0,L|311:268,1,239.999992675781,14|0,1:3|0:0,0:0:0:0:
187,0,124706,1,0,0:0:0:0:
419,206,124842,5,14,1:3:0:0:
102,162,124979,1,0,0:0:0:0:
429,96,125115,5,14,1:3:0:0:
68,167,125251,1,0,0:0:0:0:
388,380,125388,5,10,0:0:0:0:
286,12,125524,1,10,0:0:0:0:
7,273,125660,1,8,0:0:0:0:
488,157,125797,5,6,1:2:0:0:
488,157,129206,6,0,L|343:152,1,125,6|0,1:2|0:0,0:0:0:0:
498,175,129615,6,0,L|287:167,1,200,6|0,1:2|0:0,0:0:0:0:
512,254,130024,6,2,B|488:261|488:261|476:260|476:260|469:265|469:265|449:254|449:254|427:263|427:263|411:256|411:256|390:263|390:263|359:249|359:249|329:258|329:258|306:250|306:250|265:259|228:244,1,300,10|0,0:0|0:0,0:0:0:0:
488,157,130297,6,0,L|318:151,1,160,6|0,1:2|0:0,0:0:0:0:
236,11,130706,1,0,0:0:0:0:
352,49,130842,1,8,1:2:0:0:
176,92,130979,1,0,0:0:0:0:
381,41,131115,1,0,0:0:0:0:
146,99,131251,6,0,L|56:97,1,80,2|6,0:0|1:3,0:0:0:0:
318,125,131524,1,0,0:0:0:0:
79,200,131660,2,0,L|251:204,1,160,0|8,0:0|1:2,0:0:0:0:
152,21,132069,1,0,0:0:0:0:
152,21,132206,2,0,P|141:69|147:104,1,80
313,243,132479,6,0,P|324:195|318:160,1,80,6|0,1:3|0:0,0:0:0:0:
225,291,132751,2,0,P|260:322|374:323,1,160,0|8,0:0|1:2,0:0:0:0:
488,157,133160,1,0,0:0:0:0:
488,157,133297,2,0,L|491:262,1,80,0|0,0:0|0:0,0:0:0:0:
264,85,133569,6,0,P|318:66|372:77,1,100,6|0,1:3|0:0,0:0:0:0:
225,291,133842,2,0,L|223:176,1,100,2|2,0:0|1:3,0:0:0:0:
448,71,134115,1,10,0:2:0:0:
448,71,134251,2,0,L|450:186,1,100,2|2,0:0|1:3,0:0:0:0:
220,0,134524,1,2,0:0:0:0:
373,209,134660,6,0,P|301:223|211:179,1,160,6|0,1:2|0:0,0:0:0:0:
351,0,135069,1,0,0:0:0:0:
151,54,135206,1,8,1:2:0:0:
309,89,135342,1,0,0:0:0:0:
121,48,135479,1,0,0:0:0:0:
338,97,135615,6,0,L|428:95,1,80,2|6,0:0|1:3,0:0:0:0:
170,139,135888,1,0,0:0:0:0:
409,214,136024,2,0,L|237:218,1,160,0|8,0:0|1:2,0:0:0:0:
357,3,136432,1,0,0:0:0:0:
357,3,136569,2,0,P|368:51|362:86,1,80
222,222,136842,6,0,P|211:174|217:139,1,80,6|0,1:3|0:0,0:0:0:0:
447,307,137115,2,0,L|271:308,1,160,0|8,0:0|1:2,0:0:0:0:
450,83,137524,1,0,0:0:0:0:
450,83,137660,2,0,P|460:121|456:160,1,80,0|0,0:3|0:0,0:0:0:0:
131,48,137933,6,0,L|252:46,1,119.999996337891,6|0,1:2|0:0,0:0:0:0:
13,127,138206,1,2,0:0:0:0:
303,171,138342,6,0,L|182:173,1,119.999996337891,6|0,1:2|0:0,0:0:0:0:
450,83,138615,1,2,0:0:0:0:
245,300,138751,5,10,0:0:0:0:
208,0,138888,1,2,0:0:0:0:
499,178,139024,6,0,B|388:199|407:145|300:171,1,200,6|4,1:2|0:3,0:0:0:0:
245,300,139842,1,0,0:0:0:0:
60,130,140115,6,0,P|17:192|152:172,1,320,14|4,0:3|0:3,0:0:0:0:
94,0,140933,1,0,0:0:0:0:
345,338,141206,6,0,B|366:108|366:108|286:186,1,320,6|4,1:3|0:3,0:0:0:0:
119,344,142024,1,0,1:0:0:0:
254,330,142160,1,0,1:0:0:0:
60,130,142297,6,0,P|5:180|96:189,1,200,14|2,0:3|0:0,0:0:0:0:
193,40,142706,2,0,B|218:123|218:123|204:250,1,200,6|2,1:3|0:0,0:0:0:0:
3,46,143115,2,0,P|55:33|101:39,1,100,6|2,1:3|0:0,0:0:0:0:
392,257,143388,6,0,B|338:246|292:271|292:271|258:234|202:235,1,200,6|4,1:2|0:3,0:0:0:0:
60,130,144206,1,0,0:0:0:0:
327,35,144479,6,0,P|382:108|251:77,1,320,14|4,0:3|0:3,0:0:0:0:
500,11,145297,1,0,0:0:0:0:
401,247,145569,6,0,B|282:288|188:208|188:208|222:258|208:303,1,320,6|4,1:3|0:3,0:0:0:0:
26,65,146388,1,0,1:0:0:0:
161,85,146524,1,0,1:0:0:0:
0,236,146660,6,0,L|108:234,1,100,14|0,0:3|0:0,0:0:0:0:
260,86,146933,2,0,L|152:84,1,100,2|6,0:0|1:3,0:0:0:0:
292,330,147206,1,2,0:0:0:0:
354,120,147342,1,2,0:0:0:0:
99,234,147479,1,10,1:3:0:0:
510,329,147615,6,0,B|496:332|496:332|490:328|490:328|484:329|484:329|475:328|475:328|469:331|469:331|458:328|458:328|449:330|449:330|442:328|442:328|438:329|438:329|427:327|427:327|411:329|411:329|398:325|398:325|384:328|384:328|370:325|370:325|336:340|291:329,1,225,2|2,0:0|0:0,0:0:0:0:
