osu file format v14

[General]
AudioFilename: audio.mp3
AudioLeadIn: 0
PreviewTime: 38301
Countdown: 0
SampleSet: Soft
StackLeniency: 0.4
Mode: 0
LetterboxInBreaks: 0
WidescreenStoryboard: 1

[Editor]
DistanceSpacing: 2
BeatDivisor: 4
GridSize: 8
TimelineZoom: 1.3

[Metadata]
Title:Kick Me
TitleUnicode:Kick Me
Artist:Sleeping With Sirens
ArtistUnicode:Sleeping With Sirens
Creator:fieryrage
Version:Dash's Extra
Source:
Tags:sws madness english metal punk rock post-hardcore ailv kyshiro elsa valentine xlolicore- pishifat bergy dashyy- ayyri eiri- craezy hypercyte underdogs stingy peter petereu
BeatmapID:2171679
BeatmapSetID:1038902

[Difficulty]
HPDrainRate:6
CircleSize:3.5
OverallDifficulty:8.5
ApproachRate:9.2
SliderMultiplier:1.2
SliderTickRate:1

[Events]
//Background and Video events
0,0,"asdfasd.png",0,0
//Break Periods
2,56179,63181
2,65042,70818
2,125997,128636
//Storyboard Layer 0 (Background)
//Storyboard Layer 1 (Fail)
//Storyboard Layer 2 (Pass)
//Storyboard Layer 3 (Foreground)
//Storyboard Layer 4 (Overlay)
//Storyboard Sound Samples

[TimingPoints]
479,272.727272727273,4,2,5,5,1,0
479,-111.111111111111,4,2,5,5,0,0
10433,-111.111111111111,4,2,5,10,0,0
10842,-111.111111111111,4,2,5,15,0,0
12206,-111.111111111111,4,2,5,15,0,0
12342,-111.111111111111,4,2,5,5,0,0
12479,-111.111111111111,4,2,5,50,0,0
13569,-111.111111111111,4,2,5,40,0,0
14660,-111.111111111111,4,2,5,50,0,0
15751,-111.111111111111,4,2,5,40,0,0
16842,-111.111111111111,4,2,5,50,0,0
17933,-111.111111111111,4,2,5,40,0,0
19024,-76.9230769230769,4,2,5,60,0,1
21206,-100,4,2,5,60,0,0
22297,-100,4,2,5,50,0,0
23388,-100,4,2,5,60,0,0
24479,-100,4,2,5,50,0,0
25569,-100,4,2,5,60,0,0
26660,-100,4,2,5,50,0,0
27751,-90.9090909090909,4,2,5,60,0,1
27819,-76.9230769230769,4,2,5,60,0,0
29933,-125,4,2,5,55,0,0
30206,-125,4,2,5,30,0,0
31024,-125,4,2,5,35,0,0
31569,-125,4,2,5,38,0,0
32115,-111.111111111111,4,2,5,40,0,0
32660,-111.111111111111,4,2,5,43,0,0
33206,-111.111111111111,4,2,5,45,0,0
33479,-111.111111111111,4,2,5,48,0,0
33751,-111.111111111111,4,2,5,50,0,0
34297,-100,4,2,5,50,0,0
34433,-100,4,2,5,40,0,0
34842,-100,4,2,5,55,0,0
34979,-100,4,2,5,40,0,0
35388,-100,4,2,5,60,0,0
35524,-100,4,2,5,45,0,0
35660,-100,4,2,5,50,0,0
35933,-100,4,2,5,55,0,0
36206,-100,4,2,5,60,0,0
36479,-83.3333333333333,4,2,5,60,0,0
36547,-83.3333333333333,4,2,5,45,0,0
36888,-83.3333333333333,4,2,5,45,0,0
37024,-83.3333333333333,4,2,5,35,0,0
38388,-100,4,2,5,60,0,0
38660,-76.9230769230769,4,2,5,70,0,1
45206,-66.6666666666667,4,2,5,70,0,0
45479,-66.6666666666667,4,2,5,60,0,0
45751,-66.6666666666667,4,2,5,70,0,0
46024,-66.6666666666667,4,2,5,60,0,0
46297,-66.6666666666667,4,2,5,65,0,0
47251,-76.9230769230769,4,2,5,70,0,1
53933,-66.6666666666667,4,2,5,70,0,0
54206,-66.6666666666667,4,2,5,60,0,0
54479,-66.6666666666667,4,2,5,70,0,0
54751,-66.6666666666667,4,2,5,60,0,0
55024,-66.6666666666667,4,2,5,70,0,0
55979,-100,4,2,5,65,0,0
56047,-100,4,2,5,55,0,0
59388,-76.9230769230769,4,2,5,60,0,1
60479,-100,4,2,5,55,0,0
61569,-100,4,2,5,60,0,0
62115,-100,4,2,5,60,0,0
63751,-76.9230769230769,4,2,5,60,0,0
63819,-76.9230769230769,4,2,5,5,0,0
64160,-76.9230769230769,4,2,5,65,0,0
64229,-76.9230769230769,4,2,5,5,0,0
64569,-76.9230769230769,4,2,5,60,0,0
64638,-76.9230769230769,4,2,5,5,0,0
64842,-100,4,2,5,55,0,0
64979,-100,4,2,5,50,0,0
66001,-100,4,2,5,50,0,0
66206,-100,4,2,5,50,0,0
66274,-100,4,2,5,50,0,0
66479,-100,4,2,5,50,0,0
71388,-833.333333333333,4,2,5,50,0,0
71456,-833.333333333333,4,2,5,5,0,0
72479,-833.333333333333,4,2,5,50,0,0
73092,-833.333333333333,4,2,5,5,0,0
73229,-833.333333333333,4,2,5,5,0,0
73297,-85.4700854700855,4,2,5,40,0,0
73365,-85.4700854700855,4,2,5,35,0,0
73433,-85.4700854700855,4,2,5,40,0,0
73501,-85.4700854700855,4,2,5,50,0,0
73569,-100,4,2,5,60,0,0
74388,-100,4,2,5,60,0,0
75206,-100,4,2,5,58,0,0
75751,-100,4,2,5,58,0,0
76160,-100,4,2,5,55,0,0
76842,-100,4,2,5,52,0,0
80115,-76.9230769230769,4,2,5,60,0,1
80183,-76.9230769230769,4,2,5,60,0,0
82297,-125,4,2,5,60,0,0
82569,-125,4,2,5,32,0,0
82842,-125,4,2,5,35,0,0
83388,-125,4,2,5,38,0,0
83933,-125,4,2,5,40,0,0
84479,-111.111111111111,4,2,5,42,0,0
85024,-111.111111111111,4,2,5,45,0,0
85569,-111.111111111111,4,2,5,50,0,0
85842,-111.111111111111,4,2,5,40,0,0
85979,-111.111111111111,4,2,5,50,0,0
86660,-100,4,2,5,55,0,0
86797,-100,4,2,5,40,0,0
87206,-100,4,2,5,55,0,0
87342,-100,4,2,5,40,0,0
87751,-100,4,2,5,60,0,0
87888,-100,4,2,5,40,0,0
88024,-100,4,2,5,50,0,0
88297,-100,4,2,5,55,0,0
88569,-100,4,2,5,60,0,0
88842,-83.3333333333333,4,2,5,65,0,0
88910,-83.3333333333333,4,2,5,50,0,0
89388,-83.3333333333333,4,2,5,40,0,0
90751,-100,4,2,5,65,0,0
91024,-76.9230769230769,4,2,5,70,0,1
97569,-66.6666666666667,4,2,5,75,0,0
97842,-66.6666666666667,4,2,5,60,0,0
98115,-66.6666666666667,4,2,5,75,0,0
98388,-66.6666666666667,4,2,5,60,0,0
98660,-66.6666666666667,4,2,5,75,0,0
99615,-76.9230769230769,4,2,5,75,0,1
99751,-76.9230769230769,4,2,5,70,0,1
106297,-66.6666666666667,4,2,5,75,0,0
106569,-66.6666666666667,4,2,5,60,0,0
106842,-66.6666666666667,4,2,5,75,0,0
107115,-66.6666666666667,4,2,5,60,0,0
107388,-66.6666666666667,4,2,5,75,0,0
108342,-76.9230769230769,4,2,5,75,0,1
109774,-76.9230769230769,4,2,5,75,0,1
109842,-76.9230769230769,4,2,5,75,0,1
110865,-76.9230769230769,4,2,5,75,0,1
110933,-76.9230769230769,4,2,5,75,0,1
111956,-76.9230769230769,4,2,5,75,0,1
112024,-76.9230769230769,4,2,5,75,0,1
113047,-76.9230769230769,4,2,5,75,0,1
113115,-76.9230769230769,4,2,5,75,0,1
114138,-76.9230769230769,4,2,5,75,0,1
114206,-76.9230769230769,4,2,5,75,0,1
115024,-66.6666666666667,4,2,5,75,0,0
115297,-66.6666666666667,4,2,5,60,0,0
115433,-66.6666666666667,4,2,5,50,0,0
115569,-66.6666666666667,4,2,5,75,0,0
115842,-66.6666666666667,4,2,5,60,0,0
115979,-66.6666666666667,4,2,5,50,0,0
116115,-66.6666666666667,4,2,5,75,0,0
117069,-76.9230769230769,4,2,5,75,0,1
118501,-76.9230769230769,4,2,5,75,0,1
118569,-76.9230769230769,4,2,5,75,0,1
119592,-76.9230769230769,4,2,5,75,0,1
119660,-76.9230769230769,4,2,5,75,0,1
120683,-76.9230769230769,4,2,5,75,0,1
120751,-76.9230769230769,4,2,5,75,0,1
121774,-76.9230769230769,4,2,5,75,0,1
121842,-76.9230769230769,4,2,5,75,0,1
122865,-76.9230769230769,4,2,5,75,0,1
122933,-76.9230769230769,4,2,5,75,0,1
123751,-66.6666666666667,4,2,5,75,0,0
125388,-66.6666666666667,4,2,5,70,0,0
125797,-100,4,2,5,70,0,0
129206,-76.9230769230769,4,2,5,70,0,0
129274,-76.9230769230769,4,2,5,5,0,0
129615,-76.9230769230769,4,2,5,70,0,0
129683,-76.9230769230769,4,2,5,5,0,0
130024,-200,4,2,5,70,0,0
130092,-200,4,2,5,5,0,0
130229,-100,4,2,5,5,0,0
130297,-100,4,2,5,60,0,1
130365,-100,4,2,5,55,0,0
133569,-100,4,2,5,60,0,1
134660,-100,4,2,5,60,0,0
137933,-100,4,2,5,60,0,1
139024,-200,4,2,5,70,0,0
140115,-200,4,2,5,70,0,1
140660,-200,4,2,5,70,0,0
141206,-200,4,2,5,70,0,1
141751,-200,4,2,5,70,0,0
142297,-100,4,2,5,70,0,1
143388,-200,4,2,5,70,0,0
144479,-200,4,2,5,70,0,1
145024,-200,4,2,5,70,0,0
145569,-200,4,2,5,70,0,1
146115,-200,4,2,5,70,0,0
146660,-100,4,2,5,70,0,1
147615,-200,4,2,5,70,0,1
147751,-200,4,2,5,5,0,0
148842,-200,4,2,5,25,0,0

[Colours]
Combo1 : 136,136,136
Combo2 : 82,109,90
Combo3 : 196,148,140
Combo4 : 146,192,194

[HitObjects]
256,192,10297,12,0,12342,0:0:0:0:
54,228,12479,6,0,P|89:184|153:175,1,107.999996704102,2|0,1:0|1:0,0:0:0:0:
240,282,12888,2,0,P|184:288|132:249,1,107.999996704102,2|0,0:3|0:0,0:0:0:0:
226,156,13297,2,0,P|212:204|202:223,1,53.9999983520508,2|0,1:0|0:0,0:0:0:0:
138,169,13569,5,0,1:0:0:0:
138,169,13842,1,0,1:0:0:0:
138,169,14115,1,0,1:0:0:0:
138,169,14388,1,0,1:0:0:0:
366,22,14660,6,0,P|386:74|362:134,1,107.999996704102,2|0,1:0|1:0,0:0:0:0:
226,156,15069,2,0,P|248:104|307:79,1,107.999996704102,2|0,0:3|0:0,0:0:0:0:
342,206,15479,2,0,P|307:169|295:151,1,53.9999983520508,2|0,1:0|0:0,0:0:0:0:
375,124,15751,5,0,1:0:0:0:
375,124,16024,1,0,1:0:0:0:
375,124,16297,1,0,1:0:0:0:
375,124,16569,1,0,1:0:0:0:
375,384,16842,6,0,P|319:375|279:324,1,107.999996704102,2|0,1:0|1:0,0:0:0:0:
328,195,17251,2,0,P|361:240|353:304,1,107.999996704102,2|0,0:3|0:0,0:0:0:0:
227,271,17660,2,0,P|275:259|297:258,1,53.9999983520508,2|0,1:0|0:0,0:0:0:0:
282,340,17933,5,0,1:0:0:0:
282,340,18206,1,0,1:0:0:0:
282,340,18479,1,0,1:0:0:0:
282,340,18751,1,0,1:0:0:0:
360,160,19024,5,14,0:0:0:0:
360,160,19160,1,0,1:0:0:0:
155,231,19297,1,0,1:0:0:0:
319,253,19433,5,12,0:0:0:0:
319,253,19569,1,0,1:0:0:0:
212,88,19706,1,0,1:0:0:0:
229,333,19842,6,0,L|332:343,1,77.9999964294435,12|0,0:0|1:0,0:0:0:0:
432,284,20115,1,2,1:0:0:0:
220,197,20251,5,14,0:0:0:0:
220,197,20388,1,0,1:0:0:0:
325,9,20524,1,0,1:0:0:0:
316,159,20660,5,14,0:0:0:0:
344,15,20797,1,0,1:0:0:0:
217,99,20933,1,10,0:0:0:0:
428,75,21069,1,0,1:0:0:0:
46,214,21206,6,0,P|104:205|147:164,1,120,6|8,1:2|0:0,0:0:0:0:
99,1,21615,2,0,P|62:48|63:107,1,120,2|0,1:0|1:0,0:0:0:0:
212,87,22024,2,0,P|183:77|152:73,1,60,10|0,0:0|0:0,0:0:0:0:
162,168,22297,5,0,0:0:0:0:
162,168,22569,1,8,0:0:0:0:
162,168,22842,1,0,0:0:0:0:
162,168,23115,1,8,0:0:0:0:
340,0,23388,6,0,P|319:54|334:111,1,120,2|8,1:0|0:0,0:0:0:0:
498,150,23797,2,0,P|475:96|423:67,1,120,2|0,1:0|1:0,0:0:0:0:
367,205,24206,2,0,P|389:185|408:161,1,60,10|0,0:0|0:0,0:0:0:0:
330,113,24479,5,0,0:0:0:0:
330,113,24751,1,8,0:0:0:0:
330,113,25024,1,0,1:0:0:0:
297,39,25160,1,0,1:0:0:0:
330,113,25297,1,8,0:0:0:0:
371,313,25569,6,0,P|333:265|275:249,1,120,2|8,1:0|0:0,0:0:0:0:
155,374,25979,2,0,P|214:382|267:352,1,120,2|0,1:0|1:0,0:0:0:0:
174,230,26388,2,0,P|180:261|191:290,1,60,10|0,0:0|0:0,0:0:0:0:
278,248,26660,5,0,0:0:0:0:
276,242,26933,1,8,0:0:0:0:
276,242,27206,1,0,1:0:0:0:
300,142,27342,1,0,1:0:0:0:
276,242,27479,1,8,0:0:0:0:
300,142,27615,1,0,1:0:0:0:
204,305,27751,5,14,0:0:0:0:
204,305,27888,1,0,1:0:0:0:
111,134,28024,1,0,1:0:0:0:
272,239,28160,5,12,0:0:0:0:
272,239,28297,1,0,1:0:0:0:
67,217,28433,1,0,1:0:0:0:
283,59,28569,6,0,P|328:64|380:96,1,77.9999964294435,12|0,0:0|1:0,0:0:0:0:
420,157,28842,1,2,1:0:0:0:
190,94,28979,5,12,0:0:0:0:
190,94,29115,1,0,1:0:0:0:
194,256,29251,1,0,1:0:0:0:
270,142,29388,5,12,0:0:0:0:
97,181,29524,1,0,1:0:0:0:
256,159,29660,1,10,0:0:0:0:
112,297,29797,1,0,1:0:0:0:
179,101,29933,6,0,P|187:78|201:52,1,48,6|0,1:2|0:0,0:0:0:0:
189,93,30206,2,0,P|198:70|215:46,1,48,10|8,0:3|0:3,0:0:0:0:
195,89,30479,2,0,P|207:67|226:44,1,48,10|8,0:0|0:3,0:0:0:0:
207,82,30751,2,0,P|220:62|241:41,1,48,10|8,0:0|0:3,0:0:0:0:
301,151,31024,6,0,P|309:174|323:200,1,48,10|8,0:0|0:3,0:0:0:0:
311,159,31297,2,0,P|320:181|337:205,1,48,10|8,0:0|0:3,0:0:0:0:
317,162,31569,2,0,P|328:183|347:206,1,48,10|8,0:0|0:3,0:0:0:0:
329,169,31842,2,0,P|342:189|362:210,1,48,10|8,0:0|0:3,0:0:0:0:
287,332,32115,6,0,L|216:341,1,53.9999983520508,10|8,0:0|0:3,0:0:0:0:
270,345,32388,2,0,L|198:347,1,53.9999983520508,10|8,0:0|0:3,0:0:0:0:
251,358,32660,2,0,L|179:354,1,53.9999983520508,10|8,0:0|0:3,0:0:0:0:
232,367,32933,2,0,L|161:357,1,53.9999983520508,10|8,0:0|0:3,0:0:0:0:
0,218,33206,6,0,L|71:227,1,53.9999983520508,10|8,0:0|0:3,0:0:0:0:
17,231,33479,2,0,L|88:233,1,53.9999983520508,10|8,0:0|0:3,0:0:0:0:
36,244,33751,2,0,L|107:240,1,53.9999983520508,10|8,0:0|0:3,0:0:0:0:
55,253,34024,2,0,L|125:243,1,53.9999983520508,10|8,0:0|0:3,0:0:0:0:
177,101,34297,6,0,P|221:91|259:102,1,60,2|8,1:0|0:3,0:0:0:0:
323,155,34569,1,10,1:2:0:0:
323,155,34706,1,8,0:3:0:0:
258,14,34842,6,0,P|296:38|315:72,1,60,2|8,1:0|0:3,0:0:0:0:
323,155,35115,1,10,1:2:0:0:
323,155,35251,1,8,0:3:0:0:
377,14,35388,6,0,P|387:57|376:96,1,60,2|8,1:2|0:3,0:0:0:0:
323,159,35660,1,10,1:2:0:0:
323,159,35797,1,8,0:0:0:0:
221,96,35933,6,0,L|153:90,1,60,10|8,1:2|0:0,0:0:0:0:
431,207,36206,2,0,L|501:202,1,60,10|8,1:2|0:0,0:0:0:0:
211,344,36479,6,0,P|201:299|254:338,1,143.999995605469,6|0,1:2|0:0,0:0:0:0:
54,72,38388,5,2,0:0:0:0:
54,72,38660,6,0,P|93:104|203:86,1,155.999992858887,6|8,1:2|0:0,0:0:0:0:
357,31,39069,2,0,P|395:22|434:20,1,77.9999964294435,0|0,0:0|1:0,0:0:0:0:
247,171,39342,1,0,1:0:0:0:
346,41,39479,1,8,0:0:0:0:
462,146,39615,6,0,B|470:188|470:188|458:229|458:229|474:304,1,155.999992858887,2|0,1:0|1:0,0:0:0:0:
323,331,40024,2,0,P|316:284|330:241,1,77.9999964294435,8|0,0:0|0:0,0:0:0:0:
384,189,40297,1,0,1:0:0:0:
431,332,40433,2,0,L|513:339,1,77.9999964294435,0|8,1:0|0:0,0:0:0:0:
228,236,40706,6,0,P|185:220|79:298,1,155.999992858887,0|0,0:0|0:0,0:0:0:0:
168,384,41115,2,0,P|174:343|165:301,1,77.9999964294435,8|0,0:0|0:0,0:0:0:0:
68,166,41388,1,0,1:0:0:0:
0,360,41524,2,0,L|88:350,1,77.9999964294435,0|8,1:0|0:0,0:0:0:0:
317,260,41797,6,0,B|308:205|308:205|289:175|289:175|279:99,1,155.999992858887,2|0,1:0|1:0,0:0:0:0:
186,27,42206,2,0,P|139:17|96:17,1,77.9999964294435,8|0,0:0|0:0,0:0:0:0:
280,112,42479,1,0,1:0:0:0:
323,1,42615,2,0,L|421:-2,1,77.9999964294435,0|8,1:0|0:0,0:0:0:0:
167,161,42888,6,0,P|141:206|193:311,1,155.999992858887,0|0,0:0|0:0,0:0:0:0:
277,372,43297,1,8,0:0:0:0:
295,232,43433,2,0,P|246:226|198:232,1,77.9999964294435,0|0,0:0|1:0,0:0:0:0:
121,362,43706,2,0,P|67:372|26:368,1,77.9999964294435,0|8,1:0|0:0,0:0:0:0:
107,108,43979,6,0,P|167:79|251:144,1,155.999992858887,2|0,1:0|1:0,0:0:0:0:
295,232,44388,2,0,P|339:242|380:235,1,77.9999964294435,8|0,0:0|0:0,0:0:0:0:
491,187,44660,1,0,1:0:0:0:
401,130,44797,1,0,1:0:0:0:
455,275,44933,2,0,L|469:361,1,77.9999964294435,8|0,0:0|0:0,0:0:0:0:
295,231,45206,6,0,P|263:154|332:66,1,180.000006866455,14|0,0:3|0:0,0:0:0:0:
308,76,45751,6,0,P|276:153|165:166,1,180.000006866455,14|0,0:3|0:0,0:0:0:0:
188,175,46297,6,0,L|67:153,1,90.0000034332277,14|0,0:3|0:0,0:0:0:0:
266,309,46569,2,0,L|377:299,1,90.0000034332277,14|0,0:3|0:0,0:0:0:0:
155,273,46842,1,10,0:0:0:0:
220,92,46979,1,10,0:0:0:0:
266,309,47115,1,8,0:0:0:0:
99,159,47251,6,0,P|81:119|148:32,1,155.999992858887,6|0,1:2|0:0,0:0:0:0:
320,117,47660,1,8,0:0:0:0:
179,255,47797,2,0,P|136:263|96:265,1,77.9999964294435,0|0,0:0|1:0,0:0:0:0:
356,295,48069,2,0,P|374:333|381:370,1,77.9999964294435,0|8,1:0|0:0,0:0:0:0:
241,186,48342,6,0,B|244:149|244:149|226:116|226:116|238:22,1,155.999992858887,2|0,1:0|1:0,0:0:0:0:
392,147,48751,2,0,P|444:163|498:162,1,77.9999964294435,8|0,0:0|0:0,0:0:0:0:
331,53,49024,1,0,1:0:0:0:
333,228,49160,2,0,L|343:317,1,77.9999964294435,0|8,1:0|0:0,0:0:0:0:
130,151,49433,6,0,P|92:137|2:202,1,155.999992858887,2|0,0:0|0:0,0:0:0:0:
224,267,49842,1,8,0:0:0:0:
202,93,49979,1,0,0:0:0:0:
85,293,50115,2,0,P|34:312|-5:316,1,77.9999964294435,0|0,1:0|1:0,0:0:0:0:
210,180,50388,2,0,L|291:188,1,77.9999964294435,8|2,0:0|1:0,0:0:0:0:
456,346,50660,6,0,B|411:351|411:351|371:340|371:340|283:355,1,155.999992858887,0|8,0:0|0:0,0:0:0:0:
201,368,51069,1,0,0:0:0:0:
375,196,51206,1,0,1:0:0:0:
375,196,51342,2,0,P|406:242|415:281,1,77.9999964294435,0|8,1:0|0:0,0:0:0:0:
211,180,51615,6,0,B|217:136|217:136|239:108|239:108|251:17,1,155.999992858887,2|0,0:0|0:0,0:0:0:0:
104,7,52024,2,0,P|131:47|164:66,1,77.9999964294435,10|0,0:0|0:0,0:0:0:0:
426,2,52297,1,0,1:0:0:0:
343,67,52433,2,0,P|325:104|322:146,1,77.9999964294435,0|8,1:0|0:0,0:0:0:0:
391,330,52706,6,0,P|419:278|528:267,1,155.999992858887,2|0,1:0|1:0,0:0:0:0:
294,367,53115,2,0,L|203:375,1,77.9999964294435,8|0,0:0|0:0,0:0:0:0:
17,340,53388,1,0,1:0:0:0:
90,269,53524,2,0,P|136:271|186:293,1,77.9999964294435,0|8,1:0|0:0,0:0:0:0:
22,207,53797,1,2,0:0:0:0:
237,224,53933,6,0,P|254:181|183:64,1,180.000006866455,6|0,1:3|0:0,0:0:0:0:
197,69,54479,6,0,P|215:111|348:143,1,180.000006866455,6|0,1:3|0:0,0:0:0:0:
334,148,55024,6,0,L|449:155,1,90.0000034332277,14|0,1:3|0:3,0:0:0:0:
256,302,55297,2,0,L|136:317,1,90.0000034332277,14|0,1:3|0:3,0:0:0:0:
349,234,55569,1,8,0:0:0:0:
311,371,55706,1,8,0:0:0:0:
242,130,55842,1,8,0:0:0:0:
425,322,55979,5,6,1:2:0:0:
106,97,63751,6,0,P|155:62|255:104,1,155.999992858887,6|0,1:3|0:0,0:0:0:0:
157,344,64160,2,0,P|115:292|137:202,1,155.999992858887,6|0,1:3|0:0,0:0:0:0:
367,215,64569,2,0,P|319:238|276:240,1,77.9999964294435,10|0,0:0|0:0,0:0:0:0:
226,177,64842,5,6,1:2:0:0:
328,310,71388,6,0,L|341:214,1,97.2000023730469,6|0,1:2|0:0,0:0:0:0:
328,310,73297,6,0,B|322:269|322:269|345:249|345:249|339:196,1,105.300000401688,2|2,0:0|0:0,0:0:0:0:
246,218,73569,6,0,P|187:209|145:167,1,120,6|8,1:0|0:0,0:0:0:0:
193,5,73979,2,0,P|229:52|228:111,1,120,2|0,1:0|1:0,0:0:0:0:
80,91,74388,2,0,P|109:80|139:76,1,60,10|0,0:0|0:0,0:0:0:0:
130,171,74660,5,2,0:0:0:0:
130,171,74933,1,10,0:0:0:0:
130,171,75206,1,2,0:0:0:0:
130,171,75479,1,10,0:0:0:0:
311,158,75751,6,0,P|332:212|317:270,1,120,2|8,1:0|0:0,0:0:0:0:
153,310,76160,2,0,P|175:254|227:225,1,120,2|0,1:0|1:0,0:0:0:0:
284,365,76569,2,0,P|260:344|241:320,1,60,8|0,0:0|0:0,0:0:0:0:
328,281,76842,5,0,0:0:0:0:
328,281,77115,1,8,0:0:0:0:
328,281,77388,1,0,0:0:0:0:
328,281,77660,1,8,0:0:0:0:
217,118,77933,6,0,P|253:72|311:55,1,120,2|8,1:0|0:0,0:0:0:0:
427,178,78342,2,0,P|367:186|316:155,1,120,2|0,1:0|1:0,0:0:0:0:
409,37,78751,2,0,P|403:67|391:95,1,60,10|0,0:0|0:0,0:0:0:0:
315,41,79024,5,0,0:0:0:0:
315,41,79297,1,8,0:0:0:0:
315,41,79569,1,0,1:0:0:0:
303,137,79706,1,0,1:0:0:0:
315,41,79842,1,8,0:0:0:0:
303,152,79979,1,0,1:0:0:0:
151,42,80115,5,14,0:0:0:0:
151,42,80251,1,0,1:0:0:0:
192,237,80388,1,0,1:0:0:0:
234,89,80524,5,12,0:0:0:0:
234,89,80660,1,0,1:0:0:0:
40,132,80797,1,0,1:0:0:0:
284,233,80933,6,0,P|301:274|312:326,1,77.9999964294435,12|0,0:0|1:0,0:0:0:0:
251,374,81206,1,2,1:0:0:0:
56,254,81342,5,12,0:0:0:0:
56,254,81479,1,0,1:0:0:0:
210,293,81615,1,0,1:0:0:0:
149,143,81751,5,12,0:0:0:0:
123,343,81888,1,0,1:0:0:0:
247,109,82024,1,10,0:0:0:0:
137,241,82160,1,0,1:0:0:0:
347,115,82297,6,0,P|370:123|396:137,1,48,6|0,1:2|0:0,0:0:0:0:
355,125,82569,2,0,P|378:134|402:151,1,48,8|8,0:0|0:3,0:0:0:0:
359,131,82842,2,0,P|381:143|404:162,1,48,8|8,0:0|0:3,0:0:0:0:
366,143,83115,2,0,P|386:156|407:177,1,48,8|8,0:0|0:3,0:0:0:0:
297,237,83388,6,0,P|274:245|248:259,1,48,8|8,0:0|0:3,0:0:0:0:
289,247,83660,2,0,P|267:256|243:273,1,48,8|8,0:0|0:3,0:0:0:0:
286,253,83933,2,0,P|265:264|242:283,1,48,8|8,0:0|0:3,0:0:0:0:
279,265,84206,2,0,P|259:278|238:298,1,48,8|8,0:0|0:3,0:0:0:0:
81,287,84479,6,0,L|72:216,1,53.9999983520508,8|8,0:0|0:3,0:0:0:0:
68,270,84751,2,0,L|66:198,1,53.9999983520508,8|8,0:0|0:3,0:0:0:0:
55,251,85024,2,0,L|59:179,1,53.9999983520508,8|8,0:0|0:3,0:0:0:0:
46,232,85297,2,0,L|56:161,1,53.9999983520508,8|8,0:0|0:3,0:0:0:0:
195,0,85569,6,0,L|186:71,1,53.9999983520508,8|8,0:0|0:0,0:0:0:0:
182,17,85842,2,0,L|180:88,1,53.9999983520508,8|10,0:0|0:3,0:0:0:0:
169,36,86115,2,0,L|173:107,1,53.9999983520508,8|8,0:0|0:3,0:0:0:0:
160,55,86388,2,0,L|170:125,1,53.9999983520508,10|8,0:0|0:3,0:0:0:0:
116,334,86660,6,0,P|106:290|117:252,1,60,10|8,1:2|0:3,0:0:0:0:
170,188,86933,1,8,1:2:0:0:
170,188,87069,1,8,0:3:0:0:
29,253,87206,6,0,P|53:215|87:196,1,60,10|8,1:2|0:3,0:0:0:0:
170,188,87479,1,8,1:2:0:0:
170,188,87615,1,8,0:3:0:0:
29,134,87751,6,0,P|72:124|111:135,1,60,10|8,1:2|0:3,0:0:0:0:
170,188,88024,1,10,1:2:0:0:
170,188,88160,1,8,0:3:0:0:
111,290,88297,6,0,L|105:358,1,60,8|8,1:2|0:0,0:0:0:0:
222,80,88569,2,0,L|217:10,1,60,10|8,1:2|0:0,0:0:0:0:
359,300,88842,6,0,P|314:310|353:257,1,143.999995605469,6|0,1:2|0:0,0:0:0:0:
428,48,90751,5,2,0:0:0:0:
428,48,91024,6,0,P|393:76|279:56,1,155.999992858887,6|8,1:2|0:0,0:0:0:0:
129,22,91433,2,0,L|32:17,1,77.9999964294435,0|0,0:0|1:0,0:0:0:0:
201,187,91706,1,0,1:0:0:0:
123,37,91842,1,8,0:0:0:0:
26,185,91979,6,0,B|33:247|33:247|52:274|52:274|63:355,1,155.999992858887,2|0,1:0|1:0,0:0:0:0:
216,381,92388,2,0,P|230:336|225:278,1,77.9999964294435,8|0,0:0|0:0,0:0:0:0:
127,191,92660,1,0,1:0:0:0:
59,341,92797,2,0,L|-31:351,1,77.9999964294435,0|8,1:0|0:0,0:0:0:0:
220,207,93069,6,0,P|269:190|364:265,1,155.999992858887,0|0,1:0|0:0,0:0:0:0:
297,363,93479,2,0,P|277:312|276:263,1,77.9999964294435,8|0,0:0|0:0,0:0:0:0:
356,125,93751,1,0,1:0:0:0:
447,288,93888,2,0,P|486:305|528:308,1,77.9999964294435,0|8,1:0|0:0,0:0:0:0:
282,165,94160,6,0,B|256:129|248:86|248:86|259:56|259:56|253:-6,1,155.999992858887,2|0,1:0|1:0,0:0:0:0:
356,125,94569,2,0,P|403:143|437:143,1,77.9999964294435,8|0,0:0|0:0,0:0:0:0:
262,11,94842,1,0,1:0:0:0:
189,159,94979,2,0,L|94:173,1,77.9999964294435,0|8,1:0|0:0,0:0:0:0:
33,0,95251,6,0,P|79:-5|143:79,1,155.999992858887,0|0,1:0|0:0,0:0:0:0:
134,269,95660,1,8,0:0:0:0:
17,134,95797,2,0,P|44:91|77:68,1,77.9999964294435,0|0,0:0|1:0,0:0:0:0:
236,232,96069,2,0,L|317:240,1,77.9999964294435,0|8,1:0|0:0,0:0:0:0:
146,116,96342,6,0,B|154:179|154:179|142:208|142:208|151:276,1,155.999992858887,2|0,1:0|1:0,0:0:0:0:
0,281,96751,2,0,P|62:257|90:255,1,77.9999964294435,8|0,0:0|0:0,0:0:0:0:
275,384,97024,1,0,1:0:0:0:
230,229,97160,1,0,1:0:0:0:
112,365,97297,2,0,L|17:376,1,77.9999964294435,8|0,0:0|1:0,0:0:0:0:
293,288,97569,6,0,P|327:244|284:115,1,180.000006866455,14|0,0:3|0:0,0:0:0:0:
303,129,98115,6,0,P|338:208|422:233,1,180.000006866455,14|0,0:3|0:0,0:0:0:0:
422,232,98660,6,0,L|525:244,1,90.0000034332277,14|0,0:3|0:0,0:0:0:0:
315,283,98933,2,0,L|203:297,1,90.0000034332277,14|0,0:3|0:0,0:0:0:0:
441,320,99206,1,10,0:0:0:0:
368,155,99342,1,10,0:0:0:0:
327,367,99479,1,8,0:0:0:0:
232,143,99615,6,0,P|176:131|96:215,1,155.999992858887,6|0,1:2|1:0,0:0:0:0:
285,275,100024,1,8,0:0:0:0:
324,70,100160,2,0,L|417:60,1,77.9999964294435,0|0,0:0|1:0,0:0:0:0:
200,26,100433,2,0,P|157:14|114:13,1,77.9999964294435,0|8,1:0|0:0,0:0:0:0:
187,223,100706,6,0,B|239:215|239:215|272:197|272:197|348:187,1,155.999992858887,2|0,1:0|1:0,0:0:0:0:
426,301,101115,2,0,P|476:319|515:320,1,77.9999964294435,8|0,0:0|0:0,0:0:0:0:
462,178,101388,1,0,1:0:0:0:
346,339,101524,2,0,L|254:351,1,77.9999964294435,0|8,1:0|0:0,0:0:0:0:
99,297,101797,6,0,P|131:249|106:142,1,155.999992858887,2|0,1:0|1:0,0:0:0:0:
43,220,102206,1,8,0:0:0:0:
216,140,102342,1,0,0:0:0:0:
81,62,102479,2,0,P|37:51|-1:48,1,77.9999964294435,0|0,1:0|1:0,0:0:0:0:
230,148,102751,2,0,L|326:136,1,77.9999964294435,8|2,0:0|1:0,0:0:0:0:
474,283,103024,6,0,B|428:278|428:278|400:264|400:264|355:264|320:278,1,155.999992858887,0|8,0:0|0:0,0:0:0:0:
394,353,103433,1,0,0:0:0:0:
389,148,103569,1,0,1:0:0:0:
389,148,103706,2,0,P|333:132|296:128,1,77.9999964294435,0|8,1:0|0:0,0:0:0:0:
179,294,103979,6,0,P|139:326|40:319,1,155.999992858887,2|0,1:0|1:0,0:0:0:0:
247,215,104388,2,0,P|271:268|276:301,1,77.9999964294435,10|0,0:0|0:0,0:0:0:0:
87,217,104660,1,0,1:0:0:0:
211,96,104797,2,0,L|291:85,1,77.9999964294435,0|8,1:0|0:0,0:0:0:0:
447,140,105069,6,0,B|456:182|456:182|441:212|441:212|457:292,1,155.999992858887,2|0,1:0|1:0,0:0:0:0:
487,60,105479,2,0,P|445:49|406:45,1,77.9999964294435,8|0,0:0|0:0,0:0:0:0:
225,173,105751,1,0,1:0:0:0:
367,243,105888,2,0,L|359:166,1,77.9999964294435,0|8,1:0|0:0,0:0:0:0:
279,59,106160,1,2,1:0:0:0:
238,352,106297,6,0,P|169:292|64:309,1,180.000006866455,6|0,1:3|0:0,0:0:0:0:
84,296,106842,6,0,P|175:289|237:203,1,180.000006866455,6|0,1:3|0:0,0:0:0:0:
229,225,107388,6,0,L|223:121,1,90.0000034332277,14|0,1:3|0:3,0:0:0:0:
368,298,107660,2,0,L|359:394,1,90.0000034332277,14|0,1:3|0:3,0:0:0:0:
318,205,107933,1,8,0:0:0:0:
265,315,108069,1,8,0:0:0:0:
445,254,108206,1,8,0:0:0:0:
228,127,108342,6,0,P|182:115|96:175,1,155.999992858887,6|0,1:2|1:0,0:0:0:0:
64,296,108751,2,0,P|16:314|-46:323,1,77.9999964294435,8|0,0:0|0:0,0:0:0:0:
184,200,109024,1,0,1:0:0:0:
137,342,109160,1,0,1:0:0:0:
12,196,109297,2,0,L|26:99,1,77.9999964294435,8|2,0:0|1:0,0:0:0:0:
176,3,109569,6,0,B|208:39|208:39|310:48,1,116.999994644165,0|0,0:0|0:0,0:0:0:0:
346,19,109842,2,0,P|398:10|431:15,1,77.9999964294435,8|0,0:0|0:0,0:0:0:0:
393,210,110115,1,0,1:0:0:0:
287,111,110251,1,0,1:0:0:0:
434,94,110388,2,0,L|530:99,1,77.9999964294435,8|0,0:0|1:0,0:0:0:0:
312,193,110660,6,0,P|288:240|328:318,1,116.999994644165,2|0,0:0|0:0,0:0:0:0:
381,326,110933,2,0,L|463:331,1,77.9999964294435,8|0,0:0|0:0,0:0:0:0:
393,210,111206,1,0,1:0:0:0:
324,384,111342,1,0,1:0:0:0:
226,294,111479,2,0,L|119:308,1,77.9999964294435,8|2,0:0|1:0,0:0:0:0:
25,149,111751,6,0,B|71:152|71:152|104:139|104:139|146:143,1,116.999994644165,0|0,0:0|0:0,0:0:0:0:
207,101,112024,2,0,P|185:56|191:13,1,77.9999964294435,8|0,0:0|0:0,0:0:0:0:
318,78,112297,1,0,1:0:0:0:
266,201,112433,1,0,1:0:0:0:
112,63,112569,2,0,L|20:52,1,77.9999964294435,8|0,0:0|1:0,0:0:0:0:
258,18,112842,6,0,P|303:-1|381:20,1,116.999994644165,2|0,0:0|0:0,0:0:0:0:
404,72,113115,2,0,P|389:112|387:158,1,77.9999964294435,8|0,0:0|0:0,0:0:0:0:
512,265,113388,1,0,1:0:0:0:
475,128,113524,1,0,1:0:0:0:
374,269,113660,2,0,L|285:281,1,77.9999964294435,8|2,0:0|1:0,0:0:0:0:
209,93,113933,6,0,P|167:75|86:94,1,116.999994644165,0|0,0:0|0:0,0:0:0:0:
81,165,114206,2,0,P|98:212|99:248,1,77.9999964294435,8|0,0:0|0:0,0:0:0:0:
23,354,114479,1,0,1:0:0:0:
2,234,114615,1,0,1:0:0:0:
117,348,114751,2,0,L|213:363,1,77.9999964294435,8|0,0:0|1:0,0:0:0:0:
417,245,115024,6,0,P|362:205|268:245,1,180.000006866455,14|8,0:0|1:3,0:0:0:0:
267,245,115569,6,0,P|334:234|372:139,1,180.000006866455,14|8,0:0|1:3,0:0:0:0:
372,138,116115,6,0,L|361:39,1,90.0000034332277,14|0,0:0|1:3,0:0:0:0:
183,206,116388,2,0,L|168:328,1,90.0000034332277,14|0,0:0|1:3,0:0:0:0:
210,113,116660,1,14,0:0:0:0:
294,182,116797,1,2,1:0:0:0:
94,226,116933,1,0,1:0:0:0:
304,95,117069,6,0,B|345:99|345:99|371:119|371:119|465:131,1,155.999992858887,6|0,1:2|1:0,0:0:0:0:
361,302,117479,2,0,P|316:318|279:320,1,77.9999964294435,10|0,0:0|1:0,0:0:0:0:
151,182,117751,1,0,1:0:0:0:
302,239,117888,1,0,1:0:0:0:
99,311,118024,2,0,L|86:389,1,77.9999964294435,10|2,0:0|1:3,0:0:0:0:
234,179,118297,6,0,P|255:128|227:60,1,116.999994644165,0|0,1:0|0:0,0:0:0:0:
168,90,118569,2,0,P|128:114|92:122,1,77.9999964294435,10|0,0:0|1:0,0:0:0:0:
0,69,118842,1,0,1:0:0:0:
123,3,118979,1,0,1:0:0:0:
21,166,119115,2,0,L|7:267,1,77.9999964294435,10|0,0:0|1:0,0:0:0:0:
205,290,119388,6,0,B|198:234|198:234|211:200|211:200|205:147,1,116.999994644165,2|0,1:3|0:0,0:0:0:0:
206,91,119660,2,0,P|242:112|293:116,1,77.9999964294435,10|0,0:0|1:0,0:0:0:0:
439,102,119933,1,0,1:0:0:0:
326,25,120069,1,0,1:0:0:0:
385,177,120206,2,0,L|395:260,1,77.9999964294435,10|2,0:0|1:3,0:0:0:0:
222,368,120479,6,0,P|196:324|213:238,1,116.999994644165,0|0,1:0|0:0,0:0:0:0:
242,201,120751,2,0,P|286:224|328:226,1,77.9999964294435,10|0,0:0|1:0,0:0:0:0:
481,206,121024,1,0,1:0:0:0:
344,104,121160,1,0,1:0:0:0:
402,265,121297,2,0,L|398:352,1,77.9999964294435,10|0,0:0|1:0,0:0:0:0:
442,137,121569,6,0,B|435:97|435:97|442:66|442:66|436:-2,1,116.999994644165,2|0,1:3|0:0,0:0:0:0:
367,0,121842,2,0,P|326:26|279:34,1,77.9999964294435,10|0,0:0|1:0,0:0:0:0:
132,91,122115,1,0,1:0:0:0:
290,164,122251,1,0,1:0:0:0:
180,14,122388,2,0,L|85:3,1,77.9999964294435,10|2,0:0|1:3,0:0:0:0:
205,162,122660,6,0,P|227:209|201:298,1,116.999994644165,0|0,1:0|0:0,0:0:0:0:
164,317,122933,2,0,P|125:301|87:301,1,77.9999964294435,10|0,0:0|1:0,0:0:0:0:
2,369,123206,1,0,1:0:0:0:
64,210,123342,1,0,1:0:0:0:
220,369,123479,2,0,L|316:372,1,77.9999964294435,8|0,0:0|1:0,0:0:0:0:
264,123,123751,6,0,P|227:154|229:278,1,180.000006866455,14|0,1:3|0:0,0:0:0:0:
227,276,124297,6,0,P|179:202|92:193,1,180.000006866455,14|0,1:3|0:0,0:0:0:0:
93,192,124842,6,0,L|-11:180,1,90.0000034332277,14|0,1:3|0:0,0:0:0:0:
294,320,125115,2,0,L|415:309,1,90.0000034332277,14|0,1:3|0:0,0:0:0:0:
138,295,125388,1,10,0:0:0:0:
207,151,125524,1,10,0:0:0:0:
240,384,125660,1,8,0:0:0:0:
53,276,125797,1,6,1:2:0:0:
88,128,129206,6,0,P|154:115|225:173,1,155.999992858887,6|0,1:2|0:0,0:0:0:0:
182,384,129615,2,0,P|154:329|195:251,1,155.999992858887,6|0,1:2|0:0,0:0:0:0:
328,241,130024,6,0,L|275:235,1,45,10|0,0:0|0:0,0:0:0:0:
283,235,130297,6,0,P|317:211|323:129,1,120,6|0,1:2|0:0,0:0:0:0:
119,96,130842,2,0,P|84:72|78:-9,1,120,8|0,1:2|0:0,0:0:0:0:
203,44,131251,1,2,0:0:0:0:
213,146,131388,6,0,P|178:169|172:251,1,120,6|0,1:3|0:0,0:0:0:0:
377,285,131933,2,0,P|411:308|417:390,1,120,8|0,1:2|0:0,0:0:0:0:
296,307,132342,1,0,0:0:0:0:
161,337,132479,6,0,P|184:371|266:377,1,120,6|0,1:3|0:0,0:0:0:0:
300,173,133024,2,0,P|323:138|405:132,1,120,8|0,1:2|0:0,0:0:0:0:
369,258,133433,1,0,0:0:0:0:
76,222,133569,6,0,L|66:156,1,60,6|0,1:3|0:0,0:0:0:0:
183,31,133842,2,0,L|171:106,1,60,2|2,0:0|1:3,0:0:0:0:
155,168,134115,1,10,0:2:0:0:
23,68,134251,2,0,L|101:55,1,60,2|2,0:0|1:3,0:0:0:0:
281,109,134524,1,2,0:0:0:0:
91,299,134660,6,0,P|114:264|196:258,1,120,6|0,1:2|0:0,0:0:0:0:
399,296,135206,2,0,P|422:330|503:337,1,120,8|0,1:2|0:0,0:0:0:0:
386,212,135615,1,2,0:0:0:0:
296,383,135751,6,0,P|261:359|255:277,1,120,6|0,1:3|0:0,0:0:0:0:
337,114,136296,2,0,P|371:90|377:8,1,120,8|0,1:2|0:0,0:0:0:0:
254,96,136706,1,0,0:0:0:0:
122,52,136842,6,0,P|114:93|168:155,1,120,6|0,1:3|0:0,0:0:0:0:
341,213,137387,2,0,P|382:205|444:259,1,120,8|0,1:2|0:3,0:0:0:0:
382,358,137797,1,0,0:0:0:0:
144,296,137933,6,0,L|210:306,1,60,6|0,1:2|0:0,0:0:0:0:
342,201,138206,2,0,L|267:213,1,60,2|6,0:0|1:2,0:0:0:0:
202,225,138479,1,0,0:0:0:0:
305,361,138615,2,0,L|318:283,1,60,2|10,0:0|0:0,0:0:0:0:
264,103,138888,1,2,0:0:0:0:
74,293,139024,6,0,P|108:269|114:187,1,120,6|4,1:2|0:3,0:0:0:0:
77,109,139842,1,0,0:0:0:0:
119,196,140115,6,0,P|160:203|222:149,1,120,14|4,0:3|0:3,0:0:0:0:
258,80,140933,1,0,0:0:0:0:
219,159,141206,6,0,P|242:193|324:199,1,120,6|4,1:3|0:3,0:0:0:0:
398,168,142024,1,0,1:0:0:0:
315,203,142297,6,0,L|249:193,1,60,14|0,0:3|0:0,0:0:0:0:
117,298,142570,2,0,L|192:286,1,60,2|6,0:0|1:3,0:0:0:0:
254,263,142843,1,0,0:0:0:0:
154,138,142979,2,0,L|141:216,1,60,2|6,0:0|1:3,0:0:0:0:
218,357,143252,1,2,0:0:0:0:
390,156,143388,6,0,P|356:180|350:262,1,120,6|4,1:2|0:3,0:0:0:0:
390,322,144206,1,0,0:0:0:0:
345,253,144479,6,0,P|304:246|242:300,1,120,14|4,0:3|0:3,0:0:0:0:
212,366,145297,1,0,0:0:0:0:
245,290,145570,6,0,P|222:256|140:250,1,120,6|4,1:3|0:3,0:0:0:0:
64,271,146388,1,0,1:0:0:0:
148,245,146660,6,0,L|214:255,1,60,14|0,0:3|0:0,0:0:0:0:
386,139,146933,2,0,L|311:151,1,60,2|6,0:0|1:3,0:0:0:0:
192,165,147206,1,2,0:0:0:0:
318,292,147342,2,0,L|331:214,1,60,2|10,0:0|1:3,0:0:0:0:
247,61,147615,1,2,0:0:0:0:
