osu file format v14

[General]
AudioFilename: audio.mp3
AudioLeadIn: 0
PreviewTime: 38301
Countdown: 0
SampleSet: Soft
StackLeniency: 0.4
Mode: 0
LetterboxInBreaks: 0
WidescreenStoryboard: 1

[Editor]
DistanceSpacing: 1.2
BeatDivisor: 4
GridSize: 32
TimelineZoom: 3.199999

[Metadata]
Title:Kick Me
TitleUnicode:Kick Me
Artist:Sleeping With Sirens
ArtistUnicode:Sleeping With Sirens
Creator:fieryrage
Version:CraEZy's Insane
Source:
Tags:sws madness english metal punk rock post-hardcore ailv kyshiro elsa valentine xlolicore- pishifat bergy dashyy- ayyri eiri- craezy hypercyte underdogs stingy peter petereu
BeatmapID:2171673
BeatmapSetID:1038902

[Difficulty]
HPDrainRate:6
CircleSize:3.4
OverallDifficulty:8.5
ApproachRate:9.2
SliderMultiplier:1.4
SliderTickRate:1

[Events]
//Background and Video events
0,0,"asdfasd.png",0,0
//Break Periods
2,56451,58818
2,65041,70770
2,125997,127545
//Storyboard Layer 0 (Background)
//Storyboard Layer 1 (Fail)
//Storyboard Layer 2 (Pass)
//Storyboard Layer 3 (Foreground)
//Storyboard Layer 4 (Overlay)
//Storyboard Sound Samples

[TimingPoints]
479,272.727272727273,4,2,5,5,1,0
479,-100,4,2,5,5,0,0
10433,-100,4,2,5,10,0,0
10842,-100,4,2,5,15,0,0
12342,-100,4,2,5,5,0,0
12479,-200,4,2,5,50,0,0
13569,-200,4,2,5,40,0,0
14660,-200,4,2,5,50,0,0
15751,-200,4,2,5,40,0,0
16842,-200,4,2,5,50,0,0
17933,-200,4,2,5,40,0,0
18751,-133.333333333333,4,2,5,40,0,0
19024,-100,4,2,5,60,0,0
21206,-133.333333333333,4,2,5,60,0,0
22297,-133.333333333333,4,2,5,50,0,0
23388,-133.333333333333,4,2,5,60,0,0
24479,-133.333333333333,4,2,5,50,0,0
25569,-133.333333333333,4,2,5,60,0,0
26660,-133.333333333333,4,2,5,50,0,0
27751,-100,4,2,5,60,0,0
29933,-125,4,2,5,55,0,0
30206,-125,4,2,5,30,0,0
31024,-125,4,2,5,35,0,0
31569,-125,4,2,5,38,0,0
32115,-125,4,2,5,40,0,0
32660,-125,4,2,5,43,0,0
33206,-125,4,2,5,45,0,0
33479,-125,4,2,5,48,0,0
33751,-125,4,2,5,50,0,0
34297,-111.111111111111,4,2,5,50,0,0
34433,-111.111111111111,4,2,5,40,0,0
34842,-111.111111111111,4,2,5,55,0,0
34979,-111.111111111111,4,2,5,40,0,0
35388,-111.111111111111,4,2,5,60,0,0
35524,-111.111111111111,4,2,5,45,0,0
35660,-111.111111111111,4,2,5,50,0,0
35933,-111.111111111111,4,2,5,55,0,0
36206,-111.111111111111,4,2,5,60,0,0
36547,-111.111111111111,4,2,5,45,0,0
36888,-111.111111111111,4,2,5,45,0,0
37024,-111.111111111111,4,2,5,35,0,0
38388,-200,4,2,5,60,0,0
38456,-200,4,2,5,5,0,0
38660,-83.3333333333333,4,2,5,70,0,1
45138,-83.3333333333333,4,2,5,70,0,0
45206,-200,4,2,5,70,0,1
45274,-200,4,2,5,70,0,0
45479,-200,4,2,5,60,0,0
45751,-100,4,2,5,70,0,1
45819,-100,4,2,5,70,0,0
46024,-100,4,2,5,60,0,0
46297,-50,4,2,5,65,0,1
46365,-50,4,2,5,65,0,0
47251,-83.3333333333333,4,2,5,70,0,1
53865,-83.3333333333333,4,2,5,70,0,0
53933,-200,4,2,5,70,0,1
54001,-200,4,2,5,70,0,0
54206,-200,4,2,5,60,0,0
54479,-100,4,2,5,70,0,1
54547,-100,4,2,5,70,0,0
54751,-100,4,2,5,60,0,0
55024,-50,4,2,5,70,0,1
55092,-50,4,2,5,70,0,0
55979,-80,4,2,5,65,0,1
56047,-80,4,2,5,55,0,0
59388,-66.6666666666667,4,2,5,60,0,1
60479,-66.6666666666667,4,2,5,55,0,0
61024,-100,4,2,5,55,0,0
61569,-66.6666666666667,4,2,5,60,0,0
61979,-100,4,2,5,60,0,0
63819,-100,4,2,5,5,0,0
64160,-100,4,2,5,65,0,0
64229,-100,4,2,5,5,0,0
64569,-60.6060606060606,4,2,5,60,0,0
64638,-60.6060606060606,4,2,5,5,0,0
64842,-60.6060606060606,4,2,5,55,0,0
64979,-60.6060606060606,4,2,5,50,0,0
66001,-60.6060606060606,4,2,5,50,0,0
66206,-60.6060606060606,4,2,5,50,0,0
66274,-60.6060606060606,4,2,5,50,0,0
66479,-60.6060606060606,4,2,5,50,0,0
71388,-1000,4,2,5,50,0,0
71456,-1000,4,2,5,5,0,0
72479,-1000,4,2,5,50,0,0
73092,-1000,4,2,5,5,0,0
73297,-111.111111111111,4,2,5,40,0,0
73365,-111.111111111111,4,2,5,35,0,0
73433,-111.111111111111,4,2,5,40,0,0
73501,-111.111111111111,4,2,5,50,0,0
73569,-111.111111111111,4,2,5,60,0,0
74388,-100,4,2,5,60,0,0
75206,-100,4,2,5,58,0,0
75751,-66.6666666666667,4,2,5,58,0,0
76160,-66.6666666666667,4,2,5,55,0,0
76842,-66.6666666666667,4,2,5,52,0,0
78751,-100,4,2,5,52,0,0
80115,-90.9090909090909,4,2,5,60,0,0
82297,-125,4,2,5,60,0,0
82569,-125,4,2,5,32,0,0
82842,-125,4,2,5,35,0,0
83388,-125,4,2,5,38,0,0
83933,-125,4,2,5,40,0,0
84479,-125,4,2,5,42,0,0
85024,-125,4,2,5,45,0,0
85569,-125,4,2,5,50,0,0
85842,-125,4,2,5,40,0,0
85979,-125,4,2,5,50,0,0
86660,-111.111111111111,4,2,5,55,0,0
86797,-111.111111111111,4,2,5,40,0,0
87206,-111.111111111111,4,2,5,55,0,0
87342,-111.111111111111,4,2,5,40,0,0
87751,-111.111111111111,4,2,5,60,0,0
87888,-111.111111111111,4,2,5,40,0,0
88024,-111.111111111111,4,2,5,50,0,0
88297,-111.111111111111,4,2,5,55,0,0
88569,-111.111111111111,4,2,5,60,0,0
88842,-111.111111111111,4,2,5,65,0,0
88910,-111.111111111111,4,2,5,50,0,0
89388,-111.111111111111,4,2,5,40,0,0
90751,-200,4,2,5,65,0,0
90819,-200,4,2,5,5,0,0
91024,-83.3333333333333,4,2,5,70,0,1
97501,-83.3333333333333,4,2,5,70,0,0
97569,-200,4,2,5,75,0,1
97638,-200,4,2,5,75,0,0
97842,-200,4,2,5,60,0,0
98115,-100,4,2,5,75,0,1
98183,-100,4,2,5,75,0,0
98388,-100,4,2,5,60,0,0
98660,-50,4,2,5,75,0,1
98729,-50,4,2,5,75,0,0
99615,-83.3333333333333,4,2,5,75,0,1
99751,-83.3333333333333,4,2,5,70,0,1
106297,-200,4,2,5,75,0,0
106569,-200,4,2,5,60,0,0
106842,-100,4,2,5,75,0,0
107115,-100,4,2,5,60,0,0
107388,-50,4,2,5,75,0,0
108342,-83.3333333333333,4,2,5,75,0,1
115024,-200,4,2,5,75,0,0
115297,-200,4,2,5,60,0,0
115433,-200,4,2,5,50,0,0
115569,-100,4,2,5,75,0,0
115842,-100,4,2,5,60,0,0
115979,-100,4,2,5,50,0,0
116115,-50,4,2,5,75,0,0
117069,-83.3333333333333,4,2,5,75,0,1
123751,-200,4,2,5,75,0,0
124297,-100,4,2,5,75,0,0
124842,-50,4,2,5,75,0,0
125388,-50,4,2,5,70,0,0
125797,-50,4,2,5,70,0,0
128115,-50,4,2,5,5,0,0
129206,-200,4,2,5,70,0,0
129274,-200,4,2,5,5,0,0
129615,-200,4,2,5,70,0,0
129683,-200,4,2,5,5,0,0
130024,-119.760479041916,4,2,5,70,0,0
130092,-119.760479041916,4,2,5,5,0,0
130229,-119.760479041916,4,2,5,5,0,0
130297,-100,4,2,5,60,0,0
130365,-100,4,2,5,55,0,0
133569,-66.6666666666667,4,2,5,60,0,1
134660,-100,4,2,5,60,0,0
137933,-66.6666666666667,4,2,5,60,0,1
139024,-133.333333333333,4,2,5,70,0,0
142297,-100,4,2,5,70,0,0
143388,-166.666666666667,4,2,5,70,0,0
147615,-200,4,2,5,70,0,0
147751,-200,4,2,5,5,0,0
148842,-200,4,2,5,25,0,0

[Colours]
Combo1 : 136,136,136
Combo2 : 82,109,90
Combo3 : 196,148,140
Combo4 : 146,192,194

[HitObjects]
256,192,10297,12,0,12342,0:0:0:0:
31,10,12479,6,0,P|30:49|33:88,1,70,2|0,1:0|1:0,0:0:0:0:
94,134,12888,2,0,P|96:168|95:203,1,70,2|0,0:3|0:0,0:0:0:0:
34,260,13297,2,0,L|-15:258,1,35,2|0,1:0|0:0,0:0:0:0:
146,310,13569,5,0,1:0:0:0:
165,307,13842,1,0,1:0:0:0:
184,304,14115,1,0,1:0:0:0:
203,302,14388,1,0,1:0:0:0:
280,226,14660,6,0,P|322:220|361:220,1,70,2|0,1:0|1:0,0:0:0:0:
414,270,15069,2,0,P|455:275|495:277,1,70,2|0,0:3|0:0,0:0:0:0:
512,199,15479,2,0,L|509:160,1,35,2|0,1:0|0:0,0:0:0:0:
444,61,15751,5,0,1:0:0:0:
425,58,16024,1,0,1:0:0:0:
406,55,16297,1,0,1:0:0:0:
387,53,16570,1,0,1:0:0:0:
302,121,16842,6,0,P|302:174|304:199,1,70,2|0,1:0|1:0,0:0:0:0:
353,257,17251,2,0,P|361:291|364:331,1,70,2|0,0:3|0:0,0:0:0:0:
303,382,17660,2,0,L|264:379,1,35,2|0,1:0|0:0,0:0:0:0:
181,296,17933,5,0,1:0:0:0:
162,299,18206,1,0,1:0:0:0:
143,302,18479,1,0,1:0:0:0:
122,305,18751,2,0,P|119:333|115:372,1,52.5000020027161,0|0,1:0|1:0,0:0:0:0:
41,224,19024,5,14,0:0:0:0:
234,176,19160,2,0,B|271:164|271:164|322:170,1,70,0|0,1:0|1:0,0:0:0:0:
72,126,19433,5,12,0:0:0:0:
210,269,19569,2,0,B|238:295|238:295|259:342,1,70,0|0,1:0|1:0,0:0:0:0:
88,307,19842,5,12,0:0:0:0:
165,108,19979,2,0,L|155:35,1,70,0|2,1:0|1:0,0:0:0:0:
210,269,20251,5,14,0:0:0:0:
32,147,20388,2,0,L|42:74,1,70,0|0,1:0|1:0,0:0:0:0:
88,307,20660,5,14,0:0:0:0:
231,177,20797,1,0,1:0:0:0:
20,241,20933,5,10,0:0:0:0:
210,269,21069,1,0,1:0:0:0:
140,91,21206,6,0,P|108:145|108:199,1,105.000004005432,6|8,1:2|0:0,0:0:0:0:
81,320,21615,2,0,P|50:265|3:238,1,105.000004005432,2|0,1:0|1:0,0:0:0:0:
162,265,22024,2,0,P|198:277|236:275,1,52.5000020027161,10|0,0:0|0:0,0:0:0:0:
372,211,22297,5,0,0:0:0:0:
289,220,22569,1,8,0:0:0:0:
239,152,22842,1,0,0:0:0:0:
272,75,23115,1,8,0:0:0:0:
372,211,23388,6,0,P|379:256|350:324,1,105.000004005432,2|8,1:0|0:0,0:0:0:0:
460,179,23797,2,0,P|453:134|483:62,1,105.000004005432,2|0,1:0|1:0,0:0:0:0:
414,7,24206,2,0,P|388:13|362:12,1,52.5000020027161,10|0,0:0|0:0,0:0:0:0:
211,70,24479,5,0,0:0:0:0:
294,79,24751,1,8,0:0:0:0:
148,125,25024,5,0,1:0:0:0:
327,155,25160,1,0,1:0:0:0:
212,296,25297,1,8,0:0:0:0:
211,70,25569,6,0,P|246:86|315:79,1,105.000004005432,2|8,1:0|0:0,0:0:0:0:
450,54,25979,2,0,P|409:86|389:133,1,105.000004005432,2|0,1:0|1:0,0:0:0:0:
330,224,26388,2,0,P|320:199|305:177,1,52.5000020027161,10|0,0:0|0:0,0:0:0:0:
154,252,26660,5,0,0:0:0:0:
237,243,26932,1,8,0:0:0:0:
187,162,27206,5,0,1:0:0:0:
205,333,27342,1,0,1:0:0:0:
47,263,27479,2,0,P|26:234|16:200,1,52.5000020027161,8|0,0:0|1:0,0:0:0:0:
110,82,27751,6,0,B|92:113|92:113|65:134,2,70,14|0|0,0:0|1:0|1:0,0:0:0:0:
267,64,28160,2,0,B|232:64|232:64|200:50,2,70,12|0|0,0:0|1:0|1:0,0:0:0:0:
347,11,28569,5,12,0:0:0:0:
334,188,28706,2,0,L|327:273,1,70,0|2,1:0|1:0,0:0:0:0:
200,50,28979,5,12,0:0:0:0:
212,227,29116,2,0,L|218:310,1,70,0|0,1:0|1:0,0:0:0:0:
147,130,29388,6,0,L|72:93,1,70,12|0,0:0|1:0,0:0:0:0:
262,123,29660,2,0,L|330:76,1,70,10|0,0:0|1:0,0:0:0:0:
412,208,29933,6,0,L|344:161,1,56,6|0,1:2|0:0,0:0:0:0:
300,245,30206,2,0,L|249:268,1,56,10|8,0:3|0:3,0:0:0:0:
168,218,30479,2,0,L|113:203,1,56,10|8,0:0|0:3,0:0:0:0:
55,279,30751,2,0,L|0:283,1,56,10|8,0:0|0:3,0:0:0:0:
32,131,31024,6,0,L|36:75,1,56,10|8,0:0|0:3,0:0:0:0:
126,152,31297,2,0,L|144:99,1,56,10|8,0:0|0:3,0:0:0:0:
210,197,31569,2,0,L|241:150,1,56,10|8,0:0|0:3,0:0:0:0:
280,262,31842,2,0,L|322:225,1,56,10|8,0:0|0:3,0:0:0:0:
334,341,32115,6,0,L|384:317,1,56,10|8,0:0|0:3,0:0:0:0:
507,264,32388,2,0,L|453:250,1,56,10|8,0:0|0:3,0:0:0:0:
306,229,32660,2,0,L|362:224,1,56,10|8,0:0|0:3,0:0:0:0:
484,152,32933,2,0,L|429:157,1,56,10|8,0:0|0:3,0:0:0:0:
282,117,33206,6,0,L|337:132,1,56,10|8,0:0|0:3,0:0:0:0:
215,185,33479,2,0,L|229:239,1,56,10|8,0:0|0:3,0:0:0:0:
123,159,33751,2,0,L|83:198,1,56,10|8,0:0|0:3,0:0:0:0:
98,66,34024,2,0,L|43:51,1,56,10|8,0:0|0:3,0:0:0:0:
339,114,34297,6,0,L|360:47,3,62.9999980773926,2|8|10|8,1:0|0:3|1:2|0:3,0:0:0:0:
279,301,34842,2,0,L|326:353,3,62.9999980773926,2|8|10|8,1:0|0:3|1:2|0:3,0:0:0:0:
146,157,35388,2,0,L|78:172,1,62.9999980773926,2|8,1:2|0:3,0:0:0:0:
339,114,35660,5,10,1:2:0:0:
363,224,35797,5,8,0:0:0:0:
279,301,35933,5,10,1:2:0:0:
171,268,36069,5,8,0:0:0:0:
146,157,36206,5,10,1:2:0:0:
229,79,36342,5,8,0:0:0:0:
256,190,36479,5,6,1:2:0:0:
197,173,38388,6,0,L|263:181,1,61.25,2|0,0:0|0:0,0:0:0:0:
268,171,38660,5,6,1:2:0:0:
183,63,38797,2,0,P|143:76|112:104,1,83.9999974365235,0|8,0:0|0:0,0:0:0:0:
1,0,39069,2,0,L|7:84,1,83.9999974365235,0|0,0:0|1:0,0:0:0:0:
93,206,39342,2,0,L|87:289,1,83.9999974365235,0|8,1:0|0:0,0:0:0:0:
231,193,39615,6,0,P|194:254|221:351,1,167.999994873047,2|0,1:0|1:0,0:0:0:0:
294,105,40024,2,0,P|256:86|214:85,1,83.9999974365235,8|0,0:0|0:0,0:0:0:0:
299,277,40297,5,0,1:0:0:0:
131,153,40433,2,0,L|37:160,1,83.9999974365235,0|8,1:0|0:0,0:0:0:0:
362,190,40706,6,0,B|405:199|405:199|448:186,1,83.9999974365235,0|2,0:0|1:0,0:0:0:0:
399,88,40979,1,0,0:0:0:0:
411,301,41115,2,0,L|418:395,1,83.9999974365235,8|0,0:0|0:0,0:0:0:0:
512,268,41388,1,0,1:0:0:0:
305,283,41524,2,0,P|264:293|232:320,1,83.9999974365235,0|8,1:0|0:0,0:0:0:0:
128,197,41797,6,0,B|154:302|114:259|129:364,1,167.999994873047,2|0,1:0|1:0,0:0:0:0:
27,233,42206,2,0,B|18:190|18:190|31:147,1,83.9999974365235,8|0,0:0|0:0,0:0:0:0:
111,82,42479,5,0,1:0:0:0:
235,203,42615,2,0,B|231:159|231:159|209:126,1,83.9999974365235,0|8,1:0|0:0,0:0:0:0:
128,197,42888,5,0,0:0:0:0:
198,17,43024,2,0,L|292:10,1,83.9999974365235,2|0,1:0|0:0,0:0:0:0:
389,0,43297,5,8,0:0:0:0:
380,171,43433,2,0,P|353:139|344:99,1,83.9999974365235,0|0,0:0|1:0,0:0:0:0:
487,181,43706,2,0,P|477:221|451:253,1,83.9999974365235,0|8,1:0|0:0,0:0:0:0:
182,258,43979,6,0,B|236:254|236:254|289:277|289:277|346:275,1,167.999994873047,2|0,1:0|1:0,0:0:0:0:
112,339,44388,2,0,P|85:306|75:266,1,83.9999974365235,8|0,0:0|0:0,0:0:0:0:
87,68,44660,5,0,1:0:0:0:
121,169,44797,1,0,1:0:0:0:
178,93,44933,5,8,0:0:0:0:
29,143,45069,1,0,0:0:0:0:
215,181,45206,6,0,L|283:197,1,70,14|0,0:3|0:0,0:0:0:0:
178,93,45615,1,0,0:0:0:0:
176,207,45751,6,0,L|315:174,1,140,14|0,0:3|0:0,0:0:0:0:
111,276,46160,1,0,0:0:0:0:
134,158,46297,6,0,L|338:217,1,210,14|0,0:3|0:0,0:0:0:0:
393,198,46569,2,0,L|187:138,1,210,14|0,0:3|0:0,0:0:0:0:
215,36,46842,5,10,0:0:0:0:
322,21,46979,5,10,0:0:0:0:
400,95,47115,5,8,0:0:0:0:
191,139,47251,6,0,B|95:129|124:172|25:159,1,167.999994873047,6|0,1:2|0:0,0:0:0:0:
60,53,47660,1,8,0:0:0:0:
161,243,47797,2,0,B|169:281|169:281|155:323,1,83.9999974365235,0|0,0:0|1:0,0:0:0:0:
300,181,48069,2,0,B|288:142|288:142|297:99,1,83.9999974365235,0|8,1:0|0:0,0:0:0:0:
510,186,48342,6,0,P|460:250|379:254,1,167.999994873047,2|0,1:0|1:0,0:0:0:0:
276,286,48751,2,0,P|266:326|240:358,1,83.9999974365235,8|0,0:0|0:0,0:0:0:0:
65,299,49024,5,0,1:0:0:0:
125,209,49160,2,0,P|155:237|170:277,1,83.9999974365235,0|8,1:0|0:0,0:0:0:0:
19,201,49433,6,0,L|12:107,1,83.9999974365235,2|0,0:0|1:0,0:0:0:0:
130,38,49706,1,0,0:0:0:0:
251,111,49842,2,0,L|244:194,1,83.9999974365235,8|0,0:0|0:0,0:0:0:0:
147,304,50115,6,0,B|186:292|186:292|229:301,1,83.9999974365235,0|0,1:0|1:0,0:0:0:0:
48,262,50388,2,0,B|38:301|38:301|9:334,1,83.9999974365235,8|2,0:0|1:0,0:0:0:0:
133,197,50660,2,0,B|103:169|103:169|89:127,1,83.9999974365235,0|0,0:0|1:0,0:0:0:0:
221,52,50933,2,0,B|250:79|250:79|264:121,1,83.9999974365235,8|0,0:0|0:0,0:0:0:0:
237,226,51206,5,0,1:0:0:0:
340,197,51342,2,0,P|379:206|412:233,1,83.9999974365235,0|8,1:0|0:0,0:0:0:0:
210,332,51615,5,2,0:0:0:0:
154,157,51751,2,0,P|149:113|163:69,1,83.9999974365235,0|0,1:0|0:0,0:0:0:0:
313,303,52024,2,0,P|316:345|303:387,1,83.9999974365235,10|0,0:0|0:0,0:0:0:0:
210,332,52297,5,0,1:0:0:0:
424,347,52433,2,0,L|507:353,1,83.9999974365235,0|8,1:0|0:0,0:0:0:0:
411,198,52706,6,0,B|330:215|330:215|238:178,1,167.999994873047,2|0,1:0|1:0,0:0:0:0:
310,22,53115,2,0,B|350:16|350:16|391:31,1,83.9999974365235,8|0,0:0|0:0,0:0:0:0:
339,127,53388,5,0,1:0:0:0:
209,59,53524,2,0,B|169:65|169:65|128:50,2,83.9999974365235,0|8|2,1:0|0:0|0:0,0:0:0:0:
230,270,53933,6,0,L|253:204,1,70,6|0,1:3|0:0,0:0:0:0:
142,306,54342,1,0,0:0:0:0:
269,311,54479,6,0,L|221:179,1,140,6|0,1:3|0:0,0:0:0:0:
361,287,54888,1,0,0:0:0:0:
207,347,55024,6,0,L|265:144,1,210,14|0,1:3|0:0,0:0:0:0:
245,89,55297,2,0,L|184:301,1,210,14|0,1:3|0:0,0:0:0:0:
91,366,55569,5,8,0:0:0:0:
53,264,55706,5,8,0:0:0:0:
119,179,55842,5,8,0:0:0:0:
19,271,55979,6,0,B|111:246|94:316|188:289,1,175,6|0,1:2|0:0,0:0:0:0:
410,92,59388,6,0,B|361:114|361:114|296:100,1,105.000004005432,6|0,1:3|0:0,0:0:0:0:
118,94,59660,2,0,B|167:72|167:72|218:83,1,105.000004005432,2|2,0:0|0:3,0:0:0:0:
351,16,59933,5,10,1:2:0:0:
174,171,60069,2,0,P|164:221|184:269,1,105.000004005432,2|2,0:0|0:3,0:0:0:0:
352,307,60342,5,2,0:0:0:0:
352,307,60479,2,0,B|222:304|286:371|141:366,1,210.000008010865,6|0,1:2|0:0,0:0:0:0:
60,247,60888,5,0,0:0:0:0:
60,247,61024,2,0,P|66:281|60:318,1,70,8|0,1:2|0:0,0:0:0:0:
140,193,61297,2,0,P|133:158|139:121,1,70,0|2,0:0|0:0,0:0:0:0:
303,200,61569,6,0,P|230:174|305:118,1,210.000008010865,6|0,1:3|0:0,0:0:0:0:
392,163,61979,5,0,0:0:0:0:
392,163,62115,2,0,B|426:156|426:156|463:162,1,70,8|0,1:2|0:0,0:0:0:0:
370,20,62388,2,0,B|335:26|335:26|298:20,1,70,0|0,0:0|0:0,0:0:0:0:
168,120,62660,6,0,B|207:101|207:101|319:119,1,140,6|0,1:3|0:0,0:0:0:0:
311,215,63069,1,0,0:0:0:0:
311,215,63206,2,0,L|227:200,1,70,8|0,1:2|0:0,0:0:0:0:
80,233,63479,2,0,L|149:221,1,70,0|0,0:0|0:0,0:0:0:0:
168,120,63751,6,0,P|123:59|195:47,1,175,6|0,1:3|0:0,0:0:0:0:
191,45,64160,2,0,P|264:33|244:104,1,175,6|0,1:3|0:0,0:0:0:0:
245,103,64569,6,0,B|263:128|263:128|259:171|259:171|226:195|226:195|182:187|182:187|164:152|164:152|167:120,1,231.000002202988,10|6,0:0|1:2,0:0:0:0:
34,335,71388,6,0,P|76:313|123:316,1,94.5,6|0,1:2|0:0,0:0:0:0:
34,335,73297,6,0,B|56:329|76:314|76:314|97:317|123:316,1,94.499997116089,2|2,0:0|0:0,0:0:0:0:
247,261,73569,6,0,P|222:309|245:384,1,125.999996154785,6|8,1:0|0:0,0:0:0:0:
117,193,73979,1,2,1:0:0:0:
117,193,74115,2,0,L|195:186,1,62.9999980773926,0|0,0:0|1:0,0:0:0:0:
312,120,74388,6,0,B|276:122|276:122|234:113,1,70,10|0,0:0|0:0,0:0:0:0:
392,69,74660,2,0,B|388:32|388:32|399:-9,1,70,2|0,0:0|0:0,0:0:0:0:
443,150,74933,2,0,B|477:149|477:149|521:157,1,70,10|0,0:0|0:0,0:0:0:0:
363,201,75205,2,0,B|364:236|364:236|356:279,1,70,2|0,0:0|0:0,0:0:0:0:
194,343,75479,5,10,0:0:0:0:
194,343,75615,1,2,0:0:0:0:
399,367,75751,2,0,B|289:389|305:326|194:343,1,210.000008010865,2|8,1:0|0:0,0:0:0:0:
37,266,76160,2,0,B|147:288|131:225|242:242,1,210.000008010865,2|0,1:0|1:0,0:0:0:0:
112,64,76569,2,0,P|85:109|85:161,1,105.000004005432,8|0,0:0|0:0,0:0:0:0:
279,137,76842,5,0,0:0:0:0:
277,104,76979,1,0,0:0:0:0:
275,72,77115,1,8,0:0:0:0:
273,40,77251,1,0,0:0:0:0:
368,199,77388,5,0,0:0:0:0:
366,232,77525,1,0,0:0:0:0:
364,264,77661,1,8,0:0:0:0:
362,296,77797,1,0,0:0:0:0:
463,141,77933,6,0,B|455:-6|455:-6|488:51,1,210.000008010865,2|8,1:0|0:0,0:0:0:0:
349,3,78342,2,0,B|357:150|357:150|324:93,1,210.000008010865,2|0,1:0|1:0,0:0:0:0:
230,143,78751,2,0,L|265:203,1,70,10|0,0:0|0:0,0:0:0:0:
427,252,79024,6,0,L|358:258,1,70,0|0,0:0|0:0,0:0:0:0:
212,331,79297,1,8,0:0:0:0:
212,331,79433,2,0,L|281:336,1,70,0|0,0:0|1:0,0:0:0:0:
168,238,79706,5,0,1:0:0:0:
74,229,79842,1,8,0:0:0:0:
113,315,79979,1,0,1:0:0:0:
127,151,80115,6,0,L|221:147,2,77.0000023498536,14|0|0,0:0|1:0|1:0,0:0:0:0:
76,55,80524,2,0,L|-18:51,2,77.0000023498536,12|0|0,0:0|1:0|1:0,0:0:0:0:
175,11,80933,5,12,0:0:0:0:
296,92,81069,2,0,B|312:128|312:128|310:165,1,77.0000023498536,0|2,1:0|1:0,0:0:0:0:
203,147,81342,5,12,0:0:0:0:
419,109,81478,2,0,B|455:101|455:101|493:112,1,77.0000023498536,0|0,1:0|1:0,0:0:0:0:
483,263,81751,6,0,P|443:268|408:259,1,77.0000023498536,12|0,0:0|1:0,0:0:0:0:
241,314,82024,2,0,P|279:309|317:319,1,77.0000023498536,10|0,0:0|1:0,0:0:0:0:
158,256,82297,6,0,L|153:200,1,56,6|0,1:2|0:0,0:0:0:0:
122,66,82569,2,0,L|126:121,1,56,8|8,0:0|0:3,0:0:0:0:
145,263,82842,2,0,L|140:207,1,56,8|8,0:0|0:3,0:0:0:0:
109,73,83114,2,0,L|113:128,1,56,8|8,0:0|0:3,0:0:0:0:
222,318,83388,6,0,B|249:323|249:323|282:320,1,56,8|8,0:0|0:3,0:0:0:0:
336,261,83660,2,0,B|341:234|341:234|338:201,1,56,8|8,0:0|0:3,0:0:0:0:
287,141,83933,2,0,B|260:136|260:136|227:139,1,56,8|8,0:0|0:3,0:0:0:0:
173,198,84205,2,0,B|168:225|168:225|171:258,1,56,8|8,0:0|0:3,0:0:0:0:
85,112,84479,6,0,L|140:107,1,56,8|8,0:0|0:3,0:0:0:0:
248,39,84751,2,0,L|192:43,1,56,8|8,0:0|0:3,0:0:0:0:
78,97,85024,2,0,L|133:92,1,56,8|8,0:0|0:3,0:0:0:0:
241,24,85296,2,0,L|185:28,1,56,8|8,0:0|0:3,0:0:0:0:
306,145,85569,6,0,B|311:118|311:118|308:89,1,56,8|8,0:0|0:0,0:0:0:0:
373,194,85842,2,0,B|398:184|398:184|422:168,1,56,8|10,0:0|0:3,0:0:0:0:
362,277,86115,2,0,B|382:294|382:294|408:306,1,56,8|8,0:0|0:3,0:0:0:0:
286,310,86388,2,0,B|281:337|281:337|283:365,1,56,10|8,0:0|0:3,0:0:0:0:
145,238,86660,6,0,L|79:234,3,62.9999980773926,10|8|8|8,1:2|0:3|1:2|0:3,0:0:0:0:
270,73,87206,2,0,L|307:18,3,62.9999980773926,10|8|8|8,1:2|0:3|1:2|0:3,0:0:0:0:
351,264,87751,2,0,L|380:323,1,62.9999980773926,10|8,1:2|0:3,0:0:0:0:
145,238,88024,5,10,1:2:0:0:
160,119,88160,5,8,0:3:0:0:
270,72,88297,5,8,1:2:0:0:
366,144,88433,5,8,0:0:0:0:
351,264,88569,5,10,1:2:0:0:
241,310,88706,5,8,0:0:0:0:
255,190,88842,5,6,1:2:0:0:
362,339,90751,6,0,L|297:345,1,61.25,2|0,0:0|0:0,0:0:0:0:
287,332,91024,5,6,1:2:0:0:
429,216,91160,2,0,L|522:222,1,83.9999974365235,0|8,0:0|0:0,0:0:0:0:
341,155,91433,2,0,L|299:71,1,83.9999974365235,0|0,0:0|1:0,0:0:0:0:
333,262,91706,2,0,L|281:339,1,83.9999974365235,0|8,1:0|0:0,0:0:0:0:
140,320,91979,6,0,B|108:240|108:240|125:159,1,167.999994873047,2|0,1:0|1:0,0:0:0:0:
225,32,92388,2,0,B|192:60|192:60|153:68,1,83.9999974365235,8|0,0:0|0:0,0:0:0:0:
70,0,92660,5,0,1:0:0:0:
332,41,92797,2,0,P|322:81|295:113,1,83.9999974365235,0|8,1:0|0:0,0:0:0:0:
335,216,93069,6,0,P|375:225|407:252,1,83.9999974365235,0|2,1:0|1:0,0:0:0:0:
399,359,93342,1,0,0:0:0:0:
291,362,93479,2,0,P|264:329|254:289,1,83.9999974365235,8|0,0:0|0:0,0:0:0:0:
232,183,93751,1,0,1:0:0:0:
130,213,93888,2,0,B|90:220|90:220|48:207,1,83.9999974365235,0|8,1:0|0:0,0:0:0:0:
257,77,94160,6,0,P|316:108|324:228,1,167.999994873047,2|0,1:0|1:0,0:0:0:0:
188,286,94569,2,0,P|229:276|270:285,1,83.9999974365235,8|0,0:0|0:0,0:0:0:0:
230,384,94842,5,0,1:0:0:0:
130,213,94979,2,0,P|89:203|48:211,1,83.9999974365235,0|8,1:0|0:0,0:0:0:0:
87,312,95251,5,0,1:0:0:0:
193,141,95388,2,0,P|233:131|274:139,1,83.9999974365235,2|0,1:2|0:0,0:0:0:0:
351,215,95660,5,8,0:0:0:0:
429,65,95797,2,0,B|442:107|442:107|435:147,1,83.9999974365235,0|0,0:0|1:0,0:0:0:0:
266,282,96069,2,0,B|253:324|253:324|260:364,1,83.9999974365235,0|8,1:0|0:0,0:0:0:0:
205,209,96342,6,0,B|102:197|137:241|40:229,1,167.999994873047,2|0,1:0|1:0,0:0:0:0:
67,39,96751,2,0,L|73:123,1,83.9999974365235,8|0,0:0|0:0,0:0:0:0:
168,316,97024,5,0,1:0:0:0:
266,282,97160,1,0,1:0:0:0:
71,350,97297,5,8,0:0:0:0:
242,376,97433,1,0,1:0:0:0:
215,202,97569,6,0,L|137:185,1,70,14|0,0:3|0:0,0:0:0:0:
266,282,97979,1,0,0:0:0:0:
249,177,98115,6,0,L|114:215,1,140,14|0,0:3|0:0,0:0:0:0:
290,91,98524,1,0,0:0:0:0:
287,213,98660,6,0,L|56:171,1,210,14|0,0:3|0:0,0:0:0:0:
42,135,98933,2,0,L|273:177,1,210,14|0,0:3|0:0,0:0:0:0:
432,204,99206,5,10,0:0:0:0:
457,309,99342,5,10,0:0:0:0:
376,380,99479,5,8,0:0:0:0:
231,323,99615,6,0,B|171:318|171:318|125:328|125:328|64:326,1,167.999994873047,6|0,1:2|1:0,0:0:0:0:
102,109,100024,1,8,0:0:0:0:
114,219,100160,2,0,L|30:213,1,83.9999974365235,0|0,0:0|1:0,0:0:0:0:
201,152,100433,2,0,L|284:157,1,83.9999974365235,0|8,1:0|0:0,0:0:0:0:
414,246,100706,6,0,P|390:167|433:98,1,167.999994873047,2|0,1:0|1:0,0:0:0:0:
388,0,101115,2,0,L|305:5,1,83.9999974365235,8|0,0:0|0:0,0:0:0:0:
123,15,101388,1,0,1:0:0:0:
239,102,101524,2,0,P|265:133|276:174,1,83.9999974365235,0|8,1:0|0:0,0:0:0:0:
131,256,101797,6,0,P|142:216|169:184,1,83.9999974365235,2|0,1:0|0:0,0:0:0:0:
239,266,102069,1,0,1:0:0:0:
284,363,102206,2,0,P|243:374|202:367,1,83.9999974365235,8|0,0:0|0:0,0:0:0:0:
300,178,102479,6,0,B|329:207|329:207|344:246,1,83.9999974365235,0|0,1:0|1:0,0:0:0:0:
277,72,102751,2,0,B|287:31|287:31|314:0,1,83.9999974365235,8|2,0:0|1:0,0:0:0:0:
197,145,103024,2,0,B|156:156|156:156|115:149,1,83.9999974365235,0|0,0:0|1:0,0:0:0:0:
40,265,103297,2,0,B|80:254|80:254|122:261,1,83.9999974365235,8|0,0:0|0:0,0:0:0:0:
256,288,103569,5,0,1:0:0:0:
390,261,103706,2,0,B|431:254|431:254|471:265,1,83.9999974365235,0|8,1:0|0:0,0:0:0:0:
479,150,103979,6,0,B|381:125|410:170|308:146,1,167.999994873047,2|0,1:0|1:0,0:0:0:0:
276,44,104388,2,0,P|317:36|358:44,1,83.9999974365235,10|0,0:0|0:0,0:0:0:0:
209,129,104660,1,0,1:0:0:0:
130,56,104797,2,0,P|88:53|49:68,1,83.9999974365235,0|8,1:0|0:0,0:0:0:0:
119,321,105069,6,0,B|136:240|136:240|105:161,1,167.999994873047,2|0,1:0|1:0,0:0:0:0:
254,193,105479,2,0,B|247:233|247:233|259:274,1,83.9999974365235,8|0,0:0|0:0,0:0:0:0:
299,95,105751,5,0,1:0:0:0:
204,98,105888,1,0,1:0:0:0:
254,193,106024,5,8,0:0:0:0:
249,0,106160,1,2,1:0:0:0:
359,178,106297,6,0,L|344:253,1,70,6|0,1:3|0:0,0:0:0:0:
441,131,106706,1,0,0:0:0:0:
330,143,106842,6,0,L|374:277,1,140,6|0,1:3|0:0,0:0:0:0:
246,100,107251,1,0,0:0:0:0:
374,103,107388,6,0,L|320:368,1,210,14|0,1:3|0:0,0:0:0:0:
352,379,107660,2,0,L|405:113,1,210,14|0,1:3|0:0,0:0:0:0:
246,100,107933,5,8,0:0:0:0:
201,199,108069,5,8,0:0:0:0:
251,295,108206,5,8,0:0:0:0:
326,192,108342,6,0,B|426:170|399:231|492:213,1,167.999994873047,6|0,1:2|1:0,0:0:0:0:
466,26,108751,2,0,P|475:66|465:107,1,83.9999974365235,8|0,0:0|0:0,0:0:0:0:
363,294,109024,1,0,1:0:0:0:
247,246,109160,1,0,1:0:0:0:
396,307,109297,1,8,0:0:0:0:
217,350,109433,6,0,P|170:323|145:264,1,83.9999974365235,2|0,1:0|0:0,0:0:0:0:
188,155,109706,1,0,1:0:0:0:
247,246,109842,2,0,P|283:205|288:141,1,83.9999974365235,8|0,0:0|0:0,0:0:0:0:
261,75,110115,1,0,1:0:0:0:
188,155,110251,1,0,1:0:0:0:
366,100,110388,2,0,L|456:109,1,83.9999974365235,8|0,0:0|1:0,0:0:0:0:
449,276,110660,6,0,L|366:268,1,83.9999974365235,2|0,0:0|1:0,0:0:0:0:
215,192,110933,2,0,L|298:184,1,83.9999974365235,8|0,0:0|0:0,0:0:0:0:
234,299,111206,1,0,1:0:0:0:
138,266,111342,1,0,1:0:0:0:
43,305,111479,1,8,0:0:0:0:
134,234,111615,6,0,P|90:190|-17:194,1,167.999994873047,2|0,1:0|1:0,0:0:0:0:
42,20,112024,2,0,P|105:71|186:63,1,167.999994873047,8|0,0:0|1:0,0:0:0:0:
219,168,112433,1,0,1:0:0:0:
291,88,112569,2,0,B|331:90|331:90|368:111,1,83.9999974365235,8|0,0:0|1:0,0:0:0:0:
318,297,112842,6,0,P|277:294|241:274,1,83.9999974365235,2|0,0:0|1:0,0:0:0:0:
393,218,113115,2,0,P|433:220|470:241,1,83.9999974365235,8|0,0:0|0:0,0:0:0:0:
408,313,113388,1,0,1:0:0:0:
303,203,113524,1,0,1:0:0:0:
431,337,113660,1,8,0:0:0:0:
240,273,113797,6,0,B|129:266|182:302|74:294,1,167.999994873047,2|0,1:0|1:0,0:0:0:0:
93,107,114206,2,0,B|108:144|108:144|106:188,1,83.9999974365235,8|0,0:0|0:0,0:0:0:0:
202,383,114479,5,0,1:0:0:0:
75,294,114615,1,0,1:0:0:0:
181,277,114751,5,8,0:0:0:0:
11,381,114888,1,0,1:0:0:0:
106,188,115024,6,0,L|155:184,2,35,14|0|8,0:0|1:0|1:3,0:0:0:0:
204,113,115433,1,0,1:3:0:0:
309,211,115569,6,0,L|240:202,2,70,14|0|8,0:0|1:0|1:3,0:0:0:0:
181,277,115979,1,0,1:3:0:0:
299,117,116115,6,0,B|368:101|368:101|436:134,1,140,14|0,0:0|1:3,0:0:0:0:
412,317,116388,2,0,B|343:333|343:333|280:302,1,140,14|0,0:0|1:3,0:0:0:0:
240,202,116660,5,14,0:0:0:0:
198,102,116797,5,2,1:0:0:0:
266,19,116933,5,0,1:0:0:0:
134,188,117069,6,0,B|111:270|111:270|145:364,1,167.999994873047,6|0,1:2|1:0,0:0:0:0:
54,116,117479,2,0,L|61:25,1,83.9999974365235,10|0,0:0|1:0,0:0:0:0:
231,118,117751,5,0,1:0:0:0:
231,118,117888,1,0,1:0:0:0:
231,118,118024,2,0,L|238:209,1,83.9999974365235,10|2,0:0|1:3,0:0:0:0:
394,92,118297,5,0,1:0:0:0:
394,92,118433,1,0,1:0:0:0:
394,92,118569,2,0,L|319:56,1,83.9999974365235,10|0,0:0|1:0,0:0:0:0:
335,247,118842,5,0,1:0:0:0:
335,247,118979,1,0,1:0:0:0:
335,247,119115,2,0,L|405:200,1,83.9999974365235,10|0,0:0|1:0,0:0:0:0:
157,203,119388,6,0,P|198:213|230:240,1,83.9999974365235,2|0,1:3|1:0,0:0:0:0:
167,353,119660,2,0,P|126:343|94:316,1,83.9999974365235,10|0,0:0|1:0,0:0:0:0:
70,140,119933,5,0,1:0:0:0:
70,140,120069,1,0,1:0:0:0:
70,140,120206,2,0,P|99:109|138:95,1,83.9999974365235,10|2,0:0|1:3,0:0:0:0:
228,239,120479,5,0,1:0:0:0:
228,239,120615,1,0,1:0:0:0:
228,239,120751,2,0,P|188:229|156:202,1,83.9999974365235,10|0,0:0|1:0,0:0:0:0:
233,51,121024,5,0,1:0:0:0:
233,51,121160,1,0,1:0:0:0:
233,51,121297,2,0,P|245:90|238:132,1,83.9999974365235,10|0,0:0|1:0,0:0:0:0:
317,205,121569,6,0,P|356:193|398:200,1,83.9999974365235,2|0,1:3|1:0,0:0:0:0:
466,117,121842,2,0,P|454:78|461:36,1,83.9999974365235,10|0,0:0|1:0,0:0:0:0:
281,118,122114,5,0,1:0:0:0:
281,118,122251,1,0,1:0:0:0:
281,118,122387,2,0,B|286:161|286:161|274:209,1,83.9999974365235,10|2,0:0|1:3,0:0:0:0:
118,92,122660,5,0,1:0:0:0:
118,92,122796,1,0,1:0:0:0:
118,92,122933,2,0,B|152:67|152:67|193:56,1,83.9999974365235,10|0,0:0|1:0,0:0:0:0:
177,247,123205,5,0,1:0:0:0:
177,247,123342,1,0,1:0:0:0:
177,247,123478,2,0,B|135:229|135:229|107:200,1,83.9999974365235,8|0,0:0|1:0,0:0:0:0:
296,96,123751,6,0,L|364:80,1,70,14|0,1:3|0:0,0:0:0:0:
259,184,124160,1,0,0:0:0:0:
257,70,124297,6,0,L|396:103,1,140,14|0,1:3|0:0,0:0:0:0:
192,1,124706,1,0,0:0:0:0:
215,119,124842,6,0,L|419:60,1,210,14|0,1:3|0:0,0:0:0:0:
474,79,125115,2,0,L|268:139,1,210,14|0,1:3|0:0,0:0:0:0:
71,186,125388,5,10,0:0:0:0:
194,299,125524,5,10,0:0:0:0:
350,238,125660,5,8,0:0:0:0:
187,334,125797,5,6,1:2:0:0:
256,192,128115,12,0,129138,0:0:0:0:
174,174,129206,6,0,B|191:134|191:134|227:106,1,87.5,6|0,1:2|0:0,0:0:0:0:
312,129,129615,2,0,B|338:164|338:164|344:208,1,87.5,6|0,1:2|0:0,0:0:0:0:
281,272,130024,6,0,B|238:277|238:277|197:260,1,87.5,10|0,0:0|0:0,0:0:0:0:
192,41,130297,6,0,P|200:109|173:173,1,140,6|0,1:2|0:0,0:0:0:0:
418,212,130842,2,0,P|355:184|312:129,1,140,8|0,1:2|0:0,0:0:0:0:
157,322,131388,2,0,P|212:281|281:272,1,140,6|0,1:3|0:0,0:0:0:0:
486,350,131933,2,0,P|452:345|419:335,3,70,8|0|0|0,1:2|0:0|0:0|0:0,0:0:0:0:
412,233,132479,6,0,B|341:238|341:238|269:279,1,140,6|0,1:3|0:0,0:0:0:0:
100,151,133024,2,0,B|171:146|171:146|243:105,1,140,8|0,1:2|0:0,0:0:0:0:
399,37,133569,6,0,P|365:83|355:131,1,105.000004005432,6|0,1:3|0:0,0:0:0:0:
475,295,133842,2,0,P|463:245|432:204,1,105.000004005432,2|2,0:0|1:3,0:0:0:0:
249,273,134115,1,10,0:2:0:0:
248,272,134251,2,0,P|321:320|328:233,1,210.000008010865,2|2,0:0|0:0,0:0:0:0:
234,65,134660,6,0,B|287:112|287:112|363:130,1,140,6|0,1:2|0:0,0:0:0:0:
157,274,135206,2,0,B|171:203|171:203|148:129,1,140,8|0,1:2|0:0,0:0:0:0:
376,236,135751,2,0,B|308:259|308:259|255:316,1,140,6|0,1:3|0:0,0:0:0:0:
44,355,136297,2,0,B|34:319|34:319|16:287,3,70,8|0|0|0,1:2|0:0|0:0|0:0,0:0:0:0:
255,275,136842,6,0,P|175:260|99:269,1,140,6|0,1:3|0:0,0:0:0:0:
257,109,137388,2,0,P|337:124|413:115,1,140,8|0,1:2|0:3,0:0:0:0:
108,44,137933,6,0,B|116:97|116:97|108:158,1,105.000004005432,6|0,1:2|0:0,0:0:0:0:
268,177,138206,1,2,0:0:0:0:
268,177,138342,2,0,B|226:211|226:211|179:231,1,105.000004005432,6|0,1:2|0:0,0:0:0:0:
232,382,138615,1,2,0:0:0:0:
232,382,138751,2,0,B|182:362|182:362|141:331,1,105.000004005432,10|2,0:0|0:0,0:0:0:0:
388,164,139024,6,0,B|341:258|341:258|361:368,1,210.000008010865,6|4,1:2|0:3,0:0:0:0:
165,91,140115,2,0,B|270:85|270:85|355:13,1,210.000008010865,14|4,0:3|0:3,0:0:0:0:
214,320,141206,2,0,B|156:232|156:232|51:194,1,210.000008010865,6|4,1:3|0:3,0:0:0:0:
351,155,142297,6,0,P|406:195|317:242,2,210,14|6|6,0:3|1:3|1:3,0:0:0:0:
97,77,143388,6,0,P|150:134|241:118,1,167.999994873047,6|4,1:2|0:3,0:0:0:0:
435,111,144479,2,0,P|359:129|327:216,1,167.999994873047,14|4,0:3|0:3,0:0:0:0:
235,384,145569,2,0,P|258:309|199:238,1,167.999994873047,6|4,1:3|0:3,0:0:0:0:
65,219,146660,5,14,0:3:0:0:
256,192,147069,5,6,1:3:0:0:
447,165,147479,5,10,1:3:0:0:
453,341,147615,6,0,B|420:294|415:220|484:216|507:181|506:118|445:102|396:128|399:189|447:195,1,315,2|0,0:0|0:0,0:0:0:0:
