osu file format v14

[General]
AudioFilename: audio.mp3
AudioLeadIn: 0
PreviewTime: 38301
Countdown: 0
SampleSet: Soft
StackLeniency: 0.4
Mode: 0
LetterboxInBreaks: 0
EpilepsyWarning: 1
WidescreenStoryboard: 1

[Editor]
Bookmarks: 94142,143370
DistanceSpacing: 1.9
BeatDivisor: 4
GridSize: 8
TimelineZoom: 2.899999

[Metadata]
Title:Kick Me
TitleUnicode:Kick Me
Artist:Sleeping With Sirens
ArtistUnicode:Sleeping With Sirens
Creator:fieryrage
Version:Bergy's Extra
Source:
Tags:sws madness english metal punk rock post-hardcore ailv kyshiro elsa valentine xlolicore- pishifat bergy dashyy- ayyri eiri- craezy hypercyte underdogs stingy peter petereu
BeatmapID:2171681
BeatmapSetID:1038902

[Difficulty]
HPDrainRate:5
CircleSize:4
OverallDifficulty:9.1
ApproachRate:9.7
SliderMultiplier:1.6
SliderTickRate:1

[Events]
//Background and Video events
0,0,"asdfasd.png",0,0
//Break Periods
2,64769,70893
2,125997,128711
//Storyboard Layer 0 (Background)
//Storyboard Layer 1 (Fail)
//Storyboard Layer 2 (Pass)
//Storyboard Layer 3 (Foreground)
//Storyboard Layer 4 (Overlay)
//Storyboard Sound Samples

[TimingPoints]
479,272.727272727273,4,2,5,5,1,0
479,-200,4,2,5,5,0,0
10433,-200,4,2,5,10,0,0
10842,-200,4,2,5,15,0,0
12342,-200,4,2,5,5,0,0
12479,-200,4,2,5,50,0,0
13569,-200,4,2,5,40,0,0
14660,-200,4,2,5,50,0,0
15751,-200,4,2,5,40,0,0
16842,-200,4,2,5,50,0,0
17933,-200,4,2,5,40,0,0
19024,-62.5,4,2,5,60,0,0
21206,-142.857142857143,4,2,5,60,0,0
22297,-142.857142857143,4,2,5,50,0,0
23388,-142.857142857143,4,2,5,60,0,0
24479,-142.857142857143,4,2,5,50,0,0
25569,-142.857142857143,4,2,5,60,0,0
26660,-142.857142857143,4,2,5,50,0,0
27751,-62.5,4,2,5,60,0,0
29933,-1000,4,2,5,55,0,0
30206,-500,4,2,5,30,0,0
30479,-333.333333333333,4,2,5,30,0,0
30751,-250,4,2,5,30,0,0
31024,-200,4,2,5,35,0,0
31297,-166.666666666667,4,2,5,35,0,0
31569,-142.857142857143,4,2,5,38,0,0
31842,-125,4,2,5,38,0,0
32115,-111.111111111111,4,2,5,40,0,0
32388,-100,4,2,5,40,0,0
32660,-90.9090909090909,4,2,5,43,0,0
32933,-83.3333333333333,4,2,5,43,0,0
33206,-76.9230769230769,4,2,5,45,0,0
33479,-71.4285714285714,4,2,5,48,0,0
33751,-66.6666666666667,4,2,5,50,0,0
34024,-62.5,4,2,5,50,0,0
34297,-58.8235294117647,4,2,5,50,0,0
34433,-58.8235294117647,4,2,5,40,0,0
34569,-55.5555555555556,4,2,5,40,0,0
34842,-52.6315789473684,4,2,5,55,0,0
34979,-52.6315789473684,4,2,5,40,0,0
35115,-50,4,2,5,40,0,0
35388,-47.6190476190476,4,2,5,60,0,0
35524,-47.6190476190476,4,2,5,45,0,0
35660,-45.4545454545455,4,2,5,50,0,0
35933,-43.4782608695652,4,2,5,55,0,0
36206,-41.6666666666667,4,2,5,60,0,0
36479,-250,4,2,5,60,0,0
36547,-250,4,2,5,45,0,0
36579,-250,4,2,5,45,0,0
37024,-250,4,2,5,35,0,0
38388,-125,4,2,5,60,0,0
38456,-125,4,2,5,5,0,0
38660,-71.4285714285714,4,2,5,70,0,1
45069,-71.4285714285714,4,2,5,70,0,0
45206,-200,4,2,5,70,0,1
45479,-200,4,2,5,60,0,1
45751,-200,4,2,5,70,0,1
46024,-200,4,2,5,60,0,1
46297,-200,4,2,5,65,0,1
47115,-200,4,2,5,65,0,0
47251,-71.4285714285714,4,2,5,70,0,1
53797,-71.4285714285714,4,2,5,70,0,0
53933,-200,4,2,5,70,0,1
54206,-200,4,2,5,60,0,1
54479,-200,4,2,5,70,0,1
54751,-200,4,2,5,60,0,1
55024,-200,4,2,5,70,0,1
55842,-200,4,2,5,70,0,0
55979,-71.4285714285714,4,2,5,65,0,1
56047,-71.4285714285714,4,2,5,55,0,1
56115,-200,4,2,5,55,0,0
56388,-200,4,2,5,55,0,0
57069,-71.4285714285714,4,2,5,55,0,0
57479,-200,4,2,5,55,0,0
58297,-71.4285714285714,4,2,5,55,0,0
58569,-200,4,2,5,55,0,0
59388,-71.4285714285714,4,2,5,60,0,0
60479,-71.4285714285714,4,2,5,55,0,0
60751,-200,4,2,5,55,0,0
61433,-71.4285714285714,4,2,5,55,0,0
61569,-71.4285714285714,4,2,5,60,0,0
61842,-200,4,2,5,60,0,0
62660,-71.4285714285714,4,2,5,60,0,0
62933,-200,4,2,5,60,0,0
63751,-71.4285714285714,4,2,5,60,0,0
63819,-71.4285714285714,4,2,5,5,0,0
64160,-71.4285714285714,4,2,5,65,0,0
64229,-71.4285714285714,4,2,5,5,0,0
64569,-71.4285714285714,4,2,5,60,0,0
64638,-71.4285714285714,4,2,5,5,0,0
64842,-71.4285714285714,4,2,5,55,0,0
64979,-71.4285714285714,4,2,5,50,0,0
71388,-200,4,2,5,50,0,0
71456,-200,4,2,5,5,0,0
72479,-200,4,2,5,50,0,0
73092,-200,4,2,5,5,0,0
73297,-66.6666666666667,4,2,5,40,0,0
73365,-66.6666666666667,4,2,5,35,0,0
73433,-66.6666666666667,4,2,5,40,0,0
73501,-66.6666666666667,4,2,5,50,0,0
73569,-142.857142857143,4,2,5,60,0,0
75206,-142.857142857143,4,2,5,58,0,0
76160,-142.857142857143,4,2,5,55,0,0
76842,-142.857142857143,4,2,5,52,0,0
80115,-62.5,4,2,5,60,0,0
82297,-1000,4,2,5,60,0,0
82569,-500,4,2,5,32,0,0
82842,-333.333333333333,4,2,5,35,0,0
83115,-250,4,2,5,35,0,0
83388,-200,4,2,5,38,0,0
83660,-166.666666666667,4,2,5,38,0,0
83933,-142.857142857143,4,2,5,40,0,0
84206,-125,4,2,5,40,0,0
84479,-111.111111111111,4,2,5,42,0,0
84751,-100,4,2,5,42,0,0
85024,-90.9090909090909,4,2,5,45,0,0
85297,-83.3333333333333,4,2,5,45,0,0
85569,-76.9230769230769,4,2,5,50,0,0
85842,-71.4285714285714,4,2,5,40,0,0
85979,-71.4285714285714,4,2,5,50,0,0
86115,-66.6666666666667,4,2,5,50,0,0
86388,-62.5,4,2,5,50,0,0
86660,-58.8235294117647,4,2,5,55,0,0
86797,-58.8235294117647,4,2,5,40,0,0
86933,-55.5555555555556,4,2,5,40,0,0
87206,-52.6315789473684,4,2,5,55,0,0
87342,-52.6315789473684,4,2,5,40,0,0
87479,-50,4,2,5,40,0,0
87751,-47.6190476190476,4,2,5,60,0,0
87888,-47.6190476190476,4,2,5,40,0,0
88024,-45.4545454545455,4,2,5,50,0,0
88297,-43.4782608695652,4,2,5,55,0,0
88569,-41.6666666666667,4,2,5,60,0,0
88842,-250,4,2,5,65,0,0
88910,-250,4,2,5,50,0,0
89388,-250,4,2,5,40,0,0
90751,-125,4,2,5,65,0,0
90819,-125,4,2,5,5,0,0
91024,-71.4285714285714,4,2,5,70,0,1
97433,-71.4285714285714,4,2,5,70,0,0
97569,-200,4,2,5,75,0,1
97842,-200,4,2,5,60,0,1
98115,-200,4,2,5,75,0,1
98388,-200,4,2,5,60,0,1
98660,-200,4,2,5,75,0,1
99479,-200,4,2,5,75,0,0
99615,-71.4285714285714,4,2,5,75,0,1
99751,-71.4285714285714,4,2,5,70,0,1
106160,-71.4285714285714,4,2,5,70,0,0
106297,-200,4,2,5,75,0,1
106569,-200,4,2,5,60,0,1
106842,-200,4,2,5,75,0,1
107115,-200,4,2,5,60,0,1
107388,-200,4,2,5,75,0,1
108342,-71.4285714285714,4,2,5,75,0,0
115024,-62.5,4,2,5,75,0,0
115297,-62.5,4,2,5,60,0,0
115433,-62.5,4,2,5,50,0,0
115569,-55.5555555555556,4,2,5,75,0,0
115842,-55.5555555555556,4,2,5,60,0,0
115979,-55.5555555555556,4,2,5,50,0,0
116115,-50,4,2,5,75,0,0
125388,-50,4,2,5,70,0,0
129206,-200,4,2,5,70,0,0
129274,-200,4,2,5,5,0,0
129615,-200,4,2,5,70,0,0
129683,-200,4,2,5,5,0,0
130024,-200,4,2,5,70,0,0
130092,-200,4,2,5,5,0,0
130297,-71.4285714285714,4,2,5,60,0,0
130365,-71.4285714285714,4,2,5,55,0,0
130569,-200,4,2,5,55,0,0
131251,-71.4285714285714,4,2,5,55,0,0
131660,-200,4,2,5,55,0,0
132479,-71.4285714285714,4,2,5,55,0,0
132751,-200,4,2,5,55,0,0
133569,-71.4285714285714,4,2,5,60,0,0
134933,-200,4,2,5,60,0,0
135615,-71.4285714285714,4,2,5,60,0,0
136024,-200,4,2,5,60,0,0
136842,-71.4285714285714,4,2,5,60,0,0
137115,-200,4,2,5,60,0,0
137933,-71.4285714285714,4,2,5,60,0,0
139024,-200,4,2,5,70,0,0
142297,-71.4285714285714,4,2,5,70,0,0
143388,-200,4,2,5,70,0,0
146660,-71.4285714285714,4,2,5,70,0,0
147751,-71.4285714285714,4,2,5,5,0,0
148842,-71.4285714285714,4,2,5,25,0,0

[Colours]
Combo1 : 136,136,136
Combo2 : 82,109,90
Combo3 : 196,148,140
Combo4 : 146,192,194

[HitObjects]
255,140,12479,6,0,L|241:218,1,80,2|0,1:0|1:0,0:0:0:0:
351,91,12888,2,0,L|335:185,1,80,2|0,0:3|0:0,0:0:0:0:
447,42,13297,2,0,L|437:96,1,40,2|0,1:0|0:0,0:0:0:0:
304,367,13569,5,0,1:0:0:0:
304,367,13842,1,0,1:0:0:0:
304,367,14115,1,0,1:0:0:0:
304,367,14388,1,0,1:0:0:0:
204,193,14660,6,0,L|282:206,1,80,2|0,1:0|1:0,0:0:0:0:
155,97,15069,2,0,L|249:112,1,80,2|0,0:3|0:0,0:0:0:0:
106,1,15479,2,0,L|160:10,1,40,2|0,1:0|0:0,0:0:0:0:
431,144,15751,5,0,1:0:0:0:
431,144,16024,1,0,1:0:0:0:
431,144,16297,1,0,1:0:0:0:
431,144,16569,1,0,1:0:0:0:
257,244,16842,6,0,L|270:165,1,80,2|0,1:0|1:0,0:0:0:0:
161,293,17251,2,0,L|176:198,1,80,2|0,0:3|0:0,0:0:0:0:
65,342,17660,2,0,L|74:287,1,40,2|0,1:0|0:0,0:0:0:0:
208,17,17933,5,0,1:0:0:0:
208,17,18206,1,0,1:0:0:0:
208,17,18479,1,0,1:0:0:0:
208,17,18751,1,0,1:0:0:0:
372,0,18888,1,0,1:0:0:0:
91,286,19024,6,0,L|64:112,1,128,14|0,0:0|1:0,0:0:0:0:
44,7,19297,1,0,1:0:0:0:
260,353,19433,2,0,L|287:179,1,128,12|0,0:0|1:0,0:0:0:0:
307,74,19706,1,0,1:0:0:0:
83,294,19842,6,0,L|56:120,1,128,12|0,0:0|1:0,0:0:0:0:
36,15,20115,1,2,1:0:0:0:
268,361,20251,2,0,L|295:187,1,128,14|0,0:0|1:0,0:0:0:0:
315,82,20524,1,0,1:0:0:0:
75,302,20660,6,0,L|48:128,1,128,14|0,0:0|1:0,0:0:0:0:
276,369,20933,2,0,L|303:195,1,128,10|0,0:0|1:0,0:0:0:0:
35,85,21206,6,0,P|101:93|142:140,1,111.999996582031,6|8,1:2|0:0,0:0:0:0:
316,151,21615,2,0,P|249:159|208:206,1,111.999996582031,2|0,1:0|1:0,0:0:0:0:
305,43,22024,5,10,0:0:0:0:
95,6,22297,1,0,0:0:0:0:
204,359,22569,1,8,0:0:0:0:
409,302,22842,1,0,0:0:0:0:
39,133,23115,2,0,L|35:208,1,55.9999982910157,8|0,0:0|0:0,0:0:0:0:
310,206,23388,6,0,B|250:200|250:200|203:237,1,111.999996582031,2|8,1:0|0:0,0:0:0:0:
41,288,23797,2,0,B|100:282|100:282|141:314,1,111.999996582031,2|0,1:0|1:0,0:0:0:0:
138,160,24206,5,10,0:0:0:0:
72,368,24479,1,0,0:0:0:0:
360,231,24751,1,8,0:0:0:0:
294,23,25024,1,0,1:0:0:0:
294,23,25160,1,0,1:0:0:0:
158,52,25297,1,8,0:0:0:0:
265,244,25569,6,0,L|379:223,1,111.999996582031,2|8,1:0|0:0,0:0:0:0:
495,210,25979,2,0,L|380:230,1,111.999996582031,2|0,1:0|1:0,0:0:0:0:
465,105,26388,5,10,0:0:0:0:
433,314,26660,1,0,0:0:0:0:
201,210,26933,1,8,0:0:0:0:
169,1,27206,1,0,1:0:0:0:
169,1,27342,1,0,1:0:0:0:
98,106,27479,2,0,L|25:93,1,55.9999982910157,8|0,0:0|1:0,0:0:0:0:
421,98,27751,6,0,P|461:171|448:272,1,128,14|0,0:0|1:0,0:0:0:0:
447,367,28024,1,0,1:0:0:0:
262,62,28160,2,0,P|190:105|151:199,1,128,12|0,0:0|1:0,0:0:0:0:
104,281,28433,1,0,1:0:0:0:
429,90,28569,6,0,P|481:154|485:256,1,128,12|0,0:0|1:0,0:0:0:0:
500,349,28842,1,2,1:0:0:0:
254,54,28979,2,0,P|176:84|121:169,1,128,12|0,0:0|1:0,0:0:0:0:
60,242,29251,1,0,1:0:0:0:
432,80,29388,6,0,P|494:134|516:234,1,128,12|0,0:0|1:0,0:0:0:0:
246,46,29660,2,0,P|164:62|95:137,1,128,10|0,0:0|1:0,0:0:0:0:
256,184,29933,6,0,L|256:192,1,8,6|0,1:2|0:0,0:0:0:0:
267,180,30206,2,0,L|256:192,1,16,10|8,0:3|0:3,0:0:0:0:
280,192,30479,2,0,L|256:192,1,23.9999992675781,10|8,0:0|0:3,0:0:0:0:
279,215,30751,2,0,L|256:192,1,32,10|8,0:0|0:3,0:0:0:0:
256,232,31024,2,0,L|256:192,1,40,10|8,0:0|0:3,0:0:0:0:
222,225,31297,2,0,L|256:192,1,47.9999985351563,10|8,0:0|0:3,0:0:0:0:
200,192,31569,2,0,L|256:192,1,55.9999982910157,10|8,0:0|0:3,0:0:0:0:
210,146,31842,2,0,L|256:192,1,64,10|8,0:0|0:3,0:0:0:0:
256,120,32115,6,0,L|256:192,1,71.9999978027344,10|8,0:0|0:3,0:0:0:0:
312,135,32388,2,0,L|256:192,1,80,10|8,0:0|0:3,0:0:0:0:
344,192,32660,2,0,L|256:192,1,88.0000026855469,10|8,0:0|0:3,0:0:0:0:
323,259,32933,2,0,L|256:192,1,95.9999970703126,10|8,0:0|0:3,0:0:0:0:
256,296,33206,2,0,L|256:192,1,103.999995239258,10|8,0:0|0:3,0:0:0:0:
176,271,33479,2,0,L|256:192,1,111.999996582031,10|8,0:0|0:3,0:0:0:0:
136,192,33751,2,0,L|256:192,1,120.000004577637,10|8,0:0|0:3,0:0:0:0:
165,101,34024,2,0,L|256:192,1,128,10|8,0:0|0:3,0:0:0:0:
256,56,34297,6,0,L|256:192,1,136.000002593994,2|8,1:0|0:3,0:0:0:0:
357,90,34569,2,0,L|256:192,1,143.999995605469,10|8,1:2|0:3,0:0:0:0:
408,192,34842,2,0,L|256:192,1,151.999995941162,2|8,1:0|0:3,0:0:0:0:
369,305,35115,2,0,L|256:192,1,160,10|8,1:2|0:3,0:0:0:0:
256,360,35388,2,0,L|256:192,1,167.999994873047,2|8,1:2|0:3,0:0:0:0:
131,316,35660,2,0,L|256:192,1,176.000005371094,10|8,1:2|0:0,0:0:0:0:
72,192,35933,2,0,L|279:192,1,184.000003509522,10|8,1:2|0:0,0:0:0:0:
120,56,36206,2,0,L|271:207,1,191.999994140625,10|8,1:2|0:0,0:0:0:0:
489,70,36479,6,0,P|459:71|409:127,1,96,6|0,1:2|0:0,0:0:0:0:
489,70,38388,6,0,P|459:71|409:127,1,96,2|0,0:0|0:0,0:0:0:0:
483,144,38660,5,6,1:2:0:0:
247,41,38797,2,0,P|194:51|126:55,1,111.999996582031,0|8,0:0|0:0,0:0:0:0:
364,284,39069,2,0,P|425:288|485:298,1,111.999996582031,0|0,0:0|1:0,0:0:0:0:
239,33,39342,2,0,P|191:41|118:47,1,111.999996582031,0|8,1:0|0:0,0:0:0:0:
420,345,39615,6,0,B|477:237|385:259|447:128,1,223.999993164063,2|0,1:0|1:0,0:0:0:0:
325,372,40024,2,0,P|270:379|213:384,1,111.999996582031,8|0,0:0|0:0,0:0:0:0:
55,202,40297,1,0,1:0:0:0:
236,262,40433,1,0,1:0:0:0:
18,26,40569,1,8,0:0:0:0:
98,315,40706,6,0,B|190:298|190:298|230:306|230:306|344:285,1,223.999993164063,0|0,0:0|0:0,0:0:0:0:
14,243,41115,2,0,P|6:182|1:122,1,111.999996582031,8|0,0:0|0:0,0:0:0:0:
193,25,41388,1,0,1:0:0:0:
144,195,41524,1,0,1:0:0:0:
2,0,41660,1,8,0:0:0:0:
264,135,41797,6,0,P|261:246|254:358,1,223.999993164063,2|0,1:0|1:0,0:0:0:0:
359,64,42206,2,0,P|418:49|471:62,1,111.999996582031,8|0,0:0|0:0,0:0:0:0:
399,265,42479,1,0,1:0:0:0:
263,135,42615,1,0,1:0:0:0:
179,384,42751,1,8,0:0:0:0:
315,254,42888,1,0,0:0:0:0:
111,191,43024,6,0,P|51:201|-16:206,1,111.999996582031,2|0,1:0|0:0,0:0:0:0:
229,2,43297,1,8,0:0:0:0:
327,142,43433,2,0,P|323:194|312:269,1,111.999996582031,0|0,0:0|1:0,0:0:0:0:
7,196,43706,2,0,P|66:188|119:183,1,111.999996582031,0|8,1:0|0:0,0:0:0:0:
347,65,43979,6,0,P|294:114|317:255,1,223.999993164063,2|0,1:0|1:0,0:0:0:0:
229,2,44388,2,0,P|174:7|117:15,1,111.999996582031,8|0,0:0|0:0,0:0:0:0:
61,228,44660,1,0,1:0:0:0:
127,113,44797,1,0,1:0:0:0:
220,274,44933,1,8,0:0:0:0:
351,49,45069,1,0,0:0:0:0:
12,237,45206,6,0,L|0:330,1,80,14|0,0:3|0:0,0:0:0:0:
499,147,45751,2,0,L|510:54,1,80,14|0,0:3|0:0,0:0:0:0:
87,223,46297,6,0,L|80:280,1,40,14|0,0:3|0:0,0:0:0:0:
424,160,46569,2,0,L|430:107,1,40,14|0,0:3|0:0,0:0:0:0:
162,209,46842,6,0,L|158:241,1,20,10|0,0:0|0:0,0:0:0:0:
349,174,46979,2,0,L|352:145,1,20,10|0,0:0|0:0,0:0:0:0:
256,192,47115,2,0,L|254:223,1,20,8|0,0:0|0:0,0:0:0:0:
218,0,47251,6,0,B|128:-6|128:-6|76:16|76:16|-13:8,1,223.999993164063,6|0,1:2|0:0,0:0:0:0:
86,254,47660,1,8,0:0:0:0:
184,120,47797,2,0,P|247:88|293:95,1,111.999996582031,0|0,0:0|1:0,0:0:0:0:
355,284,48069,2,0,P|418:315|464:308,1,111.999996582031,0|8,1:0|0:0,0:0:0:0:
254,173,48342,6,0,P|207:225|272:354,1,223.999993164063,2|0,1:0|1:0,0:0:0:0:
363,142,48751,2,0,P|376:72|358:29,1,111.999996582031,8|0,0:0|0:0,0:0:0:0:
301,260,49024,1,0,1:0:0:0:
465,240,49160,1,0,1:0:0:0:
254,173,49297,1,8,0:0:0:0:
223,354,49433,6,0,P|101:366|-38:375,1,223.999993164063,2|0,0:0|0:0,0:0:0:0:
257,278,49842,2,0,P|271:218|250:168,1,111.999996582031,8|0,0:0|0:0,0:0:0:0:
109,154,50115,1,0,1:0:0:0:
74,318,50251,1,0,1:0:0:0:
345,269,50388,1,8,0:0:0:0:
173,231,50524,1,2,1:0:0:0:
320,384,50660,6,0,P|388:376|447:374,1,111.999996582031,0|0,0:0|1:0,0:0:0:0:
173,231,50933,2,0,P|115:227|46:221,1,111.999996582031,8|0,0:0|0:0,0:0:0:0:
320,384,51206,1,0,1:0:0:0:
435,247,51342,2,0,P|431:185|425:120,1,111.999996582031,0|8,1:0|0:0,0:0:0:0:
190,7,51615,6,0,P|179:119|171:242,1,223.999993164063,2|0,0:0|0:0,0:0:0:0:
300,8,52024,2,0,P|357:1|427:-2,1,111.999996582031,10|0,0:0|0:0,0:0:0:0:
502,141,52297,1,0,1:0:0:0:
284,239,52433,2,0,P|224:235|172:230,1,111.999996582031,0|8,1:0|0:0,0:0:0:0:
338,145,52706,6,0,P|392:242|333:336,1,223.999993164063,2|0,1:0|1:0,0:0:0:0:
241,111,53115,2,0,P|237:49|236:-27,1,111.999996582031,8|0,0:0|0:0,0:0:0:0:
46,74,53388,1,0,1:0:0:0:
161,140,53524,1,0,1:0:0:0:
0,233,53660,1,8,0:0:0:0:
225,364,53797,1,2,0:0:0:0:
12,147,53933,6,0,L|0:54,1,80,6|0,1:3|0:0,0:0:0:0:
499,237,54479,2,0,L|510:330,1,80,6|0,1:3|0:0,0:0:0:0:
87,161,55024,6,0,L|80:104,1,40,14|0,1:3|0:3,0:0:0:0:
424,224,55297,2,0,L|430:277,1,40,14|0,1:3|0:3,0:0:0:0:
162,175,55569,6,0,L|158:143,1,20,8|0,0:0|0:0,0:0:0:0:
349,210,55706,2,0,L|352:239,1,20,8|0,0:0|0:0,0:0:0:0:
256,192,55842,2,0,L|254:161,1,20,8|0,0:0|0:0,0:0:0:0:
348,345,55979,6,0,L|98:358,1,223.999993164063,6|0,1:2|0:0,0:0:0:0:
150,183,56388,2,0,L|153:236,1,40,0|0,0:0|0:0,0:0:0:0:
236,256,56660,1,8,1:2:0:0:
284,164,56797,1,0,0:0:0:0:
350,242,56933,1,0,0:0:0:0:
124,27,57069,6,0,L|348:39,1,223.999993164063,2|0,0:0|0:0,0:0:0:0:
284,164,57479,2,0,L|281:111,1,40,0|0,0:0|0:0,0:0:0:0:
205,242,57751,1,8,1:2:0:0:
157,150,57888,1,0,0:0:0:0:
91,228,58024,1,0,0:0:0:0:
43,136,58160,1,0,0:0:0:0:
376,317,58297,6,0,L|218:326,1,111.999996582031,6|0,1:3|0:0,0:0:0:0:
202,202,58569,2,0,L|205:255,1,40,0|0,0:0|0:0,0:0:0:0:
281,124,58842,1,8,1:2:0:0:
329,216,58979,1,0,0:0:0:0:
395,138,59115,1,0,0:3:0:0:
443,230,59251,1,0,0:0:0:0:
164,39,59388,6,0,L|315:31,1,111.999996582031,6|0,1:3|0:0,0:0:0:0:
111,258,59660,2,0,L|-40:250,1,111.999996582031,2|2,0:0|0:3,0:0:0:0:
164,39,59933,1,10,1:2:0:0:
271,139,60069,2,0,L|275:261,1,111.999996582031,2|2,0:0|0:3,0:0:0:0:
164,39,60342,6,0,L|414:26,1,223.999993164063,2|0,0:0|0:0,0:0:0:0:
362,201,60751,2,0,L|359:148,1,40,0|0,0:0|0:0,0:0:0:0:
276,128,61024,1,8,1:2:0:0:
228,220,61160,1,0,0:0:0:0:
162,142,61297,1,0,0:0:0:0:
387,356,61433,6,0,L|164:345,1,223.999993164063,2|0,0:0|0:0,0:0:0:0:
202,202,61842,2,0,L|205:255,1,40,0|0,0:0|0:0,0:0:0:0:
281,124,62115,1,8,1:2:0:0:
329,216,62251,1,0,0:0:0:0:
395,138,62388,1,0,0:0:0:0:
443,230,62524,1,0,0:0:0:0:
136,67,62660,6,0,L|294:58,1,111.999996582031,6|0,1:3|0:0,0:0:0:0:
329,216,62933,2,0,L|326:163,1,40,0|0,0:0|0:0,0:0:0:0:
250,294,63206,1,8,1:2:0:0:
202,202,63342,1,0,0:0:0:0:
136,280,63479,1,0,0:0:0:0:
88,188,63615,1,0,0:0:0:0:
336,343,63751,6,0,L|-40:325,2,335.999989746094,6|6|10,1:3|1:3|0:0,0:0:0:0:
50,103,71388,6,0,B|212:27|185:167|348:79|348:79|435:33|514:97|491:162|473:194,1,540,6|0,1:2|0:0,0:0:0:0:
406,145,73297,2,0,L|411:314,1,120.000004577637,2|2,0:0|0:0,0:0:0:0:
271,323,73569,6,0,P|210:277|165:282,1,111.999996582031,6|8,1:0|0:0,0:0:0:0:
24,276,73979,2,0,P|94:246|112:204,1,111.999996582031,2|0,1:0|1:0,0:0:0:0:
119,336,74388,1,10,0:0:0:0:
101,42,74660,6,0,L|111:103,1,55.9999982910157,2|0,0:0|0:0,0:0:0:0:
193,61,74933,2,0,L|203:122,1,55.9999982910157,10|0,0:0|0:0,0:0:0:0:
285,80,75206,2,0,L|295:141,1,55.9999982910157,2|0,0:0|0:0,0:0:0:0:
377,99,75479,2,0,L|387:160,1,55.9999982910157,10|2,0:0|0:0,0:0:0:0:
502,250,75751,6,0,B|442:246|442:246|390:279,1,111.999996582031,2|8,1:0|0:0,0:0:0:0:
228,298,76160,2,0,B|286:309|286:309|328:354,1,111.999996582031,2|0,1:0|1:0,0:0:0:0:
324,214,76569,1,8,0:0:0:0:
36,351,76842,6,0,L|97:341,1,55.9999982910157,0|0,0:0|0:0,0:0:0:0:
55,259,77115,2,0,L|116:249,1,55.9999982910157,8|0,0:0|0:0,0:0:0:0:
74,167,77388,2,0,L|135:157,1,55.9999982910157,0|0,0:0|0:0,0:0:0:0:
93,75,77660,2,0,L|154:65,1,55.9999982910157,8|0,0:0|0:0,0:0:0:0:
330,15,77933,6,0,L|309:129,1,111.999996582031,2|8,1:0|0:0,0:0:0:0:
296,245,78342,2,0,L|316:130,1,111.999996582031,2|0,1:0|1:0,0:0:0:0:
191,215,78751,1,10,0:0:0:0:
415,384,79024,6,0,L|405:323,1,55.9999982910157,0|0,0:0|0:0,0:0:0:0:
323,365,79297,2,0,L|313:304,1,55.9999982910157,8|0,0:0|0:0,0:0:0:0:
231,346,79569,1,0,1:0:0:0:
216,257,79706,1,0,1:0:0:0:
139,327,79842,2,0,L|129:266,1,55.9999982910157,8|0,0:0|1:0,0:0:0:0:
345,87,80115,6,0,L|372:261,1,128,14|0,0:0|1:0,0:0:0:0:
392,366,80388,1,0,1:0:0:0:
176,20,80524,2,0,L|149:194,1,128,12|0,0:0|1:0,0:0:0:0:
129,299,80797,1,0,1:0:0:0:
353,79,80933,6,0,L|380:253,1,128,12|0,0:0|1:0,0:0:0:0:
400,358,81206,1,2,1:0:0:0:
168,12,81342,2,0,L|141:186,1,128,12|0,0:0|1:0,0:0:0:0:
121,291,81615,1,0,1:0:0:0:
361,71,81751,6,0,L|388:245,1,128,12|0,0:0|1:0,0:0:0:0:
160,4,82024,2,0,L|133:178,1,128,10|0,0:0|1:0,0:0:0:0:
256,200,82297,6,0,L|256:192,1,8,6|0,1:2|0:0,0:0:0:0:
267,204,82569,2,0,L|256:192,1,16,8|8,0:0|0:3,0:0:0:0:
280,192,82842,2,0,L|256:192,1,23.9999992675781,8|8,0:0|0:3,0:0:0:0:
279,169,83115,2,0,L|256:192,1,32,8|8,0:0|0:3,0:0:0:0:
256,152,83388,2,0,L|256:192,1,40,8|8,0:0|0:3,0:0:0:0:
222,159,83660,2,0,L|256:192,1,47.9999985351563,8|8,0:0|0:3,0:0:0:0:
200,192,83933,2,0,L|256:192,1,55.9999982910157,8|8,0:0|0:3,0:0:0:0:
210,238,84206,2,0,L|256:192,1,64,8|8,0:0|0:3,0:0:0:0:
256,264,84479,6,0,L|256:192,1,71.9999978027344,8|8,0:0|0:3,0:0:0:0:
312,249,84751,2,0,L|256:192,1,80,8|8,0:0|0:3,0:0:0:0:
344,192,85024,2,0,L|256:192,1,88.0000026855469,8|8,0:0|0:3,0:0:0:0:
323,125,85297,2,0,L|256:192,1,95.9999970703126,8|8,0:0|0:3,0:0:0:0:
256,88,85569,2,0,L|256:192,1,103.999995239258,8|8,0:0|0:0,0:0:0:0:
176,113,85842,2,0,L|256:192,1,111.999996582031,8|10,0:0|0:3,0:0:0:0:
136,192,86115,2,0,L|256:192,1,120.000004577637,8|8,0:0|0:3,0:0:0:0:
165,283,86388,2,0,L|256:192,1,128,10|8,0:0|0:3,0:0:0:0:
256,328,86660,6,0,L|256:192,1,136.000002593994,10|8,1:2|0:3,0:0:0:0:
357,294,86933,2,0,L|256:192,1,143.999995605469,8|8,1:2|0:3,0:0:0:0:
408,192,87206,2,0,L|256:192,1,151.999995941162,10|8,1:2|0:3,0:0:0:0:
369,79,87479,2,0,L|256:192,1,160,8|8,1:2|0:3,0:0:0:0:
256,24,87751,2,0,L|256:192,1,167.999994873047,10|8,1:2|0:3,0:0:0:0:
131,68,88024,2,0,L|256:192,1,176.000005371094,10|8,1:2|0:3,0:0:0:0:
72,192,88297,2,0,L|279:192,1,184.000003509522,8|8,1:2|0:0,0:0:0:0:
120,328,88569,2,0,L|271:177,1,191.999994140625,10|8,1:2|0:0,0:0:0:0:
457,368,88842,6,0,B|416:350|416:350|353:365,1,96,6|0,1:2|0:0,0:0:0:0:
457,368,90751,6,0,B|416:350|416:350|353:365,1,96,2|0,0:0|0:0,0:0:0:0:
281,333,91024,5,6,1:2:0:0:
359,140,91160,2,0,P|422:139|500:133,1,111.999996582031,0|8,0:0|0:0,0:0:0:0:
273,341,91433,2,0,P|206:335|132:334,1,111.999996582031,0|0,0:0|1:0,0:0:0:0:
367,132,91706,2,0,P|435:131|508:125,1,111.999996582031,0|8,1:0|0:0,0:0:0:0:
153,343,91979,6,0,B|148:255|148:255|169:204|169:204|163:113,1,223.999993164063,2|0,1:0|1:0,0:0:0:0:
273,341,92388,2,0,B|329:353|329:353|387:338,1,111.999996582031,8|0,0:0|0:0,0:0:0:0:
163,123,92660,1,0,1:0:0:0:
109,275,92797,1,0,1:0:0:0:
310,98,92933,1,8,0:0:0:0:
56,161,93069,6,0,P|63:284|66:394,1,223.999993164063,0|0,1:0|0:0,0:0:0:0:
163,123,93479,2,0,P|230:95|274:104,1,111.999996582031,8|0,0:0|0:0,0:0:0:0:
109,275,93751,1,0,1:0:0:0:
56,161,93888,1,0,1:0:0:0:
247,280,94024,1,8,0:0:0:0:
7,252,94160,6,0,P|13:147|28:15,1,223.999993164063,2|0,1:0|1:0,0:0:0:0:
44,333,94569,2,0,P|100:357|155:345,1,111.999996582031,8|0,0:0|0:0,0:0:0:0:
298,86,94842,1,0,1:0:0:0:
208,210,94979,1,0,1:0:0:0:
99,33,95115,1,8,0:0:0:0:
223,123,95251,1,0,1:0:0:0:
19,218,95388,6,0,P|22:158|28:99,1,111.999996582031,2|0,1:2|0:0,0:0:0:0:
298,86,95660,1,8,0:0:0:0:
208,210,95797,2,0,P|140:237|69:211,1,111.999996582031,0|0,0:0|1:0,0:0:0:0:
311,348,96069,2,0,P|379:375|450:349,1,111.999996582031,0|8,1:0|0:0,0:0:0:0:
227,131,96342,6,0,P|217:251|214:370,1,223.999993164063,2|0,1:0|1:0,0:0:0:0:
398,128,96751,2,0,P|377:72|327:41,1,111.999996582031,8|0,0:0|0:0,0:0:0:0:
112,65,97024,1,0,1:0:0:0:
227,131,97160,1,0,1:0:0:0:
66,224,97297,1,8,0:0:0:0:
291,355,97433,1,0,1:0:0:0:
12,147,97569,6,0,P|-3:108|0:54,1,80,14|0,0:3|0:0,0:0:0:0:
500,237,98115,2,0,P|516:275|512:330,1,80,14|0,0:3|0:0,0:0:0:0:
95,162,98660,6,0,P|86:139|88:107,1,40,14|0,0:3|0:0,0:0:0:0:
416,221,98933,2,0,P|425:243|423:275,1,40,14|0,0:3|0:0,0:0:0:0:
175,177,99206,6,0,P|171:165|172:149,1,20,10|0,0:0|0:0,0:0:0:0:
336,206,99342,2,0,P|340:217|339:233,1,20,10|0,0:0|0:0,0:0:0:0:
256,192,99479,2,0,P|251:180|252:164,1,20,8|0,0:0|0:0,0:0:0:0:
440,343,99615,6,0,P|317:347|189:356,1,223.999993164063,6|0,1:2|1:0,0:0:0:0:
225,115,100024,1,8,0:0:0:0:
336,206,100160,2,0,P|357:260|340:320,1,111.999996582031,0|0,0:0|1:0,0:0:0:0:
225,115,100433,2,0,P|261:69|321:54,1,111.999996582031,0|8,1:0|0:0,0:0:0:0:
262,265,100706,6,0,B|140:315|175:216|44:267,1,223.999993164063,2|0,1:0|1:0,0:0:0:0:
336,206,101115,2,0,P|344:146|347:80,1,111.999996582031,8|0,0:0|0:0,0:0:0:0:
262,265,101388,1,0,1:0:0:0:
427,294,101524,1,0,1:0:0:0:
244,136,101660,1,8,0:0:0:0:
360,347,101797,6,0,P|420:380|508:264,1,223.999993164063,2|0,1:0|1:0,0:0:0:0:
244,136,102206,2,0,P|246:202|250:255,1,111.999996582031,8|0,0:0|0:0,0:0:0:0:
399,96,102479,1,0,1:0:0:0:
201,42,102615,1,0,1:0:0:0:
295,220,102751,1,8,0:0:0:0:
493,166,102888,1,2,1:0:0:0:
302,27,103024,6,0,P|293:97|293:161,1,111.999996582031,0|0,0:0|1:0,0:0:0:0:
412,360,103297,2,0,P|409:304|402:248,1,111.999996582031,8|0,0:0|0:0,0:0:0:0:
144,370,103569,1,0,1:0:0:0:
294,326,103706,2,0,P|309:262|287:208,1,111.999996582031,0|8,1:0|0:0,0:0:0:0:
0,288,103979,6,0,P|126:284|244:274,1,223.999993164063,2|0,1:0|1:0,0:0:0:0:
481,375,104388,2,0,P|423:373|341:362,1,111.999996582031,10|0,0:0|0:0,0:0:0:0:
342,77,104660,1,0,1:0:0:0:
454,176,104797,2,0,P|459:235|459:313,1,111.999996582031,0|8,1:0|0:0,0:0:0:0:
191,203,105069,6,0,P|85:134|-22:213,1,223.999993164063,2|0,1:0|1:0,0:0:0:0:
303,41,105479,2,0,P|301:101|294:197,1,111.999996582031,8|0,0:0|0:0,0:0:0:0:
351,383,105751,1,0,1:0:0:0:
236,317,105888,1,0,1:0:0:0:
397,224,106024,1,8,0:0:0:0:
172,93,106160,1,2,1:0:0:0:
500,237,106297,6,0,P|515:276|512:330,1,80,6|0,1:3|0:0,0:0:0:0:
12,147,106842,2,0,P|-4:109|0:54,1,80,6|0,1:3|0:0,0:0:0:0:
417,222,107388,6,0,P|426:245|424:277,1,40,14|0,1:3|0:3,0:0:0:0:
96,163,107660,2,0,P|87:141|89:109,1,40,14|0,1:3|0:3,0:0:0:0:
337,207,107933,6,0,P|341:219|340:235,1,20,8|0,0:0|0:0,0:0:0:0:
176,178,108069,2,0,P|172:167|173:151,1,20,8|0,0:0|0:0,0:0:0:0:
256,192,108206,2,0,P|261:204|260:220,1,20,8|0,0:0|0:0,0:0:0:0:
107,62,108342,6,0,P|221:54|340:52,1,223.999993164063,6|0,1:2|1:0,0:0:0:0:
86,183,108751,2,0,P|24:160|-3:118,1,111.999996582031,8|0,0:0|0:0,0:0:0:0:
199,265,109024,2,0,P|210:330|187:374,1,111.999996582031,0|0,1:0|1:0,0:0:0:0:
213,126,109297,1,8,0:0:0:0:
333,223,109433,6,0,P|408:213|405:74,1,223.999993164063,2|0,1:0|1:0,0:0:0:0:
199,265,109842,2,0,P|187:330|210:374,1,111.999996582031,8|0,0:0|0:0,0:0:0:0:
213,126,110115,2,0,P|162:83|112:81,1,111.999996582031,0|0,1:0|1:0,0:0:0:0:
333,223,110388,1,8,0:0:0:0:
324,66,110524,6,0,P|369:6|488:77,1,223.999993164063,0|0,1:0|1:0,0:0:0:0:
213,126,110933,2,0,P|151:102|124:60,1,111.999996582031,8|0,0:0|0:0,0:0:0:0:
341,184,111206,2,0,P|352:249|329:293,1,111.999996582031,0|0,1:0|1:0,0:0:0:0:
214,363,111479,1,8,0:0:0:0:
145,207,111615,6,0,P|75:176|7:299,1,223.999993164063,2|0,1:0|1:0,0:0:0:0:
261,166,112024,2,0,P|277:104|251:42,1,111.999996582031,8|0,0:0|0:0,0:0:0:0:
145,207,112297,1,0,1:0:0:0:
278,297,112433,1,0,1:0:0:0:
178,106,112569,1,8,0:0:0:0:
155,338,112706,6,0,P|264:323|410:310,1,223.999993164063,0|0,1:0|1:0,0:0:0:0:
259,113,113115,2,0,P|281:171|276:225,1,111.999996582031,8|0,0:0|0:0,0:0:0:0:
93,106,113388,2,0,P|90:50|111:0,1,111.999996582031,0|0,1:0|1:0,0:0:0:0:
277,219,113660,1,8,0:0:0:0:
24,240,113797,6,0,P|44:159|182:164,1,223.999993164063,2|0,1:0|1:0,0:0:0:0:
119,329,114206,2,0,L|111:218,1,111.999996582031,8|0,0:0|0:0,0:0:0:0:
306,160,114479,1,0,1:0:0:0:
240,275,114615,1,0,1:0:0:0:
147,114,114751,1,8,0:0:0:0:
16,339,114888,1,0,1:0:0:0:
340,371,115024,6,0,L|320:225,1,128,14|0,0:0|1:0,0:0:0:0:
147,114,115297,1,8,1:3:0:0:
119,329,115433,1,0,1:3:0:0:
369,353,115569,6,0,L|324:213,1,143.999995605469,14|0,0:0|1:0,0:0:0:0:
147,114,115842,1,8,1:3:0:0:
75,340,115979,1,0,1:3:0:0:
396,331,116115,6,0,L|316:180,1,160,14|0,0:0|1:3,0:0:0:0:
0,248,116388,2,0,L|170:254,1,160,14|0,0:0|1:3,0:0:0:0:
187,0,116660,1,14,0:0:0:0:
52,113,116797,1,2,1:0:0:0:
159,254,116933,1,0,1:0:0:0:
371,98,117069,6,0,L|27:114,1,320,6|0,1:2|1:0,0:0:0:0:
310,266,117479,2,0,L|502:278,1,160,10|0,0:0|1:0,0:0:0:0:
159,254,117751,1,0,1:0:0:0:
310,266,117888,1,0,1:0:0:0:
55,159,118024,2,0,L|43:-33,1,160,10|2,0:0|1:3,0:0:0:0:
343,200,118297,5,0,1:0:0:0:
355,351,118433,1,0,1:0:0:0:
248,96,118569,2,0,L|56:84,1,160,10|0,0:0|1:0,0:0:0:0:
399,108,118842,5,0,1:0:0:0:
248,96,118979,1,0,1:0:0:0:
503,203,119115,2,0,L|515:395,1,160,10|0,0:0|1:0,0:0:0:0:
254,206,119388,5,2,1:3:0:0:
266,357,119524,1,0,1:0:0:0:
159,102,119660,2,0,L|-33:90,1,160,10|0,0:0|1:0,0:0:0:0:
254,206,119933,5,0,1:0:0:0:
242,357,120069,1,0,1:0:0:0:
349,102,120206,2,0,L|541:90,1,160,10|2,0:0|1:3,0:0:0:0:
254,206,120479,5,0,1:0:0:0:
266,55,120615,1,0,1:0:0:0:
159,310,120751,2,0,L|-33:322,1,160,10|0,0:0|1:0,0:0:0:0:
254,206,121024,5,0,1:0:0:0:
242,55,121160,1,0,1:0:0:0:
349,310,121297,2,0,L|541:322,1,160,10|0,0:0|1:0,0:0:0:0:
256,301,121569,5,2,1:3:0:0:
105,313,121706,1,0,1:0:0:0:
360,206,121842,2,0,L|372:14,1,160,10|0,0:0|1:0,0:0:0:0:
256,301,122115,5,0,1:0:0:0:
407,313,122251,1,0,1:0:0:0:
152,206,122388,2,0,L|140:14,1,160,10|2,0:0|1:3,0:0:0:0:
489,146,122660,5,0,1:0:0:0:
501,297,122797,1,0,1:0:0:0:
394,42,122933,2,0,L|202:30,1,160,10|0,0:0|1:0,0:0:0:0:
48,232,123206,5,0,1:0:0:0:
36,383,123342,1,0,1:0:0:0:
143,128,123479,2,0,L|335:116,1,160,8|0,0:0|1:0,0:0:0:0:
230,375,123751,6,0,P|185:264|287:386,1,480,14|0,1:3|0:0,0:0:0:0:
230,375,124297,2,0,P|166:309|391:114,1,480,14|0,1:3|0:0,0:0:0:0:
230,375,124842,2,0,P|139:336|94:285,1,160,14|0,1:3|0:0,0:0:0:0:
374,103,125115,2,0,P|439:176|459:242,1,160,14|0,1:3|0:0,0:0:0:0:
164,216,125388,6,0,P|163:178|183:141,1,80,10|0,0:0|0:0,0:0:0:0:
290,274,125524,2,0,P|257:293|215:294,1,80,10|0,0:0|0:0,0:0:0:0:
278,134,125660,2,0,P|311:152|332:187,1,80,8|0,0:0|0:0,0:0:0:0:
230,375,125797,5,6,1:2:0:0:
230,375,129206,6,0,L|322:367,1,80,6|0,1:2|0:0,0:0:0:0:
168,323,129615,2,0,L|238:382,1,80,6|0,1:2|0:0,0:0:0:0:
160,242,130024,1,10,0:0:0:0:
164,39,130297,6,0,L|307:31,1,111.999996582031,6|0,1:2|0:0,0:0:0:0:
355,182,130569,2,0,L|352:129,1,40,0|0,0:0|0:0,0:0:0:0:
269,109,130842,1,8,1:2:0:0:
221,201,130979,1,0,0:0:0:0:
155,123,131115,1,0,0:0:0:0:
388,357,131251,6,0,L|164:345,1,223.999993164063,2|0,0:0|0:0,0:0:0:0:
221,201,131660,2,0,L|224:254,1,40,0|0,0:0|0:0,0:0:0:0:
300,123,131933,1,8,1:2:0:0:
348,215,132069,1,0,0:0:0:0:
414,137,132206,1,0,0:0:0:0:
462,229,132342,1,0,0:0:0:0:
136,67,132479,6,0,L|294:58,1,111.999996582031,6|0,1:3|0:0,0:0:0:0:
303,163,132751,2,0,L|300:110,1,40,0|0,0:0|0:0,0:0:0:0:
224,241,133024,1,8,1:2:0:0:
176,149,133160,1,0,0:0:0:0:
110,227,133297,1,0,0:0:0:0:
62,135,133433,1,0,0:0:0:0:
348,345,133569,6,0,L|197:353,1,111.999996582031,6|0,1:3|0:0,0:0:0:0:
401,126,133842,2,0,L|552:134,1,111.999996582031,2|2,0:0|1:3,0:0:0:0:
348,345,134115,1,10,0:2:0:0:
241,245,134251,2,0,L|237:123,1,111.999996582031,2|2,0:0|1:3,0:0:0:0:
348,345,134524,6,0,L|98:358,1,223.999993164063,2|0,0:0|0:0,0:0:0:0:
155,172,134933,2,0,L|158:225,1,40,0|0,0:0|0:0,0:0:0:0:
241,245,135206,1,8,1:2:0:0:
289,153,135342,1,0,0:0:0:0:
355,231,135479,1,0,0:0:0:0:
125,28,135615,6,0,L|348:39,1,223.999993164063,2|0,0:0|0:0,0:0:0:0:
310,182,136024,2,0,L|307:129,1,40,0|0,0:0|0:0,0:0:0:0:
231,260,136297,1,8,1:2:0:0:
183,168,136433,1,0,0:0:0:0:
117,246,136569,1,0,0:0:0:0:
69,154,136706,1,0,0:0:0:0:
376,317,136842,6,0,L|218:326,1,111.999996582031,6|0,1:3|0:0,0:0:0:0:
183,168,137115,2,0,L|186:221,1,40,0|0,0:0|0:0,0:0:0:0:
262,90,137388,1,8,1:2:0:0:
310,182,137524,1,0,0:0:0:0:
376,104,137660,1,0,0:3:0:0:
424,196,137797,1,0,0:0:0:0:
176,41,137933,6,0,L|552:59,2,335.999989746094,6|6|10,1:2|1:2|0:0,0:0:0:0:
156,339,139024,6,0,P|200:348|272:265,1,160,6|4,1:2|0:3,0:0:0:0:
178,31,140115,2,0,P|148:65|184:169,1,160,14|4,0:3|0:3,0:0:0:0:
433,205,141206,2,0,P|419:162|311:141,1,160,6|4,1:3|0:3,0:0:0:0:
82,311,142024,1,0,1:0:0:0:
82,311,142160,1,0,1:0:0:0:
215,277,142297,6,0,P|287:166|146:43,2,335.999989746094,14|6|6,0:3|1:3|1:3,0:0:0:0:
162,42,143388,6,0,P|206:33|278:116,1,160,6|4,1:2|0:3,0:0:0:0:
184,349,144479,2,0,P|154:315|190:211,1,160,14|4,0:3|0:3,0:0:0:0:
439,175,145570,2,0,P|424:217|316:238,1,160,6|4,1:3|0:3,0:0:0:0:
88,70,146388,1,0,1:0:0:0:
88,70,146524,1,0,1:0:0:0:
221,104,146661,6,0,P|293:214|152:337,2,335.999989746094,14|6|10,0:3|1:3|1:3,0:0:0:0:
256,192,147547,12,2,148842,0:0:0:0:
