osu file format v14

[General]
AudioFilename: audio.mp3
AudioLeadIn: 0
PreviewTime: 38301
Countdown: 0
SampleSet: Soft
StackLeniency: 0.2
Mode: 0
LetterboxInBreaks: 0
WidescreenStoryboard: 1

[Editor]
Bookmarks: 479,3751,12479,21206,27751,29933,34297,38660,45206,47251,55979,59388,60479,64842,73569,82297,86660,91024,97569,99615,106297,108342,115024,116115,117069,123751,125797,130297,133569,134660,139024,143388,147615
DistanceSpacing: 1.6
BeatDivisor: 4
GridSize: 32
TimelineZoom: 3.099999

[Metadata]
Title:Kick Me
TitleUnicode:Kick Me
Artist:Sleeping With Sirens
ArtistUnicode:Sleeping With Sirens
Creator:fieryrage
Version:Ayyri's Another
Source:
Tags:sws madness english metal punk rock post-hardcore ailv kyshiro elsa valentine xlolicore- pishifat bergy dashyy- ayyri eiri- craezy hypercyte underdogs stingy peter petereu
BeatmapID:2171683
BeatmapSetID:1038902

[Difficulty]
HPDrainRate:6
CircleSize:4
OverallDifficulty:8.5
ApproachRate:9
SliderMultiplier:1.4
SliderTickRate:1

[Events]
//Background and Video events
0,0,"asdfasd.png",0,0
//Break Periods
2,125997,127515
//Storyboard Layer 0 (Background)
//Storyboard Layer 1 (Fail)
//Storyboard Layer 2 (Pass)
//Storyboard Layer 3 (Foreground)
//Storyboard Layer 4 (Overlay)
//Storyboard Sound Samples

[TimingPoints]
479,272.727272727273,4,2,5,5,1,0
479,-100,4,2,5,5,0,0
10433,-100,4,2,5,10,0,0
10842,-100,4,2,5,15,0,0
12342,-100,4,2,5,5,0,0
12479,-100,4,2,5,50,0,0
13569,-100,4,2,5,40,0,0
14660,-100,4,2,5,50,0,0
15751,-100,4,2,5,40,0,0
16842,-100,4,2,5,50,0,0
17933,-100,4,2,5,40,0,0
19024,-100,4,2,5,60,0,0
22297,-100,4,2,5,50,0,0
23388,-100,4,2,5,60,0,0
24479,-100,4,2,5,50,0,0
25569,-100,4,2,5,60,0,0
26660,-100,4,2,5,50,0,0
27751,-100,4,2,5,60,0,0
29933,-100,4,2,5,55,0,0
30206,-100,4,2,5,30,0,0
31024,-100,4,2,5,35,0,0
31569,-100,4,2,5,38,0,0
32115,-100,4,2,5,40,0,0
32660,-100,4,2,5,43,0,0
33206,-100,4,2,5,45,0,0
33479,-100,4,2,5,48,0,0
33751,-100,4,2,5,50,0,0
34433,-100,4,2,5,40,0,0
34842,-100,4,2,5,55,0,0
34979,-100,4,2,5,40,0,0
35388,-100,4,2,5,60,0,0
35524,-100,4,2,5,45,0,0
35660,-100,4,2,5,50,0,0
35933,-100,4,2,5,55,0,0
36206,-100,4,2,5,60,0,0
36547,-100,4,2,5,45,0,0
37024,-100,4,2,5,35,0,0
38388,-100,4,2,5,60,0,0
38660,-100,4,2,5,70,0,1
45206,-100,4,2,5,70,0,0
45479,-100,4,2,5,60,0,0
45751,-100,4,2,5,70,0,0
46024,-100,4,2,5,60,0,0
46297,-100,4,2,5,65,0,0
47251,-100,4,2,5,70,0,1
53933,-100,4,2,5,70,0,0
54206,-100,4,2,5,60,0,0
54479,-100,4,2,5,70,0,0
54751,-100,4,2,5,60,0,0
55024,-100,4,2,5,70,0,0
55979,-100,4,2,5,65,0,1
56047,-100,4,2,5,55,0,0
59388,-100,4,2,5,60,0,1
60479,-100,4,2,5,60,0,0
60888,-100,4,2,5,55,0,0
61569,-100,4,2,5,60,0,0
63819,-100,4,2,5,5,0,0
64160,-100,4,2,5,65,0,0
64229,-100,4,2,5,5,0,0
64569,-100,4,2,5,60,0,0
64638,-100,4,2,5,5,0,0
64842,-100,4,2,5,55,0,0
64979,-100,4,2,5,50,0,0
66206,-100,4,2,5,50,0,0
66274,-100,4,2,5,50,0,0
66479,-100,4,2,5,50,0,0
71388,-1000,4,2,5,50,0,0
71456,-1000,4,2,5,5,0,0
72479,-1000,4,2,5,50,0,0
73092,-1000,4,2,5,5,0,0
73297,-50,4,2,5,80,0,0
73569,-100,4,2,5,60,0,0
75206,-100,4,2,5,58,0,0
76160,-100,4,2,5,55,0,0
76842,-100,4,2,5,52,0,0
80115,-100,4,2,5,60,0,0
82569,-100,4,2,5,32,0,0
82842,-100,4,2,5,35,0,0
83388,-100,4,2,5,38,0,0
83933,-100,4,2,5,40,0,0
84479,-100,4,2,5,42,0,0
85024,-100,4,2,5,45,0,0
85569,-100,4,2,5,50,0,0
85842,-100,4,2,5,40,0,0
85979,-100,4,2,5,50,0,0
86660,-100,4,2,5,55,0,0
86797,-100,4,2,5,40,0,0
87206,-100,4,2,5,55,0,0
87342,-100,4,2,5,40,0,0
87751,-100,4,2,5,60,0,0
87888,-100,4,2,5,40,0,0
88024,-100,4,2,5,50,0,0
88297,-100,4,2,5,55,0,0
88569,-100,4,2,5,60,0,0
88842,-100,4,2,5,65,0,0
88910,-100,4,2,5,50,0,0
89388,-100,4,2,5,40,0,0
90751,-100,4,2,5,65,0,0
91024,-100,4,2,5,70,0,1
97569,-100,4,2,5,75,0,0
97842,-100,4,2,5,60,0,0
98115,-100,4,2,5,75,0,0
98388,-100,4,2,5,60,0,0
98660,-100,4,2,5,75,0,0
99615,-100,4,2,5,75,0,1
99751,-100,4,2,5,70,0,1
106297,-100,4,2,5,75,0,0
106569,-100,4,2,5,60,0,0
106842,-100,4,2,5,75,0,0
107115,-100,4,2,5,60,0,0
107388,-100,4,2,5,75,0,0
108342,-100,4,2,5,75,0,1
115024,-100,4,2,5,75,0,0
115297,-100,4,2,5,60,0,0
115433,-100,4,2,5,50,0,0
115569,-100,4,2,5,75,0,0
115842,-100,4,2,5,60,0,0
115979,-100,4,2,5,50,0,0
116115,-100,4,2,5,75,0,0
117069,-100,4,2,5,75,0,1
123751,-100,4,2,5,75,0,0
125388,-100,4,2,5,70,0,0
125797,-100,4,2,5,70,0,1
125865,-100,4,2,5,70,0,0
128115,-1000,4,2,5,45,0,0
128183,-1000,4,2,5,5,0,0
129206,-50,4,2,5,70,0,0
129274,-50,4,2,5,5,0,0
129615,-50,4,2,5,70,0,0
129683,-50,4,2,5,5,0,0
130024,-50,4,2,5,70,0,0
130092,-50,4,2,5,5,0,0
130229,-50,4,2,5,5,0,0
130297,-100,4,2,5,60,0,0
130365,-100,4,2,5,55,0,0
133569,-100,4,2,5,60,0,1
134660,-100,4,2,5,60,0,0
137933,-100,4,2,5,60,0,1
138956,-100,4,2,5,60,0,0
139024,-100,4,2,5,70,0,1
139297,-100,4,2,5,70,0,0
140115,-100,4,2,5,70,0,1
140388,-100,4,2,5,70,0,0
141206,-100,4,2,5,70,0,1
141479,-100,4,2,5,70,0,0
142297,-100,4,2,5,70,0,1
143251,-100,4,2,5,70,0,0
143388,-100,4,2,5,70,0,1
143660,-100,4,2,5,70,0,0
144479,-100,4,2,5,70,0,1
144751,-100,4,2,5,70,0,0
145569,-100,4,2,5,70,0,1
145842,-100,4,2,5,70,0,0
146660,-100,4,2,5,70,0,1
147479,-100,4,2,5,70,0,0
147615,-100,4,2,5,70,0,1
147683,-100,4,2,5,70,0,0

[Colours]
Combo1 : 136,136,136
Combo2 : 82,109,90
Combo3 : 196,148,140
Combo4 : 146,192,194

[HitObjects]
256,192,10297,12,0,12342,0:0:0:0:
320,325,12479,6,0,P|369:278|438:281,1,140,2|0,1:0|1:0,0:0:0:0:
401,363,12888,2,0,P|364:334|361:243,1,140,2|0,0:3|0:0,0:0:0:0:
416,160,13297,2,0,P|460:192|468:213,1,70,2|0,1:0|0:0,0:0:0:0:
438,281,13569,5,0,1:0:0:0:
438,281,13842,1,0,1:0:0:0:
438,281,14115,1,0,1:0:0:0:
438,281,14388,1,0,1:0:0:0:
465,204,14660,6,0,P|446:175|344:175,1,140,2|0,1:0|1:0,0:0:0:0:
202,264,15069,2,0,P|251:310|318:299,1,140,2|0,0:3|0:0,0:0:0:0:
286,165,15479,2,0,L|272:233,1,70,2|0,1:0|0:0,0:0:0:0:
318,299,15751,5,0,1:0:0:0:
318,299,16024,1,0,1:0:0:0:
318,299,16297,1,0,1:0:0:0:
318,299,16570,1,0,1:0:0:0:
272,233,16842,38,0,L|303:89,1,140,2|0,1:0|1:0,0:0:0:0:
380,32,17251,2,0,L|410:176,1,140,2|0,0:3|0:0,0:0:0:0:
438,266,17660,2,0,P|477:247|497:217,1,70,2|0,1:0|0:0,0:0:0:0:
408,169,17933,5,0,1:0:0:0:
408,169,18206,1,0,1:0:0:0:
408,169,18479,1,0,1:0:0:0:
408,169,18752,1,0,1:0:0:0:
438,266,18888,1,0,1:0:0:0:
403,142,19024,6,0,P|360:158|341:192,1,70,14|0,0:0|1:0,0:0:0:0:
312,260,19297,1,0,1:0:0:0:
293,113,19433,6,0,P|273:154|284:192,1,70,12|0,0:0|1:0,0:0:0:0:
312,260,19706,1,0,1:0:0:0:
195,170,19842,38,0,P|211:213|244:231,1,70,12|0,0:0|1:0,0:0:0:0:
312,260,20115,1,2,1:0:0:0:
166,280,20251,6,0,P|207:299|245:288,1,70,14|0,0:0|1:0,0:0:0:0:
312,260,20524,1,0,1:0:0:0:
223,378,20660,6,0,P|266:362|284:328,1,70,14|0,0:0|1:0,0:0:0:0:
368,225,20933,2,0,P|335:234|312:260,1,70,10|0,0:0|1:0,0:0:0:0:
315,355,21206,6,0,P|360:306|425:323,1,140,6|8,1:2|0:0,0:0:0:0:
283,245,21615,2,0,P|266:309|316:355,1,140,2|0,1:0|1:0,0:0:0:0:
425,323,22024,2,0,L|441:176,1,140,10|0,0:0|0:0,0:0:0:0:
282,245,22569,1,8,0:0:0:0:
282,245,23115,1,8,0:0:0:0:
179,300,23388,38,0,P|228:308|281:231,1,140,2|8,1:0|0:0,0:0:0:0:
383,189,23797,2,0,P|317:187|281:244,1,140,2|0,1:0|1:0,0:0:0:0:
225,141,24206,2,0,P|224:208|281:244,1,140,10|0,0:0|0:0,0:0:0:0:
384,189,24751,5,8,0:0:0:0:
281,243,25024,1,0,1:0:0:0:
357,264,25160,1,0,1:0:0:0:
384,189,25297,1,8,0:0:0:0:
384,189,25569,6,0,L|468:77,1,140,2|8,1:0|0:0,0:0:0:0:
401,0,25979,2,0,L|316:111,1,140,2|0,1:0|1:0,0:0:0:0:
232,223,26388,2,0,L|316:111,1,140,10|0,0:0|0:0,0:0:0:0:
401,0,26933,5,8,0:0:0:0:
468,77,27206,1,0,1:0:0:0:
391,77,27342,1,0,1:0:0:0:
401,0,27479,1,8,0:0:0:0:
468,77,27615,1,0,1:0:0:0:
440,215,27751,38,0,L|428:147,1,70,14|0,0:0|1:0,0:0:0:0:
391,77,28024,1,0,1:0:0:0:
378,264,28160,6,0,L|365:195,1,70,12|0,0:0|1:0,0:0:0:0:
328,125,28433,1,0,1:0:0:0:
315,312,28569,6,0,L|302:243,1,70,12|0,0:0|1:0,0:0:0:0:
265,173,28842,1,2,1:0:0:0:
252,360,28979,6,0,L|239:291,1,70,12|0,0:0|1:0,0:0:0:0:
202,221,29252,1,0,1:0:0:0:
109,351,29388,38,0,P|144:351|174:334,1,70,12|0,0:0|1:0,0:0:0:0:
64,260,29660,2,0,P|29:260|0:277,1,70,10|0,0:0|1:0,0:0:0:0:
191,351,29933,6,0,L|195:267,1,70,6|0,1:2|0:0,0:0:0:0:
222,343,30206,2,0,L|204:260,1,70,10|8,0:3|0:3,0:0:0:0:
249,327,30479,2,0,L|210:252,1,70,10|8,0:0|0:3,0:0:0:0:
271,304,30751,2,0,L|214:241,1,70,10|8,0:0|0:3,0:0:0:0:
96,206,31024,6,0,L|180:202,1,70,10|8,0:0|0:3,0:0:0:0:
104,175,31297,2,0,L|187:193,1,70,10|8,0:0|0:3,0:0:0:0:
120,148,31570,2,0,L|195:187,1,70,10|8,0:0|0:3,0:0:0:0:
143,126,31842,2,0,L|206:183,1,70,10|8,0:0|0:3,0:0:0:0:
321,225,32115,6,0,L|252:222,1,70,10|8,0:0|0:3,0:0:0:0:
328,238,32388,2,0,L|260:253,1,70,10|8,0:0|0:3,0:0:0:0:
338,247,32661,2,0,L|276:280,1,70,10|8,0:0|0:3,0:0:0:0:
350,255,32933,2,0,L|299:302,1,70,10|8,0:0|0:3,0:0:0:0:
169,344,33206,38,0,L|238:347,1,70,10|8,0:0|0:3,0:0:0:0:
161,330,33479,2,0,L|230:315,1,70,10|8,0:0|0:3,0:0:0:0:
151,320,33752,2,0,L|214:288,1,70,10|8,0:0|0:3,0:0:0:0:
139,313,34024,2,0,L|191:266,1,70,10|8,0:0|0:3,0:0:0:0:
298,230,34297,6,0,P|298:196|283:165,1,70,2|8,1:0|0:3,0:0:0:0:
221,101,34569,1,10,1:2:0:0:
283,165,34706,1,8,0:3:0:0:
373,111,34842,6,0,P|345:90|311:85,1,70,2|8,1:0|0:3,0:0:0:0:
221,101,35114,1,10,1:2:0:0:
311,85,35251,1,8,0:3:0:0:
336,2,35388,6,0,P|302:6|274:27,1,70,2|8,1:2|0:3,0:0:0:0:
221,101,35660,1,10,1:2:0:0:
274,27,35797,1,8,0:0:0:0:
221,101,35933,37,10,1:2:0:0:
311,85,36070,1,8,0:0:0:0:
221,101,36206,5,10,1:2:0:0:
283,165,36343,1,8,0:0:0:0:
159,37,36479,5,6,1:2:0:0:
384,32,38388,5,2,0:0:0:0:
384,32,38660,38,0,P|323:44|277:124,1,140,6|8,1:2|0:0,0:0:0:0:
174,238,39069,2,0,P|199:214|213:182,1,70,0|0,0:0|1:0,0:0:0:0:
176,86,39342,1,0,1:0:0:0:
287,206,39479,1,8,0:0:0:0:
391,314,39615,6,0,P|338:336|266:272,1,140,2|0,1:0|1:0,0:0:0:0:
452,248,40024,2,0,P|462:279|510:327,1,70,8|0,0:0|0:0,0:0:0:0:
341,245,40297,1,0,1:0:0:0:
223,354,40433,2,0,P|190:325|141:326,1,70,0|8,1:0|0:0,0:0:0:0:
66,368,40706,6,0,P|85:317|53:222,1,140,0|0,0:0|0:0,0:0:0:0:
1,140,41115,2,0,L|94:145,1,70,8|0,0:0|0:0,0:0:0:0:
172,219,41388,1,0,1:0:0:0:
274,123,41524,1,0,1:0:0:0:
301,265,41660,1,8,0:0:0:0:
477,180,41797,6,0,P|428:183|464:247,1,140,2|0,1:0|1:0,0:0:0:0:
512,109,42206,2,0,L|498:24,1,70,8|0,0:0|0:0,0:0:0:0:
370,11,42479,1,0,1:0:0:0:
274,123,42615,1,0,1:0:0:0:
402,82,42751,1,8,0:0:0:0:
228,16,42888,38,0,P|186:24|130:128,1,140,0|0,0:0|0:0,0:0:0:0:
161,208,43297,1,8,0:0:0:0:
107,322,43433,2,0,P|140:314|173:325,1,70,0|0,0:0|1:0,0:0:0:0:
323,364,43706,2,0,P|289:371|257:361,1,70,0|8,1:0|0:0,0:0:0:0:
384,282,43979,6,0,P|417:274|485:353,1,140,2|0,1:0|1:0,0:0:0:0:
294,280,44388,2,0,L|283:196,1,70,8|0,0:0|0:0,0:0:0:0:
270,110,44660,1,0,1:0:0:0:
201,171,44797,1,0,1:0:0:0:
284,210,44933,1,8,0:0:0:0:
65,147,45069,1,0,0:0:0:0:
65,147,45206,6,0,B|134:172|134:172|201:171,1,140,14|0,0:3|0:0,0:0:0:0:
364,54,45615,1,0,0:0:0:0:
364,54,45751,6,0,B|295:29|295:29|228:30,1,140,14|0,0:3|0:0,0:0:0:0:
167,205,46160,1,0,0:0:0:0:
167,205,46297,38,0,L|266:191,1,70,14|0,0:3|0:0,0:0:0:0:
395,283,46569,2,0,L|296:269,1,70,14|0,0:3|0:0,0:0:0:0:
218,99,46842,1,10,0:0:0:0:
335,193,46979,1,10,0:0:0:0:
241,310,47115,1,8,0:0:0:0:
299,106,47251,6,0,P|332:67|425:74,1,140,6|0,1:2|0:0,0:0:0:0:
504,158,47660,1,8,0:0:0:0:
442,270,47797,2,0,L|511:258,1,70,0|0,0:0|1:0,0:0:0:0:
405,360,48069,2,0,L|336:372,1,70,0|8,1:0|0:0,0:0:0:0:
139,351,48342,6,0,P|202:365|240:303,1,140,2|0,1:0|1:0,0:0:0:0:
319,180,48751,2,0,L|331:249,1,70,8|0,0:0|0:0,0:0:0:0:
405,360,49024,1,0,1:0:0:0:
442,270,49160,1,0,1:0:0:0:
331,249,49297,1,8,0:0:0:0:
512,259,49433,6,0,P|510:211|439:128,1,140,2|0,0:0|0:0,0:0:0:0:
331,249,49842,2,0,L|400:236,1,70,8|0,0:0|0:0,0:0:0:0:
269,166,50115,2,0,L|177:184,1,70,0|0,1:0|1:0,0:0:0:0:
142,335,50388,2,0,L|234:317,1,70,8|2,0:0|1:0,0:0:0:0:
63,256,50660,38,0,P|30:315|43:388,1,140,0|8,0:0|0:0,0:0:0:0:
142,335,51069,1,0,0:0:0:0:
280,359,51206,1,0,1:0:0:0:
163,258,51342,2,0,L|255:240,1,70,0|8,1:0|0:0,0:0:0:0:
373,298,51615,6,0,P|332:247|369:159,1,140,2|0,0:0|0:0,0:0:0:0:
424,101,52024,2,0,L|412:29,1,70,10|0,0:0|0:0,0:0:0:0:
318,109,52297,1,0,1:0:0:0:
419,178,52433,1,0,1:0:0:0:
346,178,52569,1,8,0:0:0:0:
412,31,52706,6,0,P|343:38|282:7,1,140,2|0,1:0|1:0,0:0:0:0:
183,61,53115,2,0,L|165:144,1,70,8|0,0:0|0:0,0:0:0:0:
282,211,53388,1,0,1:0:0:0:
171,266,53524,1,0,1:0:0:0:
294,352,53660,1,8,0:0:0:0:
179,176,53797,1,2,0:0:0:0:
179,176,53933,6,0,B|110:187|110:187|63:249,1,140,6|0,1:3|0:0,0:0:0:0:
333,176,54342,1,0,0:0:0:0:
333,176,54479,38,0,B|402:187|402:187|449:249,1,140,6|0,1:3|0:0,0:0:0:0:
256,352,54888,1,0,0:0:0:0:
256,352,55024,6,0,L|256:269,1,70,14|0,1:3|0:3,0:0:0:0:
333,176,55297,2,0,L|333:259,1,70,14|0,1:3|0:3,0:0:0:0:
362,322,55569,1,8,0:0:0:0:
476,247,55706,1,8,0:0:0:0:
444,323,55842,1,8,0:0:0:0:
333,246,55979,5,6,1:2:0:0:
476,247,56660,5,8,1:2:0:0:
333,246,57206,1,4,1:3:0:0:
476,247,57751,1,8,1:2:0:0:
333,246,58297,1,6,1:3:0:0:
476,247,58842,1,8,1:2:0:0:
449,109,59388,38,0,P|397:85|359:93,1,70,6|0,1:3|0:0,0:0:0:0:
305,196,59660,2,0,P|357:220|395:212,1,70,2|2,0:0|0:3,0:0:0:0:
285,93,59933,1,10,1:2:0:0:
468,129,60069,2,0,L|477:206,1,70,2|2,0:0|0:3,0:0:0:0:
417,362,60342,1,2,0:0:0:0:
417,362,60479,6,0,B|368:220|368:220|385:153,1,210,2|0,0:0|0:0,0:0:0:0:
450,24,61024,5,8,1:2:0:0:
382,162,61569,1,6,1:3:0:0:
450,24,62115,1,8,1:2:0:0:
382,162,62660,1,6,1:3:0:0:
450,24,63206,1,8,1:2:0:0:
317,232,63751,6,0,B|253:236|253:236|200:181,1,140,6|0,1:3|0:0,0:0:0:0:
279,25,64160,38,0,B|310:81|310:81|282:151,1,140,6|0,1:3|0:0,0:0:0:0:
146,104,64569,6,0,L|219:92,1,70,10|0,0:0|0:0,0:0:0:0:
114,187,64842,6,0,P|140:226|78:296,1,140,6|8,1:2|0:0,0:0:0:0:
231,358,65251,2,0,P|205:319|267:249,1,140,2|0,1:2|1:0,0:0:0:0:
377,194,65660,2,0,L|349:341,1,140,10|2,0:0|0:0,0:0:0:0:
231,358,66069,5,0,1:0:0:0:
350,331,66206,1,8,0:0:0:0:
350,331,66479,37,2,1:2:0:0:
231,358,66616,1,2,1:2:0:0:
251,250,66751,1,8,0:0:0:0:
350,331,66888,1,0,0:0:0:0:
350,331,67024,6,0,P|394:344|492:278,1,140,2|8,1:2|0:0,0:0:0:0:
370,196,67433,2,0,P|417:236|402:189,1,140,2|0,1:2|1:0,0:0:0:0:
284,147,67842,2,0,P|255:209|273:276,1,140,8|2,0:0|0:2,0:0:0:0:
417,201,68251,5,2,1:2:0:0:
273,276,68388,1,8,0:0:0:0:
273,276,68660,5,2,1:2:0:0:
417,201,68797,1,0,1:0:0:0:
286,149,68933,1,8,0:0:0:0:
417,201,69069,1,2,0:2:0:0:
417,201,69206,38,0,P|441:162|403:51,1,140,2|8,1:2|0:0,0:0:0:0:
256,30,69615,2,0,P|319:59|385:40,1,140,2|0,1:2|1:0,0:0:0:0:
215,62,70024,2,0,P|195:127|224:190,1,140,8|2,0:0|0:2,0:0:0:0:
385,40,70433,5,0,1:0:0:0:
224,190,70569,1,8,0:0:0:0:
224,190,70842,5,2,1:2:0:0:
385,40,70978,1,0,1:0:0:0:
215,62,71115,1,8,0:0:0:0:
224,190,71251,1,0,1:0:0:0:
426,3,71388,22,2,L|434:97,1,94.5,6|0,1:2|0:0,0:1:0:0:
434,97,73297,6,2,P|394:58|319:150,1,210,2|0,0:0|0:0,0:1:0:0:
448,320,73569,6,0,L|295:328,1,140,6|8,1:0|0:0,0:0:0:0:
67,250,73979,2,0,L|220:258,1,140,2|0,1:0|1:0,0:0:0:0:
445,250,74388,2,0,L|292:258,1,140,10|2,0:0|0:0,0:0:0:0:
67,250,74933,5,10,0:0:0:0:
67,250,75479,1,10,0:0:0:0:
206,257,75751,6,0,L|67:250,1,140,2|8,1:0|0:0,0:0:0:0:
254,354,76160,2,0,P|292:296|288:228,1,140,2|0,1:0|1:0,0:0:0:0:
353,363,76569,2,0,L|492:355,1,140,8|0,0:0|0:0,0:0:0:0:
254,354,77115,1,8,0:0:0:0:
254,354,77660,1,8,0:0:0:0:
254,354,77933,6,0,P|292:296|288:228,1,140,2|8,1:0|0:0,0:0:0:0:
95,161,78342,2,0,P|153:199|222:195,1,140,2|0,1:0|1:0,0:0:0:0:
291,0,78751,2,0,P|253:58|258:127,1,140,10|0,0:0|0:0,0:0:0:0:
222,195,79297,37,8,0:0:0:0:
222,195,79569,1,0,1:0:0:0:
288,227,79706,1,0,1:0:0:0:
258,127,79842,1,8,0:0:0:0:
288,227,79979,1,0,1:0:0:0:
294,59,80115,6,0,L|306:127,1,70,14|0,0:0|1:0,0:0:0:0:
343,197,80388,1,0,1:0:0:0:
481,148,80524,6,0,L|413:160,1,70,12|0,0:0|1:0,0:0:0:0:
343,197,80797,1,0,1:0:0:0:
205,246,80933,6,0,L|273:234,1,70,12|0,0:0|1:0,0:0:0:0:
343,197,81206,1,2,1:0:0:0:
392,335,81342,38,0,L|380:267,1,70,12|0,0:0|1:0,0:0:0:0:
343,197,81615,1,0,1:0:0:0:
294,59,81751,6,0,L|306:127,1,70,12|0,0:0|1:0,0:0:0:0:
392,335,82024,2,0,L|380:267,1,70,10|0,0:0|1:0,0:0:0:0:
255,27,82297,6,0,L|270:112,1,70,6|0,1:2|0:0,0:0:0:0:
212,32,82569,2,0,L|248:111,1,70,8|8,0:0|0:3,0:0:0:0:
172,49,82842,2,0,L|228:115,1,70,8|8,0:0|0:3,0:0:0:0:
138,76,83115,2,0,L|209:125,1,70,8|8,0:0|0:3,0:0:0:0:
257,241,83388,6,0,L|172:226,1,70,8|8,0:0|0:3,0:0:0:0:
251,283,83660,2,0,L|172:246,1,70,8|8,0:0|0:3,0:0:0:0:
234,323,83933,2,0,L|167:267,1,70,8|8,0:0|0:3,0:0:0:0:
207,357,84206,2,0,L|157:286,1,70,8|8,0:0|0:3,0:0:0:0:
335,175,84479,38,0,L|420:160,1,70,8|8,0:0|0:3,0:0:0:0:
341,217,84751,2,0,L|419:180,1,70,8|8,0:0|0:3,0:0:0:0:
358,257,85024,2,0,L|424:201,1,70,8|8,0:0|0:3,0:0:0:0:
385,291,85297,2,0,L|434:220,1,70,8|8,0:0|0:3,0:0:0:0:
416,32,85569,6,0,L|431:117,1,70,8|8,0:0|0:0,0:0:0:0:
374,38,85842,2,0,L|410:116,1,70,8|10,0:0|0:3,0:0:0:0:
334,55,86114,2,0,L|389:121,1,70,8|8,0:0|0:3,0:0:0:0:
300,82,86387,2,0,L|370:131,1,70,10|8,0:0|0:3,0:0:0:0:
287,319,86660,6,0,P|321:320|351:302,1,70,10|8,1:2|0:3,0:0:0:0:
384,224,86933,1,8,1:2:0:0:
351,302,87069,1,8,0:3:0:0:
289,128,87206,6,0,P|288:162|306:191,1,70,10|8,1:2|0:3,0:0:0:0:
384,224,87479,1,8,1:2:0:0:
306,191,87615,1,8,0:3:0:0:
481,129,87751,38,0,P|446:128|417:146,1,70,10|8,1:2|0:3,0:0:0:0:
384,224,88024,1,10,1:2:0:0:
417,146,88160,1,8,0:3:0:0:
384,224,88297,5,8,1:2:0:0:
306,191,88433,1,8,0:0:0:0:
384,224,88569,5,10,1:2:0:0:
351,302,88705,1,8,0:0:0:0:
417,146,88842,5,6,1:2:0:0:
128,32,90752,37,2,0:0:0:0:
128,32,91024,6,0,P|189:44|235:124,1,140,6|8,1:2|0:0,0:0:0:0:
244,247,91433,2,0,P|268:223|301:210,1,70,0|0,0:0|1:0,0:0:0:0:
193,362,91706,1,0,1:0:0:0:
139,206,91842,1,8,0:0:0:0:
327,307,91979,6,0,L|480:296,1,140,2|0,1:0|1:0,0:0:0:0:
426,164,92388,2,0,P|394:203|349:216,1,70,8|0,0:0|0:0,0:0:0:0:
244,247,92660,1,0,1:0:0:0:
285,127,92797,2,0,L|205:137,1,70,0|8,1:0|0:0,0:0:0:0:
106,239,93069,6,0,P|76:189|105:101,1,140,0|0,1:0|0:0,0:0:0:0:
191,36,93479,2,0,L|271:46,1,70,8|0,0:0|0:0,0:0:0:0:
422,31,93751,1,0,1:0:0:0:
285,127,93888,1,0,1:0:0:0:
343,0,94024,1,8,0:0:0:0:
426,164,94160,38,0,P|472:174|455:104,1,140,2|0,1:0|1:0,0:0:0:0:
319,210,94569,2,0,L|307:306,1,70,8|0,0:0|0:0,0:0:0:0:
230,360,94842,1,0,1:0:0:0:
379,337,94979,1,0,1:0:0:0:
232,280,95115,1,8,0:0:0:0:
415,246,95251,6,0,P|439:189|412:98,1,140,0|0,1:0|0:0,0:0:0:0:
345,33,95660,1,8,0:0:0:0:
313,143,95797,2,0,P|276:156|235:142,1,70,0|0,0:0|1:0,0:0:0:0:
140,251,96069,2,0,P|177:238|218:252,1,70,0|8,1:0|0:0,0:0:0:0:
79,360,96342,6,0,P|35:320|18:236,1,140,2|0,1:0|1:0,0:0:0:0:
77,133,96751,2,0,L|147:128,1,70,8|0,0:0|0:0,0:0:0:0:
313,143,97024,1,0,1:0:0:0:
147,128,97160,1,0,1:0:0:0:
319,29,97297,1,8,0:0:0:0:
230,217,97433,1,0,1:0:0:0:
173,9,97569,6,0,B|106:39|106:39|32:44,1,140,14|0,0:3|0:0,0:0:0:0:
313,143,97979,1,0,0:0:0:0:
313,143,98115,38,0,B|380:113|380:113|454:108,1,140,14|0,0:3|0:0,0:0:0:0:
230,217,98524,1,0,0:0:0:0:
230,217,98660,38,0,B|200:150,1,70,14|0,0:3|0:0,0:0:0:0:
325,258,98933,2,0,B|355:191,1,70,14|0,0:3|0:0,0:0:0:0:
216,341,99206,1,10,0:0:0:0:
370,362,99342,1,10,0:0:0:0:
165,244,99479,1,8,0:0:0:0:
450,164,99615,38,0,P|421:121|334:93,1,140,6|0,1:2|1:0,0:0:0:0:
201,153,100024,1,8,0:0:0:0:
210,307,100160,2,0,L|225:395,1,70,0|0,0:0|1:0,0:0:0:0:
113,279,100432,2,0,L|101:210,1,70,0|8,0:0|0:0,0:0:0:0:
245,63,100706,6,0,P|166:57|114:103,1,140,2|0,1:0|1:0,0:0:0:0:
265,200,101114,2,0,L|334:188,1,70,8|0,0:0|0:0,0:0:0:0:
433,263,101387,1,0,1:0:0:0:
316,342,101524,2,0,L|247:330,1,70,0|8,1:0|0:0,0:0:0:0:
479,197,101797,6,0,P|512:256|488:320,1,140,2|0,1:0|1:0,0:0:0:0:
357,129,102205,2,0,L|426:116,1,70,8|0,0:0|0:0,0:0:0:0:
339,244,102478,2,0,L|247:262,1,70,0|0,1:0|1:0,0:0:0:0:
132,166,102751,2,0,L|224:148,1,70,8|2,0:0|1:0,0:0:0:0:
316,342,103024,6,0,P|254:373|186:364,1,140,0|8,0:0|0:0,0:0:0:0:
90,286,103432,1,0,0:0:0:0:
316,342,103569,1,0,1:0:0:0:
132,166,103705,2,0,L|224:148,1,70,0|8,1:0|0:0,0:0:0:0:
356,273,103979,38,0,P|324:211|333:143,1,140,2|0,1:0|1:0,0:0:0:0:
437,71,104387,2,0,L|425:-1,1,70,10|0,0:0|0:0,0:0:0:0:
333,143,104660,1,0,1:0:0:0:
508,105,104796,1,0,1:0:0:0:
424,194,104933,1,8,0:0:0:0:
241,97,105069,6,0,P|301:46|381:53,1,140,2|0,1:0|1:0,0:0:0:0:
508,105,105479,1,8,0:0:0:0:
424,194,105615,2,0,L|417:263,1,70,0|0,0:0|1:0,0:0:0:0:
367,365,105887,1,0,1:0:0:0:
286,233,106023,1,8,0:0:0:0:
195,322,106160,1,2,1:0:0:0:
195,322,106296,6,0,B|126:311|126:311|79:249,1,140,6|0,1:3|0:0,0:0:0:0:
317,322,106706,1,0,0:0:0:0:
317,322,106842,6,0,B|386:311|386:311|433:249,1,140,6|0,1:3|0:0,0:0:0:0:
192,160,107251,1,0,0:0:0:0:
192,160,107388,38,0,L|213:253,1,70,14|0,1:3|0:3,0:0:0:0:
320,160,107660,2,0,L|299:253,1,70,14|0,1:3|0:3,0:0:0:0:
256,352,107933,1,8,0:0:0:0:
416,320,108069,1,8,0:0:0:0:
207,228,108206,1,8,0:0:0:0:
412,117,108342,6,0,P|379:77|279:67,1,140,6|0,1:2|1:0,0:0:0:0:
172,146,108751,2,0,L|248:142,1,70,8|0,0:0|0:0,0:0:0:0:
304,228,109024,1,0,1:0:0:0:
485,189,109160,1,0,1:0:0:0:
325,328,109297,1,8,0:0:0:0:
408,187,109433,6,0,L|415:34,1,140,2|0,1:0|1:0,0:0:0:0:
281,0,109842,2,0,P|244:25|231:66,1,70,8|0,0:0|0:0,0:0:0:0:
273,186,110115,1,0,1:0:0:0:
186,258,110251,1,0,1:0:0:0:
172,146,110388,1,8,0:0:0:0:
163,317,110524,1,0,1:0:0:0:
0,231,110660,6,0,P|66:244|126:210,1,140,2|8,0:0|0:0,0:0:0:0:
190,85,111069,2,0,L|286:77,1,70,0|0,0:0|1:0,0:0:0:0:
377,149,111342,1,0,1:0:0:0:
278,257,111479,1,8,0:0:0:0:
421,362,111615,38,0,P|470:344|474:238,1,140,2|0,1:0|1:0,0:0:0:0:
377,149,112024,2,0,L|367:219,1,70,8|0,0:0|0:0,0:0:0:0:
297,336,112297,1,0,1:0:0:0:
267,218,112433,1,0,1:0:0:0:
455,170,112569,1,8,0:0:0:0:
367,219,112706,1,0,1:0:0:0:
444,56,112842,6,0,P|394:36|301:65,1,140,2|8,0:0|0:0,0:0:0:0:
253,166,113251,2,0,P|204:186|162:185,1,70,0|0,0:0|1:0,0:0:0:0:
66,159,113524,1,0,1:0:0:0:
25,15,113660,1,8,0:0:0:0:
181,55,113797,6,0,P|246:76|312:55,1,140,2|0,1:0|1:0,0:0:0:0:
425,152,114206,2,0,L|345:171,1,70,8|0,0:0|0:0,0:0:0:0:
187,187,114479,1,0,1:0:0:0:
242,292,114615,1,0,1:0:0:0:
356,168,114751,1,8,0:0:0:0:
489,340,114887,1,0,1:0:0:0:
489,340,115024,6,0,L|462:193,1,140,14|8,0:0|1:3,0:0:0:0:
330,30,115433,1,0,1:3:0:0:
330,30,115569,6,0,L|357:177,1,140,14|8,0:0|1:3,0:0:0:0:
242,292,115979,1,0,1:3:0:0:
242,292,116115,6,0,L|225:200,1,70,14|0,0:0|1:3,0:0:0:0:
104,124,116388,2,0,L|121:216,1,70,14|0,0:0|1:3,0:0:0:0:
73,312,116660,1,14,0:0:0:0:
229,223,116797,1,2,1:0:0:0:
159,366,116933,1,0,1:0:0:0:
348,332,117069,6,0,P|375:272|362:194,1,140,6|0,1:2|1:0,0:0:0:0:
308,64,117479,2,0,P|354:82|399:77,1,70,10|0,0:0|1:0,0:0:0:0:
487,26,117751,1,0,1:0:0:0:
439,179,117888,1,0,1:0:0:0:
374,82,118024,1,10,0:0:0:0:
293,195,118160,38,0,P|233:222|155:209,1,140,2|0,1:3|1:0,0:0:0:0:
80,117,118569,2,0,L|69:26,1,70,10|0,0:0|1:0,0:0:0:0:
13,177,118842,1,0,1:0:0:0:
161,212,118979,1,0,1:0:0:0:
17,280,119115,1,10,0:0:0:0:
157,109,119251,1,0,1:0:0:0:
241,253,119388,6,0,P|183:299|99:278,1,140,2|10,1:3|0:0,0:0:0:0:
316,202,119797,2,0,P|332:252|325:284,1,70,0|0,1:0|1:0,0:0:0:0:
284,359,120069,1,0,1:0:0:0:
241,253,120206,1,10,0:0:0:0:
392,331,120342,6,0,P|438:329|478:242,1,140,2|0,1:3|1:0,0:0:0:0:
442,148,120751,2,0,L|354:142,1,70,10|0,0:0|1:0,0:0:0:0:
264,178,121024,1,0,1:0:0:0:
205,67,121160,1,0,1:0:0:0:
116,190,121297,1,10,0:0:0:0:
64,40,121433,1,0,1:0:0:0:
8,207,121569,6,0,P|68:235|116:190,1,140,2|10,1:3|0:0,0:0:0:0:
205,67,121979,2,0,P|217:108|242:128,1,70,0|0,1:0|1:0,0:0:0:0:
347,66,122251,1,0,1:0:0:0:
442,148,122388,1,10,0:0:0:0:
413,278,122524,38,0,P|359:280|296:347,1,140,2|0,1:3|1:0,0:0:0:0:
180,369,122933,2,0,L|188:280,1,70,10|0,0:0|1:0,0:0:0:0:
163,176,123206,1,0,1:0:0:0:
86,306,123342,1,0,1:0:0:0:
254,223,123479,1,8,0:0:0:0:
299,336,123615,1,0,1:0:0:0:
299,336,123751,6,0,L|438:319,1,140,14|0,1:3|0:0,0:0:0:0:
480,177,124160,1,0,0:0:0:0:
480,177,124296,6,0,L|340:193,1,140,14|0,1:3|0:0,0:0:0:0:
234,85,124706,1,0,0:0:0:0:
234,85,124842,6,0,L|335:74,1,70,14|0,1:3|0:0,0:0:0:0:
254,223,125115,2,0,L|153:234,1,70,14|0,1:3|0:0,0:0:0:0:
64,203,125388,1,10,0:0:0:0:
126,67,125524,1,10,0:0:0:0:
184,230,125660,1,8,0:0:0:0:
0,108,125797,37,6,1:2:0:0:
428,348,128115,54,2,L|422:295,1,52.5,0|0,0:0|0:0,0:1:0:0:
422,295,129206,6,2,B|498:281|498:281|264:253,1,280,6|0,1:2|0:0,0:1:0:0:
174,318,129615,2,2,B|98:332|98:332|299:356,1,280,6|0,1:2|0:0,0:1:0:0:
422,295,130024,2,2,B|407:226|407:226|423:170|423:170|395:50,1,210,10|0,0:0|0:0,0:1:0:0:
296,29,130297,5,6,1:2:0:0:
296,29,130842,1,8,1:2:0:0:
224,160,131388,1,6,1:3:0:0:
224,160,131933,1,8,1:2:0:0:
404,90,132479,1,6,1:3:0:0:
404,90,133024,1,8,1:2:0:0:
113,36,133569,6,0,L|107:130,1,70,6|0,1:3|0:0,0:0:0:0:
219,229,133842,2,0,L|225:135,1,70,2|2,0:0|1:3,0:0:0:0:
296,29,134115,1,10,0:2:0:0:
412,153,134251,2,0,P|367:175|320:170,1,70,2|2,0:0|1:3,0:0:0:0:
469,68,134524,1,2,0:0:0:0:
469,68,134660,6,0,P|505:112|445:262,1,210,2|0,0:0|0:0,0:0:0:0:
469,248,135206,1,8,1:2:0:0:
219,229,135751,5,6,1:3:0:0:
219,229,136296,1,8,1:2:0:0:
108,105,136842,37,6,1:3:0:0:
108,105,137387,1,8,1:2:0:0:
399,348,137933,6,0,L|405:254,1,70,6|0,1:2|0:0,0:0:0:0:
293,155,138206,2,0,L|287:249,1,70,2|6,0:0|1:2,0:0:0:0:
216,355,138479,1,0,0:0:0:0:
100,231,138615,2,0,P|145:209|192:214,1,70,2|10,0:0|0:0,0:0:0:0:
288,224,138888,2,0,L|274:256,1,35,2|0,0:0|0:0,0:0:0:0:
216,355,139024,6,0,L|366:342,1,140,14|0,1:2|0:0,0:0:0:0:
216,355,140115,2,0,L|366:342,1,140,14|0,1:2|0:0,0:0:0:0:
216,355,141206,2,0,L|366:342,1,140,14|0,1:2|0:0,0:0:0:0:
478,168,142024,5,0,1:0:0:0:
272,99,142160,1,0,1:0:0:0:
478,168,142297,38,0,L|391:215,1,70,14|0,0:3|0:0,0:0:0:0:
272,99,142569,2,0,L|359:146,1,70,2|6,0:0|1:3,0:0:0:0:
367,275,142842,1,0,0:0:0:0:
203,231,142979,2,0,P|218:274|247:302,1,70,2|6,0:0|1:3,0:0:0:0:
414,354,143251,1,2,0:0:0:0:
414,354,143388,38,0,L|273:340,1,140,14|0,1:2|0:0,0:0:0:0:
414,354,144479,2,0,L|273:340,1,140,14|0,1:2|0:0,0:0:0:0:
414,354,145569,2,0,L|273:340,1,140,14|0,1:2|0:0,0:0:0:0:
94,84,146388,37,0,1:0:0:0:
261,199,146524,1,0,1:0:0:0:
94,84,146660,6,0,L|190:66,1,70,14|0,0:3|0:0,0:0:0:0:
261,199,146933,2,0,L|165:181,1,70,2|6,0:0|1:3,0:0:0:0:
329,92,147206,1,2,0:0:0:0:
451,196,147342,2,0,L|463:277,1,70,2|10,0:0|1:3,0:0:0:0:
273,363,147615,5,6,0:0:0:0:
