osu file format v14

[General]
AudioFilename: audio.mp3
AudioLeadIn: 0
PreviewTime: 144899
Countdown: 0
SampleSet: Soft
StackLeniency: 0.6
Mode: 0
LetterboxInBreaks: 0
WidescreenStoryboard: 0

[Editor]
DistanceSpacing: 3.6
BeatDivisor: 4
GridSize: 32
TimelineZoom: 1.8

[Metadata]
Title:If You Can't Hang
TitleUnicode:If You Can't Hang
Artist:Sleeping With Sirens
ArtistUnicode:Sleeping With Sirens
Creator:attendant
Version:Insane
Source:
Tags:cant kellin quinn lets let's cheers to this english male vocals alternative rock post hardcore pop punk
BeatmapID:2196559
BeatmapSetID:1000309

[Difficulty]
HPDrainRate:5
CircleSize:4
OverallDifficulty:8
ApproachRate:9
SliderMultiplier:2
SliderTickRate:1

[Events]
//Background and Video events
0,0,"bg.jpg",0,0
//Break Periods
2,185303,194503
2,237803,242003
//Storyboard Layer 0 (Background)
//Storyboard Layer 1 (Fail)
//Storyboard Layer 2 (Pass)
//Storyboard Layer 3 (Foreground)
//Storyboard Layer 4 (Overlay)
//Storyboard Sound Samples

[TimingPoints]
103,312.5,4,2,1,30,1,0
9478,-250,4,2,1,30,0,0
9556,-250,4,2,11,5,0,0
9946,-117.647058823529,4,2,1,70,0,0
30103,-500,4,2,1,40,0,0
39478,-285.714285714286,4,2,1,40,0,0
40103,-500,4,2,1,40,0,0
47603,-250,4,2,1,40,0,0
50103,-166.666666666667,4,2,1,50,0,0
65415,-166.666666666667,4,2,2,30,0,0
70103,-166.666666666667,4,2,2,40,0,0
73853,-166.666666666667,4,2,4,50,0,0
74946,-111.111111111111,4,2,1,70,0,1
95103,-250,4,2,1,50,0,0
120259,-166.666666666667,4,2,1,50,0,0
135415,-166.666666666667,4,2,2,30,0,0
140103,-166.666666666667,4,2,2,40,0,0
143853,-166.666666666667,4,2,4,50,0,0
144478,-333.333333333333,4,2,2,20,0,0
144790,-333.333333333333,4,2,11,5,0,0
144946,-111.111111111111,4,2,1,70,0,1
165103,-250,4,2,1,50,0,0
185103,-250,4,2,1,40,0,0
195103,-250,4,2,1,60,0,0
206978,-166.666666666667,4,2,1,60,0,0
217446,-111.111111111111,4,2,1,70,0,1
237603,-111.111111111111,4,2,1,70,0,0
242603,-166.666666666667,4,2,2,40,0,0
246353,-166.666666666667,4,2,2,50,0,0

[Colours]
Combo1 : 227,213,111
Combo2 : 0,106,213
Combo3 : 243,239,150
Combo4 : 72,131,238

[HitObjects]
147,241,9165,5,2,2:0:0:0:
147,241,9478,2,0,P|183:226|223:226,1,80.128,2|0,2:0|2:0,2:0:0:0:
303,271,9946,6,0,L|310:186,1,85.4080016212464,6|0,3:2|2:0,2:0:0:0:
274,114,10259,1,0,3:2:0:0:
345,77,10415,2,0,P|387:83|427:96,1,85.4080016212464,10|0,3:2|2:0,2:0:0:0:
508,184,10728,6,0,P|465:190|425:203,1,85.4080016212464,0|0,3:2|3:2,2:0:0:0:
361,365,11040,2,0,P|353:324|337:284,1,85.4080016212464,10|0,3:2|2:0,2:0:0:0:
256,196,11353,1,0,3:2:0:0:
256,196,11509,1,0,3:2:0:0:
185,143,11665,2,0,P|142:146|100:154,1,85.4080016212464,10|0,3:2|2:0,2:0:0:0:
44,207,11978,5,0,3:2:0:0:
177,299,12134,1,0,3:2:0:0:
152,220,12290,1,8,3:2:0:0:
5,294,12446,6,0,B|82:278|104:338|165:335,1,170.272003242493,6|0,3:2|3:2,2:0:0:0:
240,307,12915,1,10,3:2:0:0:
331,361,13071,1,0,3:2:0:0:
331,361,13149,1,0,3:2:0:0:
331,361,13228,5,0,3:2:0:0:
269,311,13384,1,0,3:2:0:0:
356,272,13540,1,10,3:2:0:0:
418,321,13696,2,0,P|432:282|452:244,1,85.4080016212464,0|2,3:2|3:2,2:0:0:0:
417,113,14009,5,14,3:2:0:0:
288,176,14165,1,0,3:2:0:0:
387,194,14321,5,14,3:2:0:0:
308,208,14478,1,0,3:2:0:0:
407,216,14634,5,14,3:2:0:0:
473,261,14790,1,0,3:2:0:0:
388,245,14946,6,0,P|403:161|424:79,1,170.272003242493,6|0,3:2|3:2,2:0:0:0:
369,30,15415,1,10,3:2:0:0:
369,30,15571,1,0,3:2:0:0:
287,193,15728,6,0,P|271:109|250:27,1,170.272003242493,14|0,3:2|3:2,2:0:0:0:
176,25,16196,1,0,3:2:0:0:
37,109,16353,6,0,B|18:151|18:151|25:193,1,85.4080016212464,14|0,3:2|2:0,2:0:0:0:
185,205,16665,2,0,B|204:163|204:163|196:120,1,85.4080016212464,14|0,3:2|2:0,2:0:0:0:
100,225,16978,5,0,3:2:0:0:
84,316,17134,1,0,3:2:0:0:
119,244,17290,1,8,3:2:0:0:
169,322,17446,6,0,B|246:306|268:366|329:363,1,170.272003242493,6|0,3:2|3:2,2:0:0:0:
322,283,17915,1,14,3:2:0:0:
184,362,18071,1,0,3:2:0:0:
228,279,18228,1,14,3:2:0:0:
357,369,18384,1,0,3:2:0:0:
188,188,18696,5,0,3:2:0:0:
134,275,18853,1,14,3:2:0:0:
102,193,19009,1,8,1:3:0:0:
84,180,19087,1,8,1:2:0:0:
62,180,19165,1,8,3:2:0:0:
45,167,19243,1,8,3:2:0:0:
45,167,19321,6,0,L|39:215,3,42.5226674772899,0|0|8|2,3:2|3:2|3:2|1:3,2:0:0:0:
106,115,19634,2,0,L|100:72,3,42.5226674772899,2|2|8|4,1:3|1:3|1:3|1:3,2:0:0:0:
176,172,19946,6,0,P|211:98|291:81,1,170.272003242493,6|0,3:2|3:2,2:0:0:0:
290,160,20415,1,10,3:2:0:0:
214,79,20571,1,0,2:0:0:0:
322,51,20728,5,0,3:2:0:0:
398,133,20884,1,0,3:2:0:0:
332,84,21040,1,10,3:2:0:0:
282,112,21196,1,0,2:0:0:0:
398,133,21353,2,0,B|417:91|417:91|409:52,1,85.4080016212464,0|0,3:2|3:2,2:0:0:0:
163,106,21665,2,0,P|246:92|331:83,1,170.272003242493,10|0,3:2|3:2,2:0:0:0:
498,104,22134,5,0,3:2:0:0:
421,37,22290,1,8,3:2:0:0:
473,102,22446,6,0,P|460:186|453:270,1,170.272003242493,6|0,3:2|3:2,2:0:0:0:
452,351,22915,1,10,3:2:0:0:
318,310,23071,1,0,3:2:0:0:
318,310,23149,1,0,3:2:0:0:
318,310,23228,5,0,3:2:0:0:
246,346,23384,1,0,3:2:0:0:
157,277,23540,1,10,3:2:0:0:
89,321,23696,2,0,P|85:280|73:231,1,85.4080016212464,0|2,3:2|3:2,2:0:0:0:
57,162,24009,5,14,3:2:0:0:
127,38,24165,1,0,3:2:0:0:
143,142,24321,5,14,3:2:0:0:
120,65,24478,1,0,3:2:0:0:
164,132,24634,5,14,3:2:0:0:
141,209,24790,1,0,3:2:0:0:
173,294,24946,6,0,B|256:289|257:341|334:337,1,170.272003242493,6|0,3:2|3:2,2:0:0:0:
411,311,25415,1,10,3:2:0:0:
411,311,25571,1,0,3:2:0:0:
478,198,25728,6,0,B|394:193|393:245|316:241,1,170.272003242493,14|0,3:2|3:2,2:0:0:0:
252,198,26196,1,0,3:2:0:0:
364,153,26353,6,0,B|383:195|383:195|375:233,1,85.4080016212464,14|0,3:2|2:0,2:0:0:0:
255,297,26665,2,0,B|236:255|236:255|243:216,1,85.4080016212464,14|0,3:2|2:0,2:0:0:0:
275,97,26978,5,0,3:2:0:0:
254,21,27134,1,0,3:2:0:0:
198,79,27290,1,8,3:2:0:0:
336,37,27446,6,0,P|418:58|496:91,1,170.272003242493,6|0,3:2|3:2,2:0:0:0:
460,161,27915,1,14,3:2:0:0:
329,115,28071,1,0,3:2:0:0:
319,201,28228,1,14,3:2:0:0:
410,95,28384,1,0,3:2:0:0:
402,234,28696,6,0,L|401:269,3,28.4693338737487,0|0|0|8,3:2|3:2|3:2|3:2,2:0:0:0:
466,304,29009,1,0,3:2:0:0:
391,339,29165,5,2,3:0:0:0:
483,224,29321,1,2,3:0:0:0:
319,201,29478,5,8,3:0:0:0:
402,234,29634,1,4,3:0:0:0:
251,259,29790,5,8,3:2:0:0:
421,233,29946,1,0,3:2:0:0:
325,177,30103,6,0,L|336:297,1,120.064,4|0,3:2|3:2,2:0:0:0:
298,368,31353,1,8,1:0:0:0:
298,368,32603,6,0,B|247:376|231:339|178:349,1,120.064,4|0,3:2|3:2,2:0:0:0:
105,368,33853,2,0,P|100:348|91:325,1,40.064,8|0,1:0|1:0,2:0:0:0:
47,269,34321,1,8,1:0:0:0:
47,269,34478,1,8,1:0:0:0:
111,190,35103,6,0,L|129:64,1,120.064,4|0,3:2|3:2,2:0:0:0:
78,11,36353,1,8,1:0:0:0:
237,205,37603,6,0,L|219:79,1,120.064,4|0,3:2|3:2,2:0:0:0:
270,26,38853,1,8,1:0:0:0:
336,72,39009,2,0,L|357:66,1,20.096,0|0,3:2|3:2,2:0:0:0:
318,158,39321,5,0,1:2:0:0:
318,158,39399,1,0,1:2:0:0:
318,158,39478,2,0,L|316:184,3,17.4999994659424,8|8|0|0,1:0|1:0|1:2|1:2,2:0:0:0:
392,178,39790,2,0,L|393:201,3,17.4999994659424,0|0|0|0,3:2|1:2|1:2|1:2,2:0:0:0:
472,160,40103,6,0,P|460:225|454:286,1,120.064,4|2,3:2|3:2,2:0:0:0:
472,355,41353,2,0,L|449:349,1,20.096,8|2,1:0|2:0,2:0:0:0:
398,300,41665,2,0,L|375:306,1,20.096,0|2,2:0|2:0,2:0:0:0:
301,333,41978,1,2,1:2:0:0:
301,333,42134,1,0,1:2:0:0:
215,292,42290,1,2,1:2:0:0:
215,292,42446,1,0,1:2:0:0:
113,329,42603,6,0,P|109:270|69:227,1,120.064,4|0,3:2|3:2,2:0:0:0:
0,194,43853,2,0,P|4:174|10:154,1,40.064,8|2,1:0|3:2,2:0:0:0:
52,94,44321,1,8,1:0:0:0:
52,94,44478,1,8,1:0:0:0:
128,49,45103,6,0,B|186:21|186:21|241:38,1,120.064,4|2,3:2|3:2,2:0:0:0:
311,74,46353,1,8,1:0:0:0:
311,74,47603,6,0,P|298:112|292:151,1,80.128,4|2,3:2|1:2,2:0:0:0:
157,135,48228,6,0,P|178:168|195:204,1,80.128,4|2,3:2|1:2,2:0:0:0:
415,173,48853,6,0,P|385:199|359:230,1,80.128,4|2,3:2|1:2,2:0:0:0:
76,222,49478,5,4,3:2:0:0:
267,282,50103,6,0,B|215:273|201:310|150:302,1,120.191996337891,6|0,3:2|2:0,2:0:0:0:
77,274,50571,1,0,3:2:0:0:
175,235,50728,1,8,3:2:0:0:
102,251,50884,1,0,3:2:0:0:
102,251,51196,1,0,3:2:0:0:
102,250,51353,6,0,P|103:190|91:131,1,120.191996337891,4|0,3:2|2:0,2:0:0:0:
45,69,51821,1,0,3:2:0:0:
134,25,51978,1,10,3:2:0:0:
61,40,52134,1,0,3:2:0:0:
61,40,52446,1,0,3:2:0:0:
61,40,52603,6,0,P|120:40|180:48,1,120.191996337891,4|2,3:2|2:0,2:0:0:0:
260,60,53071,1,0,3:2:0:0:
340,22,53228,1,8,3:2:0:0:
413,73,53384,1,0,3:2:0:0:
413,73,53696,1,0,3:2:0:0:
412,73,53853,6,0,P|396:130|387:190,1,120.191996337891,4|0,3:2|2:0,2:0:0:0:
401,270,54321,1,2,3:2:0:0:
352,360,54478,1,10,3:2:0:0:
441,356,54634,1,2,3:2:0:0:
441,356,54946,1,2,3:2:0:0:
441,356,55024,1,0,3:2:0:0:
441,356,55103,6,0,P|382:342|322:340,1,120.191996337891,4|0,3:2|2:0,2:0:0:0:
251,365,55571,1,2,3:2:0:0:
174,317,55728,1,8,3:2:0:0:
174,317,55884,2,0,P|144:324|116:333,1,60.2879981689454,2|0,3:2|2:0,2:0:0:0:
43,372,56196,1,2,3:2:0:0:
60,279,56353,6,0,P|50:219|37:161,1,120.191996337891,4|0,3:2|2:0,2:0:0:0:
76,91,56821,1,2,3:2:0:0:
25,21,56978,1,8,3:2:0:0:
25,21,57134,2,0,P|60:13|91:2,1,60.2879981689454,2|0,3:2|2:0,2:0:0:0:
199,49,57446,1,2,3:2:0:0:
126,115,57603,6,0,P|115:188|110:246,1,120.191996337891,4|0,3:2|2:0,2:0:0:0:
120,313,58071,1,2,3:2:0:0:
210,232,58228,1,10,3:2:0:0:
210,232,58384,2,0,P|215:280|217:310,1,60.2879981689454,2|0,3:2|2:0,2:0:0:0:
231,379,58696,1,2,3:2:0:0:
309,317,58853,5,4,3:2:0:0:
357,238,59009,1,8,1:3:0:0:
376,235,59087,1,8,3:2:0:0:
396,234,59165,1,8,3:2:0:0:
416,236,59243,1,8,3:2:0:0:
435,242,59321,1,8,1:2:0:0:
453,251,59399,1,8,1:2:0:0:
469,263,59478,6,0,L|466:299,3,30.0159990844727,10|8|2|2,3:2|3:2|1:3|1:3,2:0:0:0:
397,327,59790,2,0,L|400:363,3,30.0159990844727,2|2|8|4,1:3|1:3|1:3|1:3,2:0:0:0:
481,369,60103,5,6,3:2:0:0:
424,246,60259,2,0,P|427:186|438:127,1,120.191996337891,0|0,3:2|3:2,2:0:0:0:
396,63,60728,1,8,3:2:0:0:
279,133,60884,1,0,3:2:0:0:
313,62,61040,1,0,3:2:0:0:
421,142,61196,1,0,3:2:0:0:
343,200,61353,5,4,3:2:0:0:
342,199,61509,2,0,P|285:179|225:171,1,120.191996337891,0|0,3:2|3:2,2:0:0:0:
147,186,61978,1,10,3:2:0:0:
67,130,62134,1,2,3:2:0:0:
67,130,62212,1,0,3:2:0:0:
67,130,62290,1,0,3:2:0:0:
139,166,62446,1,2,3:2:0:0:
16,200,62603,5,4,3:2:0:0:
16,200,62759,2,0,P|24:140|37:82,1,120.191996337891,0|0,3:2|3:2,2:0:0:0:
80,18,63228,1,10,3:2:0:0:
195,80,63384,1,2,3:2:0:0:
195,80,63696,6,0,L|199:108,3,20.0959993896485,2|0|0|8,3:2|3:2|3:2|3:2,2:0:0:0:
271,45,64009,1,0,3:2:0:0:
349,128,64165,2,0,L|355:55,1,60.2879981689454,2|8,3:2|1:3,2:0:0:0:
263,222,64478,2,0,L|257:149,1,60.2879981689454,0|0,3:2|3:2,2:0:0:0:
349,316,64790,2,0,L|352:279,3,30.0159990844727,8|2|8|4,3:2|1:3|1:3|1:3,2:0:0:0:
330,336,65103,5,8,3:2:0:0:
309,329,65415,1,8,2:0:0:0:
302,350,65728,1,8,2:0:0:0:
323,357,66040,1,8,2:0:0:0:
159,274,66353,5,8,2:0:0:0:
190,263,66665,1,8,2:0:0:0:
201,295,66978,1,8,2:0:0:0:
169,305,67290,1,8,2:0:0:0:
373,186,67603,5,8,2:0:0:0:
331,172,67915,1,8,2:0:0:0:
317,214,68228,1,8,2:0:0:0:
359,228,68540,1,8,2:0:0:0:
179,215,68853,6,0,L|167:316,1,90.0479972534181,8|8,2:0|2:0,2:0:0:0:
189,125,69321,5,8,2:0:0:0:
348,138,69478,6,0,L|360:239,1,90.0479972534181,8|8,2:0|2:0,2:0:0:0:
338,48,69946,5,8,2:0:0:0:
255,0,70103,6,0,P|225:9|196:24,1,60.2879981689454,10|0,2:0|2:0,2:0:0:0:
288,19,70415,2,0,P|256:19|224:26,1,60.2879981689454,8|0,2:0|2:0,2:0:0:0:
399,125,70728,6,0,P|381:99|357:76,1,60.2879981689454,10|0,2:0|2:0,2:0:0:0:
391,162,71040,2,0,P|380:132|363:104,1,60.2879981689454,8|0,2:0|2:0,2:0:0:0:
324,300,71353,6,0,P|342:275|357:245,1,60.2879981689454,10|0,2:0|2:0,2:0:0:0:
286,304,71665,2,0,P|310:284|332:260,1,60.2879981689454,8|0,2:0|2:0,2:0:0:0:
133,283,71978,6,0,P|162:293|194:298,1,60.2879981689454,10|0,2:0|2:0,2:0:0:0:
118,248,72290,2,0,P|143:265|173:278,1,60.2879981689454,8|0,2:0|2:0,2:0:0:0:
91,97,72603,5,10,2:0:0:0:
67,174,72759,1,0,2:0:0:0:
186,68,72915,5,10,2:0:0:0:
210,145,73071,1,0,2:0:0:0:
79,91,73228,5,10,2:0:0:0:
49,187,73384,1,0,2:0:0:0:
197,54,73540,5,10,2:0:0:0:
227,151,73696,1,0,2:0:0:0:
67,85,73853,5,6,2:0:0:0:
140,155,74946,6,0,P|241:143|329:144,1,180.287994506836,6|0,3:2|3:2,2:0:0:0:
420,207,75415,2,0,B|438:253|438:253|430:296,1,90.4319972534181,8|0,3:2|2:0,2:0:0:0:
241,318,75728,2,0,B|222:271|222:271|230:228,1,90.4319972534181,0|0,3:2|3:2,2:0:0:0:
341,359,76040,6,0,P|329:260|312:165,1,180.287994506836,10|0,3:2|3:2,2:0:0:0:
286,99,76509,1,0,3:2:0:0:
420,207,76665,6,0,P|374:209|330:218,1,90.4319972534181,8|2,3:2|2:0,2:0:0:0:
182,238,76978,1,2,3:2:0:0:
244,194,77134,1,2,3:2:0:0:
210,158,77290,1,8,3:2:0:0:
88,228,77446,6,0,P|75:138|49:52,1,180.287994506836,6|2,3:2|3:2,2:0:0:0:
112,4,77915,1,8,3:2:0:0:
0,141,78071,1,2,3:2:0:0:
0,141,78149,1,0,3:2:0:0:
0,141,78228,1,0,3:2:0:0:
72,105,78384,1,2,3:2:0:0:
172,225,78540,5,8,3:2:0:0:
100,189,78696,2,0,P|83:241|76:280,1,90.4319972534181,2|0,3:2|3:2,2:0:0:0:
206,331,79009,5,12,3:2:0:0:
373,249,79165,1,0,3:2:0:0:
260,255,79321,5,12,3:2:0:0:
318,324,79478,1,0,3:2:0:0:
289,290,79634,5,14,3:2:0:0:
122,371,79790,1,2,3:2:0:0:
179,302,79946,6,0,B|264:296|264:355|346:360,1,180.287994506836,6|2,3:2|3:2,2:0:0:0:
507,335,80415,6,0,B|514:294|514:294|500:247,1,90.4319972534181,10|2,3:2|3:2,2:0:0:0:
313,259,80728,2,0,B|305:299|305:299|319:346,1,90.4319972534181,14|2,3:2|2:0,2:0:0:0:
404,211,81040,6,0,P|406:166|410:114,1,90.4319972534181,2|2,3:2|3:2,2:0:0:0:
237,21,81353,2,0,P|240:65|242:110,1,90.4319972534181,14|2,3:2|2:0,2:0:0:0:
250,192,81665,6,0,P|164:206|126:284,1,180.287994506836,14|0,3:2|3:2,2:0:0:0:
127,365,82134,1,2,3:2:0:0:
215,325,82290,1,10,3:2:0:0:
139,342,82446,6,0,P|131:252|112:164,1,180.287994506836,6|2,3:2|3:2,2:0:0:0:
92,90,82915,6,0,P|40:81|-7:70,1,90.4319972534181,14|2,3:2|3:2,2:0:0:0:
265,0,83228,2,0,P|213:9|166:20,1,90.4319972534181,14|2,3:2|3:2,2:0:0:0:
311,223,83540,2,0,P|259:214|212:203,1,90.4319972534181,2|0,2:0|3:2,2:0:0:0:
145,177,83853,5,14,3:2:0:0:
306,119,84009,1,8,1:3:0:0:
325,128,84087,1,8,1:2:0:0:
346,126,84165,1,8,3:2:0:0:
364,139,84243,1,8,3:2:0:0:
364,139,84321,6,0,L|352:207,3,45.023998626709,2|0|8|2,3:2|3:2|3:2|1:3,2:0:0:0:
432,211,84634,2,0,L|444:279,3,45.023998626709,2|2|8|4,1:3|1:3|1:3|1:3,2:0:0:0:
347,280,84946,6,0,B|268:271|251:333|175:323,1,180.287994506836,6|0,3:2|3:2,2:0:0:0:
75,127,85415,6,0,P|159:146|191:226,1,180.287994506836,14|0,3:2|3:2,2:0:0:0:
111,229,85884,1,0,3:2:0:0:
249,125,86040,6,0,P|346:142|430:173,1,180.287994506836,10|0,3:2|3:2,2:0:0:0:
492,210,86509,1,0,3:2:0:0:
406,80,86665,6,0,P|391:122|381:166,1,90.4319972534181,8|2,3:2|2:0,2:0:0:0:
362,301,86978,1,2,3:2:0:0:
291,238,87134,1,2,3:2:0:0:
317,211,87290,1,8,3:2:0:0:
241,329,87446,6,0,P|153:308|63:304,1,180.287994506836,6|2,3:2|3:2,2:0:0:0:
47,223,87915,1,8,3:2:0:0:
121,166,88071,1,2,3:2:0:0:
121,166,88149,1,0,3:2:0:0:
121,166,88228,1,0,3:2:0:0:
50,118,88384,1,2,3:2:0:0:
133,141,88540,5,8,3:2:0:0:
31,198,88696,2,0,P|44:255|49:293,1,90.4319972534181,2|0,3:2|3:2,2:0:0:0:
264,375,89009,5,12,3:2:0:0:
117,333,89165,1,0,3:2:0:0:
207,312,89321,5,12,3:2:0:0:
134,345,89478,1,0,3:2:0:0:
220,291,89634,5,14,3:2:0:0:
367,356,89790,1,2,3:2:0:0:
312,291,89946,6,0,P|346:212|431:191,1,180.287994506836,6|2,3:2|3:2,2:0:0:0:
414,269,90415,6,0,P|400:228|391:172,1,90.4319972534181,10|2,3:2|3:2,2:0:0:0:
268,300,90728,2,0,P|281:259|291:203,1,90.4319972534181,14|2,3:2|2:0,2:0:0:0:
342,18,91040,6,0,P|328:59|319:115,1,90.4319972534181,2|2,3:2|3:2,2:0:0:0:
130,93,91353,2,0,P|143:134|153:190,1,90.4319972534181,14|2,3:2|2:0,2:0:0:0:
218,11,91665,6,0,P|234:105|247:194,1,180.287994506836,14|0,3:2|3:2,2:0:0:0:
254,266,92134,1,2,3:2:0:0:
150,289,92290,1,10,3:2:0:0:
241,284,92446,6,0,B|327:275|327:329|444:330,1,180.287994506836,6|2,3:2|3:2,2:0:0:0:
439,133,92915,6,0,P|425:175|413:219,1,90.4319972534181,14|2,3:2|3:2,2:0:0:0:
282,179,93228,2,0,P|295:221|307:265,1,90.4319972534181,14|2,3:2|3:2,2:0:0:0:
325,368,93540,1,2,2:0:0:0:
449,317,93696,6,0,L|444:353,3,30.1439990844727,0|0|0|10,3:2|3:2|3:2|3:2,2:0:0:0:
379,273,94009,1,0,3:2:0:0:
457,236,94165,5,0,3:0:0:0:
376,354,94321,1,2,3:0:0:0:
369,189,94478,5,8,3:0:0:0:
435,298,94634,1,4,3:0:0:0:
452,147,94790,5,8,3:2:0:0:
449,124,94868,1,2,1:3:0:0:
461,105,94946,1,8,1:3:0:0:
454,83,95024,1,4,1:3:0:0:
454,83,95103,6,0,P|394:90|336:106,2,120.064,6|0|0,3:2|3:2|3:2,2:0:0:0:
482,205,96353,2,0,P|422:197|362:197,2,120.064,10|0|0,3:2|3:2|3:2,2:0:0:0:
477,330,97603,2,0,P|421:307|363:291,2,120.064,6|0|0,3:2|3:2|3:2,2:0:0:0:
299,367,98853,1,10,3:2:0:0:
279,350,99165,5,2,1:3:0:0:
264,335,99269,6,0,P|245:331|223:328,1,26.7946666666668,8|8,1:3|1:2,2:0:0:0:
162,342,99478,5,8,3:2:0:0:
162,342,100103,6,0,L|179:216,1,120.064,6|2,3:2|3:2,2:0:0:0:
147,150,101040,1,2,3:2:0:0:
280,203,101353,5,8,3:2:0:0:
313,117,101821,1,8,1:2:0:0:
269,45,102290,1,0,3:2:0:0:
189,137,102603,6,0,P|132:119|73:108,1,120.064,6|2,3:2|3:2,2:0:0:0:
14,58,103540,1,2,3:2:0:0:
28,201,103853,5,8,3:2:0:0:
108,166,104165,5,0,3:2:0:0:
108,166,104321,1,8,3:2:0:0:
83,279,104634,5,0,3:2:0:0:
177,247,104790,1,0,3:2:0:0:
100,258,104946,1,0,3:2:0:0:
196,335,105103,6,0,P|207:277|225:220,1,120.064,6|2,3:2|3:2,2:0:0:0:
273,156,106040,1,2,3:2:0:0:
419,264,106353,6,0,P|408:206|390:149,1,120.064,8|0,3:2|3:2,2:0:0:0:
342,85,107290,1,0,3:2:0:0:
245,59,107603,6,0,B|189:57|192:94|123:96,2,120.064,6|2|2,3:2|3:2|3:2,2:0:0:0:
331,108,108853,5,8,3:2:0:0:
422,83,109321,5,0,3:2:0:0:
382,181,109478,1,8,3:2:0:0:
435,121,109634,1,0,3:2:0:0:
476,212,109790,2,0,L|470:243,3,20.0106666666667,0|2|8|4,3:2|1:3|1:3|1:3,2:0:0:0:
493,222,110103,6,0,P|480:301|481:353,2,120.064,6|2|2,3:2|3:2|3:2,2:0:0:0:
356,160,111353,5,8,3:2:0:0:
268,201,111821,1,8,1:2:0:0:
195,150,112290,1,0,3:2:0:0:
266,62,112603,6,0,P|281:140|281:196,1,120.064,6|2,3:2|3:2,2:0:0:0:
262,256,113540,1,2,3:2:0:0:
139,201,113853,5,8,3:2:0:0:
120,285,114165,5,8,1:3:0:0:
120,285,114321,1,8,1:2:0:0:
46,362,114634,5,0,3:2:0:0:
11,276,114790,1,0,3:2:0:0:
26,354,114946,1,0,3:2:0:0:
24,254,115103,6,0,P|32:189|50:127,1,120.064,6|2,3:2|3:2,2:0:0:0:
79,67,116040,1,2,3:2:0:0:
176,141,116353,5,8,3:2:0:0:
157,228,116821,1,8,1:2:0:0:
175,297,117290,1,0,3:2:0:0:
256,207,117603,6,0,P|291:189|330:177,1,80.128,6|0,3:2|2:0,2:0:0:0:
404,171,118071,1,2,3:2:0:0:
349,56,118228,2,0,P|386:68|422:87,1,80.128,4|2,3:2|3:2,2:0:0:0:
488,134,118853,5,8,3:2:0:0:
498,261,119009,1,0,3:2:0:0:
501,274,119321,1,0,3:2:0:0:
386,258,119478,5,8,3:2:0:0:
504,287,119634,1,0,3:2:0:0:
429,363,119790,5,10,3:2:0:0:
466,197,119946,1,2,3:2:0:0:
386,258,120103,5,4,3:2:0:0:
386,258,120259,2,0,P|381:198|365:140,1,120.191996337891,0|0,3:2|3:2,2:0:0:0:
326,69,120728,2,0,P|293:56|242:50,1,60.2879981689454,8|0,3:2|3:2,2:0:0:0:
181,96,121040,1,0,3:2:0:0:
261,87,121196,1,0,3:2:0:0:
108,35,121353,5,4,3:2:0:0:
108,35,121509,2,0,P|95:105|89:172,1,120.191996337891,0|0,3:2|3:2,2:0:0:0:
39,216,121978,2,0,P|44:258|47:286,1,60.2879981689454,10|0,3:2|3:2,2:0:0:0:
138,269,122290,1,2,3:2:0:0:
68,308,122446,1,2,3:2:0:0:
193,356,122603,5,4,3:2:0:0:
193,356,122759,2,0,B|244:339|264:383|334:377,1,120.191996337891,0|0,3:2|3:2,2:0:0:0:
367,327,123228,2,0,P|405:337|430:350,1,60.2879981689454,8|0,3:2|3:2,2:0:0:0:
494,323,123540,1,0,3:2:0:0:
438,237,123696,1,0,3:2:0:0:
493,174,123853,5,4,3:2:0:0:
493,174,124009,2,0,P|438:150|427:84,1,120.191996337891,0|0,3:2|3:2,2:0:0:0:
442,7,124478,1,10,3:2:0:0:
504,58,124634,1,2,3:2:0:0:
504,58,124712,1,0,3:2:0:0:
504,58,124790,1,0,3:2:0:0:
421,28,124946,1,2,3:2:0:0:
335,63,125103,5,4,3:2:0:0:
335,63,125259,2,0,B|279:38|279:38|216:50,1,120.191996337891,2|2,3:2|3:2,2:0:0:0:
161,99,125728,2,0,P|164:140|167:168,1,60.2879981689454,8|2,3:2|3:2,2:0:0:0:
84,160,126040,1,0,3:2:0:0:
9,97,126196,1,2,3:2:0:0:
59,24,126353,5,4,3:2:0:0:
59,24,126509,2,0,P|39:80|26:139,1,120.191996337891,0|0,3:2|3:2,2:0:0:0:
54,217,126978,2,0,P|62:261|61:282,1,60.2879981689454,10|2,3:2|3:2,2:0:0:0:
30,353,127290,1,2,3:2:0:0:
115,378,127446,1,2,3:2:0:0:
45,337,127603,5,4,3:2:0:0:
45,337,127759,2,0,P|56:278|78:222,1,120.191996337891,2|2,3:2|3:2,2:0:0:0:
148,189,128228,1,8,3:2:0:0:
148,189,128384,2,0,P|187:194|218:203,1,60.2879981689454,2|0,3:2|3:2,2:0:0:0:
280,227,128696,1,2,3:2:0:0:
261,135,128853,5,4,3:2:0:0:
338,104,129009,1,8,1:3:0:0:
338,104,129087,1,8,3:2:0:0:
338,104,129165,2,0,L|375:112,1,30.0159990844727,8|8,3:2|3:2,2:0:0:0:
242,38,129321,1,0,3:2:0:0:
242,38,129399,1,0,3:2:0:0:
242,38,129478,6,0,L|205:46,3,30.0159990844727,10|2|2|2,3:2|1:3|1:3|1:3,2:0:0:0:
315,4,129790,2,0,L|344:10,3,30.0159990844727,8|8|8|4,1:3|1:3|1:3|1:3,2:0:0:0:
420,34,130103,5,4,3:2:0:0:
420,34,130259,2,0,P|429:93|432:153,1,120.191996337891,0|0,3:2|3:2,2:0:0:0:
450,273,130728,2,0,P|421:260|390:251,1,60.2879981689454,8|0,3:2|3:2,2:0:0:0:
259,283,131040,1,0,3:2:0:0:
313,217,131196,1,0,3:2:0:0:
299,359,131353,5,4,3:2:0:0:
299,359,131509,2,0,P|240:364|182:379,1,120.191996337891,0|0,3:2|3:2,2:0:0:0:
103,369,131978,1,10,3:2:0:0:
159,300,132134,1,2,3:2:0:0:
159,300,132212,1,0,3:2:0:0:
159,300,132290,1,0,3:2:0:0:
108,225,132446,1,2,3:2:0:0:
32,315,132603,5,4,3:2:0:0:
32,315,132759,2,0,P|31:254|14:190,1,120.191996337891,0|0,3:2|3:2,2:0:0:0:
38,123,133228,1,10,3:2:0:0:
38,123,133384,2,0,P|46:84|58:45,1,60.2879981689454,2|0,3:2|3:2,2:0:0:0:
122,42,133696,6,0,L|126:74,3,20.0959993896485,0|0|0|10,3:2|3:2|3:2|3:2,2:0:0:0:
203,30,134009,1,0,3:2:0:0:
184,117,134165,6,0,P|223:121|251:127,1,60.2879981689454,0|2,3:0|3:0,2:0:0:0:
338,40,134478,2,0,P|299:44|271:50,1,60.2879981689454,8|4,3:0|3:0,2:0:0:0:
425,94,134790,2,0,L|419:128,3,30.0159990844727,8|2|8|4,3:2|1:3|1:3|1:3,2:0:0:0:
420,72,135103,5,8,3:2:0:0:
399,79,135415,1,8,2:0:0:0:
392,58,135728,1,8,2:0:0:0:
413,51,136040,1,8,2:0:0:0:
249,134,136353,5,8,2:0:0:0:
280,145,136665,1,8,2:0:0:0:
291,113,136978,1,8,2:0:0:0:
259,103,137290,1,8,2:0:0:0:
463,222,137603,5,8,2:0:0:0:
421,236,137915,1,8,2:0:0:0:
407,194,138228,1,8,2:0:0:0:
449,180,138540,1,8,2:0:0:0:
269,193,138853,6,0,L|257:92,1,90.0479972534181,8|8,2:0|2:0,2:0:0:0:
279,283,139321,5,8,2:0:0:0:
438,270,139478,6,0,L|450:169,1,90.0479972534181,8|8,2:0|2:0,2:0:0:0:
428,360,139946,5,8,2:0:0:0:
335,302,140103,6,0,P|307:290|278:282,1,60.2879981689454,10|0,2:0|2:0,2:0:0:0:
324,271,140415,2,0,P|294:267|264:266,1,60.2879981689454,8|0,2:0|2:0,2:0:0:0:
99,378,140728,6,0,P|117:354|138:332,1,60.2879981689454,10|0,2:0|2:0,2:0:0:0:
93,345,141040,2,0,P|116:326|142:311,1,60.2879981689454,8|0,2:0|2:0,2:0:0:0:
322,154,141353,6,0,P|292:150|262:149,1,60.2879981689454,10|0,2:0|2:0,2:0:0:0:
302,126,141665,2,0,P|272:129|243:137,1,60.2879981689454,8|0,2:0|2:0,2:0:0:0:
39,241,141978,6,0,P|62:222|88:207,1,60.2879981689454,10|0,2:0|2:0,2:0:0:0:
41,207,142290,2,0,P|68:195|97:187,1,60.2879981689454,8|0,2:0|2:0,2:0:0:0:
224,161,142603,5,10,2:0:0:0:
248,238,142759,1,0,2:0:0:0:
129,132,142915,5,10,2:0:0:0:
105,209,143071,1,0,2:0:0:0:
236,155,143228,5,10,2:0:0:0:
266,251,143384,1,0,2:0:0:0:
118,118,143540,5,10,2:0:0:0:
88,215,143696,1,0,2:0:0:0:
248,149,143853,5,6,2:0:0:0:
248,149,144478,6,0,P|243:186|243:218,1,60.0959981689454,2|0,2:2|2:0,2:0:0:0:
243,209,144946,6,0,P|326:227|349:309,1,180.287994506836,6|0,3:2|3:2,2:0:0:0:
235,381,145415,2,0,B|216:334|216:334|224:291,1,90.4319972534181,8|0,3:2|2:0,2:0:0:0:
433,257,145728,2,0,B|452:304|452:304|444:347,1,90.4319972534181,0|0,3:2|3:2,2:0:0:0:
307,167,146040,6,0,P|330:268|340:362,1,180.287994506836,10|0,3:2|3:2,2:0:0:0:
262,345,146509,1,0,3:2:0:0:
416,341,146665,6,0,P|412:296|403:245,1,90.4319972534181,8|2,3:2|2:0,2:0:0:0:
384,174,146978,1,2,3:2:0:0:
472,103,147134,1,2,3:2:0:0:
512,171,147290,1,8,3:2:0:0:
387,82,147446,6,0,B|305:72|296:132|196:126,1,180.287994506836,6|2,3:2|3:2,2:0:0:0:
142,103,147915,1,8,3:2:0:0:
201,50,148071,1,2,3:2:0:0:
201,50,148149,1,0,3:2:0:0:
201,50,148228,1,0,3:2:0:0:
120,14,148384,1,2,3:2:0:0:
55,78,148540,5,8,3:2:0:0:
122,36,148696,2,0,P|129:92|132:144,1,90.4319972534181,2|0,3:2|3:2,2:0:0:0:
89,214,149009,5,12,3:2:0:0:
247,276,149165,1,0,3:2:0:0:
138,290,149321,5,12,3:2:0:0:
213,261,149478,1,0,3:2:0:0:
171,184,149634,5,14,3:2:0:0:
215,367,149790,1,2,3:2:0:0:
247,276,149946,6,0,P|280:192|327:115,1,180.287994506836,6|2,3:2|3:2,2:0:0:0:
426,24,150415,6,0,B|440:71|440:71|433:112,1,90.4319972534181,10|2,3:2|3:2,2:0:0:0:
216,142,150728,2,0,B|202:95|202:95|209:54,1,90.4319972534181,14|2,3:2|2:0,2:0:0:0:
400,281,151040,6,0,P|383:230|375:185,1,90.4319972534181,2|2,3:2|3:2,2:0:0:0:
247,368,151353,2,0,P|264:317|272:272,1,90.4319972534181,14|2,3:2|2:0,2:0:0:0:
447,354,151665,6,0,P|413:278|385:157,1,180.287994506836,14|0,3:2|3:2,2:0:0:0:
401,106,152134,1,2,3:2:0:0:
287,167,152290,1,10,3:2:0:0:
378,91,152446,6,0,B|302:99|287:40|189:46,1,180.287994506836,6|2,3:2|3:2,2:0:0:0:
54,66,152915,6,0,P|79:103|106:138,1,90.4319972534181,14|2,3:2|3:2,2:0:0:0:
83,319,153228,2,0,P|102:278|119:236,1,90.4319972534181,14|2,3:2|3:2,2:0:0:0:
287,167,153540,2,0,P|242:170|197:176,1,90.4319972534181,2|0,2:0|3:2,2:0:0:0:
119,192,153853,1,14,3:2:0:0:
280,265,154009,5,8,1:3:0:0:
301,259,154087,1,8,1:2:0:0:
322,266,154165,1,8,3:2:0:0:
344,262,154243,1,8,3:2:0:0:
344,262,154321,6,0,L|356:212,3,45.023998626709,2|0|8|2,3:2|3:2|3:2|1:3,2:0:0:0:
408,310,154634,2,0,L|418:353,3,45.023998626709,2|2|8|4,1:3|1:3|1:3|1:3,2:0:0:0:
437,235,154946,6,0,B|353:221|346:279|248:270,1,180.287994506836,6|0,3:2|3:2,2:0:0:0:
100,127,155415,6,0,B|184:113|191:171|289:162,1,180.287994506836,14|0,3:2|3:2,2:0:0:0:
346,137,155884,1,0,3:2:0:0:
226,62,156040,6,0,B|185:147|185:147|205:230,1,180.287994506836,10|0,3:2|3:2,2:0:0:0:
244,301,156509,1,0,3:2:0:0:
133,275,156665,6,0,P|115:324|106:361,1,90.4319972534181,8|2,3:2|2:0,2:0:0:0:
39,322,156978,1,2,3:2:0:0:
182,370,157134,1,2,3:2:0:0:
153,333,157290,1,8,3:2:0:0:
274,302,157446,6,0,P|294:214|325:130,1,180.287994506836,6|2,3:2|3:2,2:0:0:0:
363,60,157915,1,8,3:2:0:0:
286,26,158071,1,2,3:2:0:0:
286,26,158149,1,0,3:2:0:0:
286,26,158228,1,0,3:2:0:0:
343,79,158384,1,2,3:2:0:0:
248,100,158540,6,0,P|238:156|237:196,1,90.4319972534181,8|2,3:2|3:2,2:0:0:0:
243,265,158853,1,0,3:2:0:0:
369,203,159009,5,12,3:2:0:0:
318,360,159165,1,0,3:2:0:0:
317,272,159321,5,12,3:2:0:0:
349,346,159478,1,0,3:2:0:0:
236,339,159634,5,14,3:2:0:0:
437,278,159790,1,2,3:2:0:0:
369,203,159946,6,0,P|380:117|459:83,1,180.287994506836,6|2,3:2|3:2,2:0:0:0:
422,282,160415,6,0,B|375:296|375:296|334:289,1,90.4319972534181,10|2,3:2|3:2,2:0:0:0:
319,92,160728,2,0,B|366:78|366:78|407:85,1,90.4319972534181,14|2,3:2|2:0,2:0:0:0:
268,232,161040,6,0,P|220:226|171:213,1,90.4319972534181,2|2,3:2|3:2,2:0:0:0:
87,36,161353,2,0,P|105:80|119:129,1,90.4319972534181,14|2,3:2|2:0,2:0:0:0:
8,291,161665,6,0,B|85:281|107:336|193:331,1,180.287994506836,14|0,3:2|3:2,2:0:0:0:
293,332,162134,1,2,3:2:0:0:
229,266,162290,1,10,3:2:0:0:
349,202,162446,6,0,B|272:192|250:247|164:242,1,180.287994506836,6|2,3:2|3:2,2:0:0:0:
23,154,162915,6,0,B|9:107|9:107|16:66,1,90.4319972534181,14|2,3:2|3:2,2:0:0:0:
184,59,163228,2,0,B|198:105|198:105|191:147,1,90.4319972534181,14|2,3:2|3:2,2:0:0:0:
108,110,163540,1,2,2:0:0:0:
106,227,163696,6,0,L|100:264,3,30.1439990844727,0|0|0|10,3:2|3:2|3:2|3:2,2:0:0:0:
185,239,164009,1,0,3:2:0:0:
145,332,164165,5,0,3:0:0:0:
260,291,164321,1,2,3:0:0:0:
225,372,164478,5,8,3:0:0:0:
159,247,164634,1,4,3:0:0:0:
287,202,164790,5,8,3:2:0:0:
295,181,164868,1,2,1:3:0:0:
293,158,164946,1,8,1:3:0:0:
301,137,165024,1,4,1:3:0:0:
301,137,165103,6,0,B|246:129|239:169|179:169,2,120.064,6|2|2,3:2|3:2|3:2,2:0:0:0:
384,198,166353,2,0,B|439:204|435:244|493:260,2,120.064,8|0|0,3:2|3:2|3:2,2:0:0:0:
393,109,167603,2,0,P|415:53|442:0,2,120.064,6|2|2,3:2|3:2|3:2,2:0:0:0:
399,212,168853,5,8,3:2:0:0:
443,289,169165,5,0,3:2:0:0:
443,289,169321,1,8,3:2:0:0:
291,354,169634,5,0,3:2:0:0:
354,292,169790,1,0,3:2:0:0:
284,332,169946,1,8,3:1:0:0:
213,293,170103,6,0,P|211:240|198:165,1,120.064,6|2,3:2|3:2,2:0:0:0:
130,137,171040,1,2,3:2:0:0:
299,293,171353,6,0,P|300:240|314:165,1,120.064,8|0,3:2|3:2,2:0:0:0:
382,137,172290,1,0,3:2:0:0:
325,45,172603,6,0,B|270:37|263:77|203:77,1,120.064,6|2,3:2|3:2,2:0:0:0:
125,34,173540,1,2,3:2:0:0:
52,119,173853,6,0,L|54:153,3,20.0106666666667,8|8|8|8,1:3|1:2|3:2|3:2,2:0:0:0:
127,136,174165,2,0,L|129:170,3,20.0106666666667,0|0|8|8,3:2|3:2|3:2|1:3,2:0:0:0:
105,250,174478,2,0,L|107:216,3,20.0106666666667,8|8|0|0,3:2|1:3|3:2|3:2,2:0:0:0:
180,233,174790,2,0,L|182:199,3,20.0106666666667,8|4|8|4,1:3|1:3|3:0|3:0,2:0:0:0:
92,174,175103,6,0,B|147:166|154:206|214:206,2,120.064,6|2|2,3:2|3:2|3:2,2:0:0:0:
330,273,176353,2,0,B|275:265|268:305|208:305,2,120.064,8|0|0,3:2|3:2|3:2,2:0:0:0:
419,93,177603,2,0,P|433:164|439:219,2,120.064,6|2|2,3:2|3:2|3:2,2:0:0:0:
471,25,178853,5,8,3:2:0:0:
395,4,179321,6,0,L|377:1,3,13.3973333333332,0|0|0|8,3:2|3:2|3:2|3:2,2:0:0:0:
333,62,179634,1,0,3:2:0:0:
431,85,179790,1,0,3:2:0:0:
355,151,179946,1,0,3:2:0:0:
304,83,180103,6,0,P|240:71|180:52,1,120.064,6|2,3:2|3:2,2:0:0:0:
117,16,181040,1,2,3:2:0:0:
217,161,181353,6,0,P|153:173|93:192,1,120.064,8|0,3:2|3:2,2:0:0:0:
30,228,182290,1,0,3:2:0:0:
211,288,182603,6,0,P|275:300|335:319,1,120.064,6|2,3:2|3:2,2:0:0:0:
398,355,183540,1,2,3:2:0:0:
398,145,183853,5,8,3:2:0:0:
401,66,184009,1,8,3:2:0:0:
411,160,184321,5,0,3:2:0:0:
341,199,184478,1,8,3:2:0:0:
353,279,184634,5,2,3:0:0:0:
423,318,184790,1,8,3:0:0:0:
438,242,184946,1,4,3:0:0:0:
278,355,185103,5,6,3:2:0:0:
256,192,195103,5,2,2:0:0:0:
256,192,195181,12,12,196978,3:3:0:0:
310,287,197603,5,6,3:2:0:0:
227,298,197915,1,0,3:2:0:0:
160,246,198228,1,8,3:2:0:0:
201,96,198540,5,6,3:2:0:0:
283,85,198853,1,0,3:2:0:0:
351,137,199165,1,0,3:2:0:0:
149,163,199478,5,14,3:2:0:0:
362,220,199790,1,0,3:2:0:0:
151,252,200103,5,6,3:2:0:0:
224,308,200415,1,0,3:2:0:0:
316,296,200728,1,8,3:2:0:0:
360,131,201040,5,6,3:2:0:0:
286,74,201353,1,0,3:2:0:0:
195,87,201665,1,0,3:2:0:0:
372,223,201978,5,14,3:2:0:0:
139,160,202290,1,0,3:2:0:0:
256,192,202603,5,6,3:2:0:0:
305,128,202915,1,0,3:2:0:0:
335,202,203228,1,8,3:2:0:0:
226,118,203540,5,6,3:2:0:0:
286,266,203853,1,0,3:2:0:0:
384,138,204165,1,0,3:2:0:0:
177,182,204478,5,14,3:2:0:0:
416,213,204790,1,0,3:2:0:0:
354,64,205103,5,6,3:2:0:0:
305,128,205415,1,0,3:2:0:0:
256,192,205728,1,8,3:2:0:0:
416,213,206040,5,6,3:2:0:0:
385,138,206353,1,0,3:2:0:0:
354,64,206587,1,8,1:2:0:0:
354,64,206665,1,8,3:2:0:0:
256,192,206821,5,8,1:3:0:0:
256,192,206899,1,8,1:2:0:0:
256,192,206978,2,0,L|219:184,3,30.0159990844727,14|2|8|4,3:2|1:3|1:3|1:3,2:0:0:0:
280,264,207290,2,0,L|317:256,3,30.0159990844727,8|2|8|4,3:0|1:3|1:3|1:3,2:0:0:0:
201,287,207603,5,6,3:2:0:0:
228,85,207915,1,0,3:2:0:0:
351,246,208228,1,8,3:2:0:0:
310,96,208540,5,6,3:2:0:0:
284,298,208853,1,0,3:2:0:0:
160,137,209165,1,0,3:2:0:0:
362,163,209478,5,14,3:2:0:0:
149,220,209790,1,0,3:2:0:0:
360,252,210103,5,6,3:2:0:0:
225,74,210415,1,0,3:2:0:0:
195,296,210728,1,8,3:2:0:0:
151,131,211040,5,6,3:2:0:0:
287,308,211353,1,0,3:2:0:0:
316,87,211665,1,0,3:2:0:0:
139,223,211978,5,14,3:2:0:0:
372,160,212290,1,0,3:2:0:0:
256,192,212603,5,6,3:2:0:0:
213,124,212915,1,0,3:2:0:0:
170,56,213228,1,8,3:2:0:0:
96,199,213540,5,6,3:2:0:0:
176,195,213853,1,0,3:2:0:0:
256,192,214165,1,0,3:2:0:0:
170,56,214478,5,14,3:2:0:0:
96,199,214790,1,0,3:2:0:0:
256,192,215103,5,6,3:2:0:0:
217,295,215259,1,0,3:2:0:0:
300,261,215415,6,0,B|309:297|309:297|304:320,1,60.2879981689454,8|0,3:2|3:2,2:0:0:0:
134,329,215728,2,0,B|125:293|125:293|129:269,1,60.2879981689454,14|0,3:2|3:2,2:0:0:0:
204,174,216040,5,0,3:2:0:0:
204,174,216196,1,0,3:2:0:0:
270,56,216353,6,0,L|266:120,1,60.2879981689454,14|0,3:2|3:2,2:0:0:0:
121,72,216665,2,0,L|125:136,1,60.2879981689454,12|0,3:2|3:2,2:0:0:0:
207,281,216978,5,12,3:2:0:0:
207,381,217134,1,0,3:2:0:0:
208,295,217290,1,12,3:2:0:0:
299,242,217446,6,0,B|387:231|396:292|498:281,1,180.287994506836,6|0,3:2|3:2,2:0:0:0:
503,64,217915,2,0,P|431:72|381:168,1,180.287994506836,8|0,3:2|3:2,2:0:0:0:
459,173,218384,1,0,3:2:0:0:
342,39,218540,6,0,P|255:52|158:70,1,180.287994506836,10|0,3:2|3:2,2:0:0:0:
93,94,219009,1,0,3:2:0:0:
220,150,219165,6,0,B|237:198|237:198|233:238,1,90.4319972534181,8|2,3:2|2:0,2:0:0:0:
158,324,219478,1,2,3:2:0:0:
105,243,219634,1,2,3:2:0:0:
138,206,219790,1,8,3:2:0:0:
27,335,219946,6,0,P|14:269|18:142,1,180.287994506836,6|2,3:2|3:2,2:0:0:0:
39,81,220415,1,8,3:2:0:0:
5,5,220571,1,2,3:2:0:0:
5,5,220649,1,0,3:2:0:0:
5,5,220728,1,0,3:2:0:0:
51,69,220884,1,2,3:2:0:0:
160,18,221040,6,0,P|140:71|130:112,1,90.4319972534181,8|2,3:2|3:2,2:0:0:0:
118,190,221353,1,0,3:2:0:0:
220,138,221509,5,12,3:2:0:0:
56,256,221665,1,0,3:2:0:0:
103,182,221821,5,12,3:2:0:0:
170,226,221978,1,0,3:2:0:0:
167,71,222134,5,14,3:2:0:0:
3,189,222290,1,2,3:2:0:0:
77,88,222446,6,0,B|159:84|167:147|244:144,1,180.287994506836,6|2,3:2|3:2,2:0:0:0:
406,248,222915,6,0,B|411:298|411:298|394:337,1,90.4319972534181,10|2,3:2|3:2,2:0:0:0:
227,312,223228,2,0,B|222:262|222:262|238:222,1,90.4319972534181,14|2,3:2|2:0,2:0:0:0:
423,81,223540,6,0,P|395:129|373:178,1,90.4319972534181,2|2,3:2|3:2,2:0:0:0:
262,23,223853,2,0,P|276:76|285:129,1,90.4319972534181,14|2,3:2|2:0,2:0:0:0:
315,282,224165,6,0,P|225:287|136:301,1,180.287994506836,14|0,3:2|3:2,2:0:0:0:
62,327,224634,1,2,3:2:0:0:
98,223,224790,1,10,3:2:0:0:
61,300,224946,6,0,P|47:207|18:114,1,180.287994506836,6|2,3:2|3:2,2:0:0:0:
191,71,225415,6,0,P|147:60|87:39,1,90.4319972534181,14|2,3:2|3:2,2:0:0:0:
261,158,225728,2,0,P|217:169|157:190,1,90.4319972534181,14|2,3:2|3:2,2:0:0:0:
20,279,226040,2,0,P|64:290|124:311,1,90.4319972534181,2|0,2:0|3:2,2:0:0:0:
199,372,226353,1,14,3:2:0:0:
300,288,226509,5,8,1:3:0:0:
321,282,226587,1,8,1:2:0:0:
342,287,226665,1,8,3:2:0:0:
364,283,226743,1,8,3:2:0:0:
364,283,226821,6,0,L|356:343,3,45.023998626709,2|0|8|2,3:2|3:2|3:2|1:3,2:0:0:0:
424,227,227134,2,0,L|418:182,3,45.023998626709,2|2|8|4,1:3|1:3|1:3|1:3,2:0:0:0:
445,316,227446,6,0,B|366:310|353:367|274:367,1,180.287994506836,6|0,3:2|3:2,2:0:0:0:
108,212,227915,6,0,B|186:206|199:263|278:263,1,180.287994506836,14|0,3:2|3:2,2:0:0:0:
447,220,228384,1,0,3:2:0:0:
322,0,228540,6,0,P|289:84|268:171,1,180.287994506836,10|0,3:2|3:2,2:0:0:0:
262,291,229009,1,0,3:2:0:0:
183,223,229165,6,0,P|127:207|83:205,1,90.4319972534181,8|2,3:2|2:0,2:0:0:0:
21,274,229478,1,2,3:2:0:0:
137,322,229634,1,2,3:2:0:0:
165,300,229790,1,8,3:2:0:0:
253,374,229946,6,0,B|335:386|341:330|426:339,1,180.287994506836,6|2,3:2|3:2,2:0:0:0:
500,367,230415,1,8,3:2:0:0:
468,270,230571,1,2,3:2:0:0:
468,270,230649,1,0,3:2:0:0:
468,270,230728,1,0,3:2:0:0:
478,348,230884,1,2,3:2:0:0:
372,305,231040,6,0,P|377:258|393:180,1,90.4319972534181,8|2,3:2|3:2,2:0:0:0:
402,140,231353,1,0,3:2:0:0:
298,114,231509,5,12,3:2:0:0:
480,223,231665,1,0,3:2:0:0:
350,194,231821,5,12,3:2:0:0:
423,159,231978,1,0,3:2:0:0:
328,282,232134,5,14,3:2:0:0:
193,152,232290,1,2,3:2:0:0:
253,254,232446,6,0,P|283:172|385:159,1,180.287994506836,6|2,3:2|3:2,2:0:0:0:
226,48,232915,6,0,P|212:90|202:134,1,90.4319972534181,10|2,3:2|3:2,2:0:0:0:
67,107,233228,2,0,P|80:149|90:193,1,90.4319972534181,14|2,3:2|2:0,2:0:0:0:
159,363,233540,5,2,3:2:0:0:
156,340,233618,1,0,3:2:0:0:
159,317,233696,1,2,3:2:0:0:
173,300,233774,1,0,3:2:0:0:
173,300,233853,2,0,P|198:263|237:241,1,90.4319972534181,14|2,3:2|2:0,2:0:0:0:
454,323,234165,5,14,3:2:0:0:
370,265,234321,1,0,3:2:0:0:
305,309,234478,1,0,3:2:0:0:
376,353,234634,5,10,3:2:0:0:
431,199,234790,1,10,3:2:0:0:
375,136,234946,6,0,B|289:127|265:187|185:181,1,180.287994506836,6|2,3:2|3:2,2:0:0:0:
18,127,235415,6,0,P|34:181|36:220,1,90.4319972534181,14|2,3:2|3:2,2:0:0:0:
166,77,235728,2,0,P|135:125|124:162,1,90.4319972534181,14|2,3:2|3:2,2:0:0:0:
76,55,236040,1,2,2:0:0:0:
256,27,236196,6,0,L|224:16,3,30.1439990844727,0|0|0|10,3:2|3:2|3:2|3:2,2:0:0:0:
339,59,236509,1,0,3:2:0:0:
260,131,236665,5,0,3:0:0:0:
360,92,236821,1,2,3:0:0:0:
263,50,236978,5,8,3:0:0:0:
383,180,237134,1,4,3:0:0:0:
247,234,237290,5,8,3:2:0:0:
224,232,237368,1,2,1:3:0:0:
203,239,237446,1,8,1:3:0:0:
180,239,237524,1,4,1:3:0:0:
180,239,237603,5,6,3:2:0:0:
372,205,242603,6,0,P|355:243|346:273,1,60.2879981689454,10|0,2:0|2:0,2:0:0:0:
402,204,242915,2,0,P|376:236|359:263,1,60.2879981689454,0|8,2:0|2:0,2:0:0:0:
244,277,243228,6,0,P|269:309|286:336,1,60.2879981689454,10|0,2:0|2:0,2:0:0:0:
214,283,243540,2,0,P|247:307|270:329,1,60.2879981689454,8|0,2:0|2:0,2:0:0:0:
114,203,243853,6,0,P|88:235|71:262,1,60.2879981689454,10|8,2:0|2:0,2:0:0:0:
144,209,244165,2,0,P|110:233|87:255,1,60.2879981689454,0|0,2:0|2:0,2:0:0:0:
261,155,244478,6,0,P|245:116|230:88,1,60.2879981689454,10|0,2:0|2:0,2:0:0:0:
240,177,244790,2,0,P|235:135|227:104,1,60.2879981689454,8|0,2:0|2:0,2:0:0:0:
387,72,245103,5,10,2:0:0:0:
327,31,245259,1,0,2:0:0:0:
263,14,245415,5,10,2:0:0:0:
203,16,245571,1,8,2:0:0:0:
150,32,245728,5,10,2:0:0:0:
110,57,245884,1,8,2:0:0:0:
78,86,246040,5,10,2:0:0:0:
54,120,246196,1,8,2:0:0:0:
41,153,246353,5,4,2:0:0:0:
