osu file format v14

[General]
AudioFilename: audio.mp3
AudioLeadIn: 0
PreviewTime: 144899
Countdown: 0
SampleSet: Soft
StackLeniency: 0.5
Mode: 0
LetterboxInBreaks: 0
WidescreenStoryboard: 0

[Editor]
DistanceSpacing: 1
BeatDivisor: 4
GridSize: 32
TimelineZoom: 2.3

[Metadata]
Title:If You Can't Hang
TitleUnicode:If You Can't Hang
Artist:Sleeping With Sirens
ArtistUnicode:Sleeping With Sirens
Creator:attendant
Version:Hard
Source:
Tags:cant kellin quinn lets let's cheers to this english male vocals alternative rock post hardcore pop punk
BeatmapID:2198667
BeatmapSetID:1000309

[Difficulty]
HPDrainRate:4
CircleSize:3.5
OverallDifficulty:6
ApproachRate:8.5
SliderMultiplier:2
SliderTickRate:1

[Events]
//Background and Video events
0,0,"bg.jpg",0,0
//Break Periods
2,30303,46928
2,65303,69428
2,135303,139428
2,185303,194428
2,237803,241928
//Storyboard Layer 0 (Background)
//Storyboard Layer 1 (Fail)
//Storyboard Layer 2 (Pass)
//Storyboard Layer 3 (Foreground)
//Storyboard Layer 4 (Overlay)
//Storyboard Sound Samples

[TimingPoints]
103,312.5,4,2,1,30,1,0
9165,-200,4,2,1,30,0,0
9556,-200,4,2,11,5,0,0
9946,-133.333333333333,4,2,1,70,0,0
30103,-133.333333333333,4,2,1,40,0,0
47603,-250,4,2,1,40,0,0
50103,-200,4,2,1,50,0,0
70103,-200,4,2,2,40,0,0
73853,-200,4,2,4,50,0,0
74946,-133.333333333333,4,2,1,70,0,1
95103,-250,4,2,1,50,0,0
120259,-200,4,2,1,50,0,0
140103,-200,4,2,2,40,0,0
143853,-200,4,2,4,50,0,0
144946,-133.333333333333,4,2,1,70,0,1
165103,-250,4,2,1,50,0,0
185103,-250,4,2,1,40,0,0
196978,-250,4,2,1,60,0,0
197603,-200,4,2,1,60,0,0
217446,-133.333333333333,4,2,1,70,0,1
237603,-133.333333333333,4,2,1,70,0,0
242603,-200,4,2,2,40,0,0
246353,-200,4,2,2,50,0,0

[Colours]
Combo1 : 227,213,111
Combo2 : 0,106,213
Combo3 : 243,239,150
Combo4 : 72,131,238

[HitObjects]
203,358,9165,5,2,2:0:0:0:
203,358,9478,2,0,L|192:253,1,100,2|0,2:0|2:0,2:0:0:0:
156,185,9946,6,0,P|226:159|300:151,1,150.000005722046,6|0,3:2|3:2,2:0:0:0:
380,171,10415,2,0,P|370:216|369:252,1,75.2400028610231,10|0,3:2|2:0,2:0:0:0:
424,315,10728,2,0,P|377:324|341:337,1,75.2400028610231,0|0,3:2|3:2,2:0:0:0:
266,349,11040,1,10,3:2:0:0:
105,311,11353,1,0,3:2:0:0:
105,311,11509,1,0,3:2:0:0:
34,353,11665,2,0,P|20:274|-6:195,1,150.000005722046,10|0,3:2|3:2,2:0:0:0:
19,129,12134,1,0,3:2:0:0:
19,129,12290,1,8,3:2:0:0:
55,54,12446,5,6,3:2:0:0:
202,21,12759,1,0,3:2:0:0:
202,21,12915,2,0,B|182:59|179:98,1,75.2400028610231,10|0,3:2|3:2,2:0:0:0:
189,107,13149,1,0,3:2:0:0:
199,122,13228,2,0,P|196:159|199:196,1,75.2400028610231,0|0,3:2|3:2,2:0:0:0:
147,270,13540,2,0,P|112:254|76:245,2,75.0000028610231,10|0|2,3:2|3:2|3:2,2:0:0:0:
230,298,14009,6,0,P|268:285|303:280,1,75.2400028610231,14|0,3:2|3:2,2:0:0:0:
396,170,14321,2,0,P|388:209|375:242,1,75.2400028610231,14|0,3:2|3:2,2:0:0:0:
423,377,14634,2,0,P|392:350|370:322,1,75.2400028610231,14|0,3:2|3:2,2:0:0:0:
301,194,14946,5,6,3:2:0:0:
338,33,15259,1,0,3:2:0:0:
338,33,15415,2,0,P|376:24|412:21,1,75.2400028610231,10|0,3:2|3:2,2:0:0:0:
492,36,15728,1,14,3:2:0:0:
346,114,16040,2,0,P|308:110|272:102,1,75.2400028610231,0|0,3:2|3:2,2:0:0:0:
204,54,16353,1,14,3:2:0:0:
53,119,16665,1,14,3:2:0:0:
214,151,16978,2,0,P|191:190|180:223,1,75.2400028610231,0|0,3:2|3:2,2:0:0:0:
178,300,17290,1,8,3:2:0:0:
178,300,17446,6,0,B|253:303|243:343|324:347,1,150.000005722046,6|0,3:2|3:2,2:0:0:0:
383,295,17915,2,0,B|370:260|370:260|375:220,1,75.2400028610231,14|0,3:2|3:2,2:0:0:0:
394,142,18228,1,14,3:2:0:0:
394,142,18384,1,0,3:2:0:0:
248,43,18696,1,0,3:2:0:0:
248,43,18853,2,0,L|168:19,1,75.2400028610231,14|8,3:2|1:3,2:0:0:0:
164,36,19087,1,8,1:2:0:0:
152,50,19165,2,0,L|105:60,3,37.6200014305115,8|8|0|0,3:2|3:2|3:2|3:2,2:0:0:0:
86,89,19478,2,0,L|101:165,2,75.0000028610231,8|2|8,3:2|1:3|1:3,2:0:0:0:
30,20,19946,5,6,3:2:0:0:
31,192,20259,1,0,3:2:0:0:
31,192,20415,2,0,P|49:224|64:258,1,75.2400028610231,10|0,3:2|2:0,2:0:0:0:
65,341,20728,2,0,P|101:333|138:329,1,75.2400028610231,0|0,3:2|3:2,2:0:0:0:
217,354,21040,2,0,P|220:316|229:280,1,75.2400028610231,10|0,3:2|2:0,2:0:0:0:
276,213,21353,2,0,P|241:197|209:178,1,75.2400028610231,0|0,3:2|3:2,2:0:0:0:
160,113,21665,1,10,3:2:0:0:
300,25,21978,2,0,P|336:17|374:15,1,75.2400028610231,0|0,3:2|3:2,2:0:0:0:
455,29,22290,1,8,3:2:0:0:
455,29,22446,6,0,P|437:101|428:176,1,150.000005722046,6|0,3:2|3:2,2:0:0:0:
403,248,22915,2,0,B|326:210,1,75.2400028610231,10|0,3:2|3:2,2:0:0:0:
327,231,23149,1,0,3:2:0:0:
318,247,23228,2,0,P|274:260|240:275,1,75.2400028610231,0|0,3:2|3:2,2:0:0:0:
174,315,23540,2,0,P|134:302|83:296,2,75.0000028610231,10|0|2,3:2|3:2|3:2,2:0:0:0:
255,339,24009,6,0,P|278:303|305:273,1,75.2400028610231,14|0,3:2|3:2,2:0:0:0:
284,129,24321,2,0,P|303:166|316:205,1,75.2400028610231,14|0,3:2|3:2,2:0:0:0:
451,259,24634,2,0,P|408:257|368:248,1,75.2400028610231,14|0,3:2|3:2,2:0:0:0:
225,223,24946,5,6,3:2:0:0:
72,160,25259,1,0,3:2:0:0:
72,160,25415,2,0,P|77:120|89:76,1,75.2400028610231,10|0,3:2|3:2,2:0:0:0:
118,10,25728,1,14,3:2:0:0:
251,105,26040,2,0,P|283:88|319:76,1,75.2400028610231,0|0,3:2|3:2,2:0:0:0:
401,67,26353,1,14,3:2:0:0:
473,214,26665,1,14,3:2:0:0:
416,369,26978,2,0,P|381:355|343:351,1,75.2400028610231,0|0,3:2|3:2,2:0:0:0:
261,358,27290,1,8,3:2:0:0:
261,358,27446,6,0,B|201:346|178:390|97:381,1,150.000005722046,6|0,3:2|3:2,2:0:0:0:
43,339,27915,2,0,B|27:303|27:303|31:267,1,75.2400028610231,14|0,3:2|3:2,2:0:0:0:
71,194,28228,1,14,3:2:0:0:
71,194,28384,2,0,B|75:158|75:158|59:122,1,75.2400028610231,0|0,3:2|2:0,2:0:0:0:
68,40,28696,6,0,L|43:43,3,25.0400009536744,0|0|0|8,3:2|3:2|3:2|3:2,2:0:0:0:
150,82,29009,1,0,3:2:0:0:
150,82,29165,2,0,P|191:100|239:111,1,75.2400028610231,2|2,3:0|3:0,2:0:0:0:
296,76,29478,1,8,3:0:0:0:
296,76,29634,1,4,3:0:0:0:
368,115,29790,2,0,L|373:198,1,75.0000028610231,8|0,3:2|3:2,0:2:0:0:
377,272,30103,5,4,3:2:0:0:
295,328,47603,6,0,P|334:334|371:348,1,80,4|2,3:2|1:2,2:0:0:0:
337,223,48228,2,0,P|297:229|260:243,1,80,4|2,3:2|1:2,2:0:0:0:
189,187,48853,2,0,P|214:156|245:130,1,80,4|2,3:2|1:2,2:0:0:0:
119,97,49478,5,4,3:2:0:0:
119,97,50103,6,0,P|99:170|90:244,1,150.16,6|0,3:2|3:2,2:0:0:0:
92,324,50728,1,8,3:2:0:0:
92,324,50884,2,0,P|116:318|141:315,1,50.16,0|0,3:2|2:0,2:0:0:0:
218,336,51196,1,0,3:2:0:0:
218,336,51353,2,0,B|289:347|296:292|376:303,1,150.16,4|0,3:2|3:2,2:0:0:0:
435,332,51978,1,10,3:2:0:0:
435,332,52134,2,0,P|440:305|453:270,1,50.16,0|2,3:2|2:0,2:0:0:0:
493,218,52446,1,0,3:2:0:0:
493,218,52603,6,0,P|485:130|467:55,1,150.16,4|0,3:2|3:2,2:0:0:0:
405,24,53228,1,8,3:2:0:0:
405,24,53384,2,0,P|375:26|351:32,1,50.16,0|0,3:2|2:0,2:0:0:0:
281,59,53696,1,0,3:2:0:0:
281,59,53853,2,0,P|209:71|177:136,1,150.16,4|2,3:2|3:2,2:0:0:0:
178,216,54478,1,10,3:2:0:0:
178,216,54634,2,0,P|172:250|169:277,1,50.16,2|0,3:2|2:0,2:0:0:0:
143,344,54946,1,2,3:2:0:0:
149,354,55024,1,0,3:2:0:0:
156,366,55103,6,0,P|82:342|7:333,1,150.16,4|2,3:2|3:2,2:0:0:0:
23,243,55728,1,8,3:2:0:0:
23,243,55884,2,0,P|31:192|47:135,1,100,2|2,3:2|3:2,2:0:0:0:
72,57,56353,2,0,B|143:23|143:23|212:38,1,150.16,4|2,3:2|3:2,2:0:0:0:
300,72,56978,1,8,3:2:0:0:
300,72,57134,2,0,P|346:53|395:44,1,100,2|2,3:2|3:2,2:0:0:0:
464,85,57603,6,0,P|450:154|441:248,1,150.16,4|2,3:2|3:2,2:0:0:0:
436,313,58228,1,10,3:2:0:0:
436,313,58384,2,0,P|383:332|345:365,1,100,2|2,3:2|3:2,2:0:0:0:
271,339,58853,1,4,3:2:0:0:
202,380,59009,1,8,1:3:0:0:
196,368,59087,1,8,3:2:0:0:
192,356,59165,2,0,L|196:317,3,25.08,8|8|8|8,3:2|3:2|1:2|1:2,2:0:0:0:
164,303,59478,2,0,L|160:264,3,25.08,10|8|2|2,3:2|3:2|1:3|1:3,2:0:0:0:
166,239,59790,2,0,P|174:211|191:177,1,50.16,2|8,1:3|1:3,2:0:0:0:
265,162,60103,1,6,3:2:0:0:
265,162,60259,6,0,P|266:90|242:51,1,100,0|0,3:2|3:2,2:0:0:0:
188,19,60728,2,0,P|164:23|141:32,1,50.16,8|0,3:2|3:2,2:0:0:0:
136,116,61040,2,0,P|112:107|88:102,1,50.16,0|0,3:2|3:2,2:0:0:0:
17,137,61353,1,4,3:2:0:0:
17,137,61509,2,0,P|33:195|42:247,1,100,0|0,3:2|3:2,2:0:0:0:
39,314,61978,1,10,3:2:0:0:
111,281,62134,1,2,3:2:0:0:
116,292,62212,1,0,3:2:0:0:
122,302,62290,2,0,P|145:294|170:290,1,50.16,0|2,3:2|3:2,2:0:0:0:
253,282,62603,5,4,3:2:0:0:
253,282,62759,2,0,P|306:291|360:309,1,100,0|0,3:2|3:2,2:0:0:0:
413,364,63228,1,10,3:2:0:0:
413,364,63384,2,8,P|422:336|438:307,1,50,2|0,3:2|0:0,0:0:0:0:
497,243,63696,6,0,L|494:259,3,16.6933333333334,2|0|0|8,3:2|3:2|3:2|3:2,2:0:0:0:
459,170,64009,1,0,3:2:0:0:
459,170,64165,2,0,P|434:165|409:165,1,50.16,2|8,3:2|1:3,2:0:0:0:
331,182,64478,1,0,3:2:0:0:
331,182,64634,1,0,3:2:0:0:
258,149,64790,2,0,L|254:179,3,25.08,8|2|8|4,3:2|1:3|1:3|1:3,2:0:0:0:
247,133,65103,5,8,3:2:0:0:
331,58,70103,6,0,L|324:121,3,50.0533333333333,10|0|8|0,2:0|2:0|2:0|2:0,2:0:0:0:
369,175,70728,2,0,L|362:238,3,50.0533333333333,10|0|8|0,2:0|2:0|2:0|2:0,2:0:0:0:
302,291,71353,2,0,P|278:282|249:275,3,50.0533333333333,10|0|8|0,2:0|2:0|2:0|2:0,2:0:0:0:
195,207,71978,2,0,P|219:198|248:191,3,50.0533333333333,10|0|8|0,2:0|2:0|2:0|2:0,2:0:0:0:
256,192,72603,12,6,73853,2:0:0:0:
79,110,74946,6,0,B|148:95|154:139|225:134,1,150.000005722046,6|0,3:2|3:2,2:0:0:0:
301,104,75415,2,0,P|367:134|386:204,1,150.000005722046,8|0,3:2|3:2,2:0:0:0:
372,286,75884,1,0,3:2:0:0:
372,286,76040,2,0,P|283:301|201:330,1,150.000005722046,10|0,3:2|3:2,2:0:0:0:
151,354,76509,1,0,3:2:0:0:
151,354,76665,2,0,P|84:323|65:253,1,150.000005722046,8|2,3:2|3:2,2:0:0:0:
83,172,77134,1,2,3:2:0:0:
83,172,77290,1,8,3:2:0:0:
96,90,77446,6,0,B|166:81|168:125|239:127,1,150.000005722046,6|2,3:2|3:2,2:0:0:0:
313,92,77915,1,8,3:2:0:0:
387,56,78071,1,2,3:2:0:0:
391,70,78149,1,0,3:2:0:0:
394,84,78228,1,0,3:2:0:0:
486,17,78384,2,0,L|473:109,1,75.0000028610231,2|8,3:2|3:2,2:2:0:0:
512,167,78696,2,0,P|468:175|433:193,1,75.0000028610231,2|0,3:2|3:2,2:2:0:0:
363,215,79009,6,0,P|354:261|350:302,1,75.2400028610231,12|0,3:2|3:2,2:0:0:0:
236,254,79321,2,0,P|245:300|249:341,1,75.2400028610231,12|0,3:2|3:2,2:0:0:0:
129,213,79634,2,0,P|120:259|116:300,1,75.2400028610231,14|2,3:2|3:2,2:0:0:0:
112,369,79946,6,0,P|96:298|31:266,1,150.000005722046,6|2,3:2|3:2,2:0:0:0:
40,184,80415,2,0,L|117:170,1,75.2400028610231,10|2,3:2|3:2,2:0:0:0:
177,117,80728,2,0,L|250:130,1,75.2400028610231,14|2,3:2|2:0,2:0:0:0:
322,90,81040,2,0,P|336:134|341:165,1,75.2400028610231,2|2,3:2|3:2,2:0:0:0:
287,225,81353,2,0,P|273:269|268:300,1,75.2400028610231,14|2,3:2|2:0,2:0:0:0:
285,377,81665,1,14,3:2:0:0:
444,333,81978,2,0,P|441:296|431:257,1,75.2400028610231,0|2,3:2|3:2,2:0:0:0:
396,185,82290,1,10,3:2:0:0:
396,185,82446,6,0,P|408:104|426:25,1,150.000005722046,6|2,3:2|3:2,2:0:0:0:
500,64,82915,2,0,P|504:102|505:139,1,75.2400028610231,14|2,3:2|3:2,2:0:0:0:
478,217,83228,2,0,P|473:254|472:291,1,75.2400028610231,14|2,3:2|3:2,2:0:0:0:
484,373,83540,1,2,2:0:0:0:
484,373,83696,1,0,3:2:0:0:
403,351,83853,1,14,3:2:0:0:
324,376,84009,5,8,1:3:0:0:
318,361,84087,1,8,1:2:0:0:
315,346,84165,2,0,L|318:305,3,37.6200014305115,8|8|2|0,3:2|3:2|3:2|3:2,2:0:0:0:
294,273,84478,2,0,L|291:232,3,37.6200014305115,8|0|0|0,3:2|1:3|1:3|1:3,2:0:0:0:
331,238,84790,1,8,1:3:0:0:
331,238,84946,2,0,P|316:166|253:131,1,150.000005722046,6|0,3:2|3:2,2:0:0:0:
177,81,85415,6,0,B|110:78|110:125|30:124,1,150.000005722046,14|0,3:2|3:2,2:0:0:0:
48,205,85884,1,0,3:2:0:0:
48,205,86040,2,0,P|110:235|133:327,1,150.000005722046,10|0,3:2|3:2,2:0:0:0:
219,308,86509,1,0,3:2:0:0:
219,308,86665,2,0,B|296:296|296:296|366:328,1,150.000005722046,8|2,3:2|3:2,2:0:0:0:
435,364,87134,1,2,3:2:0:0:
435,364,87290,1,8,3:2:0:0:
475,292,87446,6,0,P|482:214|502:130,1,150.000005722046,6|2,3:2|3:2,2:0:0:0:
434,90,87915,1,8,3:2:0:0:
358,56,88071,1,2,3:2:0:0:
353,70,88149,1,0,3:2:0:0:
348,84,88228,1,0,3:2:0:0:
255,59,88384,2,0,P|267:103|274:146,1,75.0000028610231,2|8,3:2|3:2,0:0:0:0:
274,217,88696,1,2,3:2:0:0:
274,217,88853,1,0,3:2:0:0:
362,226,89009,6,0,P|352:275|348:301,1,75.2400028610231,12|0,3:2|3:2,2:0:0:0:
244,262,89321,2,0,P|254:311|258:337,1,75.2400028610231,12|0,3:2|3:2,2:0:0:0:
143,229,89634,2,0,P|133:278|129:304,1,75.2400028610231,14|2,3:2|3:2,2:0:0:0:
62,351,89946,6,0,P|42:283|3:190,1,150.000005722046,6|2,3:2|3:2,2:0:0:0:
56,139,90415,2,0,B|92:124|92:124|127:130,1,75.2400028610231,10|2,3:2|3:2,2:0:0:0:
199,171,90728,2,0,B|234:177|234:177|270:162,1,75.2400028610231,14|2,3:2|2:0,2:0:0:0:
331,107,91040,2,0,P|340:65|353:27,1,75.2400028610231,2|2,3:2|3:2,2:0:0:0:
429,12,91353,2,0,P|442:62|444:90,1,75.2400028610231,14|2,3:2|2:0,2:0:0:0:
424,165,91665,2,0,P|362:187|341:267,1,150.000005722046,14|0,3:2|3:2,2:0:0:0:
365,343,92134,1,2,3:2:0:0:
365,343,92290,1,10,3:2:0:0:
285,322,92446,6,0,P|211:307|136:303,1,150.000005722046,6|2,3:2|3:2,2:0:0:0:
54,316,92915,2,0,P|47:278|42:223,1,75.2400028610231,14|2,3:2|3:2,2:0:0:0:
79,167,93228,2,0,P|86:129|91:74,1,75.2400028610231,14|2,3:2|3:2,2:0:0:0:
48,21,93540,1,2,2:0:0:0:
5,113,93696,6,0,L|0:81,3,25.0400009536744,0|0|0|10,3:2|3:2|3:2|3:2,2:0:0:0:
22,207,94009,1,0,3:2:0:0:
22,207,94165,2,0,P|13:258|11:296,1,75.2400028610231,0|2,3:0|3:0,2:0:0:0:
87,324,94478,1,8,3:0:0:0:
87,324,94634,1,4,3:0:0:0:
156,346,94790,2,0,L|196:357,3,37.6200014305115,8|2|8|4,3:2|1:3|1:3|1:3,2:0:0:0:
231,341,95103,6,0,P|296:348|351:366,2,120,6|0|0,3:2|3:2|3:2,2:0:0:0:
180,259,96353,2,0,P|141:311|98:350,2,120,10|0|0,3:2|3:2|3:2,2:0:0:0:
276,255,97603,6,0,P|249:195|237:138,2,120,6|0|0,3:2|3:2|3:2,2:0:0:0:
231,341,98853,1,10,3:2:0:0:
180,259,99165,2,0,L|145:268,2,26.7520000000001,2|8|8,1:3|1:3|1:2,2:0:0:0:
204,237,99478,1,8,3:2:0:0:
204,237,100103,6,0,P|146:223|86:218,2,120,6|2|2,3:2|3:2|3:2,2:0:0:0:
257,156,101353,2,0,P|296:159|336:166,1,80,8|0,3:2|2:2,2:0:0:0:
383,176,101821,2,0,L|379:261,1,80,8|0,3:2|0:0,0:0:0:0:
375,303,102290,1,0,3:2:0:0:
297,254,102603,6,0,P|316:334|321:385,2,120,6|2|2,3:2|3:2|3:2,2:0:0:0:
201,247,103853,2,0,P|163:227|113:212,1,80,8|0,3:2|3:2,2:0:0:0:
80,210,104321,1,8,3:2:0:0:
34,294,104634,2,0,P|38:313|40:333,2,40,0|0|0,3:2|3:2|3:2,2:0:0:0:
8,252,105103,6,0,P|11:188|24:122,2,120,6|2|2,3:2|3:2|3:2,2:0:0:0:
75,320,106353,2,0,P|131:348|195:371,2,120,8|0|0,3:2|3:2|3:2,2:0:0:0:
101,227,107603,6,0,P|121:166|150:105,2,120,6|2|2,3:2|3:2|3:2,2:0:0:0:
188,266,108853,2,0,P|244:245|309:230,1,120.128,8|0,3:2|3:2,2:0:0:0:
350,227,109478,1,8,3:2:0:0:
350,227,109634,1,0,3:2:0:0:
424,263,109790,2,0,L|429:239,3,20.064,0|2|8|4,3:2|1:3|1:3|1:3,2:0:0:0:
436,286,110103,6,0,P|451:216|473:154,2,120,6|2|2,3:2|3:2|3:2,2:0:0:0:
358,342,111353,2,0,P|350:309|333:257,1,80,8|0,3:2|0:0,0:0:0:0:
294,240,111821,2,0,P|251:250|203:275,1,80,8|0,3:2|0:0,0:0:0:0:
188,302,112290,1,0,3:2:0:0:
263,362,112603,6,0,P|205:343|147:331,2,120,6|2|2,3:2|3:2|3:2,2:0:0:0:
357,380,113853,2,0,P|359:340|367:300,1,80,8|8,3:2|1:3,2:0:0:0:
382,255,114321,1,8,1:2:0:0:
357,162,114634,2,0,P|332:169|309:179,2,40,0|0|0,3:2|3:2|3:2,2:0:0:0:
404,153,115103,6,0,P|415:91|430:30,2,120,6|2|2,3:2|3:2|3:2,2:0:0:0:
355,235,116353,2,0,P|374:269|387:307,1,80,8|0,3:2|0:0,0:0:0:0:
372,353,116821,2,0,P|333:360|287:379,1,80,8|0,3:2|0:0,0:0:0:0:
249,358,117290,1,0,3:2:0:0:
270,263,117603,6,0,P|232:248|151:239,1,120.128,6|2,3:2|3:2,2:0:0:0:
106,249,118228,2,0,P|96:190|75:165,1,80,4|2,3:2|3:2,2:0:0:0:
12,111,118853,1,8,3:2:0:0:
12,111,119009,1,0,3:2:0:0:
94,61,119321,1,0,3:2:0:0:
94,61,119478,2,0,P|119:56|146:54,1,40.128,10|0,3:2|3:2,2:0:0:0:
177,72,119790,2,0,P|202:77|229:79,1,40.128,10|2,3:2|3:2,2:0:0:0:
260,58,120103,5,4,3:2:0:0:
260,58,120259,2,0,P|308:46|367:50,1,100,0|0,3:2|3:2,2:0:0:0:
428,87,120728,2,0,P|417:128|415:147,1,50.16,8|0,3:2|3:2,2:0:0:0:
461,201,121040,2,0,P|472:242|474:261,1,50.16,0|0,3:2|3:2,2:0:0:0:
436,320,121353,1,4,3:2:0:0:
436,320,121509,2,0,B|385:318|387:343|334:347,1,100,0|0,3:2|3:2,2:0:0:0:
271,306,121978,2,0,L|214:299,1,50.16,10|0,3:2|3:2,2:0:0:0:
153,342,122290,2,0,L|96:349,1,50.16,2|2,3:2|3:2,2:0:0:0:
31,312,122603,5,4,3:2:0:0:
31,312,122759,1,0,3:2:0:0:
65,156,123071,1,0,3:2:0:0:
65,156,123228,2,0,P|62:130|55:101,1,50.16,8|0,3:2|3:2,2:0:0:0:
112,49,123540,2,0,P|137:32|159:26,1,50.16,0|0,3:2|3:2,2:0:0:0:
228,61,123853,1,4,3:2:0:0:
228,61,124009,1,0,3:2:0:0:
201,232,124321,1,0,3:2:0:0:
201,232,124478,2,0,P|212:208|228:184,1,50.16,10|2,3:2|3:2,2:0:0:0:
230,180,124712,1,0,3:2:0:0:
238,175,124790,2,0,P|262:174|287:176,1,50.16,0|2,3:2|3:2,2:0:0:0:
342,233,125103,5,4,3:2:0:0:
342,233,125259,2,0,P|322:294|313:342,1,100,2|2,3:2|3:2,2:0:0:0:
236,347,125728,1,8,3:2:0:0:
236,347,125884,1,2,3:2:0:0:
157,325,126040,2,0,P|124:334|99:348,1,50.16,0|2,3:2|3:2,2:0:0:0:
37,376,126353,1,4,3:2:0:0:
37,376,126509,2,0,P|26:325|9:270,1,100,0|0,3:2|3:2,2:0:0:0:
28,200,126978,1,10,3:2:0:0:
28,200,127134,1,2,3:2:0:0:
93,153,127290,2,0,P|119:158|150:171,1,50.16,2|2,3:2|3:2,2:0:0:0:
203,217,127603,1,4,3:2:0:0:
203,217,127759,6,0,B|247:210|256:245|301:250,1,100,2|2,3:2|3:2,2:0:0:0:
373,230,128228,1,8,3:2:0:0:
373,230,128384,1,2,3:2:0:0:
458,95,128696,1,2,3:2:0:0:
458,95,128853,2,0,L|392:65,1,50.16,4|8,3:2|1:3,2:0:0:0:
405,66,129087,1,8,3:2:0:0:
397,59,129165,2,0,L|368:63,3,25.08,8|8|0|0,3:2|3:2|3:2|3:2,2:0:0:0:
339,39,129478,2,0,L|310:35,3,25.08,10|2|2|2,3:2|1:3|1:3|1:3,2:0:0:0:
280,9,129790,2,0,L|222:22,1,50.16,8|8,1:3|1:3,2:0:0:0:
154,24,130103,5,4,3:2:0:0:
154,24,130259,2,0,P|169:78|174:124,1,100,0|0,3:2|3:2,2:0:0:0:
158,206,130728,2,0,P|193:198|228:197,1,50.16,8|0,3:2|3:2,2:0:0:0:
284,230,131040,1,0,3:2:0:0:
284,230,131196,1,0,3:2:0:0:
356,184,131353,5,4,3:2:0:0:
356,184,131509,2,0,P|414:196|455:208,1,100,0|0,3:2|3:2,2:0:0:0:
478,125,131978,1,10,3:2:0:0:
451,44,132134,1,2,3:2:0:0:
448,34,132212,1,0,3:2:0:0:
446,24,132290,2,0,P|415:16|386:12,1,50.16,0|2,3:2|3:2,2:0:0:0:
317,39,132603,5,4,3:2:0:0:
317,39,132759,2,0,P|260:52|212:71,1,100,0|0,3:2|3:2,2:0:0:0:
140,37,133228,1,10,3:2:0:0:
140,37,133384,2,0,L|127:95,1,50,2|0,3:2|0:0,0:0:0:0:
109,181,133696,6,0,L|86:171,3,16.6933333333334,0|0|0|10,3:2|3:2|3:2|3:2,2:0:0:0:
191,223,134009,1,0,3:2:0:0:
191,223,134165,2,0,P|220:222|249:215,1,50.16,0|2,3:0|3:0,2:0:0:0:
315,177,134478,1,8,3:0:0:0:
315,177,134634,1,4,3:0:0:0:
387,221,134790,2,0,L|382:249,3,25.08,8|2|8|4,3:2|1:3|1:3|1:3,2:0:0:0:
403,208,135103,5,8,3:2:0:0:
437,74,140103,6,0,L|373:56,3,50.0533333333333,10|0|8|0,2:0|2:0|2:0|2:0,2:0:0:0:
367,143,140728,2,0,L|303:125,3,50.0533333333333,10|0|8|0,2:0|2:0|2:0|2:0,2:0:0:0:
284,208,141353,2,0,P|260:212|237:221,3,50.0533333333333,10|0|8|0,2:0|2:0|2:0|2:0,2:0:0:0:
219,305,141978,2,0,P|196:315|176:330,3,50.0533333333333,10|0|8|0,2:0|2:0|2:0|2:0,2:0:0:0:
256,192,142603,12,6,143853,2:0:0:0:
118,203,144946,6,0,B|199:202|189:247|283:249,1,150.000005722046,6|0,3:2|3:2,2:0:0:0:
329,202,145415,2,0,P|393:216|422:292,1,150.000005722046,8|0,3:2|3:2,2:0:0:0:
416,371,145884,1,0,3:2:0:0:
416,371,146040,2,0,P|345:363|259:363,1,150.000005722046,10|0,3:2|3:2,2:0:0:0:
184,376,146509,1,0,3:2:0:0:
184,376,146665,2,0,P|120:362|91:286,1,150.000005722046,8|2,3:2|3:2,2:0:0:0:
106,207,147134,1,2,3:2:0:0:
106,207,147290,1,8,3:2:0:0:
132,129,147446,6,0,P|206:108|279:104,1,150.000005722046,6|2,3:2|3:2,2:0:0:0:
359,125,147915,1,8,3:2:0:0:
448,113,148071,1,2,3:2:0:0:
450,98,148149,1,0,3:2:0:0:
454,83,148228,1,0,3:2:0:0:
474,191,148384,2,0,L|460:284,1,75.0000028610231,2|8,3:2|3:2,0:0:0:0:
439,344,148696,1,2,3:2:0:0:
439,344,148853,1,0,3:2:0:0:
361,364,149009,6,0,P|324:366|287:373,1,75.2400028610231,12|0,3:2|3:2,2:0:0:0:
180,286,149321,2,0,P|217:288|254:295,1,75.2400028610231,12|0,3:2|3:2,2:0:0:0:
362,208,149634,2,0,P|324:210|287:217,1,75.2400028610231,14|2,3:2|3:2,2:0:0:0:
222,166,149946,6,0,P|213:94|151:55,1,150.000005722046,6|2,3:2|3:2,2:0:0:0:
69,44,150415,2,0,P|58:94|54:127,1,75.2400028610231,10|2,3:2|3:2,2:0:0:0:
104,183,150728,2,0,P|114:233|119:266,1,75.2400028610231,14|2,3:2|2:0,2:0:0:0:
159,327,151040,2,0,P|187:303|223:291,1,75.2400028610231,2|2,3:2|3:2,2:0:0:0:
253,214,151353,2,0,P|217:202|188:178,1,75.2400028610231,14|2,3:2|2:0,2:0:0:0:
157,102,151665,1,14,3:2:0:0:
305,28,151978,2,0,P|328:72|338:103,1,75.2400028610231,0|2,3:2|3:2,2:0:0:0:
356,175,152290,1,10,3:2:0:0:
356,175,152446,6,0,P|418:212|431:283,1,150.000005722046,6|2,3:2|3:2,2:0:0:0:
366,335,152915,2,0,P|324:336|284:345,1,75.2400028610231,14|2,3:2|3:2,2:0:0:0:
210,360,153228,2,0,P|168:359|128:350,1,75.2400028610231,14|2,3:2|3:2,2:0:0:0:
59,321,153540,1,2,2:0:0:0:
59,321,153696,1,0,3:2:0:0:
25,245,153853,1,14,3:2:0:0:
52,167,154009,5,8,1:3:0:0:
59,154,154087,1,8,1:2:0:0:
68,142,154165,2,0,L|109:134,3,37.6200014305115,8|8|2|0,3:2|3:2|3:2|3:2,2:0:0:0:
141,115,154478,2,0,L|182:123,3,37.6200014305115,8|0|0|0,3:2|1:3|1:3|1:3,2:0:0:0:
217,109,154790,1,8,1:3:0:0:
217,109,154946,2,0,B|279:103|294:156|369:157,1,150.000005722046,6|0,3:2|3:2,2:0:0:0:
398,250,155415,6,0,B|336:244|321:297|246:298,1,150.000005722046,14|0,3:2|3:2,2:0:0:0:
185,336,155884,1,0,3:2:0:0:
184,336,156040,2,0,P|161:267|94:238,1,150.000005722046,10|0,3:2|3:2,2:0:0:0:
12,253,156509,1,0,3:2:0:0:
12,253,156665,2,0,P|24:180|53:88,1,150.000005722046,8|2,3:2|3:2,2:0:0:0:
87,35,157134,1,2,3:2:0:0:
87,35,157290,1,8,3:2:0:0:
159,73,157446,6,0,B|225:40|225:40|306:46,1,150.000005722046,6|2,3:2|3:2,2:0:0:0:
375,82,157915,1,8,3:2:0:0:
464,76,158071,1,2,3:2:0:0:
468,61,158149,1,0,3:2:0:0:
474,47,158228,1,0,3:2:0:0:
482,156,158384,2,0,P|473:202|471:238,1,75.2400028610231,2|8,3:2|3:2,2:0:0:0:
473,312,158696,1,2,3:2:0:0:
473,312,158853,1,0,3:2:0:0:
404,352,159009,6,0,P|365:357|325:370,1,75.2400028610231,12|0,3:2|3:2,2:0:0:0:
223,286,159321,2,0,P|262:291|302:304,1,75.2400028610231,12|0,3:2|3:2,2:0:0:0:
404,220,159634,2,0,P|365:225|325:238,1,75.2400028610231,14|2,3:2|3:2,2:0:0:0:
280,170,159946,6,0,B|227:155|197:209|137:209,1,150.000005722046,6|2,3:2|3:2,2:0:0:0:
61,178,160415,2,0,P|60:140|69:104,1,75.2400028610231,10|2,3:2|3:2,2:0:0:0:
131,48,160728,2,0,P|168:47|204:56,1,75.2400028610231,14|2,3:2|2:0,2:0:0:0:
259,118,161040,2,0,B|242:155|242:155|242:191,1,75.2400028610231,2|2,3:2|3:2,2:0:0:0:
293,254,161353,2,0,B|293:288|293:288|276:325,1,75.2400028610231,14|2,3:2|2:0,2:0:0:0:
206,368,161665,1,14,3:2:0:0:
41,354,161978,2,0,P|46:322|61:261,1,75.2400028610231,0|2,3:2|3:2,2:0:0:0:
54,198,162290,1,10,3:2:0:0:
54,198,162446,6,0,P|39:122|13:43,1,150.000005722046,6|2,3:2|3:2,2:0:0:0:
103,46,162915,2,0,P|134:30|182:16,1,75.2400028610231,14|2,3:2|3:2,2:0:0:0:
241,63,163228,2,0,P|276:74|310:90,1,75.2400028610231,14|2,3:2|3:2,2:0:0:0:
391,77,163540,1,2,2:0:0:0:
484,103,163696,6,0,L|490:72,3,25.0400009536744,0|0|0|10,3:2|3:2|3:2|3:2,2:0:0:0:
429,176,164009,1,0,3:2:0:0:
429,176,164165,2,0,P|413:215|404:255,1,75.2400028610231,0|2,3:0|3:0,2:0:0:0:
450,316,164478,1,8,3:0:0:0:
450,316,164634,1,4,3:0:0:0:
392,375,164790,2,0,L|353:368,3,37.6200014305115,8|2|8|4,3:2|1:3|1:3|1:3,2:0:0:0:
341,350,165103,6,0,P|282:358|208:381,2,120,6|2|2,3:2|3:2|3:2,2:0:0:0:
384,263,166353,2,0,P|442:271|517:294,2,120,8|0|0,3:2|3:2|3:2,2:0:0:0:
310,201,167603,6,0,B|257:200|253:232|192:232,2,120,6|2|2,3:2|3:2|3:2,2:0:0:0:
394,154,168853,2,0,P|398:119|414:66,1,80,8|0,3:2|3:2,2:0:0:0:
431,33,169321,1,8,3:2:0:0:
334,34,169634,2,0,P|322:12|312:-2,2,40,0|0|8,3:2|3:2|3:1,2:0:0:0:
311,64,170103,6,0,P|327:132|331:184,2,120,6|2|2,3:2|3:2|3:2,2:0:0:0:
222,27,171353,2,0,B|169:26|165:58|104:58,2,120,8|0|0,3:2|3:2|3:2,2:0:0:0:
311,64,172603,6,0,P|375:89|420:116,2,120,6|2|2,3:2|3:2|3:2,2:0:0:0:
222,102,173853,2,0,L|194:111,3,20.064,8|8|8|8,1:3|1:2|3:2|3:2,2:0:0:0:
180,101,174165,2,0,L|152:92,3,20.064,0|0|8|8,3:2|3:2|3:2|1:3,2:0:0:0:
141,109,174478,2,0,P|133:135|129:157,1,40.128,8|0,3:2|3:2,2:0:0:0:
101,225,174790,1,8,1:3:0:0:
123,315,174946,1,8,3:3:0:0:
128,323,175024,1,4,3:3:0:0:
133,331,175103,6,0,P|75:315|15:309,2,120,6|2|2,3:2|3:2|3:2,2:0:0:0:
218,309,176353,2,0,P|277:302|335:287,2,120,8|0|0,3:2|3:2|3:2,2:0:0:0:
214,212,177603,6,0,P|220:152|235:94,2,120,6|2|2,3:2|3:2|3:2,2:0:0:0:
133,265,178853,2,0,P|118:208|105:181,1,80.128,8|0,3:2|2:0,2:0:0:0:
81,149,179321,2,0,L|84:128,3,13.3546666666666,0|0|0|8,3:2|3:2|3:2|3:2,2:0:0:0:
126,94,179634,1,0,3:2:0:0:
126,94,179790,2,0,L|120:54,1,40.128,0|0,3:2|3:2,2:0:0:0:
113,1,180103,6,0,P|55:16|2:40,2,120,6|2|2,3:2|3:2|3:2,2:0:0:0:
168,69,181353,2,0,P|222:93|280:108,2,120,8|0|0,3:2|3:2|3:2,2:0:0:0:
84,97,182603,6,0,P|65:162|55:216,2,120,6|2|2,3:2|3:2|3:2,2:0:0:0:
150,42,183853,1,8,3:2:0:0:
150,42,184009,2,0,P|187:56|231:63,1,80,8|0,3:2|3:2,2:0:0:0:
270,57,184478,1,8,3:2:0:0:
270,57,184634,2,0,P|293:45|317:42,2,40,2|8|4,3:0|3:0|3:0,2:0:0:0:
254,98,185103,5,6,3:2:0:0:
256,192,195103,12,12,196978,3:0:0:0:
126,81,197603,6,0,P|83:111|66:158,2,100,6|0|8,3:2|3:2|3:2,2:0:0:0:
219,93,198540,2,0,P|249:132|253:181,2,100,6|0|0,3:2|3:2|3:2,2:0:0:0:
164,171,199478,1,14,3:2:0:0:
164,171,199790,1,0,3:2:0:0:
146,268,200103,6,0,L|46:286,2,100,6|0|8,3:2|3:2|3:2,2:0:0:0:
222,332,201040,2,0,L|320:349,2,100,6|0|0,3:2|3:2|3:2,2:0:0:0:
240,235,201978,1,14,3:2:0:0:
240,235,202290,1,0,3:2:0:0:
334,203,202603,6,0,P|291:233|274:280,2,100,6|0|8,3:2|3:2|3:2,2:0:0:0:
427,215,203540,2,0,P|457:254|461:303,2,100,6|0|0,3:2|3:2|3:2,2:0:0:0:
372,293,204478,1,14,3:2:0:0:
372,293,204790,1,0,3:2:0:0:
302,220,205103,6,0,L|320:120,2,100,6|0|8,3:2|3:2|3:2,2:0:0:0:
198,205,206040,2,0,L|216:105,1,100,6|0,3:2|3:2,2:0:0:0:
265,29,206587,1,8,1:2:0:0:
263,19,206665,2,0,P|234:12|200:9,1,50.16,8|8,3:2|1:3,2:0:0:0:
138,42,206978,2,0,L|99:49,3,25.08,14|2|8|4,3:2|1:3|1:3|1:3,2:0:0:0:
88,50,207290,2,0,L|49:43,3,25.08,8|2|8|4,3:0|1:3|1:3|1:3,2:0:0:0:
60,71,207603,6,0,L|46:173,1,100,6|0,3:2|3:2,2:0:0:0:
46,170,208228,1,8,3:2:0:0:
145,168,208540,2,0,L|131:270,1,100,6|0,3:2|3:2,2:0:0:0:
131,267,209165,1,0,3:2:0:0:
216,364,209478,1,14,3:2:0:0:
216,364,209790,1,0,3:2:0:0:
275,283,210103,6,0,P|309:247|357:234,1,100,6|0,3:2|3:2,2:0:0:0:
357,234,210728,1,8,3:2:0:0:
446,189,211040,2,0,P|411:153|363:140,1,100,6|0,3:2|3:2,2:0:0:0:
364,140,211665,1,0,3:2:0:0:
268,170,211978,1,14,3:2:0:0:
268,170,212290,1,0,3:2:0:0:
172,200,212603,6,0,L|63:232,2,100,6|0|8,3:2|3:2|3:2,2:0:0:0:
194,101,213540,2,0,L|220:-9,2,100,6|0|0,3:2|3:2|3:2,2:0:0:0:
267,169,214478,2,0,L|349:247,1,100,14|0,3:2|3:2,2:0:0:0:
411,307,215103,5,6,3:2:0:0:
411,307,215259,1,0,3:2:0:0:
344,359,215415,2,0,L|285:346,1,50.16,8|0,3:2|3:2,2:0:0:0:
219,308,215728,2,0,L|160:321,1,50.16,14|0,3:2|3:2,2:0:0:0:
88,340,216040,5,0,3:2:0:0:
88,340,216196,1,0,3:2:0:0:
110,257,216353,2,0,L|123:198,1,50.16,14|0,3:2|3:2,2:0:0:0:
161,132,216665,2,0,L|148:73,1,50.16,12|0,3:2|3:2,2:0:0:0:
127,1,216978,1,14,3:2:0:0:
127,1,217134,1,0,3:2:0:0:
51,57,217290,1,12,3:2:0:0:
51,57,217446,6,0,B|121:43|133:89|214:76,1,150.000005722046,6|0,3:2|3:2,2:0:0:0:
276,54,217915,2,0,P|344:83|369:152,1,150.000005722046,8|0,3:2|3:2,2:0:0:0:
361,234,218384,1,0,3:2:0:0:
361,234,218540,2,0,P|336:323|327:381,1,150.000005722046,10|0,3:2|3:2,2:0:0:0:
244,371,219009,1,0,3:2:0:0:
244,371,219165,2,0,B|191:352|150:396|65:377,1,150.000005722046,8|2,3:2|3:2,2:0:0:0:
22,342,219634,1,2,3:2:0:0:
22,342,219790,1,8,3:2:0:0:
13,260,219946,6,0,P|38:186|111:172,1,150.000005722046,6|2,3:2|3:2,2:0:0:0:
182,189,220415,1,8,3:2:0:0:
223,118,220571,1,2,3:2:0:0:
218,103,220649,1,0,3:2:0:0:
214,88,220728,1,0,3:2:0:0:
291,66,220884,2,0,P|339:72|381:85,1,75.2400028610231,2|8,3:2|3:2,2:0:0:0:
441,110,221196,1,2,3:2:0:0:
441,110,221353,1,0,3:2:0:0:
512,144,221509,6,0,P|485:179|463:218,1,75.2400028610231,12|0,3:2|3:2,2:0:0:0:
476,355,221821,2,0,P|459:314|436:275,1,75.2400028610231,12|0,3:2|3:2,2:0:0:0:
311,218,222134,2,0,P|354:223|399:223,1,75.2400028610231,14|2,3:2|3:2,2:0:0:0:
512,218,222446,5,6,3:2:0:0:
358,312,222759,1,2,3:2:0:0:
358,312,222915,2,0,P|320:323|281:343,1,75.2400028610231,10|2,3:2|3:2,2:0:0:0:
209,313,223228,2,0,P|186:281|155:249,1,75.2400028610231,14|2,3:2|2:0,2:0:0:0:
162,171,223540,2,0,P|185:139|206:100,1,75.2400028610231,2|2,3:2|3:2,2:0:0:0:
281,82,223853,2,0,P|318:94|361:102,1,75.2400028610231,14|2,3:2|2:0,2:0:0:0:
403,168,224165,1,14,3:2:0:0:
425,332,224478,1,0,3:2:0:0:
425,332,224634,2,0,P|387:321|340:314,1,75.2400028610231,2|10,3:2|3:2,2:0:0:0:
274,342,224946,6,0,P|192:343|96:366,1,150.000005722046,6|2,3:2|3:2,2:0:0:0:
50,322,225415,2,0,P|53:285|63:221,1,75.2400028610231,14|2,3:2|3:2,2:0:0:0:
114,186,225728,2,0,P|111:149|101:85,1,75.2400028610231,14|2,3:2|3:2,2:0:0:0:
61,42,226040,1,2,2:0:0:0:
61,42,226196,1,0,3:2:0:0:
134,4,226353,1,14,3:2:0:0:
211,62,226509,5,8,1:3:0:0:
213,47,226587,1,8,1:2:0:0:
217,32,226665,2,0,L|267:45,3,37.6200014305115,8|8|2|0,3:2|3:2|3:2|3:2,2:0:0:0:
291,24,226978,2,0,L|341:11,3,37.6200014305115,8|0|0|0,3:2|1:3|1:3|1:3,2:0:0:0:
358,61,227290,1,8,1:3:0:0:
358,61,227446,2,0,P|430:69|468:130,1,150.000005722046,6|0,3:2|3:2,2:0:0:0:
464,212,227915,6,0,B|396:203|393:260|312:260,1,150.000005722046,14|0,3:2|3:2,2:0:0:0:
251,236,228384,1,0,3:2:0:0:
250,235,228540,2,0,P|177:229|113:266,1,150.000005722046,10|0,3:2|3:2,2:0:0:0:
31,282,229009,1,0,3:2:0:0:
31,282,229165,2,0,P|27:203|1:130,1,150.000005722046,8|2,3:2|3:2,2:0:0:0:
32,58,229634,1,2,3:2:0:0:
32,58,229790,1,8,3:2:0:0:
114,52,229946,6,0,B|184:18|184:18|262:33,1,150.000005722046,6|2,3:2|3:2,2:0:0:0:
333,57,230415,1,8,3:2:0:0:
421,37,230571,1,2,3:2:0:0:
430,25,230649,1,0,3:2:0:0:
440,14,230728,1,0,3:2:0:0:
460,109,230884,2,0,P|447:157|443:193,1,75.2400028610231,2|8,3:2|3:2,2:0:0:0:
442,264,231196,1,2,3:2:0:0:
442,264,231353,1,0,3:2:0:0:
447,340,231509,6,0,P|407:347|370:362,1,75.2400028610231,12|0,3:2|3:2,2:0:0:0:
273,263,231821,2,0,P|313:270|350:285,1,75.2400028610231,12|0,3:2|3:2,2:0:0:0:
447,182,232134,2,0,P|407:189|370:204,1,75.2400028610231,14|2,3:2|3:2,2:0:0:0:
317,142,232446,6,0,B|251:132|241:182|176:185,1,150.000005722046,6|2,3:2|3:2,2:0:0:0:
104,144,232915,2,0,P|93:190|99:226,1,75.2400028610231,10|2,3:2|3:2,2:0:0:0:
162,266,233228,2,0,P|164:303|154:339,1,75.2400028610231,14|2,3:2|2:0,2:0:0:0:
74,359,233540,2,0,L|33:368,3,37.6200014305115,2|0|2|0,3:2|3:2|3:2|3:2,2:0:0:0:
3,342,233853,2,0,P|0:304|10:268,1,75.2400028610231,14|2,3:2|2:0,2:0:0:0:
49,196,234165,1,14,3:2:0:0:
49,196,234321,2,0,P|47:158|37:111,1,75.2400028610231,0|0,3:2|3:2,2:0:0:0:
15,42,234634,1,10,3:2:0:0:
15,42,234790,1,10,3:2:0:0:
97,43,234946,6,0,B|156:35|178:71|254:69,1,150.000005722046,6|2,3:2|3:2,2:0:0:0:
323,47,235415,2,0,P|367:35|401:36,1,75.2400028610231,14|2,3:2|3:2,2:0:0:0:
459,89,235728,2,0,P|471:133|470:167,1,75.2400028610231,14|2,3:2|3:2,2:0:0:0:
433,235,236040,1,2,2:0:0:0:
352,309,236196,6,0,L|381:316,3,25.0400009536744,0|0|0|10,3:2|3:2|3:2|3:2,2:0:0:0:
277,369,236509,1,0,3:2:0:0:
277,369,236665,2,0,P|232:379|194:379,1,75.2400028610231,0|2,3:0|3:0,2:0:0:0:
114,361,236978,1,8,3:0:0:0:
114,361,237134,1,4,3:0:0:0:
86,275,237290,2,0,L|90:234,3,37.6200014305115,8|2|8|4,3:2|1:3|1:3|1:3,2:0:0:0:
122,205,237603,5,6,3:2:0:0:
101,40,242603,6,0,L|97:89,3,50.0533333333333,10|0|0|8,2:0|2:0|2:0|2:0,2:0:0:0:
165,149,243228,2,0,L|161:198,3,50.0533333333333,10|0|8|0,2:0|2:0|2:0|2:0,2:0:0:0:
86,249,243853,2,0,P|59:264|43:285,3,50.0533333333333,10|8|0|0,2:0|2:0|2:0|2:0,2:0:0:0:
121,329,244478,2,0,P|148:344|164:365,3,50.0533333333333,10|0|8|0,2:0|2:0|2:0|2:0,2:0:0:0:
256,192,245103,12,4,246353,2:0:0:0:
