osu file format v14

[General]
AudioFilename: audio.mp3
AudioLeadIn: 0
PreviewTime: 144899
Countdown: 0
SampleSet: Soft
StackLeniency: 0.8
Mode: 0
LetterboxInBreaks: 0
WidescreenStoryboard: 1

[Editor]
DistanceSpacing: 1.6
BeatDivisor: 4
GridSize: 32
TimelineZoom: 2.599999

[Metadata]
Title:If You Can't Hang
TitleUnicode:If You Can't Hang
Artist:Sleeping With Sirens
ArtistUnicode:Sleeping With Sirens
Creator:attendant
Version:Extreme
Source:
Tags:cant kellin quinn lets let's cheers to this english male vocals alternative rock post hardcore pop punk
BeatmapID:2199185
BeatmapSetID:1000309

[Difficulty]
HPDrainRate:6
CircleSize:5
OverallDifficulty:9.4
ApproachRate:9.6
SliderMultiplier:2
SliderTickRate:1

[Events]
//Background and Video events
0,0,"bg.jpg",0,0
//Break Periods
//Storyboard Layer 0 (Background)
//Storyboard Layer 1 (Fail)
//Storyboard Layer 2 (Pass)
//Storyboard Layer 3 (Foreground)
//Storyboard Layer 4 (Overlay)
//Storyboard Sound Samples

[TimingPoints]
103,312.5,4,2,1,30,1,0
7915,-100,4,2,1,40,0,0
8228,-100,4,2,1,50,0,0
8540,-100,4,2,1,60,0,0
8853,-100,4,2,1,70,0,0
9165,-100,4,2,1,30,0,0
9478,-333.333333333333,4,2,1,30,0,0
9556,-333.333333333333,4,2,11,5,0,0
9946,-83.3333333333333,4,2,1,70,0,0
10415,-100,4,2,1,70,0,0
12446,-83.3333333333333,4,2,1,70,0,0
15728,-100,4,2,1,70,0,0
17446,-83.3333333333333,4,2,1,70,0,0
21665,-100,4,2,1,70,0,0
22446,-83.3333333333333,4,2,1,70,0,0
25728,-100,4,2,1,70,0,0
27446,-83.3333333333333,4,2,1,70,0,0
28696,-100,4,2,1,70,0,0
30103,-333.333333333333,4,2,1,40,0,0
47603,-166.666666666667,4,2,1,40,0,0
47837,-166.666666666667,4,2,11,5,0,0
47915,-333.333333333333,4,2,1,40,0,0
48149,-333.333333333333,4,2,11,5,0,0
48228,-125,4,2,1,40,0,0
48462,-125,4,2,11,5,0,0
48540,-250,4,2,1,40,0,0
48774,-250,4,2,11,5,0,0
48853,-100,4,2,1,40,0,0
49087,-100,4,2,11,5,0,0
49165,-200,4,2,1,40,0,0
49399,-200,4,2,11,5,0,0
49478,-333.333333333333,4,2,1,40,0,0
50103,-133.333333333333,4,2,1,50,0,0
65103,-333.333333333333,4,2,1,50,0,0
65415,-333.333333333333,4,2,2,30,0,0
70103,-333.333333333333,4,2,2,40,0,0
73853,-333.333333333333,4,2,4,50,0,0
74009,-1000,4,2,2,40,0,0
74087,-1000,4,2,11,5,0,0
74946,-71.4285714285714,4,2,1,70,0,1
75415,-90.9090909090909,4,2,1,70,0,1
77446,-76.9230769230769,4,2,1,70,0,1
81665,-90.9090909090909,4,2,1,70,0,1
82446,-76.9230769230769,4,2,1,70,0,1
83540,-90.9090909090909,4,2,1,70,0,1
84946,-200,4,2,1,70,0,1
85415,-71.4285714285714,4,2,1,70,0,1
86040,-80,4,2,1,70,0,1
87446,-76.9230769230769,4,2,1,70,0,1
91665,-90.9090909090909,4,2,1,70,0,1
92446,-76.9230769230769,4,2,1,70,0,1
93696,-90.9090909090909,4,2,1,70,0,1
95103,-200,4,2,1,50,0,0
120259,-133.333333333333,4,2,1,50,0,0
135103,-333.333333333333,4,2,1,50,0,0
135415,-333.333333333333,4,2,2,30,0,0
140103,-333.333333333333,4,2,2,40,0,0
143853,-333.333333333333,4,2,4,50,0,0
144009,-1000,4,2,2,40,0,0
144087,-1000,4,2,11,5,0,0
144946,-71.4285714285714,4,2,1,70,0,1
145415,-90.9090909090909,4,2,1,70,0,1
147446,-76.9230769230769,4,2,1,70,0,1
151665,-90.9090909090909,4,2,1,70,0,1
152446,-76.9230769230769,4,2,1,70,0,1
154009,-90.9090909090909,4,2,1,70,0,1
154946,-200,4,2,1,70,0,1
155415,-71.4285714285714,4,2,1,70,0,1
156040,-80,4,2,1,70,0,1
157446,-76.9230769230769,4,2,1,70,0,1
161665,-90.9090909090909,4,2,1,70,0,1
162446,-76.9230769230769,4,2,1,70,0,1
163696,-90.9090909090909,4,2,1,70,0,1
165103,-200,4,2,1,50,0,0
185103,-333.333333333333,4,2,1,40,0,0
187446,-333.333333333333,4,2,11,5,0,0
187603,-333.333333333333,4,2,1,40,0,0
195103,-333.333333333333,4,2,1,60,0,0
195181,-333.333333333333,4,2,11,5,0,0
196040,-333.333333333333,4,2,2,15,0,0
196353,-166.666666666667,4,2,5,45,0,0
196392,-166.666666666667,4,2,3,25,0,0
196509,-166.666666666667,4,2,3,30,0,0
196665,-166.666666666667,4,2,3,35,0,0
196821,-166.666666666667,4,2,3,40,0,0
196978,-333.333333333333,4,2,1,60,0,0
197056,-333.333333333333,4,2,11,5,0,0
197603,-133.333333333333,4,2,1,60,0,1
217407,-133.333333333333,4,2,1,60,0,0
217446,-71.4285714285714,4,2,1,70,0,1
217915,-90.9090909090909,4,2,1,70,0,1
219946,-76.9230769230769,4,2,1,70,0,1
224165,-90.9090909090909,4,2,1,70,0,1
224946,-76.9230769230769,4,2,1,70,0,1
226509,-90.9090909090909,4,2,1,70,0,1
227446,-200,4,2,1,70,0,1
227915,-71.4285714285714,4,2,1,70,0,1
228540,-80,4,2,1,70,0,1
229946,-76.9230769230769,4,2,1,70,0,1
236196,-90.9090909090909,4,2,1,70,0,1
237603,-333.333333333333,4,2,1,70,0,0
237915,-333.333333333333,4,2,2,40,0,0
242603,-333.333333333333,4,2,2,40,0,0
246353,-333.333333333333,4,2,2,50,0,0

[Colours]
Combo1 : 227,213,111
Combo2 : 0,106,213
Combo3 : 243,239,150
Combo4 : 72,131,238

[HitObjects]
256,192,4790,12,8,7290,3:2:0:0:
104,34,7603,5,0,3:2:0:0:
171,1,7759,1,0,3:2:0:0:
243,85,7915,5,8,3:2:0:0:
78,34,8071,1,8,3:2:0:0:
34,157,8228,5,8,3:2:0:0:
262,95,8384,1,8,3:2:0:0:
299,226,8540,5,8,3:2:0:0:
56,138,8696,1,8,3:2:0:0:
20,327,8853,5,8,3:2:0:0:
98,313,9165,5,2,2:0:0:0:
177,299,9478,6,0,L|253:285,1,74.9999977111817,2|0,0:0|0:0,0:0:0:0:
251,286,9946,6,0,B|380:278|353:364|471:359,1,240.383992675781,6|0,3:2|3:2,0:0:0:0:
188,228,10415,2,0,B|167:281|167:281|176:327,1,100.16,10|0,3:2|0:0,0:0:0:0:
281,169,10728,5,0,3:2:0:0:
138,120,10884,1,0,3:2:0:0:
26,222,11040,1,10,3:2:0:0:
96,258,11196,1,0,0:0:0:0:
74,72,11353,1,0,3:2:0:0:
4,108,11509,1,0,3:2:0:0:
6,28,11665,6,0,P|107:36|229:65,1,200.32,10|0,3:2|3:2,0:0:0:0:
270,83,12134,1,0,3:2:0:0:
391,23,12290,1,8,3:2:0:0:
474,55,12446,6,0,B|506:111|506:111|476:288,1,240.383992675781,6|0,3:2|3:2,0:0:0:0:
498,361,12915,1,10,3:2:0:0:
384,292,13071,1,0,3:2:0:0:
384,292,13149,1,0,3:2:0:0:
384,292,13228,5,0,3:2:0:0:
219,360,13384,1,0,3:2:0:0:
262,281,13540,1,10,3:2:0:0:
406,374,13696,1,0,3:2:0:0:
506,286,13853,1,2,3:2:0:0:
315,358,14009,5,14,3:2:0:0:
109,299,14165,1,0,3:2:0:0:
201,223,14321,5,14,3:2:0:0:
407,164,14478,1,0,3:2:0:0:
315,88,14634,5,14,3:2:0:0:
109,29,14790,1,0,3:2:0:0:
32,106,14946,6,0,P|138:147|151:261,1,240.383992675781,6|0,3:2|3:2,0:0:0:0:
80,228,15415,1,10,3:2:0:0:
313,172,15571,1,0,3:2:0:0:
225,229,15728,6,0,P|307:279|319:375,1,200.32,14|0,3:2|3:2,0:0:0:0:
249,349,16196,1,0,3:2:0:0:
372,174,16353,6,0,B|393:223|393:223|384:273,1,100.16,14|0,3:2|0:0,0:0:0:0:
116,301,16665,2,0,B|95:252|95:252|103:201,1,100.16,14|0,3:2|0:0,0:0:0:0:
218,75,16978,5,0,3:2:0:0:
206,3,17134,1,0,3:2:0:0:
243,222,17290,1,8,3:2:0:0:
255,294,17446,6,0,B|346:284|346:284|400:325|400:325|498:316,1,240.383992675781,6|0,3:2|3:2,0:0:0:0:
448,246,17915,1,14,3:2:0:0:
260,374,18071,1,0,3:2:0:0:
296,270,18228,1,14,3:2:0:0:
499,350,18384,1,0,3:2:0:0:
365,214,18696,5,0,3:2:0:0:
315,16,18853,1,14,3:2:0:0:
512,47,19009,5,8,1:3:0:0:
460,27,19087,1,8,1:2:0:0:
408,45,19165,1,8,3:2:0:0:
375,75,19243,1,8,3:2:0:0:
342,98,19321,1,0,3:2:0:0:
306,105,19399,1,0,3:2:0:0:
274,83,19478,5,8,3:2:0:0:
274,83,19556,1,2,1:3:0:0:
291,78,19634,1,2,1:3:0:0:
318,90,19712,1,2,1:3:0:0:
339,126,19790,1,8,1:3:0:0:
323,177,19868,1,4,1:3:0:0:
268,213,19946,6,0,B|154:198|166:276|33:270,1,240.383992675781,6|0,3:2|3:2,0:0:0:0:
40,192,20415,1,10,3:2:0:0:
142,324,20571,1,0,0:0:0:0:
22,350,20728,5,0,3:2:0:0:
145,152,20884,1,0,3:2:0:0:
201,239,21040,1,10,3:2:0:0:
0,272,21196,1,0,0:0:0:0:
40,171,21353,1,0,3:2:0:0:
169,341,21509,1,0,3:2:0:0:
383,231,21665,6,0,P|472:268|496:361,1,200.32,10|0,3:2|3:2,0:0:0:0:
423,351,22134,1,0,3:2:0:0:
472,146,22290,1,8,3:2:0:0:
422,60,22446,6,0,P|305:33|185:30,1,240.383992675781,6|0,3:2|3:2,0:0:0:0:
114,52,22915,1,10,3:2:0:0:
340,142,23071,1,0,3:2:0:0:
340,142,23149,1,0,3:2:0:0:
340,142,23228,5,0,3:2:0:0:
211,186,23384,1,0,3:2:0:0:
259,117,23540,1,10,3:2:0:0:
341,225,23696,1,0,3:2:0:0:
261,253,23853,1,2,3:2:0:0:
413,183,24009,5,14,3:2:0:0:
177,262,24165,1,0,3:2:0:0:
176,110,24321,5,14,3:2:0:0:
326,309,24478,1,0,3:2:0:0:
321,59,24634,5,14,3:2:0:0:
177,262,24790,1,0,3:2:0:0:
413,183,24946,6,0,B|314:151|282:223|167:187,1,240.383992675781,6|0,3:2|3:2,0:0:0:0:
110,163,25415,1,10,3:2:0:0:
7,291,25571,1,0,3:2:0:0:
138,283,25728,6,0,B|231:270|241:325|351:308,1,200.32,14|0,3:2|3:2,0:0:0:0:
404,293,26196,1,0,3:2:0:0:
211,55,26353,6,0,B|190:104|190:104|198:154,1,100.16,14|0,3:2|0:0,0:0:0:0:
413,183,26665,2,0,B|434:134|434:134|425:83,1,100.16,14|0,3:2|0:0,0:0:0:0:
288,263,26978,5,0,3:2:0:0:
272,340,27134,1,0,3:2:0:0:
316,128,27290,1,8,3:2:0:0:
332,51,27446,6,0,B|221:35|211:112|91:108,1,240.383992675781,6|0,3:2|3:2,0:0:0:0:
114,28,27915,1,14,3:2:0:0:
316,128,28071,1,0,3:2:0:0:
261,25,28228,1,14,3:2:0:0:
74,146,28384,1,0,3:2:0:0:
196,239,28696,6,0,L|197:272,2,33.3866666666666,0|0|0,3:2|3:2|3:2,0:0:0:0:
196,223,28853,5,8,3:2:0:0:
335,275,29009,1,0,3:2:0:0:
373,205,29165,5,2,3:0:0:0:
512,153,29321,1,2,3:0:0:0:
482,323,29478,5,8,3:0:0:0:
382,363,29634,5,4,3:0:0:0:
251,345,29790,6,0,L|255:311,1,25,8|8,3:2|3:2,0:0:0:0:
143,232,29946,5,0,3:2:0:0:
153,51,30103,6,0,L|272:62,1,120.191996337891,4|0,3:2|0:0,0:0:0:0:
363,32,31040,1,0,3:2:0:0:
452,100,31353,2,0,L|419:111,1,30.0479990844727,8|0,1:0|1:0,0:0:0:0:
424,100,31665,2,0,L|452:109,1,30.0479990844727,0|0,1:0|1:0,0:0:0:0:
445,200,32446,1,2,2:0:0:0:
445,200,32524,1,2,2:0:0:0:
445,200,32603,6,0,B|384:195|391:231|325:228,1,119.999996337891,4|0,3:2|0:2,0:0:0:0:
247,177,33540,1,0,3:2:0:0:
181,221,33853,1,8,1:0:0:0:
181,221,34165,1,0,1:0:0:0:
60,257,34321,1,8,1:0:0:0:
89,134,34478,1,8,1:0:0:0:
167,111,34946,1,2,0:0:0:0:
167,111,35024,1,2,0:0:0:0:
167,111,35103,6,0,L|296:120,1,120.191996337891,4|0,3:2|0:0,0:0:0:0:
368,69,36040,1,0,3:2:0:0:
456,107,36353,1,8,1:0:0:0:
478,200,36587,1,0,1:2:0:0:
478,200,36665,2,0,L|472:239,1,30.0479990844727,0|0,1:2|1:2,0:0:0:0:
402,244,36978,2,0,L|408:283,1,30.0479990844727,0|0,1:2|1:2,0:0:0:0:
334,199,37290,2,0,L|330:229,1,30.0479990844727,0|0,1:2|1:2,0:0:0:0:
267,293,37603,6,0,L|143:277,1,120.191996337891,4|0,3:2|0:0,0:0:0:0:
55,302,38540,1,0,3:2:0:0:
24,200,38853,5,8,1:0:0:0:
35,123,39009,1,0,3:2:0:0:
46,46,39165,1,0,3:2:0:0:
170,105,39321,5,0,1:2:0:0:
185,114,39399,1,0,1:2:0:0:
202,120,39478,1,8,1:0:0:0:
219,124,39556,1,8,1:0:0:0:
237,124,39634,1,0,1:2:0:0:
255,121,39712,1,0,1:2:0:0:
272,114,39790,1,0,3:2:0:0:
287,105,39868,1,0,1:2:0:0:
301,93,39946,1,0,1:2:0:0:
312,79,40024,1,0,1:2:0:0:
320,64,40103,6,0,L|379:71,1,60.0959981689454,4|0,3:2|0:0,0:0:0:0:
354,175,40571,2,0,L|413:167,1,60.0959981689454,2|0,2:0|0:0,0:0:0:0:
272,228,41040,2,0,L|242:224,1,30.0479990844727,2|0,3:2|0:0,0:0:0:0:
123,363,41353,6,0,L|116:304,1,60.0959981689454,8|0,1:0|0:0,0:0:0:0:
64,259,41821,1,2,2:0:0:0:
96,187,41978,1,2,1:2:0:0:
242,224,42134,1,0,1:2:0:0:
270,294,42290,1,2,1:2:0:0:
198,327,42446,1,0,1:2:0:0:
224,69,42603,6,0,P|245:89|262:114,1,60.0959981689454,4|0,3:2|0:0,0:0:0:0:
202,276,43071,2,0,P|173:284|143:286,1,60.0959981689454,2|0,2:0|0:0,0:0:0:0:
34,154,43540,2,0,P|41:124|52:103,1,30.0479990844727,0|0,3:2|0:0,0:0:0:0:
128,12,43853,5,8,1:0:0:0:
128,12,44165,1,2,3:2:0:0:
206,31,44321,1,8,1:0:0:0:
284,50,44478,2,0,L|324:44,1,30.0479990844727,8|0,1:0|0:0,0:0:0:0:
447,23,44790,1,2,2:0:0:0:
436,38,44868,1,2,0:0:0:0:
431,56,44946,1,2,2:0:0:0:
431,74,45024,1,2,0:0:0:0:
438,92,45103,6,0,L|430:151,1,60.0959981689454,4|0,3:2|0:0,0:0:0:0:
325,262,45571,2,0,L|317:202,1,60.0959981689454,2|0,2:0|0:0,0:0:0:0:
212,92,46040,2,0,L|208:121,1,30.0479990844727,2|0,3:2|0:0,0:0:0:0:
190,261,46353,1,8,1:0:0:0:
190,261,46509,1,2,2:0:0:0:
118,298,46978,1,2,2:0:0:0:
46,335,47290,1,2,2:0:0:0:
217,190,47603,6,0,P|257:170|302:169,1,90.1439972534181,4|0,3:2|0:0,0:0:0:0:
208,186,47915,6,0,P|225:172|245:163,1,45.071998626709,2|0,1:2|0:0,0:0:0:0:
411,156,48228,6,0,L|399:288,1,120.192,4|0,3:2|0:0,0:0:0:0:
421,150,48540,6,0,L|415:215,1,60.096,2|0,1:2|0:0,0:0:0:0:
260,312,48853,6,0,L|246:158,1,150.24,4|0,3:2|0:0,0:0:0:0:
252,324,49165,6,0,L|245:247,1,75.12,2|0,1:2|0:0,0:0:0:0:
323,93,49478,5,4,3:2:0:0:
323,93,50103,6,0,B|399:95|390:145|459:148,1,150.240005722046,6|0,3:2|0:0,0:0:0:0:
455,73,50571,1,0,3:2:0:0:
313,173,50728,1,8,3:2:0:0:
313,173,50884,2,0,P|272:176|234:187,1,75.1200028610231,0|0,3:2|0:0,0:0:0:0:
130,253,51196,1,0,3:2:0:0:
75,197,51353,6,0,L|96:40,1,150.240005722046,4|0,3:2|0:0,0:0:0:0:
167,21,51821,1,0,3:2:0:0:
7,80,51978,1,10,3:2:0:0:
7,80,52134,2,0,P|10:125|10:159,1,75.1200028610231,0|2,3:2|2:0,0:0:0:0:
3,316,52446,1,0,3:2:0:0:
88,353,52603,6,0,P|164:328|234:323,1,150.240005722046,4|2,3:2|2:0,0:0:0:0:
380,346,53071,1,0,3:2:0:0:
292,267,53228,1,8,3:2:0:0:
292,267,53384,2,0,L|302:173,1,75.1200028610231,0|0,3:2|0:0,0:0:0:0:
317,54,53696,1,0,3:2:0:0:
387,17,53853,6,0,P|457:39|484:121,1,150.240005722046,4|0,3:2|0:0,0:0:0:0:
482,220,54321,1,2,3:2:0:0:
393,155,54478,1,10,3:2:0:0:
393,155,54634,2,0,P|354:159|305:171,1,75.1200028610231,2|0,3:2|0:0,0:0:0:0:
160,248,54946,1,2,3:2:0:0:
160,248,55024,1,0,3:2:0:0:
160,248,55103,6,0,L|318:271,1,150.240005722046,4|0,3:2|0:0,0:0:0:0:
378,304,55571,1,2,3:2:0:0:
213,339,55728,1,8,3:2:0:0:
213,339,55884,2,0,L|139:354,1,75.1200028610231,2|0,3:2|0:0,0:0:0:0:
35,378,56196,1,2,3:2:0:0:
64,306,56353,6,0,P|67:235|83:155,1,150.240005722046,4|0,3:2|0:0,0:0:0:0:
110,73,56821,1,2,3:2:0:0:
191,213,56978,1,8,3:2:0:0:
191,213,57134,2,0,P|187:172|180:124,1,75.1200028610231,2|0,3:2|0:0,0:0:0:0:
138,0,57446,1,2,3:2:0:0:
202,52,57603,6,0,B|276:41|282:98|358:88,1,150.240005722046,4|0,3:2|0:0,0:0:0:0:
422,71,58071,1,2,3:2:0:0:
363,196,58228,1,10,3:2:0:0:
396,274,58384,1,2,3:2:0:0:
396,274,58696,1,2,3:2:0:0:
250,347,58853,1,4,3:2:0:0:
108,307,59009,5,8,1:3:0:0:
124,265,59087,1,8,3:2:0:0:
120,220,59165,1,8,3:2:0:0:
94,192,59243,1,8,3:2:0:0:
74,164,59321,1,8,1:2:0:0:
68,134,59399,1,8,1:2:0:0:
71,107,59478,5,10,3:2:0:0:
82,87,59556,1,8,3:2:0:0:
96,75,59634,1,2,1:3:0:0:
114,71,59712,1,2,1:3:0:0:
132,73,59790,1,2,1:3:0:0:
148,82,59868,1,2,1:3:0:0:
157,98,59946,1,8,1:3:0:0:
160,116,60024,1,4,1:3:0:0:
156,134,60103,5,6,3:2:0:0:
245,84,60259,2,0,L|391:117,1,150.240005722046,0|0,3:2|3:2,0:0:0:0:
460,88,60728,1,8,3:2:0:0:
345,180,60884,1,0,3:2:0:0:
353,34,61040,1,0,3:2:0:0:
443,183,61196,1,0,3:2:0:0:
266,233,61353,5,4,3:2:0:0:
158,155,61509,2,0,L|11:188,1,150.240005722046,0|0,3:2|3:2,0:0:0:0:
23,110,61978,1,10,3:2:0:0:
154,252,62134,1,2,3:2:0:0:
154,252,62212,1,0,3:2:0:0:
154,252,62290,1,0,3:2:0:0:
232,122,62446,1,2,3:2:0:0:
95,52,62603,5,4,3:2:0:0:
11,188,62759,2,0,L|25:348,1,150.240005722046,0|0,3:2|3:2,0:0:0:0:
97,308,63228,1,10,3:2:0:0:
280,359,63384,1,2,3:2:0:0:
400,301,63696,6,0,L|403:270,2,25.0400009536744,2|0|0,3:2|3:2|3:2,0:0:0:0:
399,319,63853,5,8,3:2:0:0:
362,183,64009,1,0,3:2:0:0:
445,143,64165,5,2,3:2:0:0:
482,7,64321,1,8,1:3:0:0:
376,49,64478,5,0,3:2:0:0:
432,226,64634,1,0,3:2:0:0:
162,9,64790,5,8,3:2:0:0:
166,34,64868,1,2,1:3:0:0:
157,58,64946,1,8,1:3:0:0:
164,83,65024,1,4,1:3:0:0:
164,83,65103,6,0,L|162:123,1,30.0479990844727,8|0,3:2|0:0,0:0:0:0:
90,109,65415,2,0,L|88:149,1,30.0479990844727,8|0,2:0|0:0,0:0:0:0:
164,288,65728,6,0,L|162:248,1,30.0479990844727,8|0,2:0|0:0,0:0:0:0:
90,262,66040,2,0,L|88:222,1,30.0479990844727,8|0,2:0|0:0,0:0:0:0:
239,183,66353,6,0,L|209:184,1,30.0479990844727,8|0,2:0|0:0,0:0:0:0:
301,132,66665,2,0,L|314:105,1,30.0479990844727,8|0,2:0|0:0,0:0:0:0:
314,211,66978,6,0,L|330:236,1,30.0479990844727,8|0,2:0|0:0,0:0:0:0:
239,183,67290,2,0,L|209:184,1,30.0479990844727,8|0,2:0|3:2,0:0:0:0:
98,300,67524,1,0,3:2:0:0:
98,300,67603,6,0,L|127:301,1,30.0479990844727,8|0,2:0|0:0,0:0:0:0:
36,249,67915,2,0,L|22:222,1,30.0479990844727,8|0,2:0|0:0,0:0:0:0:
23,328,68228,6,0,L|6:353,1,30.0479990844727,8|0,2:0|0:0,0:0:0:0:
98,300,68540,2,0,L|127:301,1,30.0479990844727,8|0,2:0|0:0,0:0:0:0:
36,249,68853,5,8,0:0:0:0:
48,162,69087,1,8,0:0:0:0:
60,75,69321,1,8,0:0:0:0:
117,279,69478,5,8,0:0:0:0:
129,192,69712,1,8,0:0:0:0:
141,105,69946,1,8,0:0:0:0:
367,259,70103,5,10,0:0:0:0:
224,226,70259,1,0,0:0:0:0:
288,277,70415,1,8,0:0:0:0:
224,145,70570,1,0,0:0:0:0:
285,286,70728,5,10,0:0:0:0:
216,141,70884,1,0,0:0:0:0:
216,230,71040,1,8,0:0:0:0:
285,85,71196,1,0,0:0:0:0:
207,234,71353,5,10,0:0:0:0:
283,76,71508,1,0,0:0:0:0:
207,137,71666,1,8,0:0:0:0:
378,98,71821,1,0,0:0:0:0:
199,133,71977,5,10,0:0:0:0:
384,91,72134,1,0,0:0:0:0:
281,67,72290,1,8,0:0:0:0:
430,186,72445,1,0,0:0:0:0:
308,186,72602,5,10,0:0:0:0:
298,188,72681,1,2,0:0:0:0:
289,189,72759,1,2,0:0:0:0:
280,190,72837,1,2,0:0:0:0:
270,190,72915,1,10,0:0:0:0:
261,189,72993,1,2,0:0:0:0:
252,188,73071,1,2,0:0:0:0:
243,186,73149,1,2,0:0:0:0:
234,183,73228,1,10,0:0:0:0:
225,180,73306,1,2,0:0:0:0:
217,176,73384,1,2,0:0:0:0:
209,171,73462,1,2,0:0:0:0:
201,165,73540,1,10,0:0:0:0:
194,159,73618,1,2,0:0:0:0:
187,153,73696,1,2,0:0:0:0:
181,146,73774,1,2,0:0:0:0:
175,139,73853,5,6,0:0:0:0:
169,181,74009,6,0,L|164:236,1,55.024,2|0,2:0|0:0,0:0:0:0:
248,220,74946,6,0,P|119:231|100:359,1,279.999991455078,6|0,3:2|3:2,0:0:0:0:
314,344,75415,2,0,B|356:242|356:242|338:127,1,220.000006713867,8|0,3:2|3:2,0:0:0:0:
390,74,75884,1,0,3:2:0:0:
76,41,76040,2,0,B|34:143|34:143|52:258,1,220.000006713867,10|0,3:2|3:2,0:0:0:0:
276,267,76509,1,0,3:2:0:0:
173,68,76665,1,8,3:2:0:0:
161,310,76821,5,2,2:0:0:0:
335,210,76978,1,2,3:2:0:0:
244,26,77134,1,2,3:2:0:0:
67,126,77290,1,8,3:2:0:0:
239,377,77446,6,0,P|326:340|350:180,1,260.415988098145,6|2,3:2|3:2,0:0:0:0:
67,126,77915,1,8,3:2:0:0:
161,310,78071,1,2,3:2:0:0:
161,310,78149,1,0,3:2:0:0:
161,310,78228,5,0,3:2:0:0:
262,167,78384,1,2,3:2:0:0:
165,110,78540,1,8,3:2:0:0:
252,275,78696,1,2,3:2:0:0:
439,271,78853,1,0,3:2:0:0:
352,106,79009,5,12,3:2:0:0:
238,367,79165,1,0,3:2:0:0:
106,250,79321,5,12,3:2:0:0:
390,278,79478,1,0,3:2:0:0:
177,89,79634,5,14,3:2:0:0:
238,367,79790,1,2,3:2:0:0:
352,106,79946,6,0,B|391:172|391:172|359:352,1,260.415988098145,6|2,3:2|3:2,0:0:0:0:
90,132,80415,5,10,3:2:0:0:
260,40,80571,1,2,3:2:0:0:
412,160,80728,1,14,3:2:0:0:
241,251,80884,1,2,2:0:0:0:
450,69,81040,5,2,3:2:0:0:
315,349,81196,1,2,3:2:0:0:
175,214,81353,5,14,3:2:0:0:
485,258,81509,1,2,0:2:0:0:
260,40,81665,6,0,P|355:86|376:190,1,220.000006713867,14|0,3:2|3:2,0:0:0:0:
302,173,82134,1,2,3:2:0:0:
450,69,82290,1,10,3:2:0:0:
485,258,82446,6,0,B|339:243|374:328|231:316,1,260.415988098145,6|2,3:2|3:2,0:0:0:0:
271,243,82915,1,14,3:2:0:0:
510,353,83071,1,2,3:2:0:0:
438,236,83228,1,14,3:2:0:0:
230,366,83384,1,2,3:2:0:0:
352,175,83540,5,2,0:0:0:0:
352,175,83696,1,0,3:2:0:0:
360,348,83853,1,14,3:2:0:0:
63,165,84009,5,8,1:3:0:0:
138,142,84087,1,8,1:2:0:0:
209,170,84165,1,8,3:2:0:0:
245,226,84243,1,8,3:2:0:0:
291,261,84321,1,2,3:2:0:0:
350,254,84399,1,0,3:2:0:0:
407,186,84478,5,8,3:2:0:0:
407,186,84556,1,2,1:3:0:0:
385,168,84634,1,2,1:3:0:0:
341,165,84712,1,2,1:3:0:0:
296,205,84790,1,8,1:3:0:0:
305,281,84868,1,4,1:3:0:0:
381,327,84946,6,0,P|429:330|479:328,1,100,6|0,3:2|3:3,0:3:0:0:
403,52,85415,6,0,B|264:20|307:132|154:148,1,279.999991455078,14|0,3:2|3:2,0:0:0:0:
5,101,85884,1,0,3:2:0:0:
268,74,86040,2,0,B|281:166|281:166|270:196,1,125,10|0,3:2|0:0,0:0:0:0:
92,96,86353,5,0,3:2:0:0:
248,0,86509,1,0,3:2:0:0:
377,165,86665,1,8,3:2:0:0:
230,293,86821,5,2,2:0:0:0:
268,74,86978,1,2,3:2:0:0:
488,78,87134,1,2,3:2:0:0:
450,296,87290,1,8,3:2:0:0:
166,349,87446,6,0,P|74:314|55:165,1,260.415988098145,6|2,3:2|3:2,0:0:0:0:
89,97,87915,1,8,3:2:0:0:
230,293,88071,1,2,3:2:0:0:
230,293,88149,1,0,3:2:0:0:
230,293,88228,5,0,3:2:0:0:
381,141,88384,1,2,3:2:0:0:
437,222,88540,1,8,3:2:0:0:
229,204,88696,1,2,3:2:0:0:
137,15,88853,1,0,3:2:0:0:
345,33,89009,5,12,3:2:0:0:
230,293,89165,1,0,3:2:0:0:
404,312,89321,5,12,3:2:0:0:
193,121,89478,1,0,3:2:0:0:
230,293,89634,5,14,3:2:0:0:
476,151,89790,1,2,3:2:0:0:
193,121,89946,6,0,P|71:139|33:256,1,260.415988098145,6|2,3:2|3:2,0:0:0:0:
476,151,90415,5,10,3:2:0:0:
291,51,90571,1,2,3:2:0:0:
128,180,90728,1,14,3:2:0:0:
312,278,90884,1,2,2:0:0:0:
86,82,91040,5,2,3:2:0:0:
232,384,91196,1,2,3:2:0:0:
383,239,91353,5,14,3:2:0:0:
49,286,91509,1,2,0:2:0:0:
291,51,91665,6,0,B|244:110|244:110|261:253,1,220.352006713867,14|0,3:2|3:2,0:0:0:0:
280,325,92134,1,2,3:2:0:0:
375,75,92290,1,10,3:2:0:0:
346,1,92446,6,0,B|221:1|238:85|106:85,1,260.415988098145,6|2,3:2|3:2,0:0:0:0:
127,8,92915,1,14,3:2:0:0:
354,95,93071,1,2,3:2:0:0:
285,0,93228,1,14,3:2:0:0:
101,128,93384,1,2,3:2:0:0:
218,76,93540,5,2,2:0:0:0:
248,337,93696,2,0,L|252:376,2,36.7253344523113,0|0|0,3:2|3:2|3:2,0:0:0:0:
246,322,93853,5,10,3:2:0:0:
397,279,94009,1,0,3:2:0:0:
282,252,94165,5,0,3:0:0:0:
131,209,94321,1,2,3:0:0:0:
224,159,94478,5,8,3:0:0:0:
430,75,94634,1,4,3:0:0:0:
487,234,94790,5,8,3:2:0:0:
487,234,94868,1,2,1:3:0:0:
495,254,94946,1,8,1:3:0:0:
496,297,95024,1,4,1:3:0:0:
467,357,95103,6,0,B|419:350|418:375|360:373,1,100,6|0,3:2|0:0,0:0:0:0:
225,268,95571,2,0,B|272:261|273:286|331:284,1,100,0|0,3:2|0:0,0:0:0:0:
421,158,96040,2,0,P|412:181|404:205,1,50,0|0,3:2|0:0,0:0:0:0:
272,61,96353,6,0,P|282:110|261:154,1,100,10|0,3:2|0:0,0:0:0:0:
26,246,96821,2,0,P|16:197|37:153,1,100,0|0,3:2|0:0,0:0:0:0:
154,317,97290,2,0,P|151:342|152:367,1,50,0|0,3:2|0:0,0:0:0:0:
423,343,97603,6,0,B|381:318|381:318|331:333,1,100,6|0,3:2|0:0,0:0:0:0:
172,184,98071,2,0,B|222:199|222:199|263:174,1,100,0|0,3:2|0:0,0:0:0:0:
486,28,98540,2,0,P|461:24|435:23,1,50,0|0,3:2|0:0,0:0:0:0:
375,56,98853,5,10,3:2:0:0:
375,56,99165,5,2,1:3:0:0:
292,92,99269,5,8,1:3:0:0:
206,53,99373,5,8,1:2:0:0:
91,119,99478,5,8,3:2:0:0:
91,119,99946,1,2,0:0:0:0:
91,119,100024,1,2,0:0:0:0:
91,119,100103,6,0,B|70:171|70:171|77:218,1,100.16,6|0,3:2|0:0,0:0:0:0:
274,245,100571,2,0,B|295:193|295:193|287:145,1,100.16,2|0,3:2|0:0,0:0:0:0:
169,279,101040,2,0,L|160:344,1,50.08,2|0,3:2|0:0,0:0:0:0:
203,86,101353,5,8,3:2:0:0:
203,86,101821,1,8,1:2:0:0:
203,86,102290,1,0,3:2:0:0:
418,66,102603,6,0,P|459:93|484:135,1,100.16,6|0,3:2|0:0,0:0:0:0:
346,131,103071,2,0,P|296:131|251:153,1,100.16,2|0,3:2|0:0,0:0:0:0:
404,258,103540,2,0,L|419:183,1,50.08,2|0,3:2|0:0,0:0:0:0:
307,377,103853,5,8,3:2:0:0:
307,377,104165,5,0,3:2:0:0:
146,327,104321,1,8,3:2:0:0:
307,377,104634,5,0,3:2:0:0:
226,352,104790,1,0,3:2:0:0:
146,327,104946,1,0,3:2:0:0:
12,371,105103,6,0,L|-10:265,1,100.16,6|0,3:2|0:0,0:0:0:0:
73,213,105571,2,0,L|95:107,1,100.16,2|0,3:2|0:0,0:0:0:0:
3,15,106040,2,0,L|11:73,1,50.08,2|0,3:2|0:0,0:0:0:0:
176,22,106353,5,8,3:2:0:0:
176,22,106821,1,0,3:2:0:0:
176,22,107290,1,0,3:2:0:0:
321,111,107603,6,0,P|368:95|417:91,1,100.16,6|0,3:2|0:0,0:0:0:0:
273,213,108071,2,0,P|225:196|176:192,1,100.16,2|0,3:2|0:0,0:0:0:0:
404,298,108540,2,0,P|408:270|418:235,1,50.08,2|0,3:2|0:0,0:0:0:0:
223,368,108853,5,8,3:2:0:0:
223,368,109321,5,0,3:2:0:0:
113,310,109478,1,8,3:2:0:0:
37,351,109634,1,0,3:2:0:0:
184,146,109790,5,0,3:2:0:0:
194,180,109868,1,2,1:3:0:0:
183,216,109946,1,8,1:3:0:0:
196,250,110024,1,4,1:3:0:0:
196,250,110103,6,0,L|306:231,1,100.16,6|0,3:2|0:0,0:0:0:0:
382,175,110571,2,0,L|492:194,1,100.16,2|0,3:2|0:0,0:0:0:0:
362,81,111040,2,0,L|305:106,1,50.08,2|0,3:2|0:0,0:0:0:0:
175,39,111353,5,8,3:2:0:0:
175,39,111821,1,8,1:2:0:0:
175,39,112290,1,0,3:2:0:0:
28,156,112603,6,0,B|21:211|21:211|40:255,1,100.16,6|0,3:2|0:0,0:0:0:0:
237,230,113071,2,0,B|243:174|243:174|224:130,1,100.16,2|0,3:2|0:0,0:0:0:0:
144,290,113540,2,0,L|152:355,1,50.08,2|0,3:2|0:0,0:0:0:0:
122,109,113853,5,8,3:2:0:0:
122,109,114165,5,8,1:3:0:0:
283,59,114321,1,8,1:2:0:0:
122,109,114634,5,0,3:2:0:0:
203,84,114790,1,0,3:2:0:0:
283,59,114946,1,0,3:2:0:0:
425,129,115103,6,0,L|408:247,1,100.16,6|0,3:2|0:0,0:0:0:0:
265,232,115571,2,0,L|282:350,1,100.16,2|0,3:2|0:0,0:0:0:0:
481,362,116040,2,0,L|486:312,1,50.08,2|0,3:2|0:0,0:0:0:0:
507,108,116353,5,8,3:2:0:0:
507,108,116821,1,8,1:2:0:0:
507,108,117290,1,0,3:2:0:0:
377,43,117603,6,0,P|329:27|279:26,1,100.16,6|0,3:2|0:0,0:0:0:0:
198,79,118071,1,2,3:2:0:0:
198,79,118228,2,0,P|138:96|89:128,1,100.16,4|2,3:2|3:2,0:0:0:0:
11,229,118853,5,8,3:2:0:0:
11,229,119009,1,0,3:2:0:0:
130,307,119321,5,0,3:2:0:0:
213,276,119478,2,0,L|236:277,1,12.5,10|8,3:2|3:2,0:0:0:0:
138,271,119634,1,0,3:2:0:0:
306,355,119790,5,10,3:2:0:0:
421,295,119946,1,2,3:2:0:0:
360,112,120103,5,4,3:2:0:0:
360,112,120259,2,0,L|285:119,1,75.1200028610231,0|0,3:2|0:0,0:0:0:0:
186,75,120571,1,0,3:2:0:0:
103,148,120728,1,8,3:2:0:0:
244,197,120884,1,0,3:2:0:0:
182,149,121040,1,0,3:2:0:0:
64,242,121196,1,0,3:2:0:0:
205,291,121353,5,4,3:2:0:0:
322,198,121509,2,0,L|397:205,1,75.1200028610231,0|0,3:2|0:0,0:0:0:0:
495,273,121821,1,0,3:2:0:0:
360,337,121978,1,10,3:2:0:0:
477,366,122134,1,0,3:2:0:0:
408,259,122290,2,0,L|398:177,1,75.1200028610231,2|2,3:2|3:2,0:0:0:0:
382,76,122603,5,4,3:2:0:0:
309,41,122759,2,0,P|297:86|297:140,1,75.1200028610231,0|0,3:2|0:0,0:0:0:0:
308,192,123071,1,0,3:2:0:0:
278,339,123228,1,8,3:2:0:0:
216,290,123384,1,0,3:2:0:0:
118,345,123540,2,0,L|31:365,1,75.1200028610231,0|0,3:2|3:2,0:0:0:0:
20,241,123853,5,4,3:2:0:0:
73,184,124009,2,0,L|160:204,1,75.1200028610231,0|0,3:2|0:0,0:0:0:0:
263,226,124321,1,0,3:2:0:0:
187,127,124478,1,10,3:2:0:0:
267,152,124634,1,2,3:2:0:0:
267,152,124712,1,0,3:2:0:0:
267,152,124790,1,0,3:2:0:0:
344,106,124946,1,2,3:2:0:0:
255,65,125103,5,4,3:2:0:0:
365,204,125259,2,0,L|450:189,1,75.1200028610231,2|0,3:2|0:0,0:0:0:0:
494,136,125571,1,2,3:2:0:0:
489,259,125728,2,0,B|505:297|505:297|501:332,1,75.1200028610231,8|2,3:2|3:2,0:0:0:0:
347,355,126040,2,0,B|330:316|330:316|334:281,1,75.1200028610231,0|2,3:2|3:2,0:0:0:0:
392,118,126353,5,4,3:2:0:0:
282,194,126509,2,0,B|202:182|211:233|124:222,1,150.240005722046,0|0,3:2|3:2,0:0:0:0:
80,163,126978,2,0,P|73:120|63:89,1,75.1200028610231,10|2,3:2|3:2,0:0:0:0:
29,228,127290,1,2,3:2:0:0:
157,140,127446,1,2,3:2:0:0:
229,174,127603,5,4,3:2:0:0:
182,64,127759,2,0,P|110:71|73:133,1,150.240005722046,2|2,3:2|3:2,0:0:0:0:
91,292,128228,1,8,3:2:0:0:
130,226,128384,1,2,3:2:0:0:
130,226,128696,5,2,3:2:0:0:
227,295,128853,1,4,3:2:0:0:
275,157,129009,5,8,1:3:0:0:
317,142,129087,1,8,3:2:0:0:
359,155,129165,1,8,3:2:0:0:
383,183,129243,1,8,3:2:0:0:
409,204,129321,1,0,3:2:0:0:
436,215,129399,1,0,3:2:0:0:
462,216,129478,5,10,3:2:0:0:
484,210,129556,1,2,1:3:0:0:
497,197,129634,1,2,1:3:0:0:
502,178,129712,1,2,1:3:0:0:
497,159,129790,1,8,1:3:0:0:
485,144,129868,1,8,1:3:0:0:
467,137,129946,1,8,1:3:0:0:
448,141,130024,1,4,1:3:0:0:
434,154,130103,5,4,3:2:0:0:
388,345,130259,2,0,P|313:353|243:379,1,150.240005722046,0|0,3:2|3:2,0:0:0:0:
261,297,130728,1,8,3:2:0:0:
384,371,130884,1,0,3:2:0:0:
351,298,131040,1,0,3:2:0:0:
229,379,131196,1,0,3:2:0:0:
306,227,131353,5,4,3:2:0:0:
434,305,131509,2,0,P|445:239|465:157,1,150.240005722046,0|0,3:2|3:2,0:0:0:0:
487,85,131978,1,10,3:2:0:0:
426,42,132134,1,2,3:2:0:0:
426,42,132212,1,0,3:2:0:0:
426,42,132290,1,0,3:2:0:0:
499,63,132446,1,2,3:2:0:0:
375,119,132603,5,4,3:2:0:0:
267,62,132759,2,0,B|190:64|198:106|127:110,1,150.240005722046,0|0,3:2|3:2,0:0:0:0:
125,35,133228,1,10,3:2:0:0:
273,143,133384,1,2,3:2:0:0:
273,143,133696,6,0,L|270:181,2,25.0400009536744,0|0|0,3:2|3:2|3:2,0:0:0:0:
276,122,133853,5,10,3:2:0:0:
160,158,134009,1,0,3:2:0:0:
116,80,134165,5,0,3:0:0:0:
0,44,134321,1,2,3:0:0:0:
30,116,134478,5,8,3:0:0:0:
178,27,134634,1,4,3:0:0:0:
207,264,134790,5,8,3:2:0:0:
243,254,134868,1,2,1:3:0:0:
279,263,134946,1,8,1:3:0:0:
314,249,135024,1,4,1:3:0:0:
314,249,135103,6,0,L|311:287,1,30.0479990844727,8|0,3:2|0:0,0:0:0:0:
384,279,135415,2,0,L|381:317,1,30.0479990844727,8|0,2:0|0:0,0:0:0:0:
467,150,135728,6,0,L|464:120,1,30.0479990844727,8|0,2:0|0:0,0:0:0:0:
397,180,136040,2,0,L|394:150,1,30.0479990844727,8|0,2:0|0:0,0:0:0:0:
198,249,136353,6,0,L|201:287,1,30.0479990844727,8|0,2:0|0:0,0:0:0:0:
128,279,136665,2,0,L|131:317,1,30.0479990844727,8|0,2:0|0:0,0:0:0:0:
45,150,136978,6,0,L|47:120,1,30.0479990844727,8|0,2:0|0:0,0:0:0:0:
115,180,137290,2,0,L|117:150,1,30.0479990844727,8|0,2:0|3:2,0:0:0:0:
182,35,137524,1,0,3:2:0:0:
182,35,137603,6,0,L|184:64,1,30.0479990844727,8|0,2:0|0:0,0:0:0:0:
252,5,137915,2,0,L|254:34,1,30.0479990844727,8|0,2:0|0:0,0:0:0:0:
467,90,138228,6,0,L|464:119,1,30.0479990844727,8|0,2:0|0:0,0:0:0:0:
397,60,138540,2,0,L|394:89,1,30.0479990844727,8|0,2:0|0:0,0:0:0:0:
370,242,138853,5,8,0:0:0:0:
342,364,139087,1,8,0:0:0:0:
221,337,139321,1,8,0:0:0:0:
387,229,139478,5,8,0:0:0:0:
354,382,139712,1,8,0:0:0:0:
201,350,139946,1,8,0:0:0:0:
197,221,140103,5,10,0:0:0:0:
198,65,140258,1,0,0:0:0:0:
165,143,140414,1,8,0:0:0:0:
275,33,140570,1,0,0:0:0:0:
154,143,140727,5,10,0:0:0:0:
275,22,140884,1,0,0:0:0:0:
190,58,141040,1,8,0:0:0:0:
360,58,141195,1,0,0:0:0:0:
182,50,141352,5,10,0:0:0:0:
368,50,141508,1,0,0:0:0:0:
275,11,141665,1,8,0:0:0:0:
407,143,141821,1,0,0:0:0:0:
275,0,141977,5,10,0:0:0:0:
418,143,142134,1,0,0:0:0:0:
376,42,142290,1,8,0:0:0:0:
376,244,142446,1,0,0:0:0:0:
274,143,142602,5,10,0:0:0:0:
263,142,142681,1,2,0:0:0:0:
254,140,142759,1,2,0:0:0:0:
245,139,142837,1,2,0:0:0:0:
236,137,142915,1,10,0:0:0:0:
227,133,142993,1,2,0:0:0:0:
219,130,143071,1,2,0:0:0:0:
211,126,143149,1,2,0:0:0:0:
203,120,143228,1,10,0:0:0:0:
195,115,143306,1,2,0:0:0:0:
188,109,143384,1,2,0:0:0:0:
182,102,143462,1,2,0:0:0:0:
176,95,143540,1,10,0:0:0:0:
170,87,143618,1,2,0:0:0:0:
165,79,143696,1,2,0:0:0:0:
161,71,143774,1,2,0:0:0:0:
157,63,143853,5,6,0:0:0:0:
162,108,144009,6,0,L|167:162,1,55.088,2|0,2:0|0:0,0:0:0:0:
260,118,144946,6,0,P|131:130|82:9,1,279.999991455078,6|0,3:2|3:2,0:0:0:0:
312,44,145415,2,0,P|410:83|435:186,1,220.000006713867,8|0,3:2|3:2,0:0:0:0:
417,260,145884,1,0,3:2:0:0:
193,219,146040,6,0,P|95:258|70:361,1,220.000006713867,10|0,3:2|3:2,0:0:0:0:
435,343,146509,1,0,3:2:0:0:
260,168,146665,1,8,3:2:0:0:
175,306,146821,5,2,2:0:0:0:
383,238,146978,1,2,3:2:0:0:
245,70,147134,1,2,3:2:0:0:
37,137,147290,1,8,3:2:0:0:
260,168,147446,6,0,P|371:104|454:4,1,259.999988098145,6|2,3:2|3:2,0:0:0:0:
374,0,147915,1,8,3:2:0:0:
264,254,148071,1,2,3:2:0:0:
264,254,148149,1,0,3:2:0:0:
264,254,148228,5,0,3:2:0:0:
317,137,148384,1,2,3:2:0:0:
512,279,148540,1,8,3:2:0:0:
478,152,148696,1,2,3:2:0:0:
380,303,148853,1,0,3:2:0:0:
377,38,149009,5,12,3:2:0:0:
436,240,149165,1,0,3:2:0:0:
202,314,149321,5,12,3:2:0:0:
261,112,149478,1,0,3:2:0:0:
86,240,149634,5,14,3:2:0:0:
27,38,149790,1,2,3:2:0:0:
127,166,149946,6,0,P|246:202|286:320,1,260.415988098145,6|2,3:2|3:2,0:0:0:0:
15,158,150415,5,10,3:2:0:0:
194,49,150571,1,2,3:2:0:0:
362,175,150728,1,14,3:2:0:0:
183,284,150884,1,2,2:0:0:0:
43,180,151040,5,2,3:2:0:0:
280,16,151196,1,2,3:2:0:0:
329,185,151353,5,14,3:2:0:0:
103,13,151509,1,2,0:2:0:0:
183,284,151665,6,0,P|189:173|200:64,1,220.352006713867,14|0,3:2|3:2,0:0:0:0:
276,90,152134,1,2,3:2:0:0:
113,119,152290,1,10,3:2:0:0:
479,352,152446,6,0,P|445:231|327:189,1,260.415988098145,6|2,3:2|3:2,0:0:0:0:
254,203,152915,1,14,3:2:0:0:
38,331,153071,1,2,3:2:0:0:
3,185,153228,1,14,3:2:0:0:
202,344,153384,1,2,3:2:0:0:
140,119,153540,5,2,2:0:0:0:
140,119,153696,1,0,3:2:0:0:
125,282,153853,1,14,3:2:0:0:
495,225,154009,5,8,1:3:0:0:
461,155,154087,1,8,1:2:0:0:
389,126,154165,1,8,3:2:0:0:
328,150,154243,1,8,3:2:0:0:
300,202,154321,1,2,3:2:0:0:
302,257,154399,1,0,3:2:0:0:
371,312,154478,5,8,3:2:0:0:
371,312,154556,1,2,1:3:0:0:
382,286,154634,1,2,1:3:0:0:
383,242,154712,1,2,1:3:0:0:
342,196,154790,1,8,1:3:0:0:
265,201,154868,1,4,1:3:0:0:
212,273,154946,6,0,P|208:323|211:373,1,100,6|0,3:2|3:2,0:0:0:0:
455,38,155415,6,0,B|300:-1|337:117|203:125,1,279.999991455078,14|0,3:2|3:2,0:0:0:0:
210,49,155884,1,0,3:2:0:0:
389,255,156040,2,0,B|414:175|414:175|402:136,1,125,10|0,3:2|0:0,0:0:0:0:
51,263,156353,5,0,3:2:0:0:
142,371,156509,1,0,3:2:0:0:
203,202,156665,1,8,3:2:0:0:
131,251,156821,5,2,2:0:0:0:
343,336,156978,1,2,3:2:0:0:
459,140,157134,1,2,3:2:0:0:
246,55,157290,1,8,3:2:0:0:
280,185,157446,6,0,P|371:114|465:5,1,259.999988098145,6|2,3:2|3:2,0:0:0:0:
385,0,157915,1,8,3:2:0:0:
448,231,158071,1,2,3:2:0:0:
448,231,158149,1,0,3:2:0:0:
448,231,158228,5,0,3:2:0:0:
244,111,158384,1,2,3:2:0:0:
178,210,158540,1,8,3:2:0:0:
365,302,158696,1,2,3:2:0:0:
327,95,158853,1,0,3:2:0:0:
140,4,159009,5,12,3:2:0:0:
78,237,159165,1,0,3:2:0:0:
304,369,159321,5,12,3:2:0:0:
242,136,159478,1,0,3:2:0:0:
406,237,159634,5,14,3:2:0:0:
468,4,159790,1,2,3:2:0:0:
356,151,159946,6,0,B|215:141|254:224|111:219,1,260.415988098145,6|2,3:2|3:2,0:0:0:0:
494,201,160415,5,10,3:2:0:0:
297,81,160571,1,2,3:2:0:0:
112,219,160728,1,14,3:2:0:0:
309,339,160884,1,2,2:0:0:0:
464,219,161040,5,2,3:2:0:0:
196,49,161196,1,2,3:2:0:0:
149,236,161353,5,14,3:2:0:0:
391,39,161509,1,2,0:2:0:0:
309,339,161665,6,0,P|278:241|165:216,1,220.352006713867,14|0,3:2|3:2,0:0:0:0:
204,286,162134,1,2,3:2:0:0:
268,10,162290,1,10,3:2:0:0:
196,49,162446,6,0,P|235:164|357:170,1,260.415988098145,6|2,3:2|3:2,0:0:0:0:
305,115,162915,1,14,3:2:0:0:
64,241,163071,1,2,3:2:0:0:
114,102,163228,1,14,3:2:0:0:
315,262,163384,1,2,3:2:0:0:
194,216,163540,5,2,2:0:0:0:
216,41,163696,2,0,L|221:3,2,36.7253344523113,0|0|0,3:2|3:2|3:2,0:0:0:0:
214,59,163853,5,10,3:2:0:0:
400,119,164009,1,0,3:2:0:0:
274,154,164165,5,0,3:0:0:0:
87,214,164321,1,2,3:0:0:0:
205,273,164478,5,8,3:0:0:0:
417,354,164634,1,4,3:0:0:0:
496,178,164790,5,8,3:2:0:0:
496,178,164868,1,2,1:3:0:0:
504,157,164946,1,8,1:3:0:0:
508,113,165024,1,4,1:3:0:0:
481,51,165103,6,0,L|381:38,1,100.16,6|0,3:2|0:0,0:0:0:0:
278,141,165571,2,0,L|178:154,1,100.16,2|0,3:2|0:0,0:0:0:0:
32,53,166040,2,0,L|81:62,1,50.08,2|0,3:2|0:0,0:0:0:0:
262,24,166353,5,8,3:2:0:0:
262,24,166821,1,0,3:2:0:0:
262,24,167290,1,0,3:2:0:0:
358,91,167603,6,0,B|366:145|366:145|349:190,1,100.16,6|0,3:2|0:0,0:0:0:0:
142,171,168071,2,0,B|134:117|134:117|150:71,1,100.16,2|0,3:2|0:0,0:0:0:0:
244,229,168540,2,0,P|239:274|235:300,1,50.08,2|0,3:2|0:0,0:0:0:0:
219,379,168853,5,8,3:2:0:0:
219,379,169165,5,0,3:2:0:0:
58,329,169321,1,8,3:2:0:0:
219,379,169634,5,0,3:2:0:0:
138,354,169790,1,0,3:2:0:0:
58,329,169946,1,8,3:1:0:0:
244,229,170103,6,0,P|289:209|338:214,1,100.16,6|0,3:2|0:0,0:0:0:0:
415,365,170571,2,0,P|394:320|354:290,1,100.16,2|0,3:2|0:0,0:0:0:0:
476,257,171040,2,0,L|423:227,1,50.08,2|0,3:2|0:0,0:0:0:0:
335,130,171353,5,8,3:2:0:0:
335,130,171821,1,0,3:2:0:0:
335,130,172290,1,0,3:2:0:0:
472,39,172603,6,0,P|422:36|372:47,1,100.16,6|0,3:2|0:0,0:0:0:0:
241,104,173071,2,0,P|191:107|142:95,1,100.16,2|0,3:2|0:0,0:0:0:0:
338,179,173540,2,0,L|333:115,1,50.08,2|0,3:2|0:0,0:0:0:0:
224,222,173853,5,8,1:3:0:0:
187,199,173931,1,8,1:2:0:0:
144,198,174009,1,8,3:2:0:0:
111,217,174087,1,8,3:2:0:0:
76,222,174165,1,0,3:2:0:0:
46,208,174243,1,0,3:2:0:0:
31,181,174321,1,8,3:2:0:0:
31,153,174399,1,8,1:3:0:0:
42,130,174478,5,8,3:2:0:0:
61,119,174556,1,8,1:3:0:0:
80,117,174634,1,0,3:2:0:0:
96,123,174712,1,0,3:2:0:0:
107,132,174790,1,8,1:3:0:0:
114,145,174868,1,4,1:3:0:0:
116,159,174946,1,8,3:0:0:0:
115,173,175024,1,4,3:0:0:0:
96,203,175103,6,0,P|136:175|185:179,1,100.16,6|0,3:2|0:0,0:0:0:0:
223,325,175571,2,0,P|201:280|157:258,1,100.16,2|0,3:2|0:0,0:0:0:0:
89,384,176040,2,0,L|74:329,1,50.08,2|0,3:2|0:0,0:0:0:0:
21,170,176353,5,8,3:2:0:0:
21,170,176821,1,0,3:2:0:0:
21,170,177290,1,0,3:2:0:0:
177,131,177603,6,0,L|289:146,1,100.16,6|0,3:2|0:0,0:0:0:0:
124,62,178071,2,0,L|24:75,1,100.16,2|0,3:2|0:0,0:0:0:0:
118,256,178540,2,0,L|130:191,1,50.08,2|0,3:2|0:0,0:0:0:0:
175,0,178853,5,8,3:2:0:0:
257,65,179321,6,0,L|253:89,2,16.6933333333334,0|0|0,3:2|3:2|3:2,0:0:0:0:
260,50,179478,5,8,3:2:0:0:
371,106,179634,1,0,3:2:0:0:
274,185,179790,1,0,3:2:0:0:
163,129,179946,1,0,3:2:0:0:
352,13,180103,6,0,P|375:61|384:109,1,100.16,6|0,3:2|0:0,0:0:0:0:
460,193,180571,2,0,P|455:246|439:292,1,100.16,2|0,3:2|0:0,0:0:0:0:
304,326,181040,2,0,L|312:376,1,50.08,2|0,3:2|0:0,0:0:0:0:
274,185,181353,5,8,3:2:0:0:
274,185,181821,1,0,3:2:0:0:
274,185,182290,1,0,3:2:0:0:
130,351,182603,6,0,P|125:304|112:244,1,100.16,6|0,3:2|0:0,0:0:0:0:
0,331,183071,2,0,P|5:284|18:224,1,100.16,2|0,3:2|0:0,0:0:0:0:
84,73,183540,2,0,L|91:135,1,50.08,2|0,3:2|0:0,0:0:0:0:
216,377,183853,5,8,3:2:0:0:
256,192,184009,1,8,3:2:0:0:
256,192,184321,5,0,3:2:0:0:
388,165,184478,5,8,3:2:0:0:
281,334,184634,1,2,3:0:0:0:
120,217,184790,1,8,3:0:0:0:
227,51,184946,1,4,3:0:0:0:
505,272,185103,6,0,L|501:147,1,119.999996337891,6|2,3:2|1:2,0:0:0:0:
442,82,186040,1,0,3:2:0:0:
359,188,186353,5,8,1:0:0:0:
357,199,186509,1,0,1:2:0:0:
292,153,186665,1,0,3:2:0:0:
290,164,186821,1,0,3:2:0:0:
213,183,186978,1,0,3:2:0:0:
211,194,187134,2,0,B|221:213|217:240|217:240|221:248|221:248|223:256|222:266,1,74.9999977111817,2|0,2:0|2:0,0:0:0:0:
224,280,187603,6,0,L|160:298,1,60.0959981689454,6|0,3:2|1:2,0:0:0:0:
120,354,188071,1,0,1:2:0:0:
60,300,188228,1,8,1:0:0:0:
50,306,188384,1,0,1:2:0:0:
119,264,188540,1,0,1:2:0:0:
127,272,188696,1,0,1:2:0:0:
42,154,188853,5,0,3:2:0:0:
38,132,189009,1,0,1:2:0:0:
34,110,189165,1,0,1:2:0:0:
143,102,189321,5,0,1:2:0:0:
147,80,189478,1,0,3:2:0:0:
151,58,189634,1,0,1:2:0:0:
262,78,189790,5,0,1:2:0:0:
271,57,189946,1,0,1:2:0:0:
370,139,190103,6,0,L|351:264,1,120.191996337891,6|0,3:2|0:0,0:0:0:0:
409,346,191040,1,0,3:2:0:0:
284,321,191353,5,8,1:0:0:0:
262,325,191509,1,0,1:0:0:0:
240,329,191665,1,0,1:0:0:0:
168,275,191821,5,0,1:0:0:0:
146,271,191978,1,0,3:2:0:0:
124,267,192134,1,0,1:0:0:0:
44,336,192290,5,0,1:0:0:0:
22,340,192446,1,0,1:0:0:0:
40,211,192603,5,6,3:2:0:0:
36,199,192759,1,0,1:2:0:0:
110,176,192915,1,0,1:2:0:0:
106,164,193071,1,0,1:2:0:0:
125,78,193228,5,8,1:0:0:0:
127,66,193384,1,0,1:2:0:0:
202,70,193540,1,0,1:2:0:0:
205,58,193696,1,0,1:2:0:0:
214,177,193853,5,0,3:2:0:0:
288,190,194009,1,0,1:2:0:0:
363,204,194165,1,0,1:2:0:0:
431,128,194321,5,0,1:2:0:0:
445,143,194399,1,0,1:2:0:0:
455,161,194478,1,0,3:2:0:0:
462,181,194556,1,0,3:2:0:0:
465,202,194634,1,0,3:2:0:0:
463,223,194712,1,0,3:2:0:0:
457,243,194790,1,0,3:2:0:0:
447,261,194868,1,0,3:2:0:0:
433,277,194946,1,0,3:2:0:0:
417,290,195024,1,0,3:2:0:0:
398,299,195103,6,0,B|300:294|328:344|226:341,1,179.999994506836,2|2,2:0|0:0,0:0:0:0:
150,298,196353,6,2,L|147:325,14,14.9999995422363,6|0|0|0|0|0|0|0|0|0|0|0|0|0|0,0:0|0:0|0:0|0:0|0:0|0:0|0:0|0:0|0:0|0:0|0:0|0:0|0:0|0:0|0:0,0:0:0:0:
165,281,196978,2,0,L|154:175,1,105.167996795654,12|0,3:3|0:0,0:0:0:0:
155,177,197603,6,0,P|194:175|234:184,1,75.1200028610231,6|0,3:2|0:0,0:0:0:0:
357,92,197915,2,0,P|339:126|311:156,1,75.1200028610231,0|0,3:2|0:0,0:0:0:0:
389,351,198228,2,0,P|357:335|293:225,1,150.240005722046,8|6,3:2|3:2,0:0:0:0:
373,228,198696,1,0,3:2:0:0:
230,325,198853,6,0,L|151:311,1,75.1200028610231,0|0,3:2|0:0,0:0:0:0:
15,258,199165,2,0,L|88:244,1,75.1200028610231,0|0,3:2|0:0,0:0:0:0:
315,153,199478,2,0,L|241:139,1,75.1200028610231,14|0,3:2|0:0,0:0:0:0:
151,156,199790,1,0,3:2:0:0:
223,123,199946,1,0,3:2:0:0:
97,57,200103,6,0,P|136:36|174:31,1,75.1200028610231,6|0,3:2|0:0,0:0:0:0:
315,153,200415,2,0,P|277:129|253:99,1,75.1200028610231,0|0,3:2|0:0,0:0:0:0:
456,13,200728,2,0,L|432:168,1,150.240005722046,8|6,3:2|3:2,0:0:0:0:
467,280,201196,1,0,3:2:0:0:
410,374,201353,6,0,P|376:361|339:355,1,75.1200028610231,0|0,3:2|0:0,0:0:0:0:
276,278,201665,2,0,P|306:255|341:241,1,75.1200028610231,0|0,3:2|0:0,0:0:0:0:
221,124,201978,2,0,P|192:192|174:278,1,150.240005722046,14|0,3:2|3:2,0:0:0:0:
178,359,202446,1,0,3:2:0:0:
75,305,202603,6,0,L|65:229,1,75.1200028610231,6|0,3:2|0:0,0:0:0:0:
130,91,202915,2,0,L|121:166,1,75.1200028610231,0|0,3:2|0:0,0:0:0:0:
257,279,203228,2,0,L|237:127,1,150.240005722046,8|6,3:2|3:2,0:0:0:0:
292,59,203696,1,0,3:2:0:0:
395,192,203853,6,0,L|475:181,1,75.1200028610231,0|0,3:2|0:0,0:0:0:0:
331,289,204165,2,0,L|256:278,1,75.1200028610231,0|0,3:2|0:0,0:0:0:0:
374,43,204478,2,0,L|384:117,1,75.1200028610231,14|0,3:2|0:0,0:0:0:0:
429,297,204790,1,0,3:2:0:0:
492,208,204946,1,0,3:2:0:0:
351,375,205103,6,0,L|276:364,1,75.1200028610231,6|0,3:2|0:0,0:0:0:0:
104,330,205415,2,0,L|178:319,1,75.1200028610231,0|0,3:2|0:0,0:0:0:0:
277,130,205728,2,0,L|256:278,1,150.240005722046,8|6,3:2|3:2,0:0:0:0:
162,228,206196,1,0,3:2:0:0:
35,262,206353,5,0,3:2:0:0:
67,193,206587,1,8,1:2:0:0:
67,193,206665,1,8,3:2:0:0:
25,78,206821,1,8,1:3:0:0:
23,62,206899,1,8,1:2:0:0:
21,46,206978,5,14,3:2:0:0:
49,21,207056,1,2,1:3:0:0:
85,12,207134,1,8,1:3:0:0:
111,25,207212,1,4,1:3:0:0:
135,34,207290,1,8,3:0:0:0:
156,41,207368,1,2,1:3:0:0:
174,41,207446,1,8,1:3:0:0:
188,41,207524,1,4,1:3:0:0:
188,41,207603,6,0,L|176:136,1,75.1200028610231,6|0,3:2|0:0,0:0:0:0:
304,71,207915,2,0,L|315:166,1,75.1200028610231,0|0,3:2|0:0,0:0:0:0:
437,120,208228,2,0,L|417:276,1,150.240005722046,8|6,3:2|3:2,0:0:0:0:
471,376,208696,1,0,3:2:0:0:
336,287,208853,6,0,P|298:290|266:307,1,75.1200028610231,0|0,3:2|0:0,0:0:0:0:
171,197,209165,2,0,P|208:200|240:217,1,75.1200028610231,0|0,3:2|0:0,0:0:0:0:
301,61,209478,2,0,L|310:135,1,75.1200028610231,14|0,3:2|0:0,0:0:0:0:
336,287,209790,1,0,3:2:0:0:
393,178,209946,1,0,3:2:0:0:
300,364,210103,6,0,L|212:355,1,75.1200028610231,6|0,3:2|0:0,0:0:0:0:
131,287,210415,2,0,L|43:296,1,75.1200028610231,0|0,3:2|0:0,0:0:0:0:
118,115,210728,2,0,P|184:145|202:215,1,150.240005722046,8|6,3:2|3:2,0:0:0:0:
129,206,211196,1,0,3:2:0:0:
224,70,211353,6,0,P|271:55|316:54,1,75.1200028610231,0|0,3:2|0:0,0:0:0:0:
354,182,211665,2,0,P|324:158|291:143,1,75.1200028610231,0|0,3:2|0:0,0:0:0:0:
139,162,211978,2,0,L|64:151,1,75.1200028610231,14|0,3:2|0:0,0:0:0:0:
112,74,212290,1,0,3:2:0:0:
222,212,212446,1,0,3:2:0:0:
211,55,212603,6,0,L|219:129,1,75.1200028610231,6|0,3:2|0:0,0:0:0:0:
84,321,212915,2,0,L|93:247,1,75.1200028610231,0|0,3:2|0:0,0:0:0:0:
299,268,213228,2,0,L|282:118,1,150.240005722046,8|6,3:2|3:2,0:0:0:0:
351,65,213696,1,0,3:2:0:0:
450,221,213853,6,0,P|416:205|379:198,1,75.1200028610231,0|0,3:2|0:0,0:0:0:0:
325,355,214165,2,0,P|355:333|390:320,1,75.1200028610231,0|0,3:2|0:0,0:0:0:0:
501,383,214478,2,0,L|514:298,1,75.1200028610231,14|0,3:2|0:0,0:0:0:0:
475,142,214790,1,0,3:2:0:0:
428,307,214946,1,0,3:2:0:0:
311,196,215103,5,6,3:2:0:0:
311,196,215259,1,0,3:2:0:0:
352,112,215415,5,8,3:2:0:0:
239,282,215571,1,0,3:2:0:0:
257,120,215728,5,14,3:2:0:0:
398,268,215884,1,0,3:2:0:0:
298,36,216040,5,0,3:2:0:0:
298,36,216196,1,0,3:2:0:0:
425,25,216353,5,14,3:2:0:0:
200,205,216509,1,0,3:2:0:0:
170,47,216665,5,12,3:2:0:0:
423,186,216821,1,0,3:2:0:0:
298,36,216978,6,0,L|296:10,1,18.7500007152558,14|8,3:2|3:2,0:0:0:0:
311,196,217134,1,0,3:2:0:0:
325,355,217290,1,12,3:2:0:0:
235,142,217446,6,0,P|103:158|80:302,1,279.999991455078,6|0,3:2|3:2,0:0:0:0:
304,251,217915,2,0,B|342:149|342:149|308:43,1,220.000006713867,8|0,3:2|3:2,0:0:0:0:
380,8,218384,1,0,3:2:0:0:
33,54,218540,2,0,B|-5:156|-5:156|28:261,1,220.000006713867,10|0,3:2|3:2,0:0:0:0:
216,252,219009,1,0,3:2:0:0:
125,49,219165,1,8,3:2:0:0:
144,352,219321,5,2,2:0:0:0:
367,310,219478,1,2,3:2:0:0:
236,124,219634,1,2,3:2:0:0:
12,165,219790,1,8,3:2:0:0:
306,211,219946,6,0,P|409:132|481:24,1,259.999988098145,6|2,3:2|3:2,0:0:0:0:
404,1,220415,1,8,3:2:0:0:
259,141,220571,1,2,3:2:0:0:
259,141,220649,1,0,3:2:0:0:
259,141,220728,5,0,3:2:0:0:
268,14,220884,1,2,3:2:0:0:
444,104,221040,1,8,3:2:0:0:
306,211,221196,1,2,3:2:0:0:
151,124,221353,1,0,3:2:0:0:
289,17,221509,5,12,3:2:0:0:
171,318,221665,1,0,3:2:0:0:
151,124,221821,5,12,3:2:0:0:
471,76,221978,1,0,3:2:0:0:
490,269,222134,5,14,3:2:0:0:
289,17,222290,1,2,3:2:0:0:
332,381,222446,6,0,P|342:263|382:123,1,260.415988098145,6|2,3:2|3:2,0:0:0:0:
79,255,222915,5,10,3:2:0:0:
245,148,223071,1,2,3:2:0:0:
426,235,223228,1,14,3:2:0:0:
257,339,223384,1,2,2:0:0:0:
79,255,223540,5,2,3:2:0:0:
347,35,223696,1,2,3:2:0:0:
426,235,223853,5,14,3:2:0:0:
133,47,224009,1,2,0:2:0:0:
257,375,224165,6,0,P|264:248|289:138,1,220.000006713867,14|0,3:2|3:2,0:0:0:0:
350,199,224634,1,2,3:2:0:0:
9,210,224790,1,10,3:2:0:0:
68,150,224946,6,0,B|208:150|189:70|329:86,1,260.415988098145,6|2,3:2|3:2,0:0:0:0:
299,162,225415,1,14,3:2:0:0:
56,34,225571,1,2,3:2:0:0:
9,210,225728,1,14,3:2:0:0:
221,14,225884,1,2,3:2:0:0:
166,285,226040,5,2,2:0:0:0:
166,285,226196,1,0,3:2:0:0:
144,90,226353,1,14,3:2:0:0:
512,152,226509,5,8,1:3:0:0:
503,73,226587,1,8,1:2:0:0:
445,21,226665,1,8,3:2:0:0:
380,23,226743,1,8,3:2:0:0:
335,63,226821,1,2,3:2:0:0:
318,114,226899,1,0,3:2:0:0:
374,192,226978,5,8,3:2:0:0:
374,192,227056,1,2,1:3:0:0:
358,168,227134,1,2,1:3:0:0:
321,143,227212,1,2,1:3:0:0:
261,141,227290,1,8,1:3:0:0:
201,190,227368,1,4,1:3:0:0:
176,276,227446,6,0,P|175:326|177:375,1,100,6|0,3:2|3:2,0:0:0:0:
88,52,227915,6,0,B|239:15|211:131|346:126,1,279.999991455078,14|0,3:2|3:2,0:0:0:0:
345,52,228384,1,0,3:2:0:0:
16,119,228540,2,0,B|3:35|3:35|21:0,1,125,10|0,3:2|0:0,0:0:0:0:
111,149,228853,5,0,3:2:0:0:
55,353,229009,1,0,3:2:0:0:
4,196,229165,1,8,3:2:0:0:
138,272,229321,5,2,2:0:0:0:
334,192,229478,1,2,3:2:0:0:
198,31,229634,1,2,3:2:0:0:
14,110,229790,1,8,3:2:0:0:
380,105,229946,6,0,P|495:147|511:270,1,260.415988098145,6|2,3:2|3:2,0:0:0:0:
482,345,230415,1,8,3:2:0:0:
299,154,230571,1,2,3:2:0:0:
299,154,230649,1,0,3:2:0:0:
299,154,230728,1,0,3:2:0:0:
493,37,230884,1,2,3:2:0:0:
430,192,231040,5,8,3:2:0:0:
248,251,231196,1,2,3:2:0:0:
188,73,231353,1,0,3:2:0:0:
370,14,231509,5,12,3:2:0:0:
488,315,231665,1,0,3:2:0:0:
188,73,231821,5,12,3:2:0:0:
508,121,231978,1,0,3:2:0:0:
169,266,232134,5,14,3:2:0:0:
370,14,232290,1,2,3:2:0:0:
327,378,232446,6,0,P|283:267|189:164,1,259.999988098145,6|2,3:2|3:2,0:0:0:0:
417,217,232915,5,10,3:2:0:0:
251,110,233071,1,2,3:2:0:0:
70,197,233228,1,14,3:2:0:0:
239,301,233384,1,2,2:0:0:0:
417,217,233540,5,2,3:2:0:0:
409,179,233618,1,0,3:2:0:0:
423,143,233696,1,2,3:2:0:0:
413,105,233774,1,0,3:2:0:0:
413,105,233853,1,14,3:2:0:0:
70,197,234009,1,2,2:0:0:0:
202,27,234165,5,14,3:2:0:0:
396,325,234321,1,0,3:2:0:0:
191,376,234478,1,0,3:2:0:0:
70,197,234634,5,10,3:2:0:0:
413,105,234790,1,10,3:2:0:0:
202,27,234946,6,0,B|336:28|330:112|441:114,1,260.415988098145,6|2,3:2|3:2,0:0:0:0:
428,36,235415,1,14,3:2:0:0:
168,121,235571,1,2,3:2:0:0:
220,31,235728,1,14,3:2:0:0:
461,134,235884,1,2,3:2:0:0:
314,127,236040,5,2,2:0:0:0:
304,346,236196,2,0,L|306:299,2,36.7253344523113,0|0|0,3:2|3:2|3:2,0:0:0:0:
304,361,236353,5,10,3:2:0:0:
113,294,236509,1,0,3:2:0:0:
202,259,236665,5,0,3:0:0:0:
393,192,236821,1,2,3:0:0:0:
310,156,236978,5,8,3:0:0:0:
98,74,237134,1,4,3:0:0:0:
22,218,237290,5,8,3:2:0:0:
22,218,237368,1,2,1:3:0:0:
14,238,237446,1,8,1:3:0:0:
10,281,237524,1,4,1:3:0:0:
29,344,237603,6,0,L|60:349,1,29.9999990844727,6|0,3:2|0:0,0:0:0:0:
28,255,237915,2,0,L|59:249,1,29.9999990844727,8|0,0:0|0:0,0:0:0:0:
181,345,238228,6,0,L|149:350,1,29.9999990844727,8|0,0:0|0:0,0:0:0:0:
180,254,238540,2,0,L|148:248,1,29.9999990844727,8|0,0:0|0:0,0:0:0:0:
57,135,238853,6,0,L|62:103,1,29.9999990844727,8|0,0:0|0:0,0:0:0:0:
144,162,239165,2,0,L|138:130,1,29.9999990844727,8|0,0:0|0:0,0:0:0:0:
323,112,239478,6,0,L|317:80,1,29.9999990844727,8|0,0:0|0:0,0:0:0:0:
236,139,239790,2,0,L|241:107,1,29.9999990844727,8|0,0:0|3:2,0:0:0:0:
288,264,240024,1,0,3:2:0:0:
288,264,240103,6,0,L|293:293,1,29.9999990844727,8|0,0:0|0:0,0:0:0:0:
208,264,240415,2,0,L|179:253,1,29.9999990844727,8|0,0:0|0:0,0:0:0:0:
248,194,240728,6,0,L|270:174,1,29.9999990844727,8|0,0:0|0:0,0:0:0:0:
288,264,241040,2,0,L|293:293,1,29.9999990844727,8|0,0:0|0:0,0:0:0:0:
30,320,241353,6,0,L|24:349,1,29.9999990844727,8|0,0:0|0:0,0:0:0:0:
110,320,241665,2,0,L|138:309,1,29.9999990844727,8|0,0:0|0:0,0:0:0:0:
70,250,241978,6,0,L|47:230,1,29.9999990844727,8|0,0:0|0:0,0:0:0:0:
30,320,242290,2,0,L|24:349,1,29.9999990844727,8|0,0:0|0:0,0:0:0:0:
251,347,242603,5,10,2:0:0:0:
248,365,242681,1,8,2:0:0:0:
245,383,242759,1,0,0:0:0:0:
265,262,242915,1,0,0:0:0:0:
133,274,243071,5,8,2:0:0:0:
136,292,243149,1,8,0:0:0:0:
139,310,243228,1,10,2:0:0:0:
119,189,243384,1,0,0:0:0:0:
371,314,243540,5,8,2:0:0:0:
368,332,243618,1,8,2:0:0:0:
365,350,243696,1,0,0:0:0:0:
391,193,243853,1,10,2:0:0:0:
202,160,244009,5,8,2:0:0:0:
205,178,244087,1,8,2:0:0:0:
208,196,244165,1,0,0:0:0:0:
176,3,244321,1,0,2:0:0:0:
83,195,244478,5,10,2:0:0:0:
101,192,244556,1,8,2:0:0:0:
119,189,244634,1,0,0:0:0:0:
301,268,244790,5,8,2:0:0:0:
283,265,244868,1,8,2:0:0:0:
265,262,244946,1,0,0:0:0:0:
485,198,245103,5,10,0:0:0:0:
469,271,245259,1,10,0:0:0:0:
453,344,245415,1,10,0:0:0:0:
443,352,245493,1,10,0:0:0:0:
431,359,245571,1,10,0:0:0:0:
420,365,245649,1,10,0:0:0:0:
407,369,245728,1,10,0:0:0:0:
394,372,245806,1,10,0:0:0:0:
381,374,245884,1,10,0:0:0:0:
368,374,245962,1,10,0:0:0:0:
355,373,246040,1,10,0:0:0:0:
342,371,246118,1,10,0:0:0:0:
330,367,246196,1,10,0:0:0:0:
317,363,246274,1,10,0:0:0:0:
298,349,246353,5,4,0:0:0:0:
