osu file format v14

[General]
AudioFilename: audio.mp3
AudioLeadIn: 0
PreviewTime: 144899
Countdown: 0
SampleSet: Soft
StackLeniency: 0.6
Mode: 0
LetterboxInBreaks: 0
WidescreenStoryboard: 0

[Editor]
DistanceSpacing: 3.6
BeatDivisor: 4
GridSize: 32
TimelineZoom: 2.699999

[Metadata]
Title:If You Can't Hang
TitleUnicode:If You Can't Hang
Artist:Sleeping With Sirens
ArtistUnicode:Sleeping With Sirens
Creator:attendant
Version:Expert
Source:
Tags:cant kellin quinn lets let's cheers to this english male vocals alternative rock post hardcore pop punk
BeatmapID:2192488
BeatmapSetID:1000309

[Difficulty]
HPDrainRate:5.5
CircleSize:4.5
OverallDifficulty:9
ApproachRate:9.3
SliderMultiplier:2
SliderTickRate:1

[Events]
//Background and Video events
0,0,"bg.jpg",0,0
//Break Periods
2,185303,194549
//Storyboard Layer 0 (Background)
//Storyboard Layer 1 (Fail)
//Storyboard Layer 2 (Pass)
//Storyboard Layer 3 (Foreground)
//Storyboard Layer 4 (Overlay)
//Storyboard Sound Samples

[TimingPoints]
103,312.5,4,2,1,30,1,0
7915,-100,4,2,1,40,0,0
8228,-100,4,2,1,50,0,0
8540,-100,4,2,1,60,0,0
8853,-100,4,2,1,70,0,0
9165,-166.666666666667,4,2,1,30,0,0
9556,-166.666666666667,4,2,11,5,0,0
9946,-111.111111111111,4,2,1,70,0,0
30103,-333.333333333333,4,2,1,40,0,0
50103,-133.333333333333,4,2,1,50,0,0
65103,-333.333333333333,4,2,1,50,0,0
65415,-333.333333333333,4,2,2,30,0,0
70103,-166.666666666667,4,2,2,40,0,0
73853,-166.666666666667,4,2,4,50,0,0
74009,-1000,4,2,2,40,0,0
74087,-1000,4,2,11,5,0,0
74946,-86.9565217391304,4,2,1,70,0,1
75415,-100,4,2,1,70,0,1
77446,-86.9565217391304,4,2,1,70,0,1
81665,-100,4,2,1,70,0,1
82446,-86.9565217391304,4,2,1,70,0,1
82915,-100,4,2,1,70,0,1
85415,-86.9565217391304,4,2,1,70,0,1
86040,-100,4,2,1,70,0,1
87446,-86.9565217391304,4,2,1,70,0,1
91665,-100,4,2,1,70,0,1
92446,-86.9565217391304,4,2,1,70,0,1
92915,-100,4,2,1,70,0,1
95103,-166.666666666667,4,2,1,50,0,0
120259,-133.333333333333,4,2,1,50,0,0
135103,-333.333333333333,4,2,1,50,0,0
135415,-333.333333333333,4,2,2,30,0,0
140103,-166.666666666667,4,2,2,40,0,0
143853,-166.666666666667,4,2,4,50,0,0
144009,-1000,4,2,2,40,0,0
144087,-1000,4,2,11,5,0,0
144946,-86.9565217391304,4,2,1,70,0,1
145415,-100,4,2,1,70,0,1
147446,-86.9565217391304,4,2,1,70,0,1
151665,-100,4,2,1,70,0,1
152446,-86.9565217391304,4,2,1,70,0,1
152915,-100,4,2,1,70,0,1
155415,-86.9565217391304,4,2,1,70,0,1
156040,-100,4,2,1,70,0,1
157446,-86.9565217391304,4,2,1,70,0,1
161665,-100,4,2,1,70,0,1
162446,-86.9565217391304,4,2,1,70,0,1
162915,-100,4,2,1,70,0,1
165103,-166.666666666667,4,2,1,50,0,0
185103,-166.666666666667,4,2,1,40,0,0
195103,-500,4,2,1,60,0,0
195181,-500,4,2,11,5,0,0
196040,-500,4,2,2,15,0,0
196353,-166.666666666667,4,2,5,45,0,0
196392,-166.666666666667,4,2,3,25,0,0
196509,-166.666666666667,4,2,3,30,0,0
196665,-166.666666666667,4,2,3,35,0,0
196821,-166.666666666667,4,2,3,40,0,0
196978,-200,4,2,1,60,0,0
197603,-200,4,2,1,60,0,1
215103,-125,4,2,1,60,0,1
217407,-200,4,2,1,60,0,0
217446,-86.9565217391304,4,2,1,70,0,1
217915,-100,4,2,1,70,0,1
219946,-86.9565217391304,4,2,1,70,0,1
224165,-100,4,2,1,70,0,1
224946,-86.9565217391304,4,2,1,70,0,1
225415,-100,4,2,1,70,0,1
227915,-86.9565217391304,4,2,1,70,0,1
228540,-100,4,2,1,70,0,1
229946,-86.9565217391304,4,2,1,70,0,1
235415,-100,4,2,1,70,0,1
237603,-333.333333333333,4,2,1,70,0,0
237915,-333.333333333333,4,2,2,30,0,0
242603,-166.666666666667,4,2,2,40,0,0
246353,-166.666666666667,4,2,2,50,0,0

[Colours]
Combo1 : 227,213,111
Combo2 : 0,106,213
Combo3 : 243,239,150
Combo4 : 72,131,238

[HitObjects]
256,192,4790,12,8,7290,3:2:0:0:
259,29,7603,5,0,3:2:0:0:
279,17,7759,1,0,3:2:0:0:
366,41,7915,5,8,3:2:0:0:
299,5,8071,1,8,3:2:0:0:
203,138,8228,5,8,3:2:0:0:
296,89,8384,1,8,3:2:0:0:
391,221,8540,5,8,3:2:0:0:
285,168,8696,1,8,3:2:0:0:
182,267,8853,5,8,3:2:0:0:
182,267,9165,5,2,2:0:0:0:
185,270,9478,6,0,P|257:270|297:210,1,150.335995422363,2|0,2:0|2:0,2:0:0:0:
289,138,9946,6,0,B|390:129|358:194|455:189,1,180.287994506836,6|0,3:2|3:2,2:0:0:0:
276,40,10415,2,0,P|235:58|199:85,1,90.4319972534181,10|0,3:2|2:0,2:0:0:0:
84,238,10728,1,0,3:2:0:0:
63,159,10884,1,0,3:2:0:0:
138,139,11040,5,10,3:2:0:0:
160,216,11196,1,0,2:0:0:0:
321,193,11353,1,0,3:2:0:0:
299,270,11509,1,0,3:2:0:0:
433,115,11665,6,0,P|350:92|323:10,1,180.287994506836,10|0,3:2|3:2,2:0:0:0:
243,11,12134,1,0,3:2:0:0:
138,139,12290,1,8,3:2:0:0:
40,124,12446,6,0,P|70:225|85:305,1,180.287994506836,6|0,3:2|3:2,2:0:0:0:
196,252,12915,2,0,P|176:292|163:335,1,90.4319972534181,10|0,3:2|3:2,2:0:0:0:
163,335,13149,1,0,3:2:0:0:
163,335,13228,1,0,3:2:0:0:
270,306,13384,1,0,3:2:0:0:
243,219,13540,5,10,3:2:0:0:
383,281,13696,1,0,3:2:0:0:
457,237,13853,1,2,3:2:0:0:
427,151,14009,5,14,3:2:0:0:
279,86,14165,1,0,3:2:0:0:
327,170,14321,5,14,3:2:0:0:
346,13,14478,1,0,3:2:0:0:
436,51,14634,5,14,3:2:0:0:
279,86,14790,1,0,3:2:0:0:
193,125,14946,6,0,B|91:126|129:187|30:189,1,180.287994506836,6|0,3:2|3:2,2:0:0:0:
32,268,15415,1,10,3:2:0:0:
184,216,15571,1,0,3:2:0:0:
281,276,15728,6,0,P|298:190|376:151,1,180.287994506836,14|0,3:2|3:2,2:0:0:0:
457,158,16196,1,0,3:2:0:0:
322,77,16353,6,0,P|280:95|244:122,1,90.4319972534181,14|0,3:2|2:0,2:0:0:0:
435,37,16665,6,0,P|476:55|512:82,1,90.4319972534181,14|0,3:2|2:0,2:0:0:0:
503,232,16978,5,0,3:2:0:0:
415,304,17134,1,0,3:2:0:0:
353,245,17290,1,8,3:2:0:0:
263,325,17446,6,0,P|173:331|87:359,1,180.287994506836,6|0,3:2|3:2,2:0:0:0:
22,227,17915,2,0,P|66:230|109:244,1,90.4319972534181,14|0,3:2|3:2,2:0:0:0:
212,135,18228,5,14,3:2:0:0:
222,150,18384,2,0,P|177:149|133:159,1,90.4319972534181,0|0,3:2|2:0,2:0:0:0:
33,99,18696,1,0,3:2:0:0:
125,1,18853,1,14,3:2:0:0:
211,72,19009,5,8,1:3:0:0:
244,67,19087,1,8,1:2:0:0:
276,75,19165,1,8,3:2:0:0:
305,94,19243,1,8,3:2:0:0:
333,112,19321,1,0,3:2:0:0:
366,120,19399,1,0,3:2:0:0:
399,116,19478,5,8,3:2:0:0:
401,129,19556,1,2,1:3:0:0:
402,142,19634,1,2,1:3:0:0:
401,155,19712,1,2,1:3:0:0:
397,168,19790,1,8,1:3:0:0:
392,180,19868,1,4,1:3:0:0:
385,191,19946,6,0,P|296:205|215:245,1,180.287994506836,6|0,3:2|3:2,2:0:0:0:
199,324,20415,1,10,3:2:0:0:
116,293,20571,1,0,2:0:0:0:
182,235,20728,5,0,3:2:0:0:
37,276,20884,1,0,3:2:0:0:
159,152,21040,1,10,3:2:0:0:
288,227,21196,1,0,2:0:0:0:
253,90,21353,5,0,3:2:0:0:
182,235,21509,1,0,3:2:0:0:
166,47,21665,2,0,P|251:76|341:79,1,180.287994506836,10|0,3:2|3:2,2:0:0:0:
418,71,22134,1,0,3:2:0:0:
334,217,22290,1,8,3:2:0:0:
389,315,22446,6,0,P|302:300|227:347,1,180.287994506836,6|0,3:2|3:2,2:0:0:0:
104,373,22915,2,0,P|99:314|85:276,1,90.4319972534181,10|0,3:2|3:2,2:0:0:0:
40,233,23149,1,0,3:2:0:0:
40,233,23228,1,0,3:2:0:0:
92,177,23384,1,0,3:2:0:0:
41,61,23540,5,10,3:2:0:0:
113,27,23696,1,0,3:2:0:0:
222,97,23853,1,2,3:2:0:0:
344,214,24009,5,14,3:2:0:0:
436,368,24165,1,0,3:2:0:0:
508,285,24321,5,14,3:2:0:0:
334,325,24478,1,0,3:2:0:0:
452,189,24634,5,14,3:2:0:0:
436,368,24790,1,0,3:2:0:0:
230,206,24946,6,0,P|247:121|327:87,1,180.287994506836,6|0,3:2|3:2,2:0:0:0:
383,143,25415,1,10,3:2:0:0:
473,95,25571,1,0,3:2:0:0:
320,4,25728,6,0,P|231:22|146:50,1,180.287994506836,14|0,3:2|3:2,2:0:0:0:
73,27,26196,1,0,3:2:0:0:
29,189,26353,6,0,P|47:229|60:273,1,90.4319972534181,14|0,3:2|2:0,2:0:0:0:
220,120,26665,6,0,P|201:160|188:204,1,89.9999972534181,14|0,3:2|2:0,2:0:0:0:
224,337,26978,5,0,3:2:0:0:
290,293,27134,1,0,3:2:0:0:
394,350,27290,1,8,3:2:0:0:
241,384,27446,6,0,P|255:295|276:207,1,180.287994506836,6|0,3:2|3:2,2:0:0:0:
307,137,27915,1,14,3:2:0:0:
389,175,28071,1,0,3:2:0:0:
241,45,28228,5,14,3:2:0:0:
159,83,28384,2,0,P|114:79|62:69,1,90.4319972534181,0|0,3:2|2:0,2:0:0:0:
64,230,28696,6,0,L|59:266,2,30.1439990844727,0|0|0,3:2|3:2|3:2,2:0:0:0:
43,200,28853,5,8,3:2:0:0:
118,170,29009,1,0,3:2:0:0:
170,284,29165,5,2,3:0:0:0:
245,314,29321,1,2,3:0:0:0:
314,160,29478,5,8,3:0:0:0:
389,130,29634,1,4,3:0:0:0:
512,343,29790,6,0,L|515:313,1,22.4999993133545,8|8,3:2|3:2,2:0:0:0:
437,313,29946,1,0,3:2:0:0:
321,384,30103,6,0,P|327:302|344:203,1,180.095994506836,4|0,3:2|3:2,2:0:0:0:
376,94,31353,2,0,P|392:87|409:82,1,30.0479990844727,8|0,1:0|1:0,2:0:0:0:
418,155,31665,2,0,P|435:152|452:151,1,30.0479990844727,0|0,1:0|1:0,2:0:0:0:
468,205,32446,1,2,2:0:0:0:
468,205,32524,1,2,2:0:0:0:
468,205,32603,6,0,B|365:198|390:250|281:239,1,180.095994506836,4|0,3:2|3:2,2:0:0:0:
217,189,33853,2,0,P|184:194|151:205,1,60.0959981689454,8|0,1:0|1:0,2:0:0:0:
75,266,34321,1,8,1:0:0:0:
75,266,34478,2,0,P|108:271|141:282,1,60.0959981689454,8|0,1:0|2:0,2:0:0:0:
208,366,35103,6,0,P|237:284|320:256,1,180.095994506836,4|0,3:2|3:2,2:0:0:0:
409,311,36353,1,8,1:0:0:0:
492,298,36587,1,0,1:2:0:0:
492,298,36665,2,0,P|494:281|498:258,1,30.1439990844727,0|0,1:2|1:2,2:0:0:0:
436,221,36978,2,0,P|434:204|430:181,1,30.1439990844727,0|0,1:2|1:2,2:0:0:0:
488,138,37290,2,0,P|490:121|494:98,1,30.1439990844727,0|0,1:2|1:2,2:0:0:0:
406,31,37603,6,0,B|314:17|319:73|218:57,1,180.095994506836,4|0,3:2|3:2,2:0:0:0:
144,48,38853,1,8,1:0:0:0:
188,128,39009,1,0,3:2:0:0:
188,128,39165,1,0,3:2:0:0:
17,187,39321,1,0,1:1:0:0:
12,170,39399,1,0,1:1:0:0:
11,152,39478,1,8,1:1:0:0:
12,135,39555,1,8,1:1:0:0:
16,118,39633,1,0,1:2:0:0:
22,101,39711,1,0,1:2:0:0:
31,86,39789,1,0,3:2:0:0:
110,147,39946,1,0,1:2:0:0:
110,147,40103,6,0,P|154:151|198:162,2,90.0479972534181,4|2|2,3:2|2:0|3:2,2:0:0:0:
41,203,41353,2,0,P|52:242|56:272,1,60.0959981689454,8|0,1:0|2:0,2:0:0:0:
123,303,41821,1,2,2:0:0:0:
129,279,41978,1,2,1:2:0:0:
263,305,42134,1,0,1:2:0:0:
268,328,42290,1,2,1:2:0:0:
193,339,42446,1,0,1:2:0:0:
355,353,42603,6,0,P|361:319|369:290,1,60.0959981689454,4|0,3:2|2:0,2:0:0:0:
278,170,43071,2,0,P|285:199|290:228,1,60.0959981689454,2|0,2:0|2:0,2:0:0:0:
404,112,43540,2,0,P|397:134|395:148,1,30.1439990844727,0|0,3:2|2:0,2:0:0:0:
321,82,43853,5,8,1:0:0:0:
321,82,44165,5,2,3:2:0:0:
212,125,44321,1,8,1:0:0:0:
212,125,44478,1,8,1:0:0:0:
233,220,44790,2,0,L|230:250,1,29.9999990844727,2|2,2:0|2:0,2:0:0:0:
240,263,45103,6,0,P|195:267|151:278,2,90.0479972534181,4|2|2,3:2|2:0|3:2,2:0:0:0:
318,297,46353,1,8,1:0:0:0:
318,297,46509,1,2,2:0:0:0:
301,180,46978,1,2,2:0:0:0:
320,107,47290,1,2,2:0:0:0:
374,63,47603,5,4,3:2:0:0:
450,37,47915,1,2,1:2:0:0:
303,270,48228,5,4,3:2:0:0:
379,296,48540,1,2,1:2:0:0:
154,54,48853,5,4,3:2:0:0:
230,28,49165,1,2,1:2:0:0:
58,323,49478,5,4,3:2:0:0:
58,323,50103,6,0,P|133:326|205:346,1,150.240005722046,6|0,3:2|2:0,2:0:0:0:
273,308,50571,1,0,3:2:0:0:
175,249,50728,1,8,3:2:0:0:
257,229,50884,2,0,P|221:239|189:258,1,75.3600028610231,0|0,3:2|2:0,2:0:0:0:
160,163,51196,5,0,3:2:0:0:
78,206,51353,2,0,P|61:122|31:45,1,150.240005722046,4|0,3:2|2:0,2:0:0:0:
178,21,51821,1,0,3:2:0:0:
133,89,51978,1,10,3:2:0:0:
257,34,52134,2,0,P|238:66|228:102,1,75.3600028610231,0|2,3:2|2:0,2:0:0:0:
217,209,52446,5,0,3:2:0:0:
340,36,52603,2,0,B|432:32|383:78|477:81,1,150.240005722046,4|2,3:2|2:0,2:0:0:0:
399,194,53071,1,0,3:2:0:0:
492,160,53228,1,8,3:2:0:0:
355,117,53384,2,0,P|320:131|290:154,1,75.3600028610231,0|0,3:2|2:0,2:0:0:0:
475,148,53696,5,0,3:2:0:0:
369,287,53853,2,0,P|358:215|295:179,1,150.240005722046,4|0,3:2|2:0,2:0:0:0:
218,214,54321,1,2,3:2:0:0:
284,318,54478,1,10,3:2:0:0:
209,304,54634,2,0,P|175:317|142:336,1,75.3600028610231,2|0,3:2|2:0,2:0:0:0:
146,191,54946,5,2,3:2:0:0:
146,191,55024,1,0,3:2:0:0:
146,191,55103,2,0,P|157:116|180:45,1,150.240005722046,4|0,3:2|2:0,2:0:0:0:
251,81,55571,1,2,3:2:0:0:
90,71,55728,1,8,3:2:0:0:
163,153,55884,2,0,P|167:124|185:69,1,75.3600028610231,2|0,3:2|2:0,2:0:0:0:
311,12,56196,5,2,3:2:0:0:
369,74,56353,2,0,B|455:65|438:112|512:105,1,150.240005722046,4|0,3:2|2:0,2:0:0:0:
505,181,56821,1,2,3:2:0:0:
393,154,56978,1,8,3:2:0:0:
328,206,57134,2,0,L|337:301,1,75.3600028610231,2|0,3:2|2:0,2:0:0:0:
424,370,57446,5,2,3:2:0:0:
269,330,57603,2,0,P|194:338|125:366,1,150.240005722046,4|0,3:2|2:0,2:0:0:0:
84,298,58071,1,2,3:2:0:0:
15,381,58228,1,10,3:2:0:0:
26,187,58384,2,0,P|62:196|95:213,1,75.3600028610231,2|0,3:2|2:0,2:0:0:0:
169,262,58696,1,2,3:2:0:0:
113,117,58853,5,4,3:2:0:0:
164,54,59009,1,8,1:3:0:0:
183,41,59087,1,8,3:2:0:0:
204,32,59165,1,8,3:2:0:0:
226,28,59243,1,8,3:2:0:0:
248,28,59321,1,8,1:2:0:0:
270,33,59399,1,8,1:2:0:0:
291,42,59478,1,10,3:2:0:0:
309,55,59556,1,8,3:2:0:0:
324,72,59634,6,0,L|318:123,1,37.6800014305115,2|2,1:3|1:3,2:0:0:0:
242,128,59790,2,0,L|248:179,1,37.6800014305115,2|2,1:3|1:3,2:0:0:0:
324,184,59946,2,0,L|318:235,1,37.6800014305115,8|4,1:3|1:3,2:0:0:0:
242,240,60103,5,6,3:2:0:0:
351,354,60259,2,0,P|373:285|442:262,1,150.240005722046,0|0,3:2|3:2,2:0:0:0:
486,124,60728,1,8,3:2:0:0:
439,187,60884,1,0,3:2:0:0:
412,87,61040,1,0,3:2:0:0:
447,219,61196,1,0,3:2:0:0:
499,37,61353,5,4,3:2:0:0:
499,37,61509,2,0,P|427:14|352:13,1,150.240005722046,0|0,3:2|3:2,2:0:0:0:
292,59,61978,1,10,3:2:0:0:
193,17,62134,1,2,3:2:0:0:
193,17,62212,1,0,3:2:0:0:
193,17,62290,1,0,3:2:0:0:
126,51,62446,1,2,3:2:0:0:
43,8,62603,5,4,3:2:0:0:
80,131,62759,2,0,P|100:203|100:278,1,150.240005722046,0|0,3:2|3:2,2:0:0:0:
176,291,63228,1,10,3:2:0:0:
208,116,63384,2,0,P|187:147|176:183,1,75.3600028610231,2|0,3:2|3:2,2:0:0:0:
258,248,63696,6,0,L|261:219,2,25.1200009536744,2|0|0,3:2|3:2|3:2,2:0:0:0:
273,273,63853,5,8,3:2:0:0:
347,241,64009,1,0,3:2:0:0:
410,84,64165,5,2,3:2:0:0:
400,164,64321,1,8,1:3:0:0:
504,296,64478,5,0,3:2:0:0:
440,248,64634,1,0,3:2:0:0:
309,166,64790,5,8,3:2:0:0:
288,154,64868,1,2,1:3:0:0:
265,158,64946,1,8,1:3:0:0:
243,150,65024,1,4,1:3:0:0:
243,150,65103,6,0,L|200:156,1,30.1439990844727,8|0,3:2|2:0,2:0:0:0:
224,83,65415,2,0,L|181:89,1,30.1439990844727,8|0,2:0|2:0,2:0:0:0:
71,175,65728,6,0,L|114:181,1,30.1439990844727,8|0,2:0|2:0,2:0:0:0:
90,108,66040,2,0,L|133:114,1,30.1439990844727,8|0,2:0|2:0,2:0:0:0:
168,243,66353,6,0,L|162:286,1,30.1439990844727,8|0,2:0|2:0,2:0:0:0:
235,262,66665,2,0,L|229:305,1,30.1439990844727,8|0,2:0|2:0,2:0:0:0:
392,205,66978,6,0,L|398:248,1,30.1439990844727,8|0,2:0|2:0,2:0:0:0:
325,224,67290,2,0,L|331:267,1,30.1439990844727,8|0,2:0|3:2,2:0:0:0:
374,124,67524,1,0,3:2:0:0:
374,124,67603,6,0,L|380:81,1,30.1439990844727,8|0,2:0|2:0,2:0:0:0:
307,105,67915,2,0,L|313:62,1,30.1439990844727,8|0,2:0|2:0,2:0:0:0:
138,124,68228,6,0,L|132:81,1,30.1439990844727,8|0,2:0|2:0,2:0:0:0:
205,105,68540,2,0,L|199:62,1,30.1439990844727,8|0,2:0|2:0,2:0:0:0:
154,20,68853,5,8,2:0:0:0:
154,20,69087,5,8,2:0:0:0:
154,20,69321,5,8,2:0:0:0:
358,20,69478,5,8,2:0:0:0:
358,20,69712,5,8,2:0:0:0:
358,20,69946,5,8,2:0:0:0:
421,144,70103,6,0,L|480:154,1,60.2879981689454,10|0,2:0|2:0,2:0:0:0:
423,215,70415,2,0,L|482:225,1,60.2879981689454,8|0,2:0|2:0,2:0:0:0:
205,105,70728,6,0,L|145:115,1,60.2879981689454,10|0,2:0|2:0,2:0:0:0:
203,176,71040,2,0,L|143:186,1,60.2879981689454,8|0,2:0|2:0,2:0:0:0:
305,284,71353,6,0,L|364:294,1,60.2879981689454,10|0,2:0|2:0,2:0:0:0:
307,355,71665,2,0,L|366:365,1,60.2879981689454,8|0,2:0|2:0,2:0:0:0:
83,268,71978,6,0,L|23:278,1,60.2879981689454,10|0,2:0|2:0,2:0:0:0:
81,339,72290,2,0,L|21:349,1,60.2879981689454,8|0,2:0|2:0,2:0:0:0:
16,16,72603,5,10,2:0:0:0:
16,16,72759,5,0,2:0:0:0:
16,16,72915,5,10,2:0:0:0:
16,16,73071,5,0,2:0:0:0:
16,16,73228,5,10,2:0:0:0:
16,16,73384,5,0,2:0:0:0:
16,16,73540,5,10,2:0:0:0:
16,16,73696,5,0,2:0:0:0:
204,93,73853,5,6,2:0:0:0:
205,83,74009,6,0,L|208:28,1,55.008,2|0,2:0|2:0,2:0:0:0:
208,29,74946,6,0,P|313:61|340:168,1,230.368004386902,6|0,3:2|3:2,2:0:0:0:
385,233,75415,2,0,P|341:208|292:199,1,100.48,8|0,3:2|2:0,2:0:0:0:
221,225,75728,1,0,3:2:0:0:
92,199,75884,1,0,3:2:0:0:
148,142,76040,2,0,P|128:240|119:339,1,200.32,10|0,3:2|3:2,2:0:0:0:
193,346,76509,1,0,3:2:0:0:
43,271,76665,1,8,3:2:0:0:
162,155,76821,5,2,2:0:0:0:
270,228,76978,1,2,3:2:0:0:
157,292,77134,1,2,3:2:0:0:
49,219,77290,1,8,3:2:0:0:
154,57,77446,6,0,B|277:53|239:120|369:120,1,230.368004386902,6|2,3:2|3:2,2:0:0:0:
443,92,77915,1,8,3:2:0:0:
511,196,78071,1,2,3:2:0:0:
511,196,78149,1,0,3:2:0:0:
511,196,78228,1,0,3:2:0:0:
451,271,78384,1,2,3:2:0:0:
414,184,78540,5,8,3:2:0:0:
495,364,78696,1,2,3:2:0:0:
389,338,78853,1,0,3:2:0:0:
149,282,79009,5,12,3:2:0:0:
45,343,79165,1,0,3:2:0:0:
234,316,79321,5,12,3:2:0:0:
313,371,79478,1,0,3:2:0:0:
295,332,79634,5,14,3:2:0:0:
233,372,79790,1,2,3:2:0:0:
256,192,79946,6,0,P|162:136|74:198,1,230.368004386902,6|2,3:2|3:2,2:0:0:0:
22,360,80415,5,10,3:2:0:0:
80,291,80571,1,2,3:2:0:0:
186,262,80728,5,14,3:2:0:0:
304,315,80884,1,2,2:0:0:0:
267,244,81040,5,2,3:2:0:0:
173,346,81196,1,2,3:2:0:0:
211,180,81353,5,14,3:2:0:0:
381,220,81509,1,2,2:0:0:0:
343,384,81665,6,0,P|328:285|291:192,1,200.32,14|0,3:2|3:2,2:0:0:0:
349,136,82134,1,2,3:2:0:0:
221,269,82290,1,10,3:2:0:0:
224,108,82446,6,0,B|108:77|132:195|27:196,1,230.368004386902,6|2,3:2|3:2,2:0:0:0:
154,316,82915,6,0,P|168:264|181:209,1,100.48,14|2,3:2|3:2,2:0:0:0:
378,340,83228,2,0,P|363:288|350:233,1,100.48,14|2,3:2|3:2,2:0:0:0:
254,378,83540,2,0,P|257:328|264:278,1,100.48,2|0,2:0|3:2,2:0:0:0:
279,199,83853,1,14,3:2:0:0:
193,223,84009,5,8,1:3:0:0:
192,257,84087,1,8,1:2:0:0:
214,283,84165,1,8,3:2:0:0:
244,300,84243,1,8,3:2:0:0:
279,299,84321,1,2,3:2:0:0:
309,281,84399,1,0,3:2:0:0:
325,249,84478,5,8,3:2:0:0:
330,225,84556,1,2,1:3:0:0:
344,203,84634,1,2,1:3:0:0:
364,188,84712,1,2,1:3:0:0:
388,182,84790,1,8,1:3:0:0:
412,190,84868,1,4,1:3:0:0:
412,190,84946,6,0,B|302:180|330:249|205:244,1,200.32,6|0,3:2|3:2,2:0:0:0:
8,86,85415,6,0,B|119:64|115:166|251:155,1,230.368004386902,14|0,3:2|3:2,2:0:0:0:
311,137,85884,1,0,3:2:0:0:
194,44,86040,2,0,P|243:47|292:60,1,100.48,10|0,3:2|2:0,2:0:0:0:
365,81,86353,1,0,3:2:0:0:
237,151,86509,1,0,3:2:0:0:
99,17,86665,1,8,3:2:0:0:
167,118,86821,5,2,2:0:0:0:
47,209,86978,1,2,3:2:0:0:
165,301,87134,1,2,3:2:0:0:
285,210,87290,1,8,3:2:0:0:
209,39,87446,6,0,B|293:41|293:41|329:72|329:72|427:75,1,230.368004386902,6|2,3:2|3:2,2:0:0:0:
482,19,87915,1,8,3:2:0:0:
414,158,88071,1,2,3:2:0:0:
414,158,88149,1,0,3:2:0:0:
414,158,88228,1,0,3:2:0:0:
453,224,88384,1,2,3:2:0:0:
398,309,88540,5,8,3:2:0:0:
437,375,88696,1,2,3:2:0:0:
505,302,88853,1,0,3:2:0:0:
241,276,89009,5,12,3:2:0:0:
304,101,89165,1,0,3:2:0:0:
221,147,89321,5,12,3:2:0:0:
252,238,89478,1,0,3:2:0:0:
164,209,89634,5,14,3:2:0:0:
189,133,89790,1,2,3:2:0:0:
115,154,89946,6,0,P|160:260|181:373,1,230.368004386902,6|2,3:2|3:2,2:0:0:0:
0,136,90415,5,10,3:2:0:0:
79,60,90571,1,2,3:2:0:0:
209,65,90728,5,14,3:2:0:0:
320,165,90884,1,2,2:0:0:0:
286,97,91040,5,2,3:2:0:0:
155,206,91196,1,2,3:2:0:0:
121,138,91353,5,14,3:2:0:0:
318,273,91509,1,2,2:0:0:0:
241,169,91665,6,0,B|206:290|269:244|237:364,1,200.32,14|0,3:2|3:2,2:0:0:0:
161,341,92134,1,2,3:2:0:0:
327,290,92290,1,10,3:2:0:0:
209,78,92446,6,0,B|332:45|310:166|438:153,1,230.368004386902,6|2,3:2|3:2,2:0:0:0:
273,271,92915,6,0,P|321:258|371:254,1,100.48,14|2,3:2|3:2,2:0:0:0:
219,86,93228,2,0,P|266:102|315:111,1,100.48,14|2,3:2|3:2,2:0:0:0:
435,99,93540,1,2,2:0:0:0:
344,184,93696,6,0,L|389:177,2,33.4933333333332,0|0|0,3:2|3:2|3:2,2:0:0:0:
317,175,93853,5,10,3:2:0:0:
232,135,94009,1,0,3:2:0:0:
120,131,94165,5,0,3:0:0:0:
5,194,94321,1,2,3:0:0:0:
170,237,94478,5,8,3:0:0:0:
228,28,94634,1,4,3:0:0:0:
19,82,94790,5,8,3:2:0:0:
35,109,94868,1,2,1:3:0:0:
30,138,94946,1,8,1:3:0:0:
45,165,95024,1,4,1:3:0:0:
45,165,95103,6,0,B|98:130|98:130|152:143,1,119.999996337891,6|0,3:2|0:0,0:0:0:0:
192,322,95571,2,0,B|139:357|139:357|84:343,1,119.999996337891,0|0,3:2|0:0,0:0:0:0:
111,212,96040,2,0,P|121:258|126:291,1,59.9999981689454,0|0,3:2|0:0,0:0:0:0:
343,177,96353,6,0,P|325:238|313:298,1,119.999996337891,10|0,3:2|0:0,0:0:0:0:
177,124,96821,2,0,P|195:185|207:245,1,119.999996337891,0|0,3:2|0:0,0:0:0:0:
279,59,97290,2,0,P|272:101|270:139,1,59.9999981689454,0|0,3:2|0:0,0:0:0:0:
439,251,97603,6,0,P|381:237|349:188,1,119.999996337891,6|0,3:2|0:0,0:0:0:0:
440,0,98071,2,0,P|490:28|511:104,1,119.999996337891,0|0,3:2|0:0,0:0:0:0:
400,123,98540,2,0,P|428:131|456:142,1,59.9999981689454,0|0,3:2|0:0,0:0:0:0:
344,295,98853,5,10,3:2:0:0:
344,295,99165,5,2,1:3:0:0:
294,232,99269,5,8,1:3:0:0:
372,202,99373,5,8,1:2:0:0:
289,139,99478,5,8,3:2:0:0:
289,139,100103,6,0,P|232:131|159:123,1,120.191996337891,6|0,3:2|2:0,2:0:0:0:
309,275,100571,2,0,P|251:283|178:291,1,120.191996337891,2|0,3:2|2:0,2:0:0:0:
177,211,101040,2,0,P|147:205|117:202,1,60.2879981689454,2|0,3:2|2:0,2:0:0:0:
0,253,101353,2,0,B|94:244|83:312|198:300,2,180.095994506836,8|8|0,3:2|1:2|3:2,2:0:0:0:
23,52,102603,6,0,P|34:106|43:183,1,120.191996337891,6|0,3:2|2:0,2:0:0:0:
188,124,103071,2,0,P|172:186|162:250,1,120.191996337891,2|0,3:2|2:0,2:0:0:0:
117,83,103540,2,0,P|123:51|131:16,1,60.2879981689454,2|0,3:2|2:0,2:0:0:0:
229,11,103853,5,8,3:2:0:0:
326,21,104165,5,0,3:2:0:0:
246,43,104321,1,8,3:2:0:0:
351,44,104634,5,0,3:2:0:0:
433,58,104790,1,0,3:2:0:0:
496,123,104946,1,0,3:2:0:0:
497,251,105103,6,0,B|519:308|519:308|500:368,1,120.191996337891,6|0,3:2|2:0,2:0:0:0:
318,367,105571,2,0,B|295:309|295:309|314:249,1,120.191996337891,2|0,3:2|2:0,2:0:0:0:
397,173,106040,2,0,P|402:206|402:240,1,60.2879981689454,2|0,3:2|2:0,2:0:0:0:
415,310,106353,2,0,B|321:301|332:369|217:357,2,180.095994506836,8|0|0,3:2|3:2|3:2,2:0:0:0:
332,233,107603,6,0,P|276:210|218:194,1,120.191996337891,6|0,3:2|2:0,2:0:0:0:
311,94,108071,2,0,P|251:96|192:107,1,120.191996337891,2|0,3:2|2:0,2:0:0:0:
205,8,108540,2,0,P|177:18|146:34,1,60.2879981689454,2|0,3:2|2:0,2:0:0:0:
53,138,108853,6,0,P|73:203|84:273,1,120.191996337891,8|0,3:2|2:0,2:0:0:0:
89,328,109321,1,0,3:2:0:0:
206,274,109478,1,8,3:2:0:0:
158,247,109634,1,0,3:2:0:0:
285,368,109790,1,0,3:2:0:0:
280,338,109868,1,2,1:3:0:0:
295,312,109946,1,8,1:3:0:0:
288,287,110024,1,4,1:3:0:0:
288,287,110103,6,0,B|275:229|275:229|302:174,1,120.191996337891,6|0,3:2|2:0,2:0:0:0:
474,197,110571,2,0,B|486:254|486:254|459:309,1,120.191996337891,2|0,3:2|2:0,2:0:0:0:
391,155,111040,2,0,P|396:125|405:96,1,60.2879981689454,2|0,3:2|2:0,2:0:0:0:
343,49,111353,2,0,B|256:38|267:106|173:97,2,180.095994506836,8|8|0,3:2|1:2|3:2,2:0:0:0:
284,169,112603,6,0,P|270:226|258:288,1,120.191996337891,6|0,3:2|2:0,2:0:0:0:
126,247,113071,2,0,P|139:304|152:366,1,120.191996337891,2|0,3:2|2:0,2:0:0:0:
201,199,113540,2,0,P|200:170|196:131,1,60.2879981689454,2|0,3:2|2:0,2:0:0:0:
181,3,113853,5,8,3:2:0:0:
289,13,114165,5,8,1:3:0:0:
209,41,114321,1,8,1:2:0:0:
312,45,114634,5,0,3:2:0:0:
272,118,114790,1,0,3:2:0:0:
277,221,114946,1,0,3:2:0:0:
336,152,115103,6,0,B|282:148|270:178|219:179,1,120.191996337891,6|0,3:2|2:0,2:0:0:0:
108,235,115571,2,0,B|161:231|173:261|224:262,1,120.191996337891,2|0,3:2|2:0,2:0:0:0:
268,324,116040,2,0,P|300:315|333:308,1,60.2879981689454,2|0,3:2|2:0,2:0:0:0:
395,350,116353,2,0,P|422:268|506:249,2,180.095994506836,8|8|0,3:2|1:2|3:2,2:0:0:0:
287,358,117603,6,0,P|234:354|162:357,1,120.191996337891,6|0,3:2|2:0,2:0:0:0:
91,359,118071,1,2,3:2:0:0:
129,268,118228,2,0,P|162:275|199:288,1,60.2879981689454,4|0,3:2|2:0,2:0:0:0:
185,268,118540,2,0,P|151:275|114:288,1,60.2879981689454,2|0,3:2|2:0,2:0:0:0:
158,156,118853,5,8,3:2:0:0:
159,79,119009,1,0,3:2:0:0:
148,146,119321,5,0,3:2:0:0:
261,50,119478,2,0,L|262:77,1,14.9999995422363,10|8,3:2|3:2,2:0:0:0:
194,3,119634,1,0,3:2:0:0:
247,156,119790,1,10,3:2:0:0:
342,96,119946,1,2,3:2:0:0:
277,30,120103,5,4,3:2:0:0:
277,30,120259,2,0,P|291:103|300:178,1,150.240005722046,0|0,3:2|3:2,2:0:0:0:
390,160,120728,2,0,P|373:206|360:257,1,75.3600028610231,8|0,3:2|3:2,2:0:0:0:
227,223,121040,2,0,P|255:263|281:308,1,75.3600028610231,0|0,3:2|3:2,2:0:0:0:
313,358,121353,5,4,3:2:0:0:
313,358,121509,2,0,B|240:348|239:391|160:383,1,150.240005722046,0|0,3:2|3:2,2:0:0:0:
69,326,121978,2,0,P|73:293|88:247,1,75.3600028610231,10|0,3:2|3:2,2:0:0:0:
139,75,122290,2,0,P|149:110|155:147,1,75.3600028610231,2|2,3:2|3:2,2:0:0:0:
161,277,122603,5,4,3:2:0:0:
161,277,122759,2,0,P|220:231|268:173,1,150.240005722046,0|0,3:2|3:2,2:0:0:0:
257,97,123228,2,0,L|267:20,1,75.3600028610231,8|0,3:2|3:2,2:0:0:0:
342,47,123540,2,0,L|351:121,1,75.3600028610231,0|0,3:2|3:2,2:0:0:0:
389,194,123853,5,4,3:2:0:0:
389,194,124009,2,0,P|317:207|286:272,1,150.240005722046,0|0,3:2|3:2,2:0:0:0:
360,294,124478,1,10,3:2:0:0:
220,229,124634,1,2,3:2:0:0:
220,229,124712,1,0,3:2:0:0:
220,229,124790,1,0,3:2:0:0:
139,267,124946,1,2,3:2:0:0:
252,359,125103,5,4,3:2:0:0:
300,213,125259,2,0,P|338:148|391:94,1,150.240005722046,2|2,3:2|3:2,2:0:0:0:
460,65,125728,1,8,3:2:0:0:
356,24,125884,1,2,3:2:0:0:
288,63,126040,1,0,3:2:0:0:
363,50,126196,1,2,3:2:0:0:
225,10,126353,5,4,3:2:0:0:
146,66,126509,2,0,B|80:52|63:114|-10:101,1,150.240005722046,0|0,3:2|3:2,2:0:0:0:
74,218,126978,1,10,3:2:0:0:
183,154,127134,1,2,3:2:0:0:
107,148,127290,1,2,3:2:0:0:
204,228,127446,1,2,3:2:0:0:
151,85,127603,5,4,3:2:0:0:
130,289,127759,2,0,B|196:275|212:337|286:324,1,150.240005722046,2|2,3:2|3:2,2:0:0:0:
342,294,128228,1,8,3:2:0:0:
425,352,128384,2,0,P|460:340|497:335,1,75.3600028610231,2|0,3:2|3:2,2:0:0:0:
411,236,128696,1,2,3:2:0:0:
455,173,128853,5,4,3:2:0:0:
328,210,129009,1,8,1:3:0:0:
303,192,129087,1,8,3:2:0:0:
273,198,129165,1,8,3:2:0:0:
246,183,129243,1,8,3:2:0:0:
216,187,129321,1,0,3:2:0:0:
188,176,129399,1,0,3:2:0:0:
188,176,129478,6,0,L|194:130,1,37.6800014305115,10|2,3:2|1:3,2:0:0:0:
112,212,129634,2,0,L|106:166,1,37.6800014305115,2|2,1:3|1:3,2:0:0:0:
181,291,129790,2,0,L|187:245,1,37.6800014305115,8|8,1:3|1:3,2:0:0:0:
78,339,129946,1,8,1:3:0:0:
78,339,130024,1,4,1:3:0:0:
78,339,130103,5,4,3:2:0:0:
19,224,130259,2,0,P|31:139|54:45,1,150.240005722046,0|0,3:2|3:2,2:0:0:0:
110,31,130728,2,0,L|211:47,1,75.3600028610231,8|0,3:2|3:2,2:0:0:0:
257,38,131040,1,0,3:2:0:0:
132,119,131196,1,0,3:2:0:0:
169,41,131353,5,4,3:2:0:0:
298,134,131509,2,0,B|367:126|373:177|441:164,1,150.240005722046,0|0,3:2|3:2,2:0:0:0:
247,203,131978,2,0,B|239:242|239:242|250:275,1,75.3600028610231,10|2,3:2|3:2,2:0:0:0:
250,275,132212,1,0,3:2:0:0:
250,275,132290,1,0,3:2:0:0:
240,356,132446,1,2,3:2:0:0:
251,121,132603,5,4,3:2:0:0:
256,41,132759,2,0,P|181:37|106:36,1,150.240005722046,0|0,3:2|3:2,2:0:0:0:
34,42,133228,1,10,3:2:0:0:
17,119,133384,2,0,P|55:111|101:111,1,75.3600028610231,2|0,3:2|3:2,2:0:0:0:
193,155,133696,6,0,L|166:149,2,25.1200009536744,0|0|0,3:2|3:2|3:2,2:0:0:0:
207,174,133853,5,10,3:2:0:0:
301,262,134009,1,0,3:2:0:0:
286,185,134165,5,0,3:0:0:0:
173,244,134321,1,2,3:0:0:0:
257,111,134478,5,8,3:0:0:0:
229,300,134634,1,4,3:0:0:0:
418,328,134790,5,8,3:2:0:0:
433,302,134868,1,2,1:3:0:0:
421,274,134946,1,8,1:3:0:0:
438,249,135024,1,4,1:3:0:0:
438,249,135103,6,0,L|408:256,1,30.1439990844727,8|0,3:2|2:0,2:0:0:0:
415,183,135415,2,0,L|385:190,1,30.1439990844727,8|0,2:0|2:0,2:0:0:0:
329,96,135728,6,0,L|299:89,1,30.1439990844727,8|0,2:0|2:0,2:0:0:0:
306,162,136040,2,0,L|276:155,1,30.1439990844727,8|0,2:0|2:0,2:0:0:0:
260,316,136353,6,0,L|230:323,1,30.1439990844727,8|0,2:0|2:0,2:0:0:0:
237,250,136665,2,0,L|207:257,1,30.1439990844727,8|0,2:0|2:0,2:0:0:0:
184,85,136978,6,0,L|154:78,1,30.1439990844727,8|0,2:0|2:0,2:0:0:0:
161,151,137290,2,0,L|131:144,1,30.1439990844727,8|0,2:0|3:2,2:0:0:0:
38,191,137524,1,0,3:2:0:0:
38,191,137603,6,0,L|43:232,1,30.1439990844727,8|0,2:0|2:0,2:0:0:0:
117,222,137915,2,0,L|112:263,1,30.1439990844727,8|0,2:0|2:0,2:0:0:0:
39,384,138228,6,0,L|44:343,1,30.1439990844727,8|0,2:0|2:0,2:0:0:0:
118,353,138540,2,0,L|113:312,1,30.1439990844727,8|0,2:0|2:0,2:0:0:0:
3,288,138853,5,8,2:0:0:0:
3,288,139087,5,8,2:0:0:0:
3,288,139321,5,8,2:0:0:0:
178,282,139478,5,8,2:0:0:0:
178,282,139712,5,8,2:0:0:0:
178,282,139946,5,8,2:0:0:0:
353,276,140103,6,0,L|359:210,1,60.2879981689454,10|0,2:0|2:0,2:0:0:0:
449,307,140415,2,0,L|444:248,1,60.2879981689454,8|0,2:0|2:0,2:0:0:0:
445,102,140728,6,0,L|451:43,1,60.2879981689454,10|0,2:0|2:0,2:0:0:0:
359,136,141040,2,0,L|354:76,1,60.2879981689454,8|0,2:0|2:0,2:0:0:0:
152,135,141353,6,0,L|158:76,1,60.2879981689454,10|0,2:0|2:0,2:0:0:0:
66,103,141665,2,0,L|61:43,1,60.2879981689454,8|0,2:0|2:0,2:0:0:0:
62,309,141978,6,0,L|67:249,1,60.2879981689454,10|0,2:0|2:0,2:0:0:0:
159,276,142290,2,0,L|153:216,1,60.2879981689454,8|0,2:0|2:0,2:0:0:0:
512,384,142603,5,10,2:0:0:0:
512,384,142759,5,0,2:0:0:0:
512,384,142915,5,10,2:0:0:0:
512,384,143071,5,0,2:0:0:0:
512,384,143228,5,10,2:0:0:0:
512,384,143384,5,0,2:0:0:0:
512,384,143540,5,10,2:0:0:0:
512,384,143696,5,0,2:0:0:0:
334,209,143853,5,6,2:0:0:0:
327,167,144009,6,0,L|323:112,1,55.008,2|0,2:0|2:0,2:0:0:0:
324,113,144946,6,0,B|222:94|210:174|103:159,1,230.368004386902,6|0,3:2|3:2,2:0:0:0:
231,95,145415,2,0,B|245:142|245:142|225:189,1,100.48,8|0,3:2|2:0,2:0:0:0:
180,251,145728,1,0,3:2:0:0:
232,384,145884,1,0,3:2:0:0:
163,349,146040,2,0,P|251:286|344:216,1,200.32,10|0,3:2|3:2,2:0:0:0:
392,274,146509,1,0,3:2:0:0:
285,164,146665,1,8,3:2:0:0:
398,186,146821,5,2,2:0:0:0:
267,296,146978,1,2,3:2:0:0:
171,169,147134,1,2,3:2:0:0:
293,64,147290,1,8,3:2:0:0:
260,141,147446,6,0,P|154:111|124:5,1,230.368004386902,6|2,3:2|3:2,2:0:0:0:
201,16,147915,1,8,3:2:0:0:
115,109,148071,1,2,3:2:0:0:
115,109,148149,1,0,3:2:0:0:
115,109,148228,1,0,3:2:0:0:
51,48,148384,1,2,3:2:0:0:
206,221,148540,5,8,3:2:0:0:
270,160,148696,1,2,3:2:0:0:
202,94,148853,1,0,3:2:0:0:
156,350,149009,5,12,3:2:0:0:
328,218,149165,1,0,3:2:0:0:
328,321,149321,5,12,3:2:0:0:
190,236,149478,1,0,3:2:0:0:
255,284,149634,5,14,3:2:0:0:
320,240,149790,1,2,3:2:0:0:
504,384,149946,6,0,P|494:269|473:156,1,230.368004386902,6|2,3:2|3:2,2:0:0:0:
444,81,150415,5,10,3:2:0:0:
355,34,150571,1,2,3:2:0:0:
235,20,150728,5,14,3:2:0:0:
100,58,150884,1,2,2:0:0:0:
185,108,151040,5,2,3:2:0:0:
338,208,151196,1,2,3:2:0:0:
297,111,151353,5,14,3:2:0:0:
147,203,151509,1,2,2:0:0:0:
55,53,151665,6,0,B|142:47|153:116|242:110,1,200.32,14|0,3:2|3:2,2:0:0:0:
409,112,152134,1,2,3:2:0:0:
291,24,152290,1,10,3:2:0:0:
61,275,152446,6,0,B|21:168|21:168|64:60,1,230.368004386902,6|2,3:2|3:2,2:0:0:0:
210,147,152915,6,0,P|167:154|102:168,1,100.48,14|2,3:2|3:2,2:0:0:0:
243,380,153228,2,0,P|197:372|135:359,1,100.48,14|2,3:2|3:2,2:0:0:0:
323,252,153540,2,0,P|272:253|213:257,1,100.48,2|0,2:0|3:2,2:0:0:0:
147,273,153853,1,14,3:2:0:0:
76,203,154009,5,8,1:3:0:0:
109,192,154087,1,8,1:2:0:0:
143,194,154165,1,8,3:2:0:0:
168,217,154243,1,8,3:2:0:0:
196,237,154321,1,2,3:2:0:0:
229,245,154399,1,0,3:2:0:0:
264,240,154478,5,8,3:2:0:0:
286,229,154556,1,2,1:3:0:0:
301,209,154634,1,2,1:3:0:0:
301,184,154712,1,2,1:3:0:0:
290,161,154790,1,8,1:3:0:0:
270,145,154868,1,4,1:3:0:0:
270,145,154946,6,0,B|182:141|169:208|63:197,1,200.32,6|0,3:2|3:2,2:0:0:0:
268,53,155415,6,0,B|362:48|366:127|481:125,1,230.368004386902,14|0,3:2|3:2,2:0:0:0:
480,49,155884,1,0,3:2:0:0:
192,17,156040,2,0,B|178:64|178:64|198:111,1,100.48,10|0,3:2|2:0,2:0:0:0:
245,172,156353,1,0,3:2:0:0:
226,338,156509,1,0,3:2:0:0:
175,276,156665,1,8,3:2:0:0:
289,241,156821,5,2,2:0:0:0:
147,354,156978,1,2,3:2:0:0:
44,206,157134,1,2,3:2:0:0:
185,93,157290,1,8,3:2:0:0:
175,276,157446,6,0,P|80:221|101:111,1,230.000004386902,6|2,3:2|3:2,2:0:0:0:
250,218,157915,1,8,3:2:0:0:
264,301,158071,1,2,3:2:0:0:
264,301,158149,1,0,3:2:0:0:
264,301,158228,1,0,3:2:0:0:
286,202,158384,1,2,3:2:0:0:
483,199,158540,5,8,3:2:0:0:
453,129,158696,1,2,3:2:0:0:
375,151,158853,1,0,3:2:0:0:
406,227,159009,5,12,3:2:0:0:
218,134,159165,1,0,3:2:0:0:
172,259,159321,5,12,3:2:0:0:
305,207,159478,1,0,3:2:0:0:
357,279,159634,5,14,3:2:0:0:
290,237,159790,1,2,3:2:0:0:
19,319,159946,6,0,B|133:313|119:384|234:384,1,230.368004386902,6|2,3:2|3:2,2:0:0:0:
441,296,160415,5,10,3:2:0:0:
365,202,160571,1,2,3:2:0:0:
229,163,160728,5,14,3:2:0:0:
72,195,160884,1,2,2:0:0:0:
236,258,161040,5,2,3:2:0:0:
386,123,161196,1,2,3:2:0:0:
157,217,161353,5,14,3:2:0:0:
47,110,161509,1,2,2:0:0:0:
211,25,161665,6,0,P|238:120|251:240,1,200.32,14|0,3:2|3:2,2:0:0:0:
238,312,162134,1,2,3:2:0:0:
285,254,162290,1,10,3:2:0:0:
106,61,162446,6,0,B|209:11|209:11|320:45,1,230.368004386902,6|2,3:2|3:2,2:0:0:0:
98,242,162915,2,0,P|100:194|107:124,1,100.48,14|2,3:2|3:2,2:0:0:0:
370,217,163228,2,0,P|363:169|350:100,1,100.48,14|2,3:2|3:2,2:0:0:0:
238,312,163540,1,2,2:0:0:0:
225,104,163696,6,0,L|229:139,2,33.4933333333332,0|0|0,3:2|3:2|3:2,2:0:0:0:
222,79,163853,5,10,3:2:0:0:
185,203,164009,1,0,3:2:0:0:
317,242,164165,5,0,3:0:0:0:
354,118,164321,1,2,3:0:0:0:
231,96,164478,5,8,3:0:0:0:
296,214,164634,1,4,3:0:0:0:
361,332,164790,5,8,3:2:0:0:
392,316,164868,1,2,1:3:0:0:
425,324,164946,1,8,1:3:0:0:
458,312,165024,1,4,1:3:0:0:
458,311,165103,6,0,P|465:222|482:134,2,180.095994506836,6|2|2,3:2|3:2|3:2,2:0:0:0:
307,226,166353,2,0,P|299:136|287:47,2,180.095994506836,8|0|0,3:2|3:2|3:2,2:0:0:0:
173,317,167603,2,0,B|88:307|79:358|-12:355,2,180.095994506836,6|2|2,3:2|3:2|3:2,2:0:0:0:
336,370,168853,5,8,3:2:0:0:
442,369,169165,5,0,3:2:0:0:
357,348,169321,1,8,3:2:0:0:
456,345,169634,5,0,3:2:0:0:
387,272,169790,1,0,3:2:0:0:
307,279,169946,1,8,3:1:0:0:
196,350,170103,6,0,P|181:287|156:215,1,120.191996337891,6|0,3:2|2:0,2:0:0:0:
323,269,170571,2,0,P|338:206|363:134,1,120.191996337891,2|0,3:2|2:0,2:0:0:0:
229,86,171040,2,0,P|238:120|246:155,1,60.2879981689454,2|0,3:2|2:0,2:0:0:0:
175,27,171353,2,0,B|89:24|84:76|-5:80,2,180.095994506836,8|0|0,3:2|3:2|3:2,2:0:0:0:
321,34,172603,6,0,B|378:18|378:18|436:37,1,120.191996337891,6|0,3:2|2:0,2:0:0:0:
429,194,173071,2,0,B|371:209|371:209|313:190,1,120.191996337891,2|0,3:2|2:0,2:0:0:0:
429,115,173540,2,0,L|369:116,1,60.2879981689454,2|0,3:2|2:0,2:0:0:0:
503,217,173853,5,8,1:3:0:0:
500,240,173931,1,8,1:2:0:0:
493,263,174009,1,8,3:2:0:0:
480,283,174087,1,8,3:2:0:0:
462,298,174165,1,0,3:2:0:0:
440,308,174243,1,0,3:2:0:0:
416,311,174321,1,8,3:2:0:0:
392,309,174399,1,8,1:3:0:0:
369,300,174478,6,0,L|371:256,3,30.0159990844727,8|8|0|0,3:2|1:3|3:2|3:2,2:0:0:0:
309,223,174790,2,0,L|307:179,3,30.0159990844727,8|4|8|4,1:3|1:3|3:0|3:0,2:0:0:0:
381,169,175103,6,0,P|295:157|262:77,2,180.095994506836,6|2|2,3:2|3:2|3:2,2:0:0:0:
453,268,176353,2,0,B|360:259|368:324|272:321,2,180.095994506836,8|0|0,3:2|3:2|3:2,2:0:0:0:
485,141,177603,6,0,P|490:86|500:22,1,120.191996337891,6|0,3:2|2:0,2:0:0:0:
373,156,178071,2,0,P|367:101|358:37,1,120.191996337891,2|0,3:2|2:0,2:0:0:0:
244,172,178540,2,0,P|247:143|255:103,1,60.2879981689454,2|0,3:2|2:0,2:0:0:0:
201,6,178853,6,0,P|150:19|83:51,1,120.191996337891,8|0,3:2|2:0,2:0:0:0:
43,130,179321,2,0,L|74:136,2,20.0959993896485,0|0|0,3:2|3:2|3:2,2:0:0:0:
28,151,179478,5,8,3:2:0:0:
151,129,179634,1,0,3:2:0:0:
224,231,179790,1,0,3:2:0:0:
101,253,179946,1,0,3:2:0:0:
155,204,180103,6,0,P|172:261|178:320,1,120.191996337891,6|0,3:2|2:0,2:0:0:0:
330,254,180571,2,0,P|298:304|277:360,1,120.191996337891,2|0,3:2|2:0,2:0:0:0:
267,201,181040,2,0,P|278:169|296:138,1,60.2879981689454,2|0,3:2|2:0,2:0:0:0:
333,69,181353,2,0,P|245:51|155:57,2,180.095994506836,8|0|0,3:2|3:2|3:2,2:0:0:0:
477,179,182603,6,0,B|492:236|492:236|473:294,1,120.191996337891,6|0,3:2|2:0,2:0:0:0:
310,170,183071,2,0,B|291:228|291:228|307:286,1,120.191996337891,2|0,3:2|2:0,2:0:0:0:
391,348,183540,2,0,L|393:268,1,60.2879981689454,2|0,3:2|2:0,2:0:0:0:
394,141,183853,5,8,3:2:0:0:
213,285,184009,1,8,3:2:0:0:
213,285,184321,5,0,3:2:0:0:
263,367,184478,1,8,3:2:0:0:
394,141,184634,5,2,3:0:0:0:
277,145,184790,1,8,3:0:0:0:
415,379,184946,5,4,3:0:0:0:
478,258,185103,1,6,3:2:0:0:
139,145,195103,6,0,P|195:124|254:115,1,120,2|2,0:0|0:0,0:0:0:0:
255,115,196353,6,2,L|253:129,16,14.9999995422363,6|0|0|0|0|0|0|0|0|0|0|0|0|0|0|0|12,0:0|0:0|0:0|0:0|0:0|0:0|0:0|0:0|0:0|0:0|0:0|0:0|0:0|0:0|0:0|0:0|3:3,0:0:0:0:
255,115,197603,6,0,L|248:164,1,50.24,6|0,3:2|2:0,2:0:0:0:
177,132,197915,2,0,L|170:181,1,50.24,0|0,3:2|2:0,2:0:0:0:
99,149,198228,2,0,L|92:198,1,50.24,8|0,3:2|2:0,2:0:0:0:
293,239,198540,6,0,L|299:288,1,50.24,6|0,3:2|2:0,2:0:0:0:
371,256,198853,2,0,L|377:305,1,50.24,0|0,3:2|2:0,2:0:0:0:
449,273,199165,2,0,L|455:322,1,50.24,0|0,3:2|2:0,2:0:0:0:
293,239,199478,5,14,3:2:0:0:
293,239,199790,1,0,3:2:0:0:
426,77,200103,6,0,L|366:71,1,50.24,6|0,3:2|2:0,2:0:0:0:
334,155,200415,2,0,L|383:159,1,50.24,0|0,3:2|2:0,2:0:0:0:
342,243,200728,2,0,L|292:238,1,50.24,8|0,3:2|2:0,2:0:0:0:
88,190,201040,6,0,L|147:184,1,50.24,6|0,3:2|2:0,2:0:0:0:
180,268,201353,2,0,L|130:272,1,50.24,0|0,3:2|2:0,2:0:0:0:
172,356,201665,2,0,L|221:351,1,50.24,0|0,3:2|2:0,2:0:0:0:
243,157,201978,5,14,3:2:0:0:
243,157,202290,1,0,3:2:0:0:
498,227,202603,6,0,L|492:280,1,50.24,6|0,3:2|2:0,2:0:0:0:
491,232,202915,2,0,L|485:285,1,50.24,0|0,3:2|2:0,2:0:0:0:
484,237,203228,2,0,L|478:290,1,50.24,8|0,3:2|2:0,2:0:0:0:
254,194,203540,6,0,L|260:247,1,50.24,6|0,3:2|2:0,2:0:0:0:
261,199,203853,2,0,L|267:252,1,50.24,0|0,3:2|2:0,2:0:0:0:
268,204,204165,2,0,L|274:257,1,50.24,0|0,3:2|2:0,2:0:0:0:
377,206,204478,5,14,3:2:0:0:
377,206,204790,1,0,3:2:0:0:
162,337,205103,6,0,L|109:331,1,50.24,6|0,3:2|2:0,2:0:0:0:
157,330,205415,2,0,L|104:324,1,50.24,0|0,3:2|2:0,2:0:0:0:
152,323,205728,2,0,L|99:317,1,50.24,8|0,3:2|2:0,2:0:0:0:
199,212,206040,6,0,L|252:206,1,50.24,6|0,3:2|2:0,2:0:0:0:
325,196,206353,1,0,3:2:0:0:
408,188,206587,1,8,1:2:0:0:
408,188,206665,1,8,3:2:0:0:
494,183,206821,1,8,1:3:0:0:
494,183,206899,1,8,1:2:0:0:
494,183,206978,6,0,L|500:139,1,25.12,14|2,3:2|1:3,2:0:0:0:
321,95,207134,2,0,L|324:119,1,25.12,8|4,1:3|1:3,2:0:0:0:
425,78,207290,1,8,3:0:0:0:
440,57,207368,1,2,1:3:0:0:
431,33,207446,1,8,1:3:0:0:
448,7,207524,1,4,1:3:0:0:
448,7,207603,6,0,L|392:15,1,50.24,6|0,3:2|2:0,2:0:0:0:
281,30,207915,2,0,L|225:38,1,50.24,0|0,3:2|2:0,2:0:0:0:
114,53,208228,2,0,L|58:61,1,50.24,8|0,3:2|2:0,2:0:0:0:
65,159,208540,6,0,L|121:167,1,50.24,6|0,3:2|2:0,2:0:0:0:
232,182,208853,2,0,L|288:190,1,50.24,0|0,3:2|2:0,2:0:0:0:
399,205,209165,2,0,L|455:213,1,50.24,0|0,3:2|2:0,2:0:0:0:
448,311,209478,5,14,3:2:0:0:
448,311,209790,1,0,3:2:0:0:
261,263,210103,6,0,L|267:319,1,50.24,6|0,3:2|2:0,2:0:0:0:
218,192,210415,2,0,L|165:169,1,50.24,0|0,3:2|2:0,2:0:0:0:
300,190,210728,2,0,L|345:156,1,50.24,8|0,3:2|2:0,2:0:0:0:
272,362,211040,6,0,L|266:312,1,50.24,6|0,3:2|2:0,2:0:0:0:
126,152,211353,2,0,L|171:171,1,50.24,0|0,3:2|2:0,2:0:0:0:
380,130,211665,2,0,L|339:159,1,50.24,0|0,3:2|2:0,2:0:0:0:
259,215,211978,5,14,3:2:0:0:
259,215,212290,1,0,3:2:0:0:
306,83,212603,6,0,L|253:77,1,50.24,6|0,3:2|2:0,2:0:0:0:
301,76,212915,2,0,L|248:70,1,50.24,0|0,3:2|2:0,2:0:0:0:
296,69,213228,2,0,L|243:63,1,50.24,8|0,3:2|2:0,2:0:0:0:
399,192,213540,6,0,L|452:186,1,50.24,6|0,3:2|2:0,2:0:0:0:
404,185,213853,2,0,L|457:179,1,50.24,0|0,3:2|2:0,2:0:0:0:
409,178,214165,2,0,L|462:172,1,50.24,0|0,3:2|2:0,2:0:0:0:
264,192,214478,5,14,3:2:0:0:
264,192,214790,1,0,3:2:0:0:
261,89,215103,5,6,3:2:0:0:
261,89,215259,1,0,3:2:0:0:
154,3,215415,6,0,B|161:48|161:48|147:79,1,80,8|0,3:2|3:2,0:2:0:0:
164,277,215728,2,0,B|157:232|157:232|170:200,1,80,12|0,3:2|3:2,0:2:0:0:
262,2,216040,5,0,3:2:0:0:
262,2,216196,1,0,3:2:0:0:
20,136,216353,5,14,3:2:0:0:
163,81,216509,5,0,3:2:0:0:
91,54,216665,1,12,3:2:0:0:
178,57,216821,1,0,3:2:0:0:
66,197,216978,6,0,L|61:171,1,20,14|8,3:2|3:2,2:0:0:0:
162,281,217134,1,0,3:2:0:0:
57,370,217290,1,12,3:2:0:0:
42,219,217446,6,0,B|151:198|155:274|263:260,1,230.368004386902,6|0,3:2|3:2,2:0:0:0:
123,318,217915,2,0,B|84:226|84:226|124:134,1,200.32,8|0,3:2|3:2,2:0:0:0:
69,87,218384,1,0,3:2:0:0:
194,181,218540,2,0,L|292:166,1,100.48,10|0,3:2|2:0,2:0:0:0:
280,93,218853,1,0,3:2:0:0:
123,134,219009,1,0,3:2:0:0:
162,256,219165,1,8,3:2:0:0:
111,32,219321,5,2,2:0:0:0:
9,169,219478,1,2,3:2:0:0:
92,318,219634,1,2,3:2:0:0:
194,181,219790,1,8,3:2:0:0:
97,225,219946,6,0,P|211:208|345:193,1,230.368004386902,6|2,3:2|3:2,2:0:0:0:
431,332,220415,1,8,3:2:0:0:
474,246,220571,1,2,3:2:0:0:
474,246,220649,1,0,3:2:0:0:
474,246,220728,1,0,3:2:0:0:
421,304,220884,1,2,3:2:0:0:
453,151,221040,5,8,3:2:0:0:
363,100,221196,1,2,3:2:0:0:
285,159,221353,1,0,3:2:0:0:
382,213,221509,5,12,3:2:0:0:
232,90,221665,1,0,3:2:0:0:
162,220,221821,5,12,3:2:0:0:
321,140,221978,1,0,3:2:0:0:
237,112,222134,5,14,3:2:0:0:
305,153,222290,1,2,3:2:0:0:
252,384,222446,6,0,P|229:275|128:229,1,230.368004386902,6|2,3:2|3:2,2:0:0:0:
12,376,222915,5,10,3:2:0:0:
104,317,223071,1,2,3:2:0:0:
233,302,223228,5,14,3:2:0:0:
379,332,223384,1,2,2:0:0:0:
252,384,223540,5,2,3:2:0:0:
329,267,223696,1,2,3:2:0:0:
217,181,223853,5,14,3:2:0:0:
140,298,224009,1,2,2:0:0:0:
216,267,224165,6,0,B|141:245|102:307|12:301,1,200.32,14|0,3:2|3:2,2:0:0:0:
27,225,224634,1,2,3:2:0:0:
196,349,224790,1,10,3:2:0:0:
269,109,224946,6,0,B|367:97|372:188|473:199,1,230.368004386902,6|2,3:2|3:2,2:0:0:0:
188,162,225415,6,0,B|162:207|162:207|169:259,1,100.48,14|2,3:2|3:2,2:0:0:0:
360,298,225728,2,0,B|386:253|386:253|378:200,1,100.48,14|2,3:2|3:2,2:0:0:0:
311,60,226040,2,0,L|286:167,1,100.48,2|0,2:0|3:2,2:0:0:0:
272,234,226353,1,14,3:2:0:0:
406,271,226509,5,8,1:3:0:0:
437,254,226587,1,8,1:2:0:0:
471,256,226665,1,8,3:2:0:0:
498,277,226743,1,8,3:2:0:0:
512,308,226821,1,2,3:2:0:0:
506,342,226899,1,0,3:2:0:0:
480,366,226978,5,8,3:2:0:0:
455,372,227056,1,2,1:3:0:0:
433,358,227134,1,2,1:3:0:0:
422,335,227212,1,2,1:3:0:0:
432,312,227290,1,8,1:3:0:0:
455,303,227368,1,4,1:3:0:0:
455,303,227446,6,0,B|340:294|371:355|267:356,1,200,6|0,3:2|3:2,2:0:0:0:
252,80,227915,6,0,P|352:124|371:233,1,230.368004386902,14|0,3:2|3:2,2:0:0:0:
292,219,228384,1,0,3:2:0:0:
451,157,228540,2,0,B|460:207|460:207|442:253,1,100.48,10|0,3:2|2:0,2:0:0:0:
386,310,228853,1,0,3:2:0:0:
507,292,229009,1,0,3:2:0:0:
452,360,229165,1,8,3:2:0:0:
123,280,229321,5,2,2:0:0:0:
268,156,229478,1,2,3:2:0:0:
437,241,229634,1,2,3:2:0:0:
292,365,229790,1,8,3:2:0:0:
290,236,229946,6,0,B|388:230|393:311|501:314,1,230.368004386902,6|2,3:2|3:2,2:0:0:0:
487,237,230415,1,8,3:2:0:0:
283,321,230571,1,2,3:2:0:0:
283,321,230649,1,0,3:2:0:0:
283,321,230728,1,0,3:2:0:0:
315,228,230884,1,2,3:2:0:0:
510,323,231040,5,8,3:2:0:0:
436,351,231196,1,2,3:2:0:0:
362,379,231353,1,0,3:2:0:0:
195,178,231509,5,12,3:2:0:0:
420,269,231665,1,0,3:2:0:0:
379,164,231821,5,12,3:2:0:0:
240,254,231978,1,0,3:2:0:0:
335,272,232134,5,14,3:2:0:0:
261,241,232290,1,2,3:2:0:0:
32,290,232446,6,0,B|9:176|9:176|60:74,1,230.368004386902,6|2,3:2|3:2,2:0:0:0:
7,11,232915,5,10,3:2:0:0:
136,0,233071,1,2,3:2:0:0:
278,50,233228,5,14,3:2:0:0:
383,184,233384,1,2,2:0:0:0:
143,123,233540,5,2,3:2:0:0:
152,150,233618,1,0,3:2:0:0:
147,179,233696,1,2,3:2:0:0:
163,205,233774,1,0,3:2:0:0:
163,205,233853,5,14,3:2:0:0:
176,362,234009,1,2,2:0:0:0:
76,179,234165,5,14,3:2:0:0:
159,117,234321,1,0,3:2:0:0:
226,156,234478,1,0,3:2:0:0:
189,32,234634,5,10,3:2:0:0:
0,155,234790,1,10,3:2:0:0:
39,38,234946,6,0,B|147:29|145:119|248:117,1,230.368004386902,6|2,3:2|3:2,2:0:0:0:
343,352,235415,6,0,P|399:343|465:324,1,100.48,14|2,3:2|3:2,2:0:0:0:
415,88,235728,2,0,P|366:73|317:65,1,100.48,14|2,3:2|3:2,2:0:0:0:
203,212,236040,1,2,2:0:0:0:
451,226,236196,6,0,L|418:229,2,33.4933333333332,0|0|0,3:2|3:2|3:2,2:0:0:0:
476,225,236353,5,10,3:2:0:0:
501,136,236509,1,0,3:2:0:0:
265,39,236665,5,0,3:0:0:0:
240,128,236821,1,2,3:0:0:0:
405,125,236978,5,8,3:0:0:0:
380,36,237134,1,4,3:0:0:0:
293,198,237290,5,8,3:2:0:0:
301,230,237368,1,2,1:3:0:0:
282,260,237446,1,8,1:3:0:0:
290,294,237524,1,4,1:3:0:0:
290,294,237603,6,0,L|257:300,1,30.1439990844727,6|0,3:2|2:0,2:0:0:0:
286,367,237915,2,0,L|253:373,1,30.1439990844727,8|0,2:0|2:0,2:0:0:0:
386,282,238228,6,0,L|419:288,1,30.1439990844727,8|0,2:0|2:0,2:0:0:0:
390,355,238540,2,0,L|423:361,1,30.1439990844727,8|0,2:0|2:0,2:0:0:0:
462,205,238853,6,0,L|461:175,1,30.1439990844727,8|0,2:0|2:0,2:0:0:0:
390,188,239165,2,0,L|389:158,1,30.1439990844727,8|0,2:0|2:0,2:0:0:0:
248,181,239478,6,0,L|248:151,1,30.1439990844727,8|0,2:0|2:0,2:0:0:0:
176,198,239790,2,0,L|176:168,1,30.1439990844727,8|0,2:0|3:2,2:0:0:0:
108,297,240024,1,0,3:2:0:0:
108,297,240103,6,0,L|108:326,1,30.1439990844727,8|0,2:0|2:0,2:0:0:0:
180,314,240415,2,0,L|180:343,1,30.1439990844727,8|0,2:0|2:0,2:0:0:0:
332,314,240728,6,0,L|331:343,1,30.1439990844727,8|0,2:0|2:0,2:0:0:0:
404,297,241040,2,0,L|403:326,1,30.1439990844727,8|0,2:0|2:0,2:0:0:0:
404,87,241353,6,0,L|403:57,1,30.1439990844727,8|0,2:0|2:0,2:0:0:0:
332,70,241665,2,0,L|331:40,1,30.1439990844727,8|0,2:0|2:0,2:0:0:0:
180,70,241978,6,0,L|180:40,1,30.1439990844727,8|0,2:0|2:0,2:0:0:0:
108,87,242290,2,0,L|108:57,1,30.1439990844727,8|0,2:0|2:0,2:0:0:0:
246,218,242603,5,10,2:0:0:0:
246,218,242681,1,8,2:0:0:0:
246,218,242759,2,0,P|257:187|271:161,1,59.9999981689454
78,227,243071,1,8,2:0:0:0:
78,227,243149,1,8,2:0:0:0:
78,227,243227,2,0,P|67:196|53:170,1,59.9999981689454,10|0,0:0|0:0,0:0:0:0:
159,317,243540,5,8,0:0:0:0:
159,317,243618,1,8,0:0:0:0:
159,316,243696,2,0,P|158:256|163:196,1,119.999996337891,0|8,0:0|0:0,0:0:0:0:
163,196,244087,1,8,0:0:0:0:
163,196,244165,1,0,0:0:0:0:
184,126,244321,1,0,0:0:0:0:
163,196,244478,5,10,0:0:0:0:
163,196,244556,1,8,0:0:0:0:
163,196,244634,1,0,0:0:0:0:
185,295,244790,1,8,0:0:0:0:
185,295,244868,1,8,0:0:0:0:
185,295,244946,1,0,0:0:0:0:
192,373,245103,5,10,0:0:0:0:
192,373,245259,1,8,0:0:0:0:
192,373,245415,2,8,L|188:339,3,29.9999990844727,10|8|10|8,0:0|0:0|0:0|0:0,0:0:0:0:
265,365,245728,2,8,L|261:331,3,29.9999990844727,10|8|10|8,0:0|0:0|0:0|0:0,0:0:0:0:
338,357,246040,2,8,L|334:323,3,29.9999990844727,10|8|10|8,0:0|0:0|0:0|0:0,0:0:0:0:
507,386,246353,5,4,0:0:0:0:
