osu file format v14

[General]
AudioFilename: audio.mp3
AudioLeadIn: 0
PreviewTime: 74031
Countdown: 0
SampleSet: Soft
StackLeniency: 0.7
Mode: 2
LetterboxInBreaks: 0
WidescreenStoryboard: 1

[Editor]
Bookmarks: 10051,12551,15052,17551,20052,22551,25052,27551,30208,50208,52708,55208,57708,60208,62708,65208
DistanceSpacing: 1
BeatDivisor: 8
GridSize: 4
TimelineZoom: 1.9

[Metadata]
Title:If You Can't Hang (Cut Ver.)
TitleUnicode:If You Can't Hang (Cut Ver.)
Artist:Sleeping With Sirens
ArtistUnicode:Sleeping With Sirens
Creator:-Joakh
Version:Rew's Platter
Source:
Tags:du5t idu5t dust idust Phob Rew0825 Bastian Jorkseljund Secre Chickenbible Greaper Wanpachi Rock English cant Post Hardcore Kellin Quinn Let's Cheers to This
BeatmapID:2879934
BeatmapSetID:1358902

[Difficulty]
HPDrainRate:4
CircleSize:3.5
OverallDifficulty:8
ApproachRate:8
SliderMultiplier:1.5
SliderTickRate:1

[Events]
//Background and Video events
0,0,"BG.png",0,0
//Break Periods
//Storyboard Layer 0 (Background)
//Storyboard Layer 1 (Fail)
//Storyboard Layer 2 (Pass)
//Storyboard Layer 3 (Foreground)
//Storyboard Layer 4 (Overlay)
//Storyboard Sound Samples

[TimingPoints]
208,312.5,4,2,1,30,1,0
7708,-100,4,2,1,30,0,0
8020,-100,4,2,1,40,0,0
8333,-100,4,2,1,50,0,0
8645,-100,4,2,1,60,0,0
8958,-100,4,2,1,70,0,0
9270,-100,4,2,1,50,0,0
10052,312.5,4,2,1,70,1,0
10052,-100,4,2,1,70,0,0
30208,312.5,4,2,1,70,1,0
30208,-100,4,2,1,70,0,0
30364,-100,4,2,2,30,0,0
48020,-100,4,2,3,35,0,0
48098,-100,4,2,2,35,0,0
48333,-100,4,2,3,40,0,0
48411,-100,4,2,2,40,0,0
48645,-100,4,2,3,45,0,0
48723,-100,4,2,2,45,0,0
48958,-100,4,2,3,50,0,0
49036,-100,4,2,2,50,0,0
49270,-100,4,2,3,55,0,0
49348,-100,4,2,2,55,0,0
49583,-100,4,2,3,60,0,0
49661,-100,4,2,2,60,0,0
50208,-100,4,2,1,60,0,0
65208,-100,4,2,1,60,0,0
65364,-100,4,2,4,40,0,0
73958,-100,4,2,4,60,0,0
74114,-100,4,2,2,60,0,0
75057,312.5,4,2,4,40,1,0
75057,-100,4,2,5,80,0,1
95213,312.5,4,2,5,80,1,0
95213,-100,4,2,5,80,0,0
95369,-100,4,2,4,40,0,0
100213,-100,4,2,4,45,0,0
102713,-100,4,2,4,50,0,0
104119,-100,4,2,4,20,0,0

[Colours]
Combo1 : 250,203,133
Combo2 : 13,198,193
Combo3 : 175,172,185
Combo4 : 186,116,116

[HitObjects]
256,192,208,12,0,7395,0:0:0:0:
172,360,7708,6,0,L|168:208,1,150,0|8,3:2|0:0,0:0:0:0:
320,208,8333,1,8,0:0:0:0:
400,200,8489,1,8,0:0:0:0:
396,120,8645,1,8,0:0:0:0:
316,112,8801,1,8,0:0:0:0:
156,112,8958,1,8,0:0:0:0:
148,64,9270,5,4,0:3:0:0:
404,64,9583,2,0,L|408:216,1,150,8|0,0:3|0:0,0:0:0:0:
184,212,10051,6,0,P|140:188|184:120,1,150,4|0,3:2|3:2,0:0:0:0:
256,120,10520,1,10,0:0:0:0:
180,120,10677,1,0,0:0:0:0:
340,120,10833,1,2,3:2:0:0:
340,196,11145,1,10,0:0:0:0:
264,196,11302,1,0,0:0:0:0:
104,196,11458,6,0,L|100:276,1,75,2|0,3:2|3:2,0:0:0:0:
256,272,11770,2,0,P|304:236|256:180,1,150,10|2,0:0|3:2,0:0:0:0:
180,180,12239,1,0,3:2:0:0:
176,256,12395,1,8,0:0:0:0:
400,256,12552,6,0,P|444:220|400:156,1,150,4|0,3:2|3:2,0:0:0:0:
324,156,13020,1,10,0:0:0:0:
399,156,13177,1,0,3:2:0:0:
240,156,13333,2,0,L|80:156,1,150,2|10,3:2|0:0,0:0:0:0:
164,156,13802,1,0,3:2:0:0:
88,156,13958,1,0,3:2:0:0:
244,156,14114,6,0,L|396:156,1,150,8|8,0:0|0:0,0:0:0:0:
140,156,14739,2,0,L|136:232,1,75,8|0,0:0|3:2,0:0:0:0:
360,232,15052,6,0,P|404:260|360:328,1,150,4|0,3:2|3:2,0:0:0:0:
284,328,15520,1,10,0:0:0:0:
360,328,15677,1,0,3:2:0:0:
200,328,15833,2,0,L|36:328,1,150,10|2,0:0|3:2,0:0:0:0:
124,328,16302,1,0,3:2:0:0:
284,328,16458,6,0,L|288:252,1,75,10|0,0:0|0:0,0:0:0:0:
132,256,16770,1,10,0:0:0:0:
132,180,17083,1,2,3:2:0:0:
208,180,17239,1,0,3:2:0:0:
132,180,17395,1,8,0:0:0:0:
356,180,17552,6,0,P|400:144|356:80,1,150,4|0,3:2|3:2,0:0:0:0:
280,80,18020,1,10,0:0:0:0:
356,80,18177,1,0,3:2:0:0:
196,80,18333,1,10,0:0:0:0:
120,80,18489,1,0,3:2:0:0:
120,156,18802,1,0,3:2:0:0:
280,156,18958,5,2,3:2:0:0:
364,156,19114,1,8,0:0:0:0:
384,188,19192,1,8,0:0:0:0:
360,220,19270,1,8,0:0:0:0:
280,220,19427,1,0,3:2:0:0:
120,224,19583,1,8,0:0:0:0:
84,232,19661,1,8,0:3:0:0:
72,264,19739,1,4,0:3:0:0:
88,296,19817,1,0,0:0:0:0:
128,300,19895,1,4,0:3:0:0:
348,280,20052,6,0,P|416:248|428:180,1,150,4|0,3:2|3:2,0:0:0:0:
352,180,20520,1,10,0:0:0:0:
428,180,20677,1,0,0:0:0:0:
268,180,20833,1,2,3:2:0:0:
268,256,21145,1,10,0:0:0:0:
344,256,21302,1,0,0:0:0:0:
184,256,21458,6,0,L|180:180,1,75,2|0,3:2|3:2,0:0:0:0:
336,180,21770,2,0,L|488:180,1,150,10|2,0:0|3:2,0:0:0:0:
412,180,22239,1,0,3:2:0:0:
488,180,22395,1,8,0:0:0:0:
264,180,22552,6,0,L|104:180,1,150,4|0,3:2|3:2,0:0:0:0:
188,180,23020,1,10,0:0:0:0:
112,180,23177,1,0,3:2:0:0:
272,180,23333,2,0,P|320:224|272:276,1,150,2|10,3:2|0:0,0:0:0:0:
196,276,23802,1,0,3:2:0:0:
272,276,23958,1,0,3:2:0:0:
112,276,24114,6,0,L|108:120,1,150,8|8,0:0|0:0,0:0:0:0:
364,124,24739,2,0,L|368:200,1,75,8|0,0:0|3:2,0:0:0:0:
144,200,25052,6,0,P|96:244|144:296,1,150,4|0,3:2|3:2,0:0:0:0:
220,296,25520,1,10,0:0:0:0:
144,296,25677,1,0,3:2:0:0:
304,296,25833,2,0,L|464:296,1,150,10|2,0:0|3:2,0:0:0:0:
372,296,26302,1,0,3:2:0:0:
212,296,26458,6,0,L|208:216,1,75,10|0,0:0|0:0,0:0:0:0:
364,220,26770,1,10,0:0:0:0:
364,144,27083,1,2,3:2:0:0:
288,144,27239,1,0,3:2:0:0:
364,144,27395,1,8,0:0:0:0:
140,144,27552,6,0,P|96:172|140:240,1,150,4|0,3:2|3:2,0:0:0:0:
216,240,28020,1,10,0:0:0:0:
140,240,28177,1,0,3:2:0:0:
300,240,28333,1,10,0:0:0:0:
376,240,28489,1,0,3:2:0:0:
376,164,28802,1,0,3:2:0:0:
216,164,28958,5,6,0:3:0:0:
140,164,29114,1,0,3:2:0:0:
216,164,29270,1,0,3:2:0:0:
376,164,29427,1,4,0:3:0:0:
452,164,29583,1,0,3:2:0:0:
376,164,29739,1,0,3:2:0:0:
216,164,29895,1,8,0:0:0:0:
140,164,30052,1,0,3:2:0:0:
368,164,30208,5,4,3:2:0:0:
256,192,30364,12,0,32708,3:2:0:0:
156,256,33333,6,0,L|152:180,1,75,2|2,0:0|0:0,0:0:0:0:
300,184,33801,6,0,L|304:24,1,150,2|2,0:0|0:0,0:0:0:0:
140,32,34426,2,0,P|64:76|140:148,1,225,10|2,0:0|0:0,0:0:0:0:
216,148,35051,1,2,0:0:0:0:
376,148,35208,5,0,3:2:0:0:
136,144,35833,2,0,L|136:220,1,75,2|2,0:0|0:0,0:0:0:0:
284,216,36301,6,0,L|288:368,1,150,2|2,0:0|0:0,0:0:0:0:
136,368,36926,1,2,0:0:0:0:
288,368,37239,2,0,P|336:320|288:272,1,150,2|2,0:0|0:0,0:0:0:0:
132,272,37708,5,0,3:2:0:0:
372,272,38333,2,0,L|376:196,1,75,2|2,0:0|0:0,0:0:0:0:
228,196,38801,6,0,L|224:352,1,150,2|2,0:0|0:0,0:0:0:0:
376,344,39426,2,0,L|380:192,1,150,10|10,0:0|0:0,0:0:0:0:
228,196,40051,1,10,0:0:0:0:
68,196,40208,5,0,3:2:0:0:
308,196,40833,2,0,L|392:196,2,75,2|2|2,0:0|0:0|0:0,0:0:0:0:
224,196,41301,6,0,L|60:196,1,150,2|2,0:0|0:0,0:0:0:0:
224,196,41926,2,0,P|300:236|224:308,1,225,2|0,0:0|0:0,0:0:0:0:
148,308,42551,1,2,0:0:0:0:
308,308,42708,5,0,3:2:0:0:
456,308,43020,2,0,L|460:156,1,150,2|0,0:0|0:0,0:0:0:0:
308,160,43645,2,0,L|304:240,1,75,2|2,0:0|0:0,0:0:0:0:
388,236,43958,6,0,L|228:236,1,150,10|2,0:0|0:0,0:0:0:0:
88,236,44583,2,0,L|84:160,1,75,10|2,0:0|0:0,0:0:0:0:
232,160,45051,1,2,0:0:0:0:
392,160,45208,6,0,P|440:120|392:64,1,150,0|0,3:2|0:0,0:0:0:0:
244,64,45833,2,0,L|240:140,1,75,2|2,0:0|0:0,0:0:0:0:
388,140,46301,6,0,L|236:140,1,150,2|2,0:0|0:0,0:0:0:0:
88,140,46926,1,2,0:0:0:0:
240,140,47239,2,0,P|288:180|240:236,1,150,2|2,0:0|0:0,0:0:0:0:
84,236,47708,6,0,L|80:80,1,150,0|2,3:2|0:2,0:0:0:0:
332,88,48333,2,0,L|176:88,1,150,2|2,3:2|0:2,0:0:0:0:
436,88,48958,6,0,L|440:240,1,150,2|2,3:2|0:2,0:0:0:0:
188,236,49583,1,2,3:2:0:0:
104,236,49739,2,0,P|56:192|104:140,1,150,2|2,0:0|0:0,0:0:0:0:
328,140,50208,6,0,P|404:184|328:256,1,225,6|0,3:2|3:2,0:0:0:0:
244,256,50833,1,10,0:0:0:0:
400,256,50989,2,0,L|404:100,1,150,0|0,3:2|3:2,0:0:0:0:
244,104,51458,6,0,L|88:104,1,150,2|0,3:2|0:0,0:0:0:0:
260,104,52083,1,10,0:0:0:0:
416,104,52239,2,0,P|464:152|416:200,1,150,0|0,3:2|3:2,0:0:0:0:
192,200,52708,6,0,P|116:240|192:316,1,225,6|0,3:2|3:2,0:0:0:0:
272,316,53333,1,10,0:0:0:0:
116,316,53489,2,0,L|112:164,1,150,0|0,3:2|3:2,0:0:0:0:
272,168,53958,6,0,L|432:168,1,150,2|0,3:2|0:0,0:0:0:0:
340,168,54426,1,0,3:2:0:0:
424,168,54583,1,10,0:0:0:0:
268,168,54739,2,0,L|112:168,1,150,0|0,3:2|3:2,0:0:0:0:
344,168,55208,6,0,L|348:248,1,75,6|0,3:2|0:0,0:0:0:0:
196,240,55676,2,0,L|192:316,1,75,0|10,3:2|0:0,0:0:0:0:
352,316,55989,2,0,P|396:280|352:216,1,150,0|0,3:2|3:2,0:0:0:0:
192,212,56458,6,0,L|28:212,1,150,2|0,3:2|0:0,0:0:0:0:
124,212,56926,1,0,3:2:0:0:
40,212,57083,1,10,0:0:0:0:
196,212,57239,2,0,L|356:212,1,150,0|0,3:2|3:2,0:0:0:0:
120,212,57708,6,0,L|116:136,1,75,6|0,3:2|0:0,0:0:0:0:
264,140,58176,1,0,3:2:0:0:
188,140,58333,1,10,0:0:0:0:
344,140,58489,2,0,P|388:176|344:240,1,150,0|0,3:2|3:2,0:0:0:0:
184,240,58958,5,0,3:2:0:0:
100,240,59114,1,8,0:3:0:0:
76,276,59192,1,8,0:0:0:0:
100,308,59270,1,8,0:0:0:0:
184,312,59426,1,8,0:0:0:0:
344,308,59583,5,8,0:0:0:0:
348,268,59661,1,8,0:0:0:0:
352,228,59739,1,8,0:3:0:0:
196,224,59895,1,4,0:3:0:0:
192,184,59973,1,4,0:3:0:0:
188,144,60051,1,4,0:3:0:0:
416,144,60208,5,6,3:2:0:0:
492,144,60364,2,0,L|336:144,1,150,0|0,3:2|3:2,0:0:0:0:
416,144,60833,1,10,0:0:0:0:
260,144,60989,1,0,3:2:0:0:
184,144,61145,1,0,3:2:0:0:
260,144,61301,1,0,3:2:0:0:
100,144,61458,5,2,3:2:0:0:
24,144,61614,2,0,L|184:144,1,150,0|0,3:2|3:2,0:0:0:0:
96,144,62083,1,10,0:0:0:0:
252,144,62239,1,0,3:2:0:0:
276,176,62317,1,0,3:2:0:0:
252,208,62395,1,0,3:2:0:0:
168,208,62551,1,0,3:2:0:0:
396,208,62708,5,6,3:2:0:0:
320,208,62864,2,0,P|272:248|320:304,1,150,0|0,3:2|3:2,0:0:0:0:
392,304,63333,1,10,0:0:0:0:
236,304,63489,2,0,L|396:304,1,150,0|0,3:2|3:2,0:0:0:0:
228,304,63958,6,0,L|136:304,2,75,4|0|0,0:3|3:2|3:2,0:0:0:0:
386,304,64426,2,0,L|478:304,2,75,8|0|0,0:3|3:2|3:2,0:0:0:0:
228,304,64895,1,8,0:0:0:0:
192,304,64973,1,8,0:3:0:0:
156,304,65051,1,0,3:2:0:0:
384,304,65208,5,12,0:0:0:0:
236,304,65520,2,0,L|72:304,2,150,0|0|0,1:2|1:2|1:2,0:0:0:0:
396,304,66458,5,0,1:2:0:0:
240,304,66614,2,0,P|192:260|240:208,1,150
320,208,67083,2,0,P|364:180|320:112,1,150,0|0,1:2|1:2,0:0:0:0:
244,112,67551,1,0,0:0:0:0:
84,112,67708,5,0,1:2:0:0:
232,112,68020,2,0,L|392:112,2,150,0|0|0,1:2|1:2|1:2,0:0:0:0:
80,112,68958,5,0,1:2:0:0:
236,112,69114,2,0,P|292:116|328:196,1,150,0|0,0:0|1:2,0:0:0:0:
244,196,69583,2,0,P|188:200|152:280,1,150,0|0,1:2|1:2,0:0:0:0:
232,276,70051,1,0,1:2:0:0:
460,276,70208,5,2,1:2:0:0:
312,276,70520,2,0,L|152:276,2,150,0|0|0,1:2|1:2|1:2,0:0:0:0:
464,276,71458,5,0,1:2:0:0:
308,276,71614,2,0,L|152:276,1,150
316,276,72083,2,0,P|360:240|316:176,1,150,0|0,1:2|1:2,0:0:0:0:
232,176,72551,1,0,0:0:0:0:
72,176,72708,5,0,1:2:0:0:
220,176,73020,2,0,L|216:332,1,150,0|0,1:2|1:2,0:0:0:0:
64,324,73645,1,0,1:2:0:0:
320,324,73958,5,6,1:3:0:0:
404,324,74114,2,0,P|448:296|404:228,1,150,2|2,0:0|0:0,0:0:0:0:
248,228,74583,2,0,L|92:228,1,150,2|0,0:0|0:0,0:0:0:0:
324,228,75057,6,0,P|368:200|324:132,1,150,6|0,3:2|3:2,0:0:0:0:
168,132,75525,2,0,L|164:208,1,75,8|0,0:0|0:0,0:0:0:0:
324,208,75838,1,0,3:2:0:0:
400,208,75994,1,0,3:2:0:0:
324,208,76150,1,10,0:0:0:0:
168,208,76307,6,0,P|124:236|168:304,1,150,2|0,0:0|3:2,0:0:0:0:
324,304,76775,2,0,L|328:228,1,75,8|2,0:0|0:0,0:0:0:0:
168,224,77088,1,2,3:2:0:0:
84,224,77244,2,0,L|80:144,1,75,2|8,3:2|0:0,0:0:0:0:
304,152,77557,5,2,3:2:0:0:
388,152,77713,1,0,0:0:0:0:
380,68,77869,1,2,3:2:0:0:
296,68,78025,1,8,0:0:0:0:
136,68,78182,2,0,L|132:148,1,75,2|0,3:2|3:2,0:0:0:0:
216,144,78494,1,2,3:2:0:0:
132,144,78650,1,8,0:0:0:0:
292,228,78807,6,0,L|296:148,1,75,2|0,3:2|3:2,0:0:0:0:
136,152,79119,2,0,P|92:116|136:52,1,150,10|8,0:0|0:0,0:0:0:0:
408,56,79744,2,0,L|412:132,1,75,10|2,0:0|3:2,0:0:0:0:
184,132,80057,6,0,P|140:168|184:232,1,150,6|2,3:2|3:2,0:0:0:0:
344,232,80525,2,0,L|348:316,1,75,10|2,0:0|3:2,0:0:0:0:
188,304,80838,2,0,L|184:228,1,75,2|2,3:2|0:0,0:0:0:0:
268,228,81150,1,2,3:2:0:0:
184,228,81307,1,2,3:2:0:0:
344,228,81463,6,0,L|348:148,1,75,10|2,0:0|0:0,0:0:0:0:
192,152,81775,2,0,P|136:148|108:68,1,150,10|0,0:0|3:2,0:0:0:0:
268,68,82244,2,0,L|344:68,1,75,2|10,3:2|0:0,0:0:0:0:
116,68,82557,6,0,P|72:96|116:164,1,150,6|2,3:2|3:2,0:0:0:0:
272,164,83025,2,0,L|276:240,1,75,10|2,0:0|3:2,0:0:0:0:
116,240,83338,2,0,L|40:240,2,75,10|2|2,0:0|3:2|0:0,0:0:0:0:
276,240,83807,6,0,L|352:240,1,75,0|6,3:2|3:2,0:0:0:0:
192,240,84119,1,8,0:3:0:0:
188,200,84197,1,4,0:3:0:0:
184,160,84275,1,8,0:0:0:0:
268,160,84432,2,0,L|272:68,1,75,2|8,3:2|0:0,0:0:0:0:
116,88,84744,1,6,0:3:0:0:
80,88,84822,1,4,0:3:0:0:
44,88,84900,1,4,0:3:0:0:
272,88,85057,6,0,L|428:88,1,150,6|0,3:2|3:2,0:0:0:0:
264,88,85525,2,0,L|260:164,1,75,10|0,0:0|0:0,0:0:0:0:
420,164,85838,2,0,L|424:244,1,75,0|0,3:2|3:2,0:0:0:0:
340,240,86150,1,10,0:0:0:0:
180,240,86307,6,0,P|136:212|180:144,1,150,2|0,0:0|3:2,0:0:0:0:
336,144,86775,2,0,L|340:68,1,75,8|2,0:0|0:0,0:0:0:0:
180,68,87088,1,2,3:2:0:0:
96,68,87244,1,2,3:2:0:0:
180,68,87400,1,8,0:0:0:0:
408,68,87557,6,0,L|412:144,1,75,2|0,3:2|0:0,0:0:0:0:
328,144,87869,1,2,3:2:0:0:
412,144,88025,1,8,0:0:0:0:
252,144,88182,1,2,3:2:0:0:
248,184,88260,1,0,3:2:0:0:
244,224,88338,1,0,3:2:0:0:
400,228,88494,2,0,L|404:304,1,75,2|8,3:2|0:0,0:0:0:0:
244,300,88807,6,0,L|156:300,1,75,2|0,3:2|3:2,0:0:0:0:
328,300,89119,2,0,L|332:220,1,75,8|0,0:0|3:2,0:0:0:0:
172,224,89432,2,0,P|112:220|88:144,1,150,8|10,0:0|0:0,0:0:0:0:
172,144,89900,1,2,3:2:0:0:
400,148,90057,6,0,P|448:108|400:56,1,150,6|2,3:2|3:2,0:0:0:0:
240,56,90525,2,0,L|236:136,1,75,10|2,0:0|3:2,0:0:0:0:
396,132,90838,2,0,L|400:208,1,75,2|10,3:2|0:0,0:0:0:0:
316,204,91150,1,2,3:2:0:0:
356,204,91228,1,0,3:2:0:0:
396,204,91307,1,2,3:2:0:0:
240,204,91463,6,0,L|236:288,1,75,10|2,0:0|3:2,0:0:0:0:
392,280,91775,2,0,P|440:236|392:184,1,150,10|0,0:0|3:2,0:0:0:0:
236,184,92244,2,0,L|156:184,1,75,10|10,0:0|0:0,0:0:0:0:
388,184,92557,6,0,P|436:140|388:88,1,150,6|2,3:2|3:2,0:0:0:0:
232,84,93025,2,0,L|228:164,1,75,10|2,0:0|3:2,0:0:0:0:
388,160,93338,2,0,L|392:240,1,75,10|2,0:0|3:2,0:0:0:0:
308,236,93650,1,2,0:0:0:0:
392,236,93807,1,0,3:2:0:0:
236,236,93963,6,0,L|148:236,2,75,14|0|4,0:0|3:2|0:3,0:0:0:0:
396,232,94432,2,0,L|400:152,1,75,10|0,0:3|3:2,0:0:0:0:
316,156,94744,1,2,3:2:0:0:
160,156,94900,1,8,0:0:0:0:
124,156,94978,1,8,0:0:0:0:
88,156,95057,1,2,3:2:0:0:
312,156,95213,6,0,L|400:156,1,75,14|0,0:0|0:0,0:0:0:0:
304,156,95525,2,0,L|152:156,2,150,0|0|0,1:2|1:2|1:2,0:0:0:0:
456,156,96463,5,0,1:2:0:0:
300,156,96619,2,0,P|244:160|200:236,1,150
284,236,97088,2,0,P|340:240|376:320,1,150,0|0,1:2|1:2,0:0:0:0:
296,316,97556,1,0,0:0:0:0:
136,316,97713,5,0,1:2:0:0:
284,316,98025,2,0,L|440:316,2,150,0|0|0,1:2|1:2|1:2,0:0:0:0:
132,316,98963,5,0,1:2:0:0:
288,316,99119,2,0,P|336:276|288:220,1,150
208,220,99588,2,0,P|148:216|120:140,1,150,0|0,1:2|1:2,0:0:0:0:
204,140,100056,1,0,0:0:0:0:
432,140,100213,5,0,1:2:0:0:
284,140,100525,2,0,L|128:140,2,150,0|0|0,1:2|1:2|1:2,0:0:0:0:
436,140,101463,5,0,1:2:0:0:
280,140,101619,2,0,L|128:140,1,150,0|0,1:2|1:2,0:0:0:0:
212,140,102088,2,0,P|260:184|212:236,1,150,0|0,1:2|1:2,0:0:0:0:
132,236,102556,1,0,1:2:0:0:
292,236,102713,5,0,1:2:0:0:
440,236,103025,2,0,L|284:236,2,150,0|0|0,1:2|1:2|1:2,0:0:0:0:
184,236,103963,5,2,1:3:0:0:
100,236,104119,2,0,P|96:196|184:152,1,150
340,152,104588,6,0,P|444:220|340:304,1,300
