osu file format v14

[General]
AudioFilename: audio.mp3
AudioLeadIn: 0
PreviewTime: 74031
Countdown: 0
SampleSet: Soft
StackLeniency: 0.7
Mode: 2
LetterboxInBreaks: 0
WidescreenStoryboard: 1

[Editor]
DistanceSpacing: 2
BeatDivisor: 6
GridSize: 16
TimelineZoom: 3.599999

[Metadata]
Title:If You Can't Hang (Cut Ver.)
TitleUnicode:If You Can't Hang (Cut Ver.)
Artist:Sleeping With Sirens
ArtistUnicode:Sleeping With Sirens
Creator:-Joakh
Version:Greaper's Overdose
Source:
Tags:du5t idu5t dust idust Phob Rew0825 Bastian Jorkseljund Secre Chickenbible Greaper Wanpachi Rock English cant Post Hardcore Kellin Quinn Let's Cheers to This
BeatmapID:2869819
BeatmapSetID:1358902

[Difficulty]
HPDrainRate:6
CircleSize:4.3
OverallDifficulty:9.5
ApproachRate:9.5
SliderMultiplier:2.3
SliderTickRate:2

[Events]
//Background and Video events
0,0,"BG.png",0,0
//Break Periods
//Storyboard Layer 0 (Background)
//Storyboard Layer 1 (Fail)
//Storyboard Layer 2 (Pass)
//Storyboard Layer 3 (Foreground)
//Storyboard Layer 4 (Overlay)
//Storyboard Sound Samples

[TimingPoints]
208,312.5,4,2,1,30,1,0
7708,-100,4,2,1,30,0,0
8020,-100,4,2,1,40,0,0
8333,-100,4,2,1,50,0,0
8645,-100,4,2,1,60,0,0
8958,-100,4,2,1,70,0,0
9270,-100,4,2,1,50,0,0
9504,-100,4,2,1,5,0,0
9583,-100,4,2,1,70,0,0
9973,-100,4,2,1,5,0,0
10052,312.5,4,2,1,70,1,0
10052,-90.9090909090908,4,2,1,70,0,0
30208,312.5,4,2,1,70,1,0
30208,-90.9090909090909,4,2,1,70,0,0
30364,-111.111111111111,4,2,2,30,0,0
33020,-111.111111111111,4,2,2,15,0,0
35208,-111.111111111111,4,2,2,30,0,0
39426,-111.111111111111,4,2,2,15,0,0
40208,-111.111111111111,4,2,2,30,0,0
44114,-111.111111111111,4,2,2,15,0,0
45208,-111.111111111111,4,2,2,30,0,0
47708,-100,4,2,2,30,0,0
47942,-100,4,2,2,5,0,0
48020,-100,4,2,3,35,0,0
48098,-100,4,2,2,35,0,0
48333,-100,4,2,3,40,0,0
48411,-100,4,2,2,40,0,0
48567,-100,4,2,2,5,0,0
48645,-100,4,2,3,45,0,0
48723,-100,4,2,2,45,0,0
48958,-100,4,2,3,50,0,0
49036,-100,4,2,2,50,0,0
49192,-100,4,2,2,5,0,0
49270,-100,4,2,3,55,0,0
49348,-100,4,2,2,55,0,0
49583,-100,4,2,3,60,0,0
49661,-100,4,2,2,60,0,0
50129,-100,4,2,2,5,0,0
50208,-100,4,2,1,60,0,0
65208,-100,4,2,1,60,0,0
65364,-100,4,2,4,40,0,0
73958,-83.3333333333333,4,2,2,60,0,0
74583,-100,4,2,2,60,0,0
74973,-100,4,2,4,5,0,0
75057,312.5,4,2,4,40,1,0
75057,-95.2380952380952,4,2,5,80,0,1
95213,312.5,4,2,5,80,1,0
95213,-100,4,2,5,80,0,0
95369,-100,4,2,4,40,0,0
100213,-100,4,2,4,45,0,0
102713,-100,4,2,4,50,0,0
104119,-100,4,2,4,10,0,0

[Colours]
Combo1 : 250,203,133
Combo2 : 13,198,193
Combo3 : 175,172,185
Combo4 : 186,116,116

[HitObjects]
256,192,208,12,0,7395,0:0:0:0:
398,281,7708,6,0,L|403:157,1,115,0|8,3:2|0:0,0:0:0:0:
261,150,8020,1,8,0:0:0:0:
404,146,8176,1,8,0:0:0:0:
184,121,8333,2,0,L|63:110,1,115,8|8,0:0|0:0,0:0:0:0:
311,77,8645,2,0,L|187:63,1,115,8|8,0:0|0:0,0:0:0:0:
467,54,8958,5,8,0:0:0:0:
232,112,9270,2,0,P|175:159|244:218,1,172.5,4|0,0:3|0:0,0:0:0:0:
403,236,9583,2,0,L|91:283,1,287.5,8|0,0:3|0:0,0:0:0:0:
377,303,10052,6,0,P|439:269|353:150,1,253.000007720948,4|0,3:2|3:2,0:0:0:0:
150,181,10520,2,0,L|144:49,1,126.500003860474,10|0,0:0|0:0,0:0:0:0:
301,45,10833,1,2,3:2:0:0:
143,27,10989,1,0,3:2:0:0:
444,50,11145,6,0,L|453:179,1,126.500003860474,10|0,0:0|0:0,0:0:0:0:
303,200,11458,1,2,3:2:0:0:
454,207,11614,1,0,3:2:0:0:
196,219,11770,2,0,L|340:228,1,126.500003860474,10|0,0:0|0:0,0:0:0:0:
174,161,12083,1,2,3:2:0:0:
323,168,12239,1,0,3:2:0:0:
96,158,12395,1,8,0:0:0:0:
415,178,12552,6,0,P|414:104|258:28,1,253.000007720947,4|0,3:2|3:2,0:0:0:0:
425,21,13020,1,10,0:0:0:0:
281,78,13177,2,0,L|188:86,1,63.2500019302369,0|0,3:2|3:2,0:0:0:0:
370,129,13333,2,0,L|499:124,1,126.500003860474,2|0,3:2|3:2,0:0:0:0:
179,186,13645,5,10,0:0:0:0:
325,198,13802,1,0,3:2:0:0:
179,186,13958,1,0,3:2:0:0:
470,224,14114,2,0,L|327:218,1,126.500003860474,8|0,0:0|3:2,0:0:0:0:
65,247,14427,2,0,L|194:253,1,126.500003860474,8|0,0:0|3:2,0:0:0:0:
496,288,14739,2,0,L|350:281,1,126.500003860474,8|0,0:0|3:2,0:0:0:0:
54,196,15052,6,0,P|54:124|202:39,1,253.000007720947,4|0,3:2|3:2,0:0:0:0:
344,56,15520,1,10,0:0:0:0:
191,91,15677,1,0,3:2:0:0:
440,142,15833,2,0,L|172:164,1,253.000007720947,10|2,0:0|3:2,0:0:0:0:
343,202,16302,1,0,3:2:0:0:
59,211,16458,6,0,L|52:77,1,126.500003860474,10|0,0:0|0:0,0:0:0:0:
308,81,16770,2,0,L|442:75,1,126.500003860474,10|0,0:0|0:0,0:0:0:0:
280,123,17083,1,2,3:2:0:0:
431,134,17239,1,0,3:2:0:0:
180,112,17395,1,8,0:0:0:0:
496,192,17552,6,0,P|461:312|324:324,1,253.000007720947,4|0,3:2|3:2,0:0:0:0:
66,315,18020,2,0,L|211:327,1,126.500003860474,10|0,0:0|3:2,0:0:0:0:
467,293,18333,2,0,L|458:159,1,126.500003860474,10|0,0:0|3:2,0:0:0:0:
309,169,18645,1,2,0:0:0:0:
462,134,18802,1,0,3:2:0:0:
130,122,18958,5,2,3:2:0:0:
380,134,19114,2,0,L|443:143,1,63.2500019302369,8|8,0:0|0:0,0:0:0:0:
219,179,19270,2,0,L|151:175,1,63.2500019302369,8|8,0:0|0:0,0:0:0:0:
349,205,19427,2,0,L|353:281,1,63.2500019302369,0|0,3:2|3:2,0:0:0:0:
126,282,19583,2,0,L|62:288,1,63.2500019302369,8|8,0:0|0:3,0:0:0:0:
146,239,19739,2,0,L|218:232,1,63.2500019302369,4|4,0:3|0:3,0:0:0:0:
122,203,19895,2,0,L|115:125,1,63.2500019302369,4|4,0:3|0:3,0:0:0:0:
405,155,20052,6,0,P|485:109|383:39,1,253.000007720947,4|0,3:2|3:2,0:0:0:0:
144,48,20520,2,0,L|134:182,1,126.500003860474,10|0,0:0|0:0,0:0:0:0:
283,187,20833,1,2,3:2:0:0:
132,207,20989,1,0,3:2:0:0:
462,245,21145,6,0,L|324:249,1,126.500003860474,10|0,0:0|0:0,0:0:0:0:
483,200,21458,1,2,3:2:0:0:
332,194,21614,1,0,3:2:0:0:
77,342,21770,2,0,L|71:206,1,126.500003860474,10|0,0:0|0:0,0:0:0:0:
223,203,22083,1,2,3:2:0:0:
70,183,22239,1,0,3:2:0:0:
307,189,22395,1,8,0:0:0:0:
16,112,22552,6,0,L|273:124,1,253.000007720947,4|0,3:2|3:2,0:0:0:0:
38,166,23020,1,10,0:0:0:0:
182,188,23177,2,0,L|259:194,1,63.2500019302369,0|0,3:2|3:2,0:0:0:0:
84,276,23333,2,0,L|77:127,1,126.500003860474,2|0,3:2|3:2,0:0:0:0:
397,158,23645,5,10,0:0:0:0:
249,138,23802,1,0,3:2:0:0:
397,158,23958,1,0,3:2:0:0:
90,88,24114,2,0,L|222:97,1,126.500003860474,8|0,0:0|3:2,0:0:0:0:
480,127,24427,2,0,L|346:114,1,126.500003860474,8|0,0:0|3:2,0:0:0:0:
77,50,24739,2,0,L|209:59,1,126.500003860474,8|0,0:0|3:2,0:0:0:0:
496,176,25052,6,0,L|218:195,1,253.000007720947,4|0,3:2|3:2,0:0:0:0:
390,234,25520,1,10,0:0:0:0:
238,239,25677,1,0,3:2:0:0:
480,224,25833,2,0,P|461:312|301:361,1,253.000007720947,10|2,0:0|3:2,0:0:0:0:
172,354,26302,1,0,3:2:0:0:
496,176,26458,6,0,L|336:161,1,126.500003860474,10|0,0:0|0:0,0:0:0:0:
78,121,26770,2,0,L|333:136,1,253.000007720947,10|2,0:0|3:2,0:0:0:0:
182,178,27239,1,0,3:2:0:0:
333,196,27395,1,8,0:0:0:0:
16,352,27552,6,0,P|18:278|165:195,1,253.000007720947,4|0,3:2|3:2,0:0:0:0:
434,192,28020,2,0,L|436:50,1,126.500003860474,10|0,0:0|3:2,0:0:0:0:
196,136,28333,2,0,L|192:6,1,126.500003860474,10|0,0:0|3:2,0:0:0:0:
340,16,28645,1,2,0:0:0:0:
82,25,28802,5,0,3:2:0:0:
67,73,28854,1,0,3:2:0:0:
77,129,28906,1,8,0:3:0:0:
225,160,28958,1,6,0:3:0:0:
375,180,29114,1,0,3:2:0:0:
225,160,29270,1,0,3:2:0:0:
463,106,29427,1,4,0:3:0:0:
313,126,29583,1,0,3:2:0:0:
463,106,29739,1,0,3:2:0:0:
184,74,29895,2,0,L|53:68,1,126.500003860474,8|0,0:0|3:2,0:0:0:0:
375,216,30208,5,4,3:2:0:0:
256,192,30364,12,0,32395,0:0:0:0:
335,200,32551,6,0,L|338:144,1,51.7499984207154,2|0,0:0|0:0,0:0:0:0:
182,207,32708,2,0,L|53:197,1,103.499996841431,0|0,3:2|0:0,0:0:0:0:
205,144,33020,1,0,0:0:0:0:
243,112,33098,1,0,0:0:0:0:
239,63,33176,1,0,0:0:0:0:
195,39,33254,1,0,0:0:0:0:
132,78,33333,2,0,L|128:151,1,51.7499984207154,2|0,0:0|0:0,0:0:0:0:
204,191,33489,1,2,0:0:0:0:
255,196,33567,1,0,0:0:0:0:
306,201,33645,1,0,0:0:0:0:
358,207,33723,1,0,0:0:0:0:
269,246,33801,2,0,L|211:241,1,51.7499984207154,2|0,0:0|0:0,0:0:0:0:
362,256,33958,6,0,L|369:312,1,51.7499984207154,8|0,0:0|0:0,0:0:0:0:
298,360,34114,1,2,0:0:0:0:
254,336,34192,1,0,0:0:0:0:
249,287,34270,1,0,0:0:0:0:
288,256,34348,1,0,0:0:0:0:
437,207,34426,2,0,L|439:148,1,51.7499984207154,10|0,0:0|0:0,0:0:0:0:
286,139,34583,1,8,0:0:0:0:
234,134,34661,1,0,0:0:0:0:
182,130,34739,1,0,0:0:0:0:
131,125,34817,1,0,0:0:0:0:
209,80,34895,2,0,L|209:12,1,51.7499984207154,2|0,0:0|0:0,0:0:0:0:
128,68,35051,2,0,L|125:2,1,51.7499984207154,2|0,0:0|0:0,0:0:0:0:
309,22,35208,6,0,P|384:72|312:146,1,206.999993682861,0|0,3:2|0:0,0:0:0:0:
222,166,35676,1,0,0:0:0:0:
353,194,35833,1,2,0:0:0:0:
220,206,35989,2,0,L|216:313,1,103.499996841431,2|0,0:0|0:0,0:0:0:0:
345,317,36301,1,2,0:0:0:0:
129,315,36458,6,0,L|13:309,1,103.499996841431,8|2,0:0|0:0,0:0:0:0:
29,251,36692,1,0,0:0:0:0:
79,227,36770,1,0,0:0:0:0:
203,218,36926,2,0,L|320:215,1,103.499996841431,2|0,0:0|0:0,0:0:0:0:
184,129,37239,2,0,L|178:23,1,103.499996841431,2|0,0:0|0:0,0:0:0:0:
299,32,37551,1,2,0:0:0:0:
32,32,37708,6,0,L|256:50,1,206.999993682861,0|0,3:2|0:0,0:0:0:0:
244,132,38176,1,0,0:0:0:0:
119,150,38333,2,0,L|10:158,2,103.499996841431,2|2|0,0:0|0:0|0:0,0:0:0:0:
246,146,38801,1,2,0:0:0:0:
458,147,38958,5,8,0:0:0:0:
337,143,39114,2,0,L|331:35,1,103.499996841431,2|0,0:0|0:0,0:0:0:0:
452,88,39426,2,0,L|454:35,1,51.7499984207154,10|0,0:0|0:0,0:0:0:0:
296,182,39583,1,8,0:0:0:0:
246,189,39661,1,8,0:0:0:0:
223,233,39739,1,10,0:0:0:0:
244,278,39817,1,0,0:0:0:0:
293,287,39895,1,0,0:0:0:0:
416,299,40051,2,0,L|419:350,1,51.7499984207154,10|0,0:0|0:0,0:0:0:0:
235,343,40208,6,0,L|123:333,2,103.499996841431,0|0|0,3:2|0:0|0:0,0:0:0:0:
110,280,40676,1,0,0:0:0:0:
237,266,40833,2,0,L|241:153,1,103.499996841431,2|2,0:0|0:0,0:0:0:0:
116,151,41145,1,2,0:0:0:0:
245,128,41301,1,2,0:0:0:0:
31,111,41458,5,8,0:0:0:0:
145,114,41614,2,0,P|194:160|129:270,1,206.999993682861,2|2,0:0|0:0,0:0:0:0:
36,280,42083,1,0,0:0:0:0:
162,303,42239,2,0,L|274:307,2,103.499996841431,2|0|2,0:0|0:0|0:0,0:0:0:0:
423,306,42708,6,0,P|424:250|297:176,1,206.999993682861,0|2,3:2|0:0,0:0:0:0:
204,189,43176,1,0,0:0:0:0:
461,140,43645,2,0,L|469:10,1,103.499996841431,2|2,0:0|0:0,0:0:0:0:
255,36,43958,6,0,L|132:31,1,103.499996841431,10|0,0:0|0:0,0:0:0:0:
151,87,44192,1,0,0:0:0:0:
221,99,44270,2,0,L|225:166,1,51.7499984207154,2|0,0:0|0:0,0:0:0:0:
85,173,44426,2,0,L|31:179,1,51.7499984207154,8|0,0:0|0:0,0:0:0:0:
205,216,44583,2,0,L|271:215,1,51.7499984207154,10|0,0:0|0:0,0:0:0:0:
191,245,44739,1,2,0:0:0:0:
149,272,44817,1,0,0:0:0:0:
148,322,44895,1,0,0:0:0:0:
187,352,44973,1,0,0:0:0:0:
252,346,45051,2,0,L|259:280,1,51.7499984207154,2|0,0:0|0:0,0:0:0:0:
100,149,45208,6,0,P|43:114|127:45,1,206.999993682861,0|0,3:2|0:0,0:0:0:0:
243,41,45676,2,0,L|248:154,1,103.499996841431,0|2,0:0|0:0,0:0:0:0:
119,166,45989,2,0,L|236:177,1,103.499996841431,2|0,0:0|0:0,0:0:0:0:
100,203,46301,1,2,0:0:0:0:
333,228,46458,5,8,0:0:0:0:
436,218,46614,2,0,P|490:180|400:103,1,206.999993682861,2|2,0:0|0:0,0:0:0:0:
288,96,47083,1,0,0:0:0:0:
413,70,47239,2,0,L|189:46,1,206.999993682861,2|2,0:0|0:0,0:0:0:0:
462,121,47708,6,0,P|477:195|400:258,1,172.5,0|0,3:2|0:0,0:0:0:0:
325,278,48020,2,0,L|200:283,1,115,2|0,0:2|0:0,0:0:0:0:
357,229,48333,2,0,P|402:179|328:105,1,172.5,2|0,3:2|0:0,0:0:0:0:
178,94,48645,2,0,L|50:82,1,115,2|2,0:2|0:0,0:0:0:0:
332,60,48958,6,0,L|452:69,1,115,2|2,3:2|0:0,0:0:0:0:
303,106,49270,1,2,0:2:0:0:
450,126,49426,1,2,0:0:0:0:
212,171,49583,2,0,L|203:292,1,115,2|2,3:2|0:0,0:0:0:0:
448,300,50051,1,2,0:0:0:0:
121,297,50208,6,0,P|68:260|157:159,1,230,6|0,3:2|0:0,0:0:0:0:
282,161,50676,1,0,3:2:0:0:
29,137,50833,2,0,L|23:8,1,115,10|0,0:0|3:2,0:0:0:0:
305,34,51301,1,0,3:2:0:0:
46,36,51458,6,0,L|293:56,1,230,2|0,3:2|0:0,0:0:0:0:
138,92,51926,1,0,3:2:0:0:
391,106,52083,2,0,L|399:241,1,115,10|0,0:0|3:2,0:0:0:0:
262,229,52395,1,0,0:0:0:0:
402,257,52551,1,0,3:2:0:0:
131,265,52708,6,0,L|14:257,1,115,6|0,3:2|0:0,0:0:0:0:
157,213,53020,2,0,L|277:222,1,115,0|0,0:0|3:2,0:0:0:0:
38,161,53333,1,10,0:0:0:0:
173,154,53489,2,0,P|238:120|155:27,1,230,0|0,3:2|3:2,0:0:0:0:
446,36,53958,6,0,L|189:22,1,230,2|0,3:2|0:0,0:0:0:0:
353,69,54426,1,0,3:2:0:0:
95,79,54583,1,10,0:0:0:0:
233,87,54739,2,0,L|238:213,1,115,0|0,3:2|0:0,0:0:0:0:
98,205,55051,2,0,L|36:209,1,57.5,0|0,3:2|3:2,0:0:0:0:
246,252,55208,6,0,L|366:255,2,115,6|0|0,3:2|0:0|0:0,0:0:0:0:
382,198,55676,1,0,3:2:0:0:
152,194,55833,1,10,0:0:0:0:
286,182,55989,2,0,L|288:65,1,115,0|0,3:2|0:0,0:0:0:0:
147,55,56301,1,0,3:2:0:0:
409,53,56458,6,0,L|171:35,1,230,2|0,3:2|0:0,0:0:0:0:
314,95,56926,1,0,3:2:0:0:
80,104,57083,1,10,0:0:0:0:
216,123,57239,2,0,L|222:243,1,115,0|0,3:2|0:0,0:0:0:0:
77,249,57551,1,0,3:2:0:0:
355,273,57708,5,6,3:2:0:0:
220,273,57864,2,0,L|218:153,1,115
355,149,58176,1,0,3:2:0:0:
112,123,58333,1,10,0:0:0:0:
250,115,58489,2,0,L|378:108,1,115,0|0,3:2|0:0,0:0:0:0:
225,83,58801,1,0,3:2:0:0:
481,93,58958,5,0,3:2:0:0:
338,146,59114,2,0,L|273:155,1,57.5,8|8,0:3|0:0,0:0:0:0:
445,173,59270,1,8,0:0:0:0:
494,195,59348,1,8,0:0:0:0:
494,250,59426,1,8,0:0:0:0:
445,273,59504,1,8,0:0:0:0:
240,283,59583,2,0,L|165:289,1,57.5,8|8,0:0|0:0,0:0:0:0:
357,289,59739,1,8,0:3:0:0:
363,232,59817,1,8,0:3:0:0:
333,185,59895,1,4,0:3:0:0:
279,167,59973,1,4,0:3:0:0:
454,123,60051,2,0,L|387:105,1,57.5,4|4,0:3|0:3,0:0:0:0:
192,86,60208,6,0,L|68:67,1,115,6|0,3:2|3:2,0:0:0:0:
320,67,60676,1,0,3:2:0:0:
91,122,60833,2,0,L|86:248,1,115,10|0,0:0|3:2,0:0:0:0:
221,239,61145,1,0,3:2:0:0:
81,278,61301,1,0,3:2:0:0:
367,279,61458,6,0,L|499:291,1,115,2|0,3:2|3:2,0:0:0:0:
220,260,61926,1,0,3:2:0:0:
473,235,62083,1,10,0:0:0:0:
336,210,62239,2,0,L|328:123,1,57.5,0|0,3:2|3:2,0:0:0:0:
403,129,62395,1,0,3:2:0:0:
165,111,62551,1,0,3:2:0:0:
407,173,62708,6,0,L|413:49,1,115,6|0,3:2|3:2,0:0:0:0:
268,55,63020,2,0,L|153:45,1,115,0|0,0:0|3:2,0:0:0:0:
381,96,63333,1,10,0:0:0:0:
254,106,63489,2,0,L|247:222,1,115,0|0,3:2|0:0,0:0:0:0:
388,224,63801,1,0,3:2:0:0:
416,227,63853,1,0,3:2:0:0:
445,230,63905,1,8,0:3:0:0:
211,272,63958,6,0,L|80:257,1,115,4|0,0:3|3:2,0:0:0:0:
239,240,64270,1,0,3:2:0:0:
21,215,64426,2,0,L|18:82,1,115,8|0,0:3|3:2,0:0:0:0:
157,85,64739,1,0,3:2:0:0:
417,82,64895,2,0,L|422:159,1,57.5,8|8,0:0|0:3,0:0:0:0:
341,141,65051,2,0,L|281:149,1,57.5,0|0,3:2|3:2,0:0:0:0:
460,209,65208,6,0,L|323:230,1,115,12|0,0:0|0:0,0:0:0:0:
202,253,65520,2,0,L|199:124,1,115,0|0,1:2|0:0,0:0:0:0:
332,155,65833,2,0,L|329:38,1,115,0|0,1:2|0:0,0:0:0:0:
460,125,66145,2,0,L|457:8,1,115,0|0,1:2|0:0,0:0:0:0:
217,26,66458,5,0,1:2:0:0:
357,55,66614,2,0,L|359:179,1,115,0|0,0:0|1:2,0:0:0:0:
216,193,66926,1,0,0:0:0:0:
356,203,67083,2,0,L|480:214,1,115,0|0,1:2|0:0,0:0:0:0:
331,259,67395,1,0,1:2:0:0:
470,269,67551,1,0,0:0:0:0:
229,284,67708,6,0,L|98:273,1,115,0|0,1:2|0:0,0:0:0:0:
248,236,68020,2,0,L|250:118,1,115,0|0,1:2|0:0,0:0:0:0:
388,178,68333,2,0,L|397:53,1,115,0|0,1:2|0:0,0:0:0:0:
256,159,68645,2,0,L|251:31,1,115,0|0,1:2|0:0,0:0:0:0:
496,32,68958,6,0,L|359:20,1,115,0|0,1:2|0:0,0:0:0:0:
325,15,69192,1,0,1:2:0:0:
166,64,69270,2,0,L|162:181,1,115,0|0,1:2|1:2,0:0:0:0:
302,143,69583,2,0,L|303:262,1,115,0|0,1:2|0:0,0:0:0:0:
226,263,69817,1,0,1:2:0:0:
151,278,69895,2,0,L|293:301,1,115,0|0,1:2|1:2,0:0:0:0:
44,277,70208,6,0,L|38:151,1,115,2|0,1:2|0:0,0:0:0:0:
180,167,70520,2,0,L|296:162,1,115,0|0,1:2|0:0,0:0:0:0:
157,199,70833,2,0,L|155:329,1,115,0|0,1:2|0:0,0:0:0:0:
19,232,71145,2,0,L|18:362,1,115,0|0,1:2|0:0,0:0:0:0:
256,330,71458,5,0,1:2:0:0:
122,325,71614,1,0,0:0:0:0:
260,289,71770,2,0,L|267:168,1,115,0|0,1:2|0:0,0:0:0:0:
127,158,72083,2,0,L|120:36,1,115,0|0,1:2|0:0,0:0:0:0:
260,35,72395,1,0,1:2:0:0:
119,21,72551,1,0,0:0:0:0:
367,35,72708,6,0,L|491:42,1,115,0|0,1:2|0:0,0:0:0:0:
342,95,73020,2,0,L|338:213,1,115,0|0,1:2|0:0,0:0:0:0:
202,149,73333,2,0,L|197:272,1,115,0|0,1:2|0:0,0:0:0:0:
337,265,73645,2,0,L|455:277,1,115,0|0,1:2|0:0,0:0:0:0:
162,306,73958,5,6,1:3:0:0:
287,298,74114,2,0,P|362:249|261:134,1,275.999991577149,2|2,0:0|0:0,0:0:0:0:
132,137,74583,2,0,L|441:115,1,287.5,2|0,0:0|0:0,0:0:0:0:
197,352,75057,6,0,P|109:324|103:179,1,241.499992630005,6|0,3:2|3:2,0:0:0:0:
342,194,75525,2,0,L|94:171,1,241.499992630005,8|0,0:0|3:2,0:0:0:0:
248,134,75994,1,0,3:2:0:0:
16,112,76150,5,10,0:0:0:0:
152,107,76307,2,0,L|284:117,1,120.749996315003,2|0,0:0|3:2,0:0:0:0:
127,69,76619,1,0,3:2:0:0:
364,78,76775,1,8,0:0:0:0:
226,137,76932,1,2,0:0:0:0:
465,157,77088,1,2,3:2:0:0:
331,167,77244,1,2,3:2:0:0:
465,157,77400,1,8,0:0:0:0:
175,220,77557,6,0,L|43:214,1,120.749996315003,2|0,3:2|0:0,0:0:0:0:
325,222,77869,1,2,3:2:0:0:
180,269,78025,1,8,0:0:0:0:
325,282,78182,2,0,L|392:289,1,60.3749981575013,2|0,3:2|3:2,0:0:0:0:
219,208,78338,2,0,L|82:193,1,120.749996315003,0|2,3:2|3:2,0:0:0:0:
243,173,78650,1,8,0:0:0:0:
16,144,78807,6,0,L|156:136,1,120.749996315003,2|0,3:2|3:2,0:0:0:0:
374,138,79119,2,0,L|230:135,1,120.749996315003,10|0,0:0|3:2,0:0:0:0:
488,113,79432,2,0,L|493:248,1,120.749996315003,8|0,0:0|3:2,0:0:0:0:
228,245,79744,1,10,0:0:0:0:
364,249,79900,1,2,3:2:0:0:
81,245,80057,6,0,P|24:205|115:101,1,241.499992630005,6|2,3:2|3:2,0:0:0:0:
357,111,80525,1,10,0:0:0:0:
88,50,80682,1,2,3:2:0:0:
398,135,80838,2,0,L|405:264,1,120.749996315003,2|2,3:2|0:0,0:0:0:0:
159,260,81150,1,2,3:2:0:0:
412,291,81307,1,2,3:2:0:0:
99,265,81463,6,0,L|227:280,1,120.749996315003,10|2,0:0|0:0,0:0:0:0:
468,245,81775,2,0,L|207:225,1,241.499992630005,10|0,0:0|3:2,0:0:0:0:
374,175,82244,1,2,3:2:0:0:
133,164,82400,1,10,0:0:0:0:
443,173,82557,6,0,P|439:104|289:26,1,241.499992630005,6|2,3:2|3:2,0:0:0:0:
59,38,83025,2,0,L|54:169,1,120.749996315003,10|2,0:0|3:2,0:0:0:0:
303,173,83338,2,0,L|156:179,1,120.749996315003,10|2,0:0|3:2,0:0:0:0:
323,206,83650,1,2,0:0:0:0:
53,225,83807,5,0,3:2:0:0:
303,264,83963,1,6,3:2:0:0:
167,261,84119,2,0,L|163:195,1,60.3749981575013,8|4,0:3|0:3,0:0:0:0:
377,151,84275,2,0,L|446:152,1,60.3749981575013,8|8,0:0|0:0,0:0:0:0:
252,142,84432,2,0,L|246:74,1,60.3749981575013,2|0,3:2|3:2,0:0:0:0:
485,71,84588,2,0,L|408:65,1,60.3749981575013,8|8,0:0|0:3,0:0:0:0:
349,60,84744,2,0,L|422:66,1,60.3749981575013,6|4,0:3|0:3,0:0:0:0:
481,108,84900,2,0,L|487:189,1,60.3749981575013,4|4,0:3|0:3,0:0:0:0:
258,244,85057,6,0,L|9:228,1,241.499992630005,6|0,3:2|3:2,0:0:0:0:
309,292,85525,2,0,P|382:262|294:168,1,241.499992630005,10|0,0:0|3:2,0:0:0:0:
164,169,85994,1,0,3:2:0:0:
451,151,86150,5,10,0:0:0:0:
298,217,86307,2,0,L|286:74,1,120.749996315003,2|0,0:0|3:2,0:0:0:0:
436,79,86619,1,0,3:2:0:0:
190,54,86775,1,8,0:0:0:0:
333,41,86932,1,2,0:0:0:0:
90,108,87088,1,2,3:2:0:0:
224,118,87244,1,2,3:2:0:0:
90,108,87400,1,8,0:0:0:0:
393,154,87557,6,0,L|406:283,1,120.749996315003,2|0,3:2|0:0,0:0:0:0:
164,280,87869,2,0,L|32:291,1,120.749996315003,2|8,3:2|0:0,0:0:0:0:
293,246,88182,2,0,L|297:175,1,60.3749981575013,2|0,3:2|3:2,0:0:0:0:
219,163,88338,1,0,3:2:0:0:
437,135,88494,2,0,L|309:126,1,120.749996315003,2|8,3:2|0:0,0:0:0:0:
26,125,88807,6,0,L|19:253,1,120.749996315003,2|0,3:2|3:2,0:0:0:0:
251,249,89119,2,0,L|114:246,1,120.749996315003,8|0,0:0|3:2,0:0:0:0:
374,274,89432,2,0,L|504:287,1,120.749996315003,8|0,0:0|3:2,0:0:0:0:
351,316,89744,1,10,0:0:0:0:
496,336,89900,1,2,3:2:0:0:
189,242,90057,6,0,P|109:189|204:94,1,241.499992630005,6|2,3:2|3:2,0:0:0:0:
424,107,90525,1,10,0:0:0:0:
185,62,90682,1,2,3:2:0:0:
489,171,90838,2,0,L|495:317,1,120.749996315003,2|10,3:2|0:0,0:0:0:0:
185,313,91150,6,0,L|106:318,1,60.3749981575013,2|0,3:2|3:2,0:0:0:0:
311,234,91307,2,0,L|375:225,1,60.3749981575013,2|0,3:2|3:2,0:0:0:0:
136,142,91463,2,0,L|14:154,1,120.749996315003,10|2,0:0|3:2,0:0:0:0:
293,106,91775,1,10,0:0:0:0:
150,90,91932,1,0,3:2:0:0:
293,106,92088,1,0,3:2:0:0:
46,68,92244,1,10,0:0:0:0:
300,65,92400,1,10,0:0:0:0:
16,16,92557,6,0,L|263:33,1,241.499992630005,6|2,3:2|3:2,0:0:0:0:
114,72,93025,2,0,L|111:194,1,120.749996315003,10|2,0:0|3:2,0:0:0:0:
360,180,93338,1,10,0:0:0:0:
219,195,93494,1,2,3:2:0:0:
360,180,93650,1,2,0:0:0:0:
110,226,93807,1,0,3:2:0:0:
69,229,93859,1,0,3:2:0:0:
29,233,93911,1,8,0:3:0:0:
230,262,93963,2,0,L|357:263,2,120.749996315003,14|0|4,0:0|3:2|0:3,0:0:0:0:
471,245,94432,2,0,L|474:117,1,120.749996315003,10|0,0:3|3:2,0:0:0:0:
220,114,94744,1,2,3:2:0:0:
489,84,94900,2,0,L|423:79,1,60.3749981575013,8|8,0:0|0:0,0:0:0:0:
245,68,95057,2,0,L|165:59,1,60.3749981575013,2|0,3:2|3:2,0:0:0:0:
388,116,95213,5,14,0:0:0:0:
275,129,95369,1,0,0:0:0:0:
390,171,95525,2,0,L|392:303,1,115,0|0,1:2|0:0,0:0:0:0:
258,284,95838,2,0,L|262:155,1,115,0|0,1:2|0:0,0:0:0:0:
122,274,96150,2,0,L|115:143,1,115,0|0,1:2|0:0,0:0:0:0:
361,153,96463,5,0,1:2:0:0:
237,144,96619,2,0,L|229:21,1,115,0|0,0:0|1:2,0:0:0:0:
364,22,96931,1,0,0:0:0:0:
228,23,97088,2,0,L|99:23,1,115,0|0,1:2|0:0,0:0:0:0:
245,62,97400,1,0,1:2:0:0:
106,71,97556,1,0,0:0:0:0:
357,132,97713,5,0,1:2:0:0:
228,156,97869,1,0,0:0:0:0:
360,168,98025,2,0,L|479:186,1,115,0|0,1:2|0:0,0:0:0:0:
335,205,98338,2,0,L|328:339,1,115,0|0,1:2|0:0,0:0:0:0:
483,223,98650,2,0,L|490:357,1,115,0|0,1:2|0:0,0:0:0:0:
239,332,98963,5,0,1:2:0:0:
377,328,99119,2,0,L|378:201,1,115,0|0,0:0|1:2,0:0:0:0:
237,197,99431,1,0,0:0:0:0:
379,180,99588,2,0,L|495:183,1,115,0|0,1:2|0:0,0:0:0:0:
357,125,99900,1,0,1:2:0:0:
496,128,100056,1,0,0:0:0:0:
206,106,100213,5,0,1:2:0:0:
203,163,100291,1,0,1:2:0:0:
201,220,100369,1,0,1:2:0:0:
345,201,100525,1,0,1:2:0:0:
348,258,100603,1,0,1:2:0:0:
351,315,100681,1,0,1:2:0:0:
116,334,100838,1,0,1:2:0:0:
69,304,100916,1,0,0:0:0:0:
73,249,100994,1,0,1:2:0:0:
122,225,101072,1,0,0:0:0:0:
197,195,101150,1,0,1:2:0:0:
139,188,101228,1,0,1:2:0:0:
82,181,101306,1,0,1:2:0:0:
25,174,101384,1,0,0:0:0:0:
230,120,101463,6,0,L|305:118,1,57.5,0|0,1:2|0:0,0:0:0:0:
114,156,101619,1,0,1:2:0:0:
59,142,101697,1,0,1:2:0:0:
34,92,101775,1,0,1:2:0:0:
56,41,101853,1,0,0:0:0:0:
109,24,101931,1,0,1:2:0:0:
263,29,102088,1,0,1:2:0:0:
320,34,102166,1,0,1:2:0:0:
377,40,102244,1,0,1:2:0:0:
434,46,102322,1,0,0:0:0:0:
261,86,102400,2,0,L|187:82,1,57.5,0|0,1:2|1:2,0:0:0:0:
271,131,102556,2,0,L|334:139,1,57.5,0|0,1:2|0:0,0:0:0:0:
145,176,102713,6,0,L|26:158,1,115,0|0,1:2|1:2,0:0:0:0:
28,102,102947,1,0,1:2:0:0:
103,236,103025,1,0,1:2:0:0:
145,271,103103,1,0,1:2:0:0:
137,326,103181,1,0,1:2:0:0:
81,345,103259,1,0,1:2:0:0:
266,329,103338,1,0,1:2:0:0:
323,334,103416,1,0,1:2:0:0:
380,340,103494,1,0,1:2:0:0:
437,345,103572,1,0,1:2:0:0:
361,280,103650,1,0,1:2:0:0:
352,224,103728,1,0,1:2:0:0:
384,178,103806,1,0,1:2:0:0:
439,166,103884,1,0,1:2:0:0:
236,139,103963,5,2,1:3:0:0:
