osu file format v14

[General]
AudioFilename: audio.mp3
AudioLeadIn: 0
PreviewTime: 74031
Countdown: 0
SampleSet: Soft
StackLeniency: 0.7
Mode: 2
LetterboxInBreaks: 0
WidescreenStoryboard: 1

[Editor]
DistanceSpacing: 1
BeatDivisor: 4
GridSize: 16
TimelineZoom: 4.399998

[Metadata]
Title:If You Can't Hang (Cut Ver.)
TitleUnicode:If You Can't Hang (Cut Ver.)
Artist:Sleeping With Sirens
ArtistUnicode:Sleeping With Sirens
Creator:-Joakh
Version:Du5t's Overdose
Source:
Tags:du5t idu5t dust idust Phob Rew0825 Bastian Jorkseljund Secre Chickenbible Greaper Wanpachi Rock English cant Post Hardcore Kellin Quinn Let's Cheers to This
BeatmapID:2894951
BeatmapSetID:1358902

[Difficulty]
HPDrainRate:6
CircleSize:4.5
OverallDifficulty:9.6
ApproachRate:9.6
SliderMultiplier:2
SliderTickRate:2

[Events]
//Background and Video events
0,0,"BG.png",0,0
//Break Periods
//Storyboard Layer 0 (Background)
//Storyboard Layer 1 (Fail)
//Storyboard Layer 2 (Pass)
//Storyboard Layer 3 (Foreground)
//Storyboard Layer 4 (Overlay)
//Storyboard Sound Samples

[TimingPoints]
208,312.5,4,2,1,30,1,0
7708,-100,4,2,1,30,0,0
8020,-100,4,2,1,40,0,0
8333,-100,4,2,1,50,0,0
8645,-100,4,2,1,60,0,0
8958,-100,4,2,1,70,0,0
9270,-100,4,2,1,50,0,0
9504,-100,4,2,1,5,0,0
9583,-100,4,2,1,70,0,0
9973,-100,4,2,1,5,0,0
10052,312.5,4,2,1,70,1,0
10052,-100,4,2,1,70,0,0
30208,312.5,4,2,1,70,1,0
30208,-100,4,2,1,70,0,0
30364,-100,4,2,2,30,0,0
47708,-100,4,2,2,30,0,0
47942,-100,4,2,2,5,0,0
48020,-100,4,2,3,35,0,0
48098,-100,4,2,2,35,0,0
48333,-100,4,2,3,40,0,0
48411,-100,4,2,2,40,0,0
48567,-100,4,2,2,5,0,0
48645,-100,4,2,3,45,0,0
48723,-100,4,2,2,45,0,0
48958,-100,4,2,3,50,0,0
49036,-100,4,2,2,50,0,0
49192,-100,4,2,2,5,0,0
49270,-100,4,2,3,55,0,0
49348,-100,4,2,2,55,0,0
49583,-100,4,2,3,60,0,0
49661,-100,4,2,2,60,0,0
50051,-30.3030303030303,4,2,2,60,0,0
50129,-100,4,2,2,5,0,0
50208,-100,4,2,1,60,0,0
65208,-100,4,2,1,60,0,0
65364,-100,4,2,4,40,0,0
73958,-100,4,2,4,60,0,0
74114,-100,4,2,2,60,0,0
74583,-100,4,2,2,60,0,0
74973,-100,4,2,4,5,0,0
75057,312.5,4,2,4,40,1,0
75057,-100,4,2,5,80,0,1
79119,-66.6666666666667,4,2,5,80,0,1
79744,-45.4545454545455,4,2,5,80,0,1
80057,-100,4,2,5,80,0,1
89119,-66.6666666666667,4,2,5,80,0,1
89744,-45.4545454545455,4,2,5,80,0,1
90057,-100,4,2,5,80,0,1
95213,312.5,4,2,5,80,1,0
95213,-100,4,2,5,80,0,0
95369,-100,4,2,4,40,0,0
100213,-100,4,2,4,45,0,0
102713,-100,4,2,4,50,0,0
104119,-100,4,2,4,10,0,0

[Colours]
Combo1 : 250,203,133
Combo2 : 13,198,193
Combo3 : 175,172,185
Combo4 : 186,116,116

[HitObjects]
256,192,208,12,0,7395,0:0:0:0:
395,251,7708,5,0,3:2:0:0:
265,240,7864,1,8,0:0:0:0:
395,251,8020,1,8,0:0:0:0:
117,251,8176,1,8,0:0:0:0:
247,240,8332,1,8,0:0:0:0:
117,251,8488,1,8,0:0:0:0:
395,251,8645,1,8,0:0:0:0:
117,251,8801,1,8,0:0:0:0:
258,246,8958,1,8,0:0:0:0:
258,246,9270,6,0,P|196:237|179:144,1,150,4|0,0:3|0:0,0:0:0:0:
320,153,9583,2,0,P|389:152|430:307,1,250,8|0,0:3|0:0,0:0:0:0:
172,338,10052,6,0,L|392:324,1,200,4|0,3:2|3:2,0:0:0:0:
132,228,10520,2,0,L|18:225,1,100,10|0,0:0|0:0,0:0:0:0:
275,127,10833,1,2,3:2:0:0:
155,117,10989,1,0,3:2:0:0:
397,131,11145,6,0,L|400:255,1,100,10|0,0:0|0:0,0:0:0:0:
115,131,11458,2,0,L|112:255,1,100,2|0,3:2|3:2,0:0:0:0:
400,232,11770,1,10,0:0:0:0:
255,232,11927,1,0,0:0:0:0:
113,230,12083,1,2,3:2:0:0:
400,232,12239,1,0,3:2:0:0:
113,230,12395,1,8,0:0:0:0:
400,232,12552,6,0,P|474:222|452:109,1,200,4|0,3:2|3:2,0:0:0:0:
228,112,13020,1,10,0:0:0:0:
108,110,13177,2,0,L|103:165,1,50,0|0,3:2|3:2,0:0:0:0:
286,113,13333,1,2,3:2:0:0:
406,105,13489,1,0,3:2:0:0:
176,261,13645,1,10,0:0:0:0:
308,233,13802,1,0,3:2:0:0:
179,183,13958,1,0,3:2:0:0:
388,136,14114,6,0,L|492:129,1,100,8|0,0:0|3:2,0:0:0:0:
438,120,14348,1,0,0:0:0:0:
124,136,14427,2,0,L|20:129,1,100,8|0,0:0|3:2,0:0:0:0:
74,120,14661,1,0,0:0:0:0:
388,136,14739,2,0,L|498:128,1,100,8|0,0:0|3:2,0:0:0:0:
438,120,14973,1,0,0:0:0:0:
186,291,15052,6,0,L|401:277,1,200,4|0,3:2|3:2,0:0:0:0:
146,192,15520,2,0,L|140:82,1,100,10|0,0:0|3:2,0:0:0:0:
366,192,15833,2,0,L|372:82,1,100,10|0,0:0|0:0,0:0:0:0:
144,192,16145,1,2,3:2:0:0:
368,193,16302,1,0,3:2:0:0:
144,192,16458,6,0,L|32:190,1,100,10|0,0:0|0:0,0:0:0:0:
368,193,16770,2,0,L|472:185,1,100,10|0,0:0|0:0,0:0:0:0:
224,101,17083,1,2,3:2:0:0:
468,187,17239,2,0,L|353:187,1,100,0|8,3:2|0:0,0:0:0:0:
68,281,17552,5,4,3:2:0:0:
188,244,17708,1,0,0:0:0:0:
68,188,17864,1,0,3:2:0:0:
318,128,18020,1,10,0:0:0:0:
197,113,18177,1,0,3:2:0:0:
444,281,18333,1,10,0:0:0:0:
322,236,18489,1,0,3:2:0:0:
444,188,18645,1,2,0:0:0:0:
190,112,18802,5,0,3:2:0:0:
323,128,18958,2,0,L|328:195,1,50,2|0,3:2|0:0,0:0:0:0:
119,296,19114,2,0,L|49:293,1,50,8|8,0:0|0:0,0:0:0:0:
273,270,19270,2,0,L|333:273,1,50,8|8,0:0|0:0,0:0:0:0:
253,208,19427,2,0,L|182:205,1,50,0|0,3:2|3:2,0:0:0:0:
406,109,19583,2,0,L|468:112,1,50,8|8,0:0|0:3,0:0:0:0:
299,106,19739,2,0,L|237:104,1,50,4|4,0:3|0:3,0:0:0:0:
100,97,19895,2,0,L|44:95,1,50,4|4,0:3|0:3,0:0:0:0:
357,342,20052,6,0,P|415:333|461:197,1,200,4|0,3:2|3:2,0:0:0:0:
193,183,20520,1,10,0:0:0:0:
315,176,20677,1,0,0:0:0:0:
63,107,20833,2,0,L|59:234,1,100,2|0,3:2|3:2,0:0:0:0:
315,176,21145,1,10,0:0:0:0:
193,183,21302,1,0,0:0:0:0:
448,107,21458,6,0,L|452:234,1,100,2|0,3:2|3:2,0:0:0:0:
190,172,21770,1,10,0:0:0:0:
311,242,21927,1,0,0:0:0:0:
189,287,22083,1,2,3:2:0:0:
451,206,22239,1,0,3:2:0:0:
189,287,22395,1,8,0:0:0:0:
451,206,22552,6,0,L|212:197,1,200,4|0,3:2|3:2,0:0:0:0:
474,59,23020,2,0,L|480:167,1,100,10|0,0:0|3:2,0:0:0:0:
428,158,23255,1,0,3:2:0:0:
243,292,23333,2,0,L|123:294,1,100,2|0,3:2|3:2,0:0:0:0:
396,202,23645,1,10,0:0:0:0:
267,196,23802,1,0,3:2:0:0:
135,187,23958,1,0,3:2:0:0:
481,56,24114,6,0,L|484:184,1,100,8|0,0:0|3:2,0:0:0:0:
433,156,24348,1,0,0:0:0:0:
31,56,24427,2,0,L|28:184,1,100,8|0,0:0|3:2,0:0:0:0:
79,156,24661,1,0,0:0:0:0:
481,56,24739,2,0,L|484:184,1,100,8|0,0:0|3:2,0:0:0:0:
433,156,24973,1,0,0:0:0:0:
185,311,25052,6,0,P|122:293|121:162,1,200,4|0,3:2|3:2,0:0:0:0:
339,183,25520,2,0,L|466:179,1,100,10|0,0:0|3:2,0:0:0:0:
173,183,25833,2,0,L|46:179,1,100,10|0,0:0|0:0,0:0:0:0:
315,112,26145,1,2,3:2:0:0:
73,180,26302,1,0,3:2:0:0:
315,112,26458,6,0,L|204:106,1,100,10|0,0:0|0:0,0:0:0:0:
459,292,26770,2,0,L|341:281,1,100,10|0,0:0|0:0,0:0:0:0:
116,269,27083,1,2,3:2:0:0:
359,283,27239,2,0,L|468:292,1,100,0|8,3:2|0:0,0:0:0:0:
158,172,27552,6,0,L|377:154,1,200,4|0,3:2|3:2,0:0:0:0:
71,94,28020,2,0,L|182:84,1,100,10|0,0:0|3:2,0:0:0:0:
441,94,28333,2,0,L|330:84,1,100,10|0,0:0|3:2,0:0:0:0:
71,94,28645,1,2,0:0:0:0:
17,175,28802,1,0,3:2:0:0:
43,175,28854,1,0,3:2:0:0:
69,175,28906,1,8,0:3:0:0:
371,245,28958,6,0,L|474:248,2,100,6|0|0,0:3|3:2|3:2,0:0:0:0:
141,245,29427,2,0,L|38:248,2,100,4|0|0,0:3|3:2|3:2,0:0:0:0:
371,245,29895,2,0,P|430:235|455:122,1,150,8|0,0:0|0:0,0:0:0:0:
141,245,30208,1,4,3:2:0:0:
256,190,30833,6,0,L|151:183,1,100,2|2,0:0|0:0,0:0:0:0:
391,110,31301,2,0,L|395:327,1,200,2|2,0:0|0:0,0:0:0:0:
160,137,31926,2,0,L|346:49,2,200,2|2|2,0:0|0:0|0:0,0:0:0:0:
211,136,32629,1,0,0:0:0:0:
362,186,32708,5,0,3:2:0:0:
241,191,33333,2,0,L|354:182,1,100,2|2,0:0|0:0,0:0:0:0:
131,95,33801,2,0,P|73:122|52:259,1,200,2|2,0:0|0:0,0:0:0:0:
270,316,34426,2,0,P|275:247|154:162,1,200,10|0,0:0|0:0,0:0:0:0:
66,158,34895,2,0,P|34:197|72:210,1,100,2|2,0:0|0:0,0:0:0:0:
114,211,35129,1,0,0:0:0:0:
265,192,35208,5,0,3:2:0:0:
265,192,35833,2,0,L|147:189,1,100,2|2,0:0|0:0,0:0:0:0:
390,306,36301,2,0,L|196:209,1,200,2|2,0:0|0:0,0:0:0:0:
459,220,36926,2,0,L|272:123,2,200,2|2|2,0:0|0:0|0:0,0:0:0:0:
409,215,37629,1,0,0:0:0:0:
254,210,37708,5,0,3:2:0:0:
254,210,38333,2,0,L|360:202,1,100,2|2,0:0|0:0,0:0:0:0:
126,130,38801,2,0,P|70:159|141:264,1,200,2|2,0:0|0:0,0:0:0:0:
162,266,39192,1,0,0:0:0:0:
112,264,39270,2,0,L|57:265,1,50
148,343,39426,1,10,0:0:0:0:
217,314,39504,1,0,0:0:0:0:
236,274,39583,1,8,0:0:0:0:
215,239,39661,1,8,0:0:0:0:
125,235,39739,2,0,L|120:172,1,50,10|0,0:0|0:0,0:0:0:0:
200,173,39895,2,0,L|205:115,1,50
122,87,40051,2,0,L|117:32,1,50,10|0,0:0|0:0,0:0:0:0:
271,185,40208,5,0,3:2:0:0:
271,185,40833,2,0,L|156:182,2,100,2|2|2,0:0|0:0|0:0,0:0:0:0:
404,137,41301,2,0,L|408:241,1,100,2|8,0:0|0:0,0:0:0:0:
279,306,41614,2,0,L|275:197,1,100,2|0,0:0|0:0,0:0:0:0:
405,137,41926,2,0,P|465:142|396:203,2,200,2|2|2,0:0|0:0|0:0,0:0:0:0:
354,140,42629,1,0,0:0:0:0:
203,189,42708,5,0,3:2:0:0:
311,188,43020,2,0,P|369:239|295:307,1,200,2|0,0:0|0:0,0:0:0:0:
203,189,43645,2,0,L|308:183,1,100,2|2,0:0|0:0,0:0:0:0:
164,110,43958,2,0,L|345:211,2,200,10|2|10,0:0|0:0|0:0,0:0:0:0:
36,111,44739,2,0,L|30:319,1,200,2|2,0:0|0:0,0:0:0:0:
85,311,45129,1,0,0:0:0:0:
262,192,45208,5,0,3:2:0:0:
262,192,45833,2,0,L|151:189,1,100,2|2,0:0|0:0,0:0:0:0:
400,318,46301,2,0,L|406:105,1,200,2|2,0:0|0:0,0:0:0:0:
181,114,46926,2,0,L|170:337,1,200,2|2,0:0|0:0,0:0:0:0:
425,118,47551,1,2,0:0:0:0:
210,321,47708,6,0,P|146:313|124:219,1,150,0|0,3:2|0:0,0:0:0:0:
265,230,48020,1,2,0:2:0:0:
367,237,48333,6,0,P|431:229|453:135,1,150,2|0,3:2|0:0,0:0:0:0:
272,129,48645,1,2,0:2:0:0:
171,130,48958,6,0,P|107:137|84:232,1,150,2|0,3:2|0:0,0:0:0:0:
299,254,49270,1,2,0:2:0:0:
398,264,49583,6,0,P|459:258|481:164,1,150,2|0,3:2|0:0,0:0:0:0:
182,147,49895,1,0,0:0:0:0:
147,105,50051,2,0,L|483:96,1,330.000003147125,2|6,0:0|3:2,0:0:0:0:
335,205,50364,6,0,P|268:213|204:336,1,200,0|0,0:0|3:2,0:0:0:0:
343,326,50833,2,0,L|348:212,1,100,10|0,0:0|3:2,0:0:0:0:
208,127,51145,2,0,L|203:240,1,100,0|0,0:0|3:2,0:0:0:0:
424,323,51458,6,0,L|435:108,1,200,2|0,3:2|0:0,0:0:0:0:
348,121,51926,1,0,3:2:0:0:
118,228,52083,2,0,L|107:350,1,100,10|0,0:0|3:2,0:0:0:0:
240,231,52395,2,0,L|358:228,1,100,0|0,0:0|3:2,0:0:0:0:
107,126,52708,6,0,L|1:121,1,100,6|0,3:2|0:0,0:0:0:0:
276,272,53020,2,0,L|387:275,1,100,0|0,0:0|3:2,0:0:0:0:
236,250,53333,2,0,L|230:364,1,100,10|0,0:0|3:2,0:0:0:0:
376,274,53645,2,0,L|384:157,1,100,0|0,0:0|3:2,0:0:0:0:
133,127,53958,6,0,P|65:137|21:259,1,200,2|0,3:2|0:0,0:0:0:0:
96,247,54426,1,0,3:2:0:0:
311,247,54583,1,10,0:0:0:0:
218,259,54739,2,0,P|163:223|204:104,1,200,0|0,3:2|3:2,0:0:0:0:
242,106,55129,1,0,3:2:0:0:
393,332,55208,6,0,L|505:334,2,100,6|0|0,3:2|0:0|0:0,0:0:0:0:
252,245,55676,2,0,L|359:248,1,100,0|10,3:2|0:0,0:0:0:0:
495,185,55989,2,0,L|360:181,1,100,0|0,3:2|0:0,0:0:0:0:
185,192,56301,6,0,L|62:187,1,100,0|2,3:2|3:2,0:0:0:0:
235,117,56614,2,0,L|122:113,1,100
17,264,56926,2,0,L|127:269,1,100,0|10,3:2|0:0,0:0:0:0:
253,336,57239,2,0,L|123:328,1,100,0|0,3:2|0:0,0:0:0:0:
383,267,57551,6,0,L|387:152,1,100,0|6,3:2|3:2,0:0:0:0:
239,96,57864,2,0,L|236:316,1,200,0|0,0:0|3:2,0:0:0:0:
387,169,58333,1,10,0:0:0:0:
239,96,58489,2,0,L|123:94,2,100,0|0|0,3:2|0:0|3:2,0:0:0:0:
27,234,58958,5,0,3:2:0:0:
128,229,59114,2,0,L|189:226,1,50,8|8,0:3|0:0,0:0:0:0:
331,166,59270,2,0,L|404:168,1,50,8|8,0:0|0:0,0:0:0:0:
226,288,59426,2,0,L|146:285,1,50,8|8,0:0|0:0,0:0:0:0:
331,166,59583,2,0,L|261:163,1,50,8|8,0:0|0:0,0:0:0:0:
131,116,59739,1,8,0:3:0:0:
106,154,59817,1,8,0:3:0:0:
127,188,59895,1,4,0:3:0:0:
188,201,59973,1,4,0:3:0:0:
386,264,60051,2,0,L|462:269,1,50,4|4,0:3|0:3,0:0:0:0:
182,337,60208,5,6,3:2:0:0:
73,339,60364,2,0,P|72:282|199:230,1,200,0|0,3:2|3:2,0:0:0:0:
322,232,60833,2,0,L|204:225,1,100,10|0,0:0|3:2,0:0:0:0:
355,151,61145,1,0,3:2:0:0:
456,152,61301,1,0,3:2:0:0:
208,314,61458,5,2,3:2:0:0:
318,322,61614,2,0,P|380:300|329:199,1,200,0|0,3:2|3:2,0:0:0:0:
99,152,62083,1,10,0:0:0:0:
220,103,62239,1,0,3:2:0:0:
160,96,62317,1,0,3:2:0:0:
100,87,62395,1,0,3:2:0:0:
341,85,62551,5,0,3:2:0:0:
99,152,62708,2,0,L|326:160,1,200,6|0,3:2|0:0,0:0:0:0:
399,168,63176,1,0,3:2:0:0:
277,231,63333,1,10,0:0:0:0:
201,229,63489,1,0,3:2:0:0:
318,240,63645,2,0,P|360:209|326:178,1,100,0|0,0:0|3:2,0:0:0:0:
304,177,63853,1,0,3:2:0:0:
270,175,63905,1,8,0:3:0:0:
145,303,63958,6,0,L|28:294,2,100,4|0|0,0:3|3:2|3:2,0:0:0:0:
367,303,64426,2,0,L|484:294,2,100,8|0|0,0:3|3:2|3:2,0:0:0:0:
146,303,64895,2,0,L|89:297,1,50,8|8,0:0|0:3,0:0:0:0:
366,303,65051,2,0,L|424:295,1,50,0|0,3:2|3:2,0:0:0:0:
189,197,65208,6,0,L|69:199,1,100,12|0,0:0|0:0,0:0:0:0:
218,32,65520,2,0,L|212:158,1,100,0|0,1:2|0:0,0:0:0:0:
347,148,65833,2,0,L|352:274,1,100,0|0,1:2|0:0,0:0:0:0:
479,255,66145,2,0,L|471:374,1,100,0|0,1:2|0:0,0:0:0:0:
342,350,66458,6,0,L|229:343,1,100,0|0,1:2|0:0,0:0:0:0:
112,271,66770,2,0,L|223:276,1,100,0|0,1:2|0:0,0:0:0:0:
79,138,67083,2,0,L|70:265,1,100,0|0,1:2|0:0,0:0:0:0:
205,147,67395,1,0,1:2:0:0:
72,238,67551,1,0,0:0:0:0:
344,194,67708,6,0,L|464:196,1,100,0|0,1:2|0:0,0:0:0:0:
315,29,68020,2,0,L|321:155,1,100,0|0,1:2|0:0,0:0:0:0:
186,145,68333,2,0,L|181:271,1,100,0|0,1:2|0:0,0:0:0:0:
49,254,68645,2,0,L|57:373,1,100,0|0,1:2|0:0,0:0:0:0:
295,293,68958,6,0,L|440:244,2,150,0|0|0,1:2|1:2|1:2,0:0:0:0:
432,127,69583,2,0,L|436:238,1,100,0|0,1:2|0:0,0:0:0:0:
371,215,69817,1,0,1:2:0:0:
305,204,69895,1,0,1:2:0:0:
436,228,70051,1,0,1:2:0:0:
185,311,70208,5,2,1:2:0:0:
125,261,70364,1,0,0:0:0:0:
255,234,70520,1,0,1:2:0:0:
195,184,70676,1,0,0:0:0:0:
327,311,70833,5,0,1:2:0:0:
387,261,70989,1,0,0:0:0:0:
257,234,71145,1,0,1:2:0:0:
317,184,71301,1,0,0:0:0:0:
186,191,71458,5,0,1:2:0:0:
246,141,71614,1,0,0:0:0:0:
377,131,71770,1,0,1:2:0:0:
317,81,71926,1,0,0:0:0:0:
186,191,72083,1,0,1:2:0:0:
246,141,72239,1,0,0:0:0:0:
377,131,72395,1,0,1:2:0:0:
246,141,72551,1,0,0:0:0:0:
459,314,72708,5,0,1:2:0:0:
359,304,72864,1,0,0:0:0:0:
216,228,73020,1,0,1:2:0:0:
316,218,73176,1,0,0:0:0:0:
171,157,73333,1,0,1:2:0:0:
71,147,73489,1,0,0:0:0:0:
212,108,73645,1,0,1:2:0:0:
312,98,73801,1,0,0:0:0:0:
39,231,73958,5,6,1:3:0:0:
170,127,74114,2,0,L|178:336,1,200,2|2,0:0|0:0,0:0:0:0:
328,252,74583,2,0,P|257:251|162:97,1,250,2|0,0:0|0:0,0:0:0:0:
446,323,75057,6,0,P|488:284|400:167,1,200,6|0,3:2|3:2,0:0:0:0:
204,129,75525,2,0,L|326:136,2,100,8|0|0,0:0|0:0|3:2,0:0:0:0:
334,211,75994,1,0,3:2:0:0:
82,227,76150,1,10,0:0:0:0:
334,211,76307,5,2,0:0:0:0:
214,217,76463,1,0,3:2:0:0:
93,222,76619,1,0,3:2:0:0:
334,211,76775,1,8,0:0:0:0:
93,222,76932,1,2,0:0:0:0:
209,231,77088,2,0,L|212:347,1,100,2|2,3:2|3:2,0:0:0:0:
88,307,77400,1,8,0:0:0:0:
348,170,77557,6,0,L|471:174,1,100,2|0,3:2|0:0,0:0:0:0:
164,170,77869,2,0,L|41:174,1,100,2|8,3:2|0:0,0:0:0:0:
348,171,78182,1,2,3:2:0:0:
298,168,78260,1,0,3:2:0:0:
248,166,78338,1,0,3:2:0:0:
108,292,78494,2,0,L|216:283,1,100,2|8,3:2|0:0,0:0:0:0:
467,156,78807,6,0,L|357:145,1,100,2|0,3:2|3:2,0:0:0:0:
23,93,79119,2,0,L|186:88,1,150.000005722046,10|0,0:0|3:2,0:0:0:0:
492,270,79432,2,0,L|278:256,1,150.000005722046,8|0,0:0|3:2,0:0:0:0:
23,93,79744,2,0,L|268:86,1,220.000006713867,10|2,0:0|3:2,0:0:0:0:
16,366,80057,6,0,L|18:158,1,200,6|2,3:2|3:2,0:0:0:0:
268,250,80525,1,10,0:0:0:0:
137,240,80682,1,2,3:2:0:0:
372,187,80838,1,2,3:2:0:0:
241,177,80995,1,2,0:0:0:0:
479,94,81150,1,2,3:2:0:0:
348,84,81307,1,2,3:2:0:0:
106,90,81463,1,10,0:0:0:0:
348,84,81619,1,2,0:0:0:0:
106,90,81775,6,0,P|71:132|164:226,1,200,10|0,0:0|3:2,0:0:0:0:
276,254,82244,1,2,3:2:0:0:
145,229,82400,1,10,0:0:0:0:
390,325,82557,6,0,P|453:317|462:188,1,200,6|2,3:2|3:2,0:0:0:0:
207,205,83025,1,10,0:0:0:0:
76,195,83182,1,2,3:2:0:0:
306,152,83338,1,10,0:0:0:0:
437,142,83495,1,2,3:2:0:0:
207,116,83650,1,2,0:0:0:0:
76,106,83807,1,0,3:2:0:0:
306,152,83963,5,6,3:2:0:0:
437,142,84119,2,0,L|443:210,1,50,8|4,0:3|0:3,0:0:0:0:
241,263,84275,2,0,L|167:265,1,50,8|8,0:0|0:0,0:0:0:0:
346,323,84432,2,0,L|279:326,1,50,2|0,3:2|3:2,0:0:0:0:
94,335,84588,2,0,L|161:338,1,50,8|8,0:0|0:3,0:0:0:0:
346,323,84744,1,6,0:3:0:0:
417,302,84822,1,4,0:3:0:0:
434,269,84900,1,4,0:3:0:0:
414,232,84978,1,4,0:3:0:0:
165,222,85057,6,0,P|93:215|60:87,1,200,6|0,3:2|3:2,0:0:0:0:
343,172,85525,2,0,L|119:155,1,200,10|0,0:0|3:2,0:0:0:0:
395,101,85994,1,0,3:2:0:0:
143,156,86150,1,10,0:0:0:0:
395,101,86307,5,2,0:0:0:0:
272,158,86463,1,0,3:2:0:0:
394,216,86619,1,0,3:2:0:0:
143,156,86775,1,8,0:0:0:0:
394,216,86932,1,2,0:0:0:0:
273,236,87088,2,0,L|266:348,1,100,2|2,3:2|3:2,0:0:0:0:
390,331,87400,1,8,0:0:0:0:
132,128,87557,6,0,L|121:263,1,100,2|0,3:2|0:0,0:0:0:0:
380,128,87869,2,0,L|391:263,1,100,2|8,3:2|0:0,0:0:0:0:
133,129,88182,1,2,3:2:0:0:
182,129,88260,1,0,3:2:0:0:
231,125,88338,1,0,3:2:0:0:
77,195,88494,2,0,L|66:330,1,100,2|8,3:2|0:0,0:0:0:0:
396,301,88807,6,0,L|515:307,1,100,2|0,3:2|3:2,0:0:0:0:
179,114,89119,2,0,L|8:121,1,150.000005722046,8|0,0:0|3:2,0:0:0:0:
334,219,89432,2,0,L|507:225,1,150.000005722046,8|0,0:0|3:2,0:0:0:0:
243,159,89744,2,0,L|475:167,1,220.000006713867,10|2,0:0|3:2,0:0:0:0:
220,212,90057,6,0,P|147:238|171:351,1,200,6|2,3:2|3:2,0:0:0:0:
469,94,90525,1,10,0:0:0:0:
338,85,90682,1,2,3:2:0:0:
42,155,90838,1,2,3:2:0:0:
173,146,90995,1,10,0:0:0:0:
469,94,91150,2,0,L|408:89,1,50,2|0,3:2|3:2,0:0:0:0:
173,146,91307,2,0,L|251:139,1,50,2|0,3:2|3:2,0:0:0:0:
482,287,91463,1,10,0:0:0:0:
351,276,91620,1,2,3:2:0:0:
34,332,91775,6,0,P|44:257|161:189,1,200,10|0,0:0|3:2,0:0:0:0:
444,192,92244,1,10,0:0:0:0:
140,189,92400,1,10,0:0:0:0:
444,192,92557,6,0,L|212:187,1,200,6|2,3:2|3:2,0:0:0:0:
478,82,93025,1,10,0:0:0:0:
494,198,93182,1,2,3:2:0:0:
34,82,93338,1,10,0:0:0:0:
18,198,93495,1,2,3:2:0:0:
478,82,93650,1,2,0:0:0:0:
494,198,93807,1,0,3:2:0:0:
464,203,93859,1,0,3:2:0:0:
434,207,93911,1,8,0:3:0:0:
199,305,93963,6,0,L|78:316,2,100,14|0|4,0:0|3:2|0:3,0:0:0:0:
327,252,94432,2,0,L|448:257,2,100,10|0|2,0:3|3:2|3:2,0:0:0:0:
58,89,94900,2,0,L|135:89,1,50,8|8,0:0|0:0,0:0:0:0:
395,88,95057,2,0,L|469:89,1,50,2|0,3:2|3:2,0:0:0:0:
212,301,95213,6,0,L|86:294,1,100,14|0,0:0|0:0,0:0:0:0:
241,207,95525,2,0,L|358:214,1,100,0|0,1:2|0:0,0:0:0:0:
209,105,95838,2,0,L|198:225,1,100,0|0,1:2|0:0,0:0:0:0:
64,199,96150,2,0,L|67:320,1,100,0|0,1:2|0:0,0:0:0:0:
207,317,96463,6,0,L|323:327,1,100,0|0,1:2|0:0,0:0:0:0:
177,238,96775,2,0,L|61:230,1,100,0|0,1:2|0:0,0:0:0:0:
207,155,97088,2,0,L|212:271,1,100,0|0,1:2|0:0,0:0:0:0:
342,245,97400,1,0,1:2:0:0:
211,254,97556,1,0,0:0:0:0:
342,245,97713,6,0,L|346:135,1,100,0|0,1:2|0:0,0:0:0:0:
215,154,98025,2,0,L|209:291,1,100,0|0,1:2|0:0,0:0:0:0:
342,245,98338,2,0,L|338:136,1,100,0|0,1:2|0:0,0:0:0:0:
470,156,98650,2,0,L|479:41,1,100,0|0,1:2|0:0,0:0:0:0:
342,318,98963,6,0,L|226:311,1,100,0|0,1:2|0:0,0:0:0:0:
111,231,99275,2,0,L|242:223,1,100,0|0,1:2|0:0,0:0:0:0:
73,104,99588,2,0,L|63:233,1,100,0|0,1:2|0:0,0:0:0:0:
202,193,99900,1,0,1:2:0:0:
66,202,100056,1,0,0:0:0:0:
327,242,100213,6,0,L|380:237,2,50,0|0|0,1:2|1:2|1:2,0:0:0:0:
195,128,100525,2,0,L|258:121,1,50,0|0,1:2|1:2,0:0:0:0:
314,78,100681,2,0,L|249:68,1,50,0|0,1:2|0:0,0:0:0:0:
108,204,100838,1,0,1:2:0:0:
85,241,100916,1,0,0:0:0:0:
110,278,100994,1,0,1:2:0:0:
173,293,101072,1,0,0:0:0:0:
325,284,101150,1,0,1:2:0:0:
374,280,101228,1,0,1:2:0:0:
423,274,101306,1,0,1:2:0:0:
292,170,101463,2,0,L|236:164,1,50,0|0,1:2|0:0,0:0:0:0:
305,115,101619,2,0,L|374:110,1,50,0|0,1:2|1:2,0:0:0:0:
203,305,101775,5,0,1:2:0:0:
140,272,101853,1,0,0:0:0:0:
120,232,101931,1,0,1:2:0:0:
145,188,102009,1,0,0:0:0:0:
311,168,102088,2,0,L|366:171,1,50,0|0,1:2|1:2,0:0:0:0:
296,116,102244,2,0,L|235:110,1,50,0|0,1:2|0:0,0:0:0:0:
397,249,102400,2,0,L|455:244,2,50,0|0|0,1:2|1:2|1:2,0:0:0:0:
243,338,102713,6,0,L|235:273,1,50,0|0,1:2|1:2,0:0:0:0:
299,289,102869,2,0,L|308:229,1,50,0|0,1:2|1:2,0:0:0:0:
234,222,103025,2,0,L|210:174,1,50,0|0,1:2|1:2,0:0:0:0:
291,162,103181,2,0,L|331:121,1,50,0|0,1:2|1:2,0:0:0:0:
188,50,103338,2,0,L|135:43,1,50,0|0,1:2|1:2,0:0:0:0:
310,93,103494,2,0,L|369:87,1,50,0|0,1:2|1:2,0:0:0:0:
160,202,103650,2,0,L|99:196,1,50,0|0,1:2|1:2,0:0:0:0:
324,254,103806,2,0,L|385:249,1,50,0|0,1:2|1:2,0:0:0:0:
222,296,103963,6,0,L|108:290,1,100,2|0,1:3|0:0,0:0:0:0:
