osu file format v14

[General]
AudioFilename: audio.mp3
AudioLeadIn: 0
PreviewTime: 74031
Countdown: 0
SampleSet: Soft
StackLeniency: 0.7
Mode: 2
LetterboxInBreaks: 0
WidescreenStoryboard: 1

[Editor]
Bookmarks: 10208,19114,30208,50208,65208,75213,95213
DistanceSpacing: 2.4
BeatDivisor: 4
GridSize: 32
TimelineZoom: 2.200001

[Metadata]
Title:If You Can't Hang (Cut Ver.)
TitleUnicode:If You Can't Hang (Cut Ver.)
Artist:Sleeping With Sirens
ArtistUnicode:Sleeping With Sirens
Creator:-Joakh
Version:Bastian's Rain
Source:
Tags:du5t idu5t dust idust Phob Rew0825 Bastian Jorkseljund Secre Chickenbible Greaper Wanpachi Rock English cant Post Hardcore Kellin Quinn Let's Cheers to This
BeatmapID:2882680
BeatmapSetID:1358902

[Difficulty]
HPDrainRate:5
CircleSize:4
OverallDifficulty:9
ApproachRate:9
SliderMultiplier:1.80000000596046
SliderTickRate:2

[Events]
//Background and Video events
0,0,"BG.png",0,0
//Break Periods
//Storyboard Layer 0 (Background)
//Storyboard Layer 1 (Fail)
//Storyboard Layer 2 (Pass)
//Storyboard Layer 3 (Foreground)
//Storyboard Layer 4 (Overlay)
//Storyboard Sound Samples

[TimingPoints]
208,312.5,4,2,1,30,1,0
7708,-100,4,2,1,30,0,0
8020,-100,4,2,1,40,0,0
8333,-100,4,2,1,50,0,0
8645,-100,4,2,1,60,0,0
8958,-100,4,2,1,70,0,0
9270,-100,4,2,1,50,0,0
10052,312.5,4,2,1,70,1,0
10052,-100,4,2,1,70,0,0
30208,312.5,4,2,1,70,1,0
30208,-100,4,2,1,70,0,0
30364,-100,4,2,2,30,0,0
48020,-100,4,2,3,35,0,0
48098,-100,4,2,2,35,0,0
48333,-100,4,2,3,40,0,0
48411,-100,4,2,2,40,0,0
48645,-100,4,2,3,45,0,0
48723,-100,4,2,2,45,0,0
48958,-100,4,2,3,50,0,0
49036,-100,4,2,2,50,0,0
49270,-100,4,2,3,55,0,0
49348,-100,4,2,2,55,0,0
49583,-100,4,2,3,60,0,0
49661,-100,4,2,2,60,0,0
50208,-100,4,2,1,60,0,0
65208,-100,4,2,1,60,0,0
65364,-100,4,2,4,40,0,0
73958,-100,4,2,4,60,0,0
74114,-100,4,2,2,60,0,0
75057,312.5,4,2,4,40,1,0
75057,-100,4,2,5,80,0,1
95213,312.5,4,2,5,80,1,0
95213,-100,4,2,5,80,0,0
95369,-100,4,2,4,40,0,0
100213,-100,4,2,4,45,0,0
102713,-100,4,2,4,50,0,0
104119,-100,4,2,4,20,0,0

[Colours]
Combo1 : 250,203,133
Combo2 : 13,198,193
Combo3 : 175,172,185
Combo4 : 186,116,116

[HitObjects]
256,192,208,12,0,7395,0:0:0:0:
295,332,7708,6,0,L|295:213,1,90.000000298023,0|8,3:2|0:0,0:0:0:0:
160,242,8020,2,0,L|160:133,1,90.000000298023,8|8,0:0|0:0,0:0:0:0:
377,152,8333,2,0,L|377:53,1,90.000000298023,8|8,0:0|0:0,0:0:0:0:
242,62,8645,1,8,0:0:0:0:
376,62,8801,1,8,0:0:0:0:
158,62,8958,5,8,0:0:0:0:
391,62,9270,2,0,L|391:155,1,90.000000298023,4|0,0:3|0:0,0:0:0:0:
255,152,9583,2,0,L|452:152,1,180.000000596046,8|0,0:3|0:0,0:0:0:0:
183,152,10051,6,0,P|105:153|58:239,1,180.000000596046,4|0,3:2|3:2,0:0:0:0:
193,234,10520,2,0,L|192:346,1,90.000000298023,10|0,0:0|0:0,0:0:0:0:
56,323,10833,2,0,L|56:222,1,90.000000298023,2|0,3:2|3:2,0:0:0:0:
190,233,11145,1,10,0:0:0:0:
54,233,11302,1,0,0:0:0:0:
269,233,11458,6,0,L|381:233,3,90.000000298023,2|0|10|0,3:2|3:2|0:0|0:0,0:0:0:0:
132,143,12083,2,0,L|-2:143,2,90.000000298023,2|0|8,3:2|3:2|0:0,0:0:0:0:
367,143,12552,6,0,L|153:143,1,180.000000596046,4|0,3:2|3:2,0:0:0:0:
321,143,13020,2,0,L|321:44,1,90.000000298023,10|0,0:0|3:2,0:0:0:0:
229,53,13255,1,0,3:2:0:0:
139,53,13333,2,0,L|139:147,1,90.000000298023,2|0,3:2|3:2,0:0:0:0:
354,143,13645,6,0,L|461:143,2,90.000000298023,10|0|0,0:0|3:2|3:2,0:0:0:0:
136,143,14114,2,0,L|136:242,1,90.000000298023,8|0,0:0|3:2,0:0:0:0:
271,233,14427,2,0,L|369:233,1,90.000000298023,8|0,0:0|3:2,0:0:0:0:
145,233,14739,2,0,L|35:233,1,90.000000298023,8|0,0:0|3:2,0:0:0:0:
290,233,15052,6,0,P|290:306|186:347,1,180.000000596046,4|0,3:2|3:2,0:0:0:0:
338,351,15520,2,0,L|457:351,1,90.000000298023,10|0,0:0|3:2,0:0:0:0:
210,351,15833,2,0,P|154:302|224:239,1,180.000000596046,10|2,0:0|3:2,0:0:0:0:
76,237,16302,5,0,3:2:0:0:
291,237,16458,2,0,L|291:132,1,90.000000298023,10|0,0:0|0:0,0:0:0:0:
156,147,16770,2,0,L|156:57,1,90.000000298023,10|0,0:0|0:0,0:0:0:0:
373,57,17083,2,0,L|478:57,2,90.000000298023,2|0|8,3:2|3:2|0:0,0:0:0:0:
137,57,17552,6,0,L|332:57,1,180.000000596046,4|0,3:2|3:2,0:0:0:0:
182,57,18020,1,10,0:0:0:0:
317,57,18177,1,0,3:2:0:0:
101,57,18333,2,0,L|0:57,2,90.000000298023,10|0|2,0:0|3:2|0:0,0:0:0:0:
318,57,18802,2,0,L|430:57,1,90.000000298023,0|2,3:2|3:2,0:0:0:0:
349,57,19036,1,0,0:0:0:0:
205,57,19114,5,8,0:0:0:0:
147,84,19192,1,8,0:0:0:0:
146,148,19270,1,8,0:0:0:0:
204,177,19348,1,8,0:0:0:0:
349,177,19427,2,0,L|421:177,1,45.0000001490115,0|0,3:2|3:2,0:0:0:0:
241,177,19583,1,8,0:0:0:0:
196,170,19661,1,8,0:3:0:0:
154,184,19739,1,4,0:3:0:0:
121,214,19817,1,4,0:3:0:0:
106,256,19895,1,4,0:3:0:0:
110,301,19973,1,4,0:3:0:0:
273,301,20052,6,0,P|371:268|392:191,1,180.000000596046,4|0,3:2|3:2,0:0:0:0:
258,202,20520,2,0,L|258:97,1,90.000000298023,10|0,0:0|0:0,0:0:0:0:
393,112,20833,2,0,L|393:6,1,90.000000298023,2|0,3:2|3:2,0:0:0:0:
258,22,21145,2,0,L|143:22,1,90.000000298023,10|0,0:0|0:0,0:0:0:0:
385,22,21458,6,0,L|385:122,1,90.000000298023,2|0,3:2|3:2,0:0:0:0:
250,112,21770,2,0,L|132:112,1,90.000000298023,10|0,0:0|0:0,0:0:0:0:
377,112,22083,2,0,L|503:112,2,90.000000298023,2|0|8,3:2|3:2|0:0,0:0:0:0:
141,112,22552,6,0,L|337:112,1,180.000000596046,4|0,3:2|3:2,0:0:0:0:
186,112,23020,2,0,L|186:218,1,90.000000298023,10|0,0:0|3:2,0:0:0:0:
277,202,23255,1,0,3:2:0:0:
366,202,23333,2,0,L|366:315,1,90.000000298023,2|0,3:2|3:2,0:0:0:0:
150,292,23645,6,0,L|48:292,2,90.000000298023,10|0|0,0:0|3:2|3:2,0:0:0:0:
367,292,24114,2,0,L|367:169,1,90.000000298023,8|0,0:0|3:2,0:0:0:0:
231,202,24427,2,0,L|231:79,1,90.000000298023,8|0,0:0|3:2,0:0:0:0:
446,112,24739,2,0,L|446:-11,1,90.000000298023,8|0,0:0|3:2,0:0:0:0:
210,22,25052,6,0,L|406:22,1,180.000000596046,4|0,3:2|3:2,0:0:0:0:
255,22,25520,2,0,L|152:22,1,90.000000298023,10|0,0:0|3:2,0:0:0:0:
382,22,25833,2,0,P|383:95|290:138,1,180.000000596046,10|2,0:0|3:2,0:0:0:0:
432,139,26302,1,0,3:2:0:0:
216,139,26458,6,0,L|103:139,1,90.000000298023,10|0,0:0|0:0,0:0:0:0:
260,139,26770,2,0,L|373:139,1,90.000000298023,10|0,0:0|0:0,0:0:0:0:
132,139,27083,2,0,L|15:139,2,90.000000298023,2|0|8,3:2|3:2|0:0,0:0:0:0:
367,139,27552,6,0,L|165:139,1,180.000000596046,4|0,3:2|3:2,0:0:0:0:
321,139,28020,1,10,0:0:0:0:
185,139,28177,1,0,3:2:0:0:
319,139,28333,2,0,L|319:242,1,90.000000298023,10|0,0:0|3:2,0:0:0:0:
453,229,28645,2,0,L|453:319,1,90.000000298023,2|0,0:0|3:2,0:0:0:0:
235,319,28958,6,0,L|137:319,2,90.000000298023,6|0|0,0:3|3:2|3:2,0:0:0:0:
466,319,29427,2,0,L|465:205,1,90.000000298023,4|0,0:3|3:2,0:0:0:0:
375,229,29739,1,0,3:2:0:0:
159,229,29895,2,0,L|159:139,1,90.000000298023,8|0,0:0|3:2,0:0:0:0:
412,139,30208,5,4,3:2:0:0:
256,192,30364,12,0,32708,3:2:0:0:
347,326,33333,6,0,L|347:224,1,90.000000298023,2|2,0:0|0:0,0:0:0:0:
113,236,33801,2,0,P|55:187|135:133,1,180.000000596046,2|2,0:0|0:0,0:0:0:0:
348,126,34426,2,0,L|183:239,1,180.000000596046,10|0,0:0|0:0,0:0:0:0:
118,227,34895,1,2,0:0:0:0:
199,227,35051,1,2,0:0:0:0:
416,227,35208,6,0,P|475:178|383:135,1,180.000000596046,0|0,3:2|0:0,0:0:0:0:
181,119,35833,2,0,L|179:226,1,90.000000298023,2|2,0:0|0:0,0:0:0:0:
412,208,36301,1,2,0:0:0:0:
231,208,36614,2,0,L|387:325,2,180.000000596046,2|2|2,0:0|0:0|0:0,0:0:0:0:
411,208,37551,1,2,0:0:0:0:
193,208,37708,6,0,P|128:208|75:117,1,180.000000596046,0|0,3:2|0:0,0:0:0:0:
309,116,38333,2,0,L|415:116,1,90.000000298023,2|2,0:0|0:0,0:0:0:0:
165,116,38801,2,0,P|107:177|174:228,1,180.000000596046,2|2,0:0|0:0,0:0:0:0:
398,228,39426,2,0,L|261:347,2,180.000000596046,10|10|10,0:0|0:0|0:0,0:0:0:0:
179,228,40208,6,0,P|122:173|212:128,1,180.000000596046,0|0,3:2|0:0,0:0:0:0:
415,116,40833,2,0,L|415:228,1,90.000000298023,2|2,0:0|0:0,0:0:0:0:
325,206,41145,1,2,0:0:0:0:
181,206,41301,2,0,P|112:215|50:122,1,180.000000596046,2|2,0:0|0:0,0:0:0:0:
283,134,41926,2,0,P|365:137|447:320,1,270.000000894069,2|0,0:0|0:0,0:0:0:0:
365,283,42551,1,2,0:0:0:0:
147,283,42708,6,0,P|94:271|101:140,1,180.000000596046,0|2,3:2|0:0,0:0:0:0:
397,174,43645,2,0,L|397:273,1,90.000000298023,2|2,0:0|0:0,0:0:0:0:
279,264,43958,2,0,L|74:264,2,180.000000596046,10|2|10,0:0|0:0|0:0,0:0:0:0:
143,264,44739,2,0,P|86:204|160:151,1,180.000000596046,2|2,0:0|0:0,0:0:0:0:
360,148,45208,6,0,P|443:148|479:59,1,180.000000596046,0|0,3:2|0:0,0:0:0:0:
246,68,45833,2,0,L|125:68,1,90.000000298023,2|2,0:0|0:0,0:0:0:0:
389,68,46301,2,0,P|446:124|377:174,1,180.000000596046,2|2,0:0|0:0,0:0:0:0:
150,175,46926,2,0,P|93:176|37:288,1,180.000000596046,2|2,0:0|0:0,0:0:0:0:
267,272,47551,1,2,0:0:0:0:
49,272,47708,6,0,P|44:215|148:152,1,180.000000596046,0|2,3:2|0:2,0:0:0:0:
369,150,48333,2,0,L|224:269,1,180.000000596046,2|2,3:2|0:2,0:0:0:0:
464,264,48958,2,0,L|483:84,1,180.000000596046,2|2,3:2|0:2,0:0:0:0:
75,111,49583,1,2,3:2:0:0:
365,344,50208,6,0,P|421:281|347:233,1,180.000000596046,6|0,3:2|0:0,0:0:0:0:
227,230,50676,1,0,3:2:0:0:
362,230,50833,2,0,L|362:133,1,90.000000298023,10|0,0:0|3:2,0:0:0:0:
128,140,51301,1,0,3:2:0:0:
345,140,51458,6,0,P|345:218|241:255,1,180.000000596046,2|0,3:2|0:0,0:0:0:0:
127,260,51926,2,0,L|235:260,2,90.000000298023,0|10|0,3:2|0:0|3:2,0:0:0:0:
361,260,52551,1,0,3:2:0:0:
143,259,52708,6,0,P|83:208|171:172,1,180.000000596046,6|0,3:2|0:0,0:0:0:0:
279,157,53176,1,0,3:2:0:0:
143,157,53333,2,0,L|31:157,1,90.000000298023,10|0,0:0|3:2,0:0:0:0:
286,157,53801,1,0,3:2:0:0:
68,157,53958,6,0,L|68:346,1,180.000000596046,2|0,3:2|0:0,0:0:0:0:
202,337,54426,1,0,3:2:0:0:
66,337,54583,1,10,0:0:0:0:
281,337,54739,2,0,P|375:318|402:230,1,180.000000596046,0|0,3:2|3:2,0:0:0:0:
345,247,55129,1,0,3:2:0:0:
199,247,55208,6,0,P|143:197|227:143,1,180.000000596046,6|0,3:2|0:0,0:0:0:0:
337,135,55676,2,0,L|464:135,2,90.000000298023,0|10|0,3:2|0:0|3:2,0:0:0:0:
102,135,56301,1,0,3:2:0:0:
319,135,56458,6,0,P|321:216|223:253,1,180.000000596046,2|0,3:2|0:0,0:0:0:0:
106,257,56926,2,0,L|-2:257,2,90.000000298023,0|10|0,3:2|0:0|3:2,0:0:0:0:
340,257,57551,1,0,3:2:0:0:
122,257,57708,6,0,L|98:69,1,180.000000596046,6|0,3:2|0:0,0:0:0:0:
197,87,58176,1,0,3:2:0:0:
61,87,58333,2,0,L|61:190,1,90.000000298023,10|0,0:0|3:2,0:0:0:0:
294,177,58801,1,0,3:2:0:0:
76,177,58958,6,0,P|28:220|28:253,1,90.000000298023,0|8,3:2|0:3,0:0:0:0:
84,241,59192,1,8,0:0:0:0:
227,241,59270,1,8,0:0:0:0:
271,246,59348,1,8,0:0:0:0:
312,229,59426,1,8,0:0:0:0:
339,194,59504,1,8,0:0:0:0:
194,194,59583,2,0,L|116:194,1,45.0000001490115,8|8,0:0|0:0,0:0:0:0:
301,194,59739,5,8,0:3:0:0:
360,172,59817,1,8,0:3:0:0:
362,109,59895,1,4,0:3:0:0:
304,83,59973,1,4,0:3:0:0:
160,83,60051,2,0,L|79:83,1,45.0000001490115,4|4,0:3|0:3,0:0:0:0:
278,83,60208,6,0,L|390:83,1,90.000000298023,6|0,3:2|3:2,0:0:0:0:
134,83,60676,1,0,3:2:0:0:
251,83,60833,2,0,L|251:177,1,90.000000298023,10|0,0:0|3:2,0:0:0:0:
385,173,61145,2,0,L|385:271,1,90.000000298023,0|0,3:2|3:2,0:0:0:0:
167,263,61458,6,0,L|56:263,1,90.000000298023,2|0,3:2|3:2,0:0:0:0:
310,263,61926,1,0,3:2:0:0:
174,263,62083,2,0,L|174:160,1,90.000000298023,10|0,0:0|3:2,0:0:0:0:
263,173,62317,1,0,3:2:0:0:
352,173,62395,2,0,L|352:70,1,90.000000298023,0|0,3:2|3:2,0:0:0:0:
134,83,62708,6,0,P|75:130|146:186,1,180.000000596046,6|0,3:2|0:0,0:0:0:0:
269,188,63176,1,0,3:2:0:0:
133,188,63333,2,0,L|133:286,1,90.000000298023,10|0,0:0|3:2,0:0:0:0:
276,278,63645,2,0,L|378:278,1,90.000000298023,0|0,0:0|3:2,0:0:0:0:
147,278,63958,6,0,L|119:166,1,90.000000298023,4|0,0:3|3:2,0:0:0:0:
219,233,64270,1,0,3:2:0:0:
443,233,64426,2,0,L|443:131,1,90.000000298023,8|0,0:3|3:2,0:0:0:0:
352,143,64739,1,0,3:2:0:0:
136,143,64895,1,8,0:0:0:0:
77,121,64973,1,8,0:3:0:0:
75,58,65051,1,0,3:2:0:0:
133,32,65129,1,0,3:2:0:0:
296,32,65208,6,0,L|403:32,1,90.000000298023,12|0,0:0|0:0,0:0:0:0:
251,32,65520,2,0,L|251:132,1,90.000000298023,0|0,1:2|0:0,0:0:0:0:
386,122,65833,2,0,L|386:218,1,90.000000298023,0|0,1:2|0:0,0:0:0:0:
251,212,66145,1,0,1:2:0:0:
385,212,66301,2,0,L|385:327,1,90.000000298023,0|0,0:0|1:2,0:0:0:0:
167,302,66614,6,0,L|63:302,2,90.000000298023,0|0|0,0:0|1:2|0:0,0:0:0:0:
31,302,67083,2,0,L|31:208,1,90.000000298023,0|0,1:2|0:0,0:0:0:0:
120,212,67395,1,0,1:2:0:0:
335,212,67551,6,0,L|141:212,1,180.000000596046,0|0,0:0|0:0,0:0:0:0:
290,212,68020,2,0,L|290:106,1,90.000000298023,0|0,1:2|0:0,0:0:0:0:
154,122,68333,2,0,L|49:122,1,90.000000298023,0|0,1:2|0:0,0:0:0:0:
198,122,68645,2,0,L|93:122,2,90.000000298023,0|0|0,1:2|0:0|1:2,0:0:0:0:
415,122,69114,6,0,L|476:122,2,45.0000001490115,0|0|0,0:0|1:2|1:2,0:0:0:0:
280,122,69426,1,0,1:2:0:0:
415,122,69583,2,0,L|415:222,1,90.000000298023,0|0,1:2|0:0,0:0:0:0:
280,212,69895,1,0,1:2:0:0:
414,212,70051,1,0,1:2:0:0:
178,212,70208,6,0,L|71:212,1,90.000000298023,2|0,1:2|0:0,0:0:0:0:
231,212,70520,2,0,L|350:212,1,90.000000298023,0|0,1:2|0:0,0:0:0:0:
176,212,70833,2,0,L|68:212,1,90.000000298023,0|0,1:2|0:0,0:0:0:0:
229,212,71145,1,0,1:2:0:0:
85,212,71301,2,0,L|85:331,1,90.000000298023,0|0,0:0|1:2,0:0:0:0:
302,302,71614,6,0,L|434:302,2,90.000000298023,0|0|0,0:0|1:2|0:0,0:0:0:0:
84,302,72083,2,0,L|84:190,1,90.000000298023,0|0,1:2|0:0,0:0:0:0:
227,212,72395,1,0,1:2:0:0:
83,212,72551,1,0,0:0:0:0:
318,212,72708,6,0,L|318:90,1,90.000000298023,0|0,1:2|0:0,0:0:0:0:
174,122,73020,2,0,L|66:122,1,90.000000298023,0|0,1:2|0:0,0:0:0:0:
319,122,73333,2,0,L|437:122,1,90.000000298023,0|0,1:2|0:0,0:0:0:0:
175,122,73645,2,0,L|174:235,1,90.000000298023,0|0,1:2|0:0,0:0:0:0:
309,211,73958,5,6,1:3:0:0:
93,211,74114,2,0,P|35:255|95:319,1,180.000000596046,2|2,0:0|0:0,0:0:0:0:
310,319,74583,2,0,L|117:319,1,180.000000596046,2|0,0:0|0:0,0:0:0:0:
381,319,75057,6,0,P|439:267|378:207,1,180.000000596046,6|0,3:2|3:2,0:0:0:0:
231,207,75525,2,0,L|231:104,1,90.000000298023,8|0,0:0|0:0,0:0:0:0:
375,117,75838,2,0,L|476:117,2,90.000000298023,0|0|10,3:2|3:2|0:0,0:0:0:0:
157,117,76307,6,0,L|347:117,1,180.000000596046,2|0,0:0|3:2,0:0:0:0:
193,117,76775,1,8,0:0:0:0:
410,117,76932,2,0,L|410:224,1,90.000000298023,2|2,0:0|3:2,0:0:0:0:
266,207,77244,1,2,3:2:0:0:
410,207,77400,1,8,0:0:0:0:
174,207,77557,6,0,P|117:155|193:100,1,180.000000596046,2|2,3:2|3:2,0:0:0:0:
320,96,78025,2,0,L|321:193,1,90.000000298023,8|2,0:0|3:2,0:0:0:0:
229,185,78260,1,0,3:2:0:0:
139,185,78338,2,0,L|36:185,2,90.000000298023,0|2|8,3:2|3:2|0:0,0:0:0:0:
356,185,78807,6,0,L|477:185,1,90.000000298023,2|0,3:2|3:2,0:0:0:0:
230,185,79119,2,0,L|229:291,1,90.000000298023,10|0,0:0|3:2,0:0:0:0:
373,274,79432,2,0,L|373:175,1,90.000000298023,8|0,0:0|3:2,0:0:0:0:
229,184,79744,1,10,0:0:0:0:
372,184,79900,1,2,3:2:0:0:
136,184,80057,6,0,L|329:184,1,180.000000596046,6|2,3:2|3:2,0:0:0:0:
172,184,80525,2,0,L|172:292,1,90.000000298023,10|2,0:0|3:2,0:0:0:0:
27,274,80838,2,0,L|27:184,1,90.000000298023,2|2,3:2|0:0,0:0:0:0:
170,184,81150,1,2,3:2:0:0:
25,184,81307,1,2,3:2:0:0:
240,184,81463,6,0,L|370:184,1,90.000000298023,10|2,0:0|0:0,0:0:0:0:
186,184,81775,2,0,P|128:137|217:91,1,180.000000596046,10|0,0:0|3:2,0:0:0:0:
333,77,82244,1,2,3:2:0:0:
189,77,82400,1,10,0:0:0:0:
424,77,82557,6,0,L|225:77,1,180.000000596046,6|2,3:2|3:2,0:0:0:0:
387,77,83025,2,0,L|387:180,1,90.000000298023,10|2,0:0|3:2,0:0:0:0:
242,167,83338,1,10,0:0:0:0:
385,167,83494,2,0,L|495:167,2,90.000000298023,2|2|0,3:2|0:0|3:2,0:0:0:0:
149,167,83963,6,0,L|52:167,1,90.000000298023,6|8,3:2|0:3,0:0:0:0:
117,167,84197,1,4,0:3:0:0:
260,167,84275,1,8,0:0:0:0:
318,193,84353,1,8,0:0:0:0:
316,256,84431,1,2,3:2:0:0:
257,278,84509,1,0,3:2:0:0:
111,278,84588,2,0,L|34:278,1,45.0000001490115,8|8,0:0|0:3,0:0:0:0:
257,278,84744,1,6,0:3:0:0:
302,278,84822,1,4,0:3:0:0:
347,278,84900,1,4,0:3:0:0:
392,278,84978,1,4,0:3:0:0:
228,278,85057,6,0,P|162:278|108:178,1,180.000000596046,6|0,3:2|3:2,0:0:0:0:
250,188,85525,2,0,L|355:188,1,90.000000298023,10|0,0:0|0:0,0:0:0:0:
195,188,85838,2,0,L|83:188,2,90.000000298023,0|0|10,3:2|3:2|0:0,0:0:0:0:
430,188,86307,6,0,L|226:188,1,180.000000596046,2|0,0:0|3:2,0:0:0:0:
393,188,86775,1,8,0:0:0:0:
175,188,86932,2,0,L|59:188,3,90.000000298023,2|2|2|8,0:0|3:2|3:2|0:0,0:0:0:0:
320,188,87557,6,0,P|377:131|300:79,1,180.000000596046,2|2,3:2|3:2,0:0:0:0:
174,75,88025,2,0,L|174:184,1,90.000000298023,8|2,0:0|3:2,0:0:0:0:
265,165,88260,1,0,3:2:0:0:
354,165,88338,2,0,L|481:165,2,90.000000298023,0|2|8,3:2|3:2|0:0,0:0:0:0:
136,165,88807,6,0,L|25:165,1,90.000000298023,2|0,3:2|3:2,0:0:0:0:
279,165,89119,2,0,L|401:165,1,90.000000298023,8|0,0:0|3:2,0:0:0:0:
133,165,89432,2,0,L|133:277,1,90.000000298023,8|0,0:0|3:2,0:0:0:0:
276,255,89744,1,10,0:0:0:0:
132,255,89900,1,2,3:2:0:0:
385,255,90057,6,0,L|192:255,1,180.000000596046,6|2,3:2|3:2,0:0:0:0:
349,255,90525,2,0,L|349:363,1,90.000000298023,10|2,0:0|3:2,0:0:0:0:
204,345,90838,1,2,3:2:0:0:
347,345,90994,1,10,0:0:0:0:
203,345,91150,2,0,L|129:345,1,45.0000001490115,2|0,3:2|3:2,0:0:0:0:
303,345,91307,2,0,L|381:345,1,45.0000001490115,2|0,3:2|3:2,0:0:0:0:
186,345,91463,6,0,L|56:345,1,90.000000298023,10|2,0:0|3:2,0:0:0:0:
329,345,91775,2,0,L|454:345,2,90.000000298023,10|0|0,0:0|3:2|3:2,0:0:0:0:
111,345,92244,2,0,L|111:218,1,90.000000298023,10|10,0:0|0:0,0:0:0:0:
346,255,92557,6,0,L|147:255,1,180.000000596046,6|2,3:2|3:2,0:0:0:0:
309,255,93025,2,0,L|309:152,1,90.000000298023,10|2,0:0|3:2,0:0:0:0:
164,165,93338,2,0,L|164:58,1,90.000000298023,10|2,0:0|3:2,0:0:0:0:
307,75,93650,1,2,0:0:0:0:
162,75,93807,1,0,3:2:0:0:
377,75,93963,6,0,L|503:75,2,90.000000298023,14|0|4,0:0|3:2|0:3,0:0:0:0:
87,30,94432,2,0,L|87:120,1,90.000000298023,10|0,0:3|3:2,0:0:0:0:
176,120,94744,1,2,3:2:0:0:
391,120,94900,2,0,L|464:120,1,45.0000001490115,8|8,0:0|0:0,0:0:0:0:
290,120,95057,2,0,L|217:120,1,45.0000001490115,2|0,3:2|3:2,0:0:0:0:
436,120,95213,6,0,P|491:169|423:235,1,180.000000596046,14|0,0:0|1:2,0:0:0:0:
298,235,95681,1,0,0:0:0:0:
433,235,95838,2,0,L|433:119,1,90.000000298023,0|0,1:2|0:0,0:0:0:0:
298,145,96150,1,0,1:2:0:0:
432,145,96306,2,0,L|432:46,1,90.000000298023,0|0,0:0|1:2,0:0:0:0:
214,55,96619,6,0,L|99:55,2,90.000000298023,0|0|0,0:0|1:2|0:0,0:0:0:0:
349,55,97088,2,0,L|464:55,2,90.000000298023,0|0|0,1:2|0:0|1:2,0:0:0:0:
133,55,97556,6,0,L|328:55,1,180.000000596046,0|0,0:0|0:0,0:0:0:0:
177,55,98025,2,0,L|79:55,1,90.000000298023,0|0,1:2|0:0,0:0:0:0:
222,55,98338,2,0,L|222:157,1,90.000000298023,0|0,1:2|0:0,0:0:0:0:
87,145,98650,2,0,L|87:253,1,90.000000298023,0|0,1:2|0:0,0:0:0:0:
177,235,98963,1,0,1:2:0:0:
392,235,99119,6,0,L|502:235,2,90.000000298023,0|0|0,0:0|1:2|0:0,0:0:0:0:
247,235,99588,2,0,L|142:235,1,90.000000298023,0|0,1:2|0:0,0:0:0:0:
300,235,99900,2,0,L|416:235,1,90.000000298023,0|0,1:2|0:0,0:0:0:0:
154,235,100213,6,0,L|73:235,2,45.0000001490115,0|0|0,1:2|1:2|1:2,0:0:0:0:
297,235,100525,2,0,L|379:235,2,45.0000001490115,0|0|0,1:2|1:2|1:2,0:0:0:0:
152,235,100838,2,0,L|152:140,1,90.000000298023,0|0,1:2|1:2,0:0:0:0:
295,145,101150,2,0,L|414:145,2,90.000000298023,0|0|0,1:2|1:2|1:2,0:0:0:0:
77,145,101619,5,0,1:2:0:0:
77,100,101697,1,0,1:2:0:0:
77,55,101775,1,0,1:2:0:0:
166,55,101931,1,0,1:2:0:0:
383,55,102088,1,0,1:2:0:0:
428,55,102166,1,0,1:2:0:0:
473,55,102244,1,0,1:2:0:0:
256,55,102400,1,0,1:2:0:0:
211,55,102478,1,0,1:2:0:0:
166,55,102556,1,0,1:2:0:0:
383,55,102713,6,0,L|478:55,1,90.000000298023,0|0,1:2|1:2,0:0:0:0:
254,166,103025,2,0,L|178:166,1,45.0000001490115,0|0,1:2|1:2,0:0:0:0:
254,166,103181,2,0,L|299:166,1,45.0000001490115,0|0,1:2|1:2,0:0:0:0:
444,166,103338,5,0,1:2:0:0:
449,209,103416,1,0,1:2:0:0:
426,247,103494,1,0,1:2:0:0:
376,263,103572,1,0,1:2:0:0:
232,263,103650,2,0,L|149:263,1,45.0000001490115,0|0,1:2|1:2,0:0:0:0:
330,263,103806,2,0,L|375:263,1,45.0000001490115,0|0,1:2|1:2,0:0:0:0:
211,263,103963,5,2,1:3:0:0:
121,263,104119,2,0,P|66:200|148:154,1,180.000000596046,0|0,0:0|0:0,0:0:0:0:
342,148,104588,2,0,P|222:148|107:344,1,360.000001192092,0|0,0:0|0:0,0:0:0:0:
