osu file format v14

[General]
AudioFilename: audio.mp3
AudioLeadIn: 0
PreviewTime: 74865
Countdown: 0
SampleSet: Soft
StackLeniency: 0.7
Mode: 2
LetterboxInBreaks: 0
WidescreenStoryboard: 0

[Editor]
Bookmarks: 9943
DistanceSpacing: 1.4
BeatDivisor: 4
GridSize: 8
TimelineZoom: 2.4

[Metadata]
Title:If You Can't Hang
TitleUnicode:If You Can't Hang
Artist:Sleeping With Sirens
ArtistUnicode:Sleeping With Sirens
Creator:Ascendance
Version:Overdose
Source:
Tags:cant Post Hardcore Kellin Quinn Let's Cheers to This chromoxx clsw crystalseed daiz_ix
BeatmapID:1246002
BeatmapSetID:588564

[Difficulty]
HPDrainRate:7
CircleSize:4.3
OverallDifficulty:9.6
ApproachRate:9.6
SliderMultiplier:1.92
SliderTickRate:2

[Events]
//Background and Video events
0,0,"UfntLlJ.jpg",0,0
//Break Periods
2,185300,194591
//Storyboard Layer 0 (Background)
//Storyboard Layer 1 (Fail)
//Storyboard Layer 2 (Pass)
//Storyboard Layer 3 (Foreground)
//Storyboard Sound Samples

[TimingPoints]
100,312.5,4,2,1,50,1,0
7912,-100,4,2,1,40,0,0
8068,-100,4,2,1,45,0,0
8225,-100,4,2,1,50,0,0
8381,-100,4,2,1,55,0,0
8537,-100,4,2,1,60,0,0
8693,-100,4,2,1,65,0,0
8850,-100,4,2,1,70,0,0
9865,-100,4,2,1,5,0,0
9943,-100,4,2,1,80,0,0
30178,-100,4,2,1,40,0,0
31037,-133.333333333333,4,2,1,40,0,0
36975,-200,4,2,1,40,0,0
47600,-200,4,2,1,50,0,0
47834,-200,4,2,1,5,0,0
47912,-200,4,2,1,55,0,0
48146,-200,4,2,1,5,0,0
48225,-200,4,2,1,60,0,0
48459,-200,4,2,1,5,0,0
48537,-200,4,2,1,65,0,0
48771,-200,4,2,1,5,0,0
48850,-200,4,2,1,70,0,0
49084,-200,4,2,1,5,0,0
49162,-200,4,2,1,75,0,0
49396,-200,4,2,1,5,0,0
49475,-200,4,2,1,80,0,0
50021,-200,4,2,1,5,0,0
50100,-100,4,2,1,70,0,0
65412,-100,4,2,1,50,0,0
70100,-100,4,2,1,60,0,0
72600,-100,4,2,1,70,0,0
74865,-100,4,2,1,5,0,0
74943,-100,4,2,1,90,0,1
95100,-133.333333333333,4,2,1,90,0,0
95178,-133.333333333333,4,2,1,70,0,0
100021,-133.333333333333,4,2,1,5,0,0
100100,-133.333333333333,4,2,1,70,0,0
135412,-133.333333333333,4,2,1,50,0,0
140100,-100,4,2,1,60,0,0
142600,-100,4,2,1,70,0,0
144865,-100,4,2,1,5,0,0
144943,-100,4,2,1,90,0,1
165100,-133.333333333333,4,2,1,90,0,0
165178,-133.333333333333,4,2,1,70,0,0
196975,-133.333333333333,4,2,2,70,0,0
197600,-133.333333333333,4,2,1,70,0,0
217443,-100,4,2,1,90,0,1
237600,-200,4,2,1,90,0,0
237912,-200,4,2,1,50,0,0
247560,-200,4,2,1,5,0,0

[HitObjects]
256,192,7600,12,0,8850,1:0:0:0:
64,56,9162,6,0,P|144:56|232:112,1,144,0|0,0:0|0:0,0:0:0:0:
248,112,9475,2,0,P|176:120|144:296,1,240,2|0,0:0|0:0,0:0:0:0:
416,336,9943,6,0,P|464:256|416:168,1,192,12|8,0:0|0:0,0:0:0:0:
160,72,10412,2,0,L|32:80,1,96,0|0,1:0|0:0,0:0:0:0:
224,192,10725,2,0,L|240:64,1,96,8|8,0:0|0:0,0:0:0:0:
88,208,11037,1,0,1:0:0:0:
224,192,11193,1,0,0:0:0:0:
271,198,11271,1,0,0:0:0:0:
319,204,11349,5,8,0:0:0:0:
160,120,11506,2,0,L|56:136,2,96,8|0|0,0:0|1:0|0:0,0:0:0:0:
320,72,11975,2,0,L|432:80,2,96,8|8|0,0:0|0:0|1:0,0:0:0:0:
32,344,12443,6,0,L|232:320,1,192,12|8,0:0|0:0,0:0:0:0:
88,240,12912,2,0,L|80:128,1,96,0|8,1:0|0:0,0:0:0:0:
128,96,13146,1,0,0:0:0:0:
400,200,13225,2,0,L|296:192,1,96,8|8,0:0|0:0,0:0:0:0:
40,328,13537,2,0,L|176:312,1,96,0|8,1:0|0:0,0:0:0:0:
296,288,13850,5,8,0:0:0:0:
56,184,14006,2,0,L|40:64,1,96,0|8,1:0|0:0,0:0:0:0:
384,48,14318,2,0,L|368:152,1,96,0|8,1:0|0:0,0:0:0:0:
56,184,14631,2,0,L|40:64,1,96,0|8,1:0|0:0,0:0:0:0:
352,352,14943,6,0,P|400:296|328:208,1,192,12|8,0:0|0:0,0:0:0:0:
64,136,15412,2,0,L|184:136,1,96,0|8,1:0|0:0,0:0:0:0:
400,168,15725,2,0,L|512:168,1,96,0|0,1:0|0:0,0:0:0:0:
184,304,16037,2,0,L|80:304,1,96,8|8,0:0|0:0,0:0:0:0:
136,304,16271,1,0,0:0:0:0:
440,232,16350,6,0,L|464:104,1,96,0|0,1:0|0:0,0:0:0:0:
136,32,16662,2,0,L|144:136,1,96,0|0,1:0|0:0,0:0:0:0:
280,200,16975,1,8,0:0:0:0:
168,224,17131,1,8,0:0:0:0:
64,256,17287,1,0,1:0:0:0:
384,320,17443,6,0,P|440:264|352:184,1,192,12|8,0:0|0:0,0:0:0:0:
136,120,17912,2,0,L|16:120,1,96,0|0,1:0|0:0,0:0:0:0:
304,240,18225,2,0,L|312:128,1,96,0|8,1:0|0:0,0:0:0:0:
192,72,18537,1,0,0:0:0:0:
56,40,18693,1,8,0:0:0:0:
328,80,18850,5,8,0:0:0:0:
360,113,18928,1,0,0:0:0:0:
366,160,19006,1,4,0:3:0:0:
341,200,19084,1,0,1:0:0:0:
296,224,19162,2,0,L|288:272,1,48,0|0,1:0|1:0,0:0:0:0:
344,304,19318,2,0,L|336:360,1,48,8|8,0:0|0:0,0:0:0:0:
152,288,19475,2,0,L|144:232,1,48,0|4,1:0|0:3,0:0:0:0:
200,200,19631,2,0,L|192:136,1,48,8|8,0:0|0:0,0:0:0:0:
128,120,19787,1,8,0:0:0:0:
400,56,19943,6,0,L|176:64,1,192,12|8,0:0|0:0,0:0:0:0:
472,336,20412,2,0,L|488:224,1,96,0|0,1:0|0:0,0:0:0:0:
392,160,20725,1,8,0:0:0:0:
304,272,20881,1,8,0:0:0:0:
351,269,20959,1,0,0:0:0:0:
399,266,21037,1,0,1:0:0:0:
80,208,21193,1,0,0:0:0:0:
176,144,21350,6,0,L|64:144,1,96,8|8,0:0|0:0,0:0:0:0:
448,176,21662,2,0,L|432:304,1,96,0|0,1:0|0:0,0:0:0:0:
328,96,21975,2,0,L|440:80,2,96,8|8|0,0:0|0:0|1:0,0:0:0:0:
96,288,22443,6,0,P|168:256|304:312,1,192,12|8,0:0|0:0,0:0:0:0:
136,176,22912,2,0,L|128:56,1,96,0|8,1:0|0:0,0:0:0:0:
176,40,23146,1,0,0:0:0:0:
368,24,23225,2,0,L|360:136,1,96,8|8,0:0|0:0,0:0:0:0:
136,176,23537,1,0,1:0:0:0:
256,248,23693,2,0,L|336:240,1,48,8|0,0:0|0:0,0:0:0:0:
136,328,23850,6,0,L|56:320,1,48,8|0,0:0|0:0,0:0:0:0:
368,264,24006,2,0,L|384:128,1,96,0|8,1:0|0:0,0:0:0:0:
80,32,24318,2,0,L|96:160,1,96,0|8,1:0|0:0,0:0:0:0:
424,248,24631,2,0,L|440:112,1,96,0|8,1:0|0:0,0:0:0:0:
176,352,24943,6,0,L|400:328,1,192,12|8,0:0|0:0,0:0:0:0:
72,256,25412,2,0,L|56:152,1,96,0|0,1:0|0:0,0:0:0:0:
304,112,25725,2,0,L|96:112,1,192,0|8,1:0|0:0,0:0:0:0:
16,176,26193,1,8,0:0:0:0:
400,352,26350,6,0,L|496:352,1,96,0|0,1:0|0:0,0:0:0:0:
104,224,26662,2,0,L|200:224,1,96,0|0,1:0|0:0,0:0:0:0:
320,136,26975,1,8,0:0:0:0:
224,136,27131,1,8,0:0:0:0:
128,136,27287,1,0,1:0:0:0:
416,64,27443,6,0,P|464:128|424:240,1,192,12|8,0:0|0:0,0:0:0:0:
200,320,27912,2,0,L|80:328,1,96,0|8,1:0|0:0,0:0:0:0:
264,272,28225,1,0,1:0:0:0:
332,210,28381,1,0,0:0:0:0:
323,118,28537,1,0,0:0:0:0:
232,64,28693,2,0,L|192:64,2,32,8|0|0,0:0|0:0|0:0,0:0:0:0:
368,160,28850,6,0,L|472:168,2,96,0|0|8,1:0|0:0|0:0,0:0:0:0:
224,288,29318,2,0,L|352:272,1,96,4|0,0:3|0:0,0:0:0:0:
176,224,29631,1,8,0:0:0:0:
480,48,29787,2,0,L|464:160,1,96,0|8,1:0|0:0,0:0:0:0:
64,288,30100,5,12,0:0:0:0:
312,280,31037,2,0,L|320:184,1,72.0000027465821,0|0,0:0|0:0,0:0:0:0:
192,136,31350,1,0,0:0:0:0:
368,72,32600,5,8,0:0:0:0:
216,240,33537,2,0,L|320:240,2,72.0000027465821,0|0|0,0:0|0:0|0:0,0:0:0:0:
352,168,34318,2,0,L|432:168,1,72.0000027465821,0|0,0:0|0:0,0:0:0:0:
224,64,34787,1,0,0:0:0:0:
204,93,34865,1,0,0:0:0:0:
201,128,34943,1,0,0:0:0:0:
215,161,35021,1,0,0:0:0:0:
272,192,35100,5,0,0:0:0:0:
104,296,36037,2,0,L|200:296,1,72.0000027465821,0|0,0:0|0:0,0:0:0:0:
56,248,36350,1,0,0:0:0:0:
264,160,36975,2,0,P|184:120|88:160,1,192,0|0,0:0|0:0,0:0:0:0:
232,112,38537,2,0,L|296:112,1,48,0|0,0:0|0:0,0:0:0:0:
168,72,38850,5,0,0:0:0:0:
328,320,39475,1,0,0:0:0:0:
341,300,39553,1,0,0:0:0:0:
350,277,39631,1,0,0:0:0:0:
354,254,39709,1,0,0:0:0:0:
353,230,39787,1,0,0:0:0:0:
347,207,39865,1,0,0:0:0:0:
336,186,39943,1,0,0:0:0:0:
320,167,40021,1,0,0:0:0:0:
296,152,40100,6,0,L|136:160,2,144,0|0|0,0:0|0:0|0:0,0:0:0:0:
120,336,41350,2,0,L|112:224,1,96,0|0,0:0|0:0,0:0:0:0:
264,184,41975,2,0,L|272:72,1,96,0|0,0:0|0:0,0:0:0:0:
88,64,42600,6,0,L|296:56,1,192,0|0,0:0|0:0,0:0:0:0:
448,208,43537,1,0,0:0:0:0:
360,192,43693,1,0,0:0:0:0:
272,176,43850,5,0,0:0:0:0:
480,56,44475,2,0,L|288:64,1,192,0|0,0:0|0:0,0:0:0:0:
184,248,45725,2,0,L|288:256,1,96,0|0,0:0|0:0,0:0:0:0:
104,304,46350,5,0,0:0:0:0:
400,216,46975,1,0,0:0:0:0:
56,56,47600,6,0,L|64:160,1,96,10|0,0:0|0:0,0:0:0:0:
184,192,48225,2,0,L|192:304,1,96,8|0,0:0|0:0,0:0:0:0:
312,264,48850,2,0,L|320:360,1,96,8|0,0:0|0:0,0:0:0:0:
200,256,49475,1,8,0:0:0:0:
456,184,49631,1,0,0:0:0:0:
96,64,50100,6,0,P|56:152|96:248,1,192,12|0,0:0|0:0,0:0:0:0:
208,296,50568,1,8,0:0:0:0:
320,208,50725,2,0,L|208:208,1,96,0|8,1:0|0:0,0:0:0:0:
368,144,51037,2,0,L|472:144,1,96,0|8,0:0|0:0,0:0:0:0:
144,48,51350,6,0,P|96:128|144:224,1,192,8|0,0:0|0:0,0:0:0:0:
248,272,51818,1,8,0:0:0:0:
128,352,51975,2,0,L|240:352,1,96,0|8,1:0|0:0,0:0:0:0:
64,280,52287,2,0,L|48:176,1,96,0|8,0:0|0:0,0:0:0:0:
320,56,52600,6,0,P|376:104|304:192,1,192,8|0,0:0|0:0,0:0:0:0:
176,64,53068,1,8,0:0:0:0:
304,224,53225,2,0,L|296:320,1,96,0|0,1:0|0:0,0:0:0:0:
192,208,53538,2,0,L|200:96,1,96
456,296,53850,6,0,L|224:312,1,192,0|0,0:0|0:0,0:0:0:0:
152,240,54318,1,8,0:0:0:0:
248,160,54475,2,0,L|360:176,1,96,0|8,1:0|0:0,0:0:0:0:
144,80,54943,2,0,L|96:88,1,48,8|8,0:0|0:0,0:0:0:0:
312,32,55100,6,0,L|416:48,1,96,8|0,0:0|0:0,0:0:0:0:
240,96,55568,1,8,0:0:0:0:
480,280,55725,2,0,L|360:280,1,96,0|8,1:0|0:0,0:0:0:0:
480,208,56193,1,8,0:0:0:0:
224,152,56350,6,0,L|120:160,1,96,8|0,0:0|0:0,0:0:0:0:
288,240,56662,2,0,L|304:128,1,96,0|8,0:0|0:0,0:0:0:0:
48,80,56975,2,0,L|256:104,1,192,0|0,1:0|0:0,0:0:0:0:
112,168,57443,1,8,0:0:0:0:
240,264,57600,6,0,L|128:264,1,96,8|0,0:0|0:0,0:0:0:0:
336,216,58068,1,8,0:0:0:0:
64,64,58225,2,0,L|80:176,1,96,0|8,1:0|0:0,0:0:0:0:
216,184,58537,2,0,L|232:304,1,96,0|8,0:0|0:0,0:0:0:0:
184,328,58771,1,0,0:0:0:0:
424,256,58850,5,8,0:0:0:0:
328,176,59006,2,0,L|320:112,2,48,8|0|0,0:0|1:0|1:0,0:0:0:0:
424,96,59318,2,0,L|432:48,1,48,8|8,0:0|0:0,0:0:0:0:
216,24,59475,1,0,1:0:0:0:
169,30,59553,1,0,1:0:0:0:
133,61,59631,1,4,0:3:0:0:
121,107,59709,1,4,0:3:0:0:
280,216,59787,2,0,L|296:296,1,48,4|4,0:3|0:3,0:0:0:0:
96,208,59943,2,0,L|80:144,1,48,4|4,0:3|0:3,0:0:0:0:
272,96,60100,6,0,L|368:104,1,96,12|0,0:0|0:0,0:0:0:0:
104,312,60568,1,8,0:0:0:0:
336,256,60725,2,0,L|344:144,1,96,0|0,1:0|0:0,0:0:0:0:
208,72,61037,2,0,L|96:88,1,96,0|8,0:0|0:0,0:0:0:0:
238,152,61350,6,0,L|350:144,1,96,8|8,0:0|0:0,0:0:0:0:
120,272,61818,1,8,0:0:0:0:
440,224,61975,2,0,L|448:112,1,96,0|8,1:0|0:0,0:0:0:0:
400,96,62209,1,8,0:0:0:0:
208,40,62287,2,0,L|104:48,1,96,8|12,0:0|0:0,0:0:0:0:
424,320,62600,6,0,L|440:208,1,96,0|8,0:0|0:0,0:0:0:0:
304,80,62912,2,0,L|312:192,1,96,0|8,0:0|0:0,0:0:0:0:
64,256,63225,2,0,L|160:256,2,96,0|8|0,1:0|0:0|0:0,0:0:0:0:
224,184,63693,2,0,L|264:184,2,32,8|0|0,0:0|0:0|0:0,0:0:0:0:
56,96,63850,6,0,L|160:96,1,96,0|8,1:0|0:0,0:0:0:0:
256,40,64162,1,8,0:0:0:0:
368,160,64318,2,0,L|256:160,1,96,0|4,1:0|0:3,0:0:0:0:
424,96,64631,1,8,0:0:0:0:
272,224,64787,2,0,L|200:224,1,48,0|4,1:0|0:3,0:0:0:0:
272,224,64943,2,0,L|328:224,1,48,8|8,0:0|0:0,0:0:0:0:
48,296,65100,5,4,1:2:0:0:
240,296,65412,1,8,0:1:0:0:
432,288,65725,1,8,0:1:0:0:
240,280,66037,1,8,0:1:0:0:
432,288,66350,1,8,0:1:0:0:
240,312,66662,1,8,0:1:0:0:
48,304,66975,1,8,0:1:0:0:
240,304,67287,1,8,0:1:0:0:
56,256,67600,6,0,L|40:48,1,192,8|8,0:1|0:1,0:0:0:0:
200,112,68225,2,0,P|280:144|392:112,1,192,8|8,0:1|0:1,0:0:0:0:
192,344,68850,2,0,L|176:136,1,192,8|0,0:1|0:0,0:0:0:0:
392,24,69475,2,0,L|376:224,1,192,8|0,0:1|0:0,0:0:0:0:
128,320,70100,6,0,L|112:224,1,96,2|0,0:0|0:0,0:0:0:0:
256,64,70412,2,0,L|248:168,1,96,8|0,0:1|0:0,0:0:0:0:
384,168,70725,2,0,L|368:304,1,96,8|0,0:1|0:0,0:0:0:0:
240,256,71037,2,0,L|224:376,1,96,8|0,0:1|0:0,0:0:0:0:
344,232,71350,6,0,L|336:112,1,96,8|0,0:1|0:0,0:0:0:0:
208,96,71662,2,0,L|192:-16,1,96,8|0,0:1|0:0,0:0:0:0:
312,136,71975,2,0,L|296:256,1,96,8|0,0:1|0:0,0:0:0:0:
144,240,72287,2,0,L|128:344,1,96,8|0,0:1|0:0,0:0:0:0:
272,328,72600,6,0,L|368:312,1,96,8|0,0:1|0:0,0:0:0:0:
184,240,72912,2,0,L|80:224,1,96,8|0,0:1|0:0,0:0:0:0:
280,184,73225,2,0,L|408:176,1,96,8|0,0:1|0:0,0:0:0:0:
104,120,73537,2,0,L|80:16,1,96,8|0,0:1|0:0,0:0:0:0:
488,216,73850,5,2,0:0:0:0:
144,312,74943,6,0,P|96:232|176:144,1,192,12|8,0:0|0:0,0:0:0:0:
440,48,75412,2,0,L|328:48,1,96,0|0,1:0|0:0,0:0:0:0:
240,112,75725,1,8,0:0:0:0:
344,264,75881,2,0,L|352:144,1,96,8|0,0:0|1:0,0:0:0:0:
112,336,76193,6,0,L|336:352,1,192,0|8,0:0|0:0,0:0:0:0:
456,280,76662,1,0,1:0:0:0:
320,224,76818,2,0,L|312:152,1,48,0|0,0:0|0:0,0:0:0:0:
480,32,76975,2,0,L|464:136,1,96,8|8,0:0|0:0,0:0:0:0:
352,176,77287,1,0,1:0:0:0:
96,136,77443,6,0,L|32:64,1,96,12|0,0:0|0:0,0:0:0:0:
216,184,77756,2,0,L|200:280,1,96,8|0,0:0|1:0,0:0:0:0:
152,304,77990,1,0,0:0:0:0:
344,264,78068,2,0,L|400:272,1,48,8|0,0:0|0:0,0:0:0:0:
216,184,78225,2,0,L|112:192,2,96,8|8|0,0:0|0:0|1:0,0:0:0:0:
328,176,78693,1,8,0:0:0:0:
184,136,78850,5,8,0:0:0:0:
464,240,79006,2,0,L|360:240,1,96,0|8,1:0|0:0,0:0:0:0:
80,304,79318,2,0,L|208:304,1,96,0|8,1:0|0:0,0:0:0:0:
464,240,79631,2,0,L|360:240,1,96,0|8,1:0|0:0,0:0:0:0:
96,128,79943,6,0,L|320:128,1,192,12|8,0:0|0:0,0:0:0:0:
40,232,80412,2,0,L|176:232,2,96,0|8|0,1:0|0:0|1:0,0:0:0:0:
456,256,80881,1,0,0:0:0:0:
200,152,81037,2,0,L|304:152,1,96,8|8,0:0|0:0,0:0:0:0:
344,176,81271,1,0,0:0:0:0:
152,232,81350,6,0,L|48:232,1,96,0|0,1:0|0:0,0:0:0:0:
368,104,81662,2,0,L|472:104,1,96,0|0,1:0|0:0,0:0:0:0:
304,176,81975,2,0,L|200:176,1,96,8|8,0:0|0:0,0:0:0:0:
344,224,82287,1,0,1:0:0:0:
80,336,82443,6,0,P|40:256|96:168,1,192,12|0,0:0|0:0,0:0:0:0:
312,88,82912,2,0,L|448:96,1,96,0|8,1:0|0:0,0:0:0:0:
240,232,83225,2,0,L|232:112,1,96,0|8,1:0|0:0,0:0:0:0:
384,80,83537,1,0,0:0:0:0:
272,32,83693,2,0,L|208:40,1,48,8|0,0:0|0:0,0:0:0:0:
464,352,83850,6,0,L|472:240,1,96,8|4,0:0|0:3,0:0:0:0:
424,224,84084,1,0,1:0:0:0:
224,176,84162,2,0,L|176:176,1,48,0|0,1:0|1:0,0:0:0:0:
360,104,84318,2,0,L|408:104,1,48,8|8,0:0|0:0,0:0:0:0:
176,40,84475,1,0,1:0:0:0:
128,72,84553,1,4,0:3:0:0:
128,128,84631,1,4,0:3:0:0:
176,168,84709,1,4,0:3:0:0:
344,256,84787,2,0,L|400:272,1,48,4|4,0:3|0:3,0:0:0:0:
144,344,84943,2,0,L|128:280,1,48,12|0,0:0|0:0,0:0:0:0:
320,152,85100,6,0,L|424:160,1,96,0|8,0:0|0:0,0:0:0:0:
128,64,85412,2,0,L|352:80,1,192,0|8,1:0|0:0,0:0:0:0:
192,256,85881,2,0,L|184:160,1,96,8|0,0:0|1:0,0:0:0:0:
456,328,86193,6,0,L|224:336,1,192,0|8,0:0|0:0,0:0:0:0:
136,256,86662,1,0,1:0:0:0:
248,192,86818,1,0,0:0:0:0:
251,144,86896,1,0,0:0:0:0:
255,96,86974,1,8,0:0:0:0:
96,32,87131,2,0,L|104:160,1,96,8|0,0:0|1:0,0:0:0:0:
376,336,87443,6,0,P|408:264|352:176,1,192,12|8,0:0|0:0,0:0:0:0:
216,112,87912,2,0,L|112:120,1,96,0|8,1:0|0:0,0:0:0:0:
72,160,88146,1,0,0:0:0:0:
280,312,88225,1,8,0:0:0:0:
308,273,88303,1,0,0:0:0:0:
308,226,88381,1,8,0:0:0:0:
281,188,88459,1,0,0:0:0:0:
144,112,88537,2,0,L|72:112,2,48,0|0|8,1:0|0:0|0:0,0:0:0:0:
288,120,88850,5,8,0:0:0:0:
32,248,89006,2,0,L|168:248,1,96,0|8,1:0|0:0,0:0:0:0:
472,160,89318,2,0,L|368:160,1,96,0|8,1:0|0:0,0:0:0:0:
56,80,89631,2,0,L|152:80,1,96,0|8,1:0|0:0,0:0:0:0:
376,208,89943,6,0,P|304:184|176:216,1,192,12|8,0:0|0:0,0:0:0:0:
480,344,90412,2,0,L|488:248,1,96,0|8,1:0|0:0,0:0:0:0:
96,96,90725,2,0,L|104:208,1,96,0|0,1:0|0:0,0:0:0:0:
232,248,91037,1,8,0:0:0:0:
120,320,91193,2,0,L|48:312,1,48,8|0,0:0|0:0,0:0:0:0:
232,248,91350,6,0,L|368:240,1,96,0|0,1:0|0:0,0:0:0:0:
184,168,91662,2,0,L|304:160,1,96,0|0,1:0|0:0,0:0:0:0:
96,88,91975,2,0,L|88:224,1,96,8|8,0:0|0:0,0:0:0:0:
192,256,92287,1,0,1:0:0:0:
480,152,92443,6,0,L|264:136,1,192,12|8,0:0|0:0,0:0:0:0:
40,288,92912,2,0,L|176:280,1,96,0|8,1:0|0:0,0:0:0:0:
448,336,93225,2,0,L|344:320,1,96,0|8,1:0|0:0,0:0:0:0:
232,296,93537,1,0,0:0:0:0:
336,232,93693,2,0,L|360:168,1,48,8|0,0:0|0:0,0:0:0:0:
160,104,93850,6,0,L|64:112,2,96,0|0|0,0:0|0:0|0:0,0:0:0:0:
304,224,94318,2,0,L|192:208,2,96,4|0|8,0:3|0:0|0:0,0:0:0:0:
416,184,94787,1,0,1:0:0:0:
444,145,94865,1,8,0:3:0:0:
444,98,94943,1,0,0:0:0:0:
417,60,95021,1,0,0:0:0:0:
144,24,95100,5,12,0:0:0:0:
288,80,95412,2,0,L|280:184,1,72.0000027465821,0|8,0:0|0:0,0:0:0:0:
160,192,95725,2,0,L|184:360,1,144.000005493164,0|8,0:0|0:0,0:0:0:0:
424,200,96350,6,0,L|208:224,2,216.000008239746,0|8|8,1:0|0:0|0:0,0:0:0:0:
256,48,97600,2,0,P|224:112|256:192,1,144.000005493164,8|0,0:0|0:0,0:0:0:0:
352,224,98068,1,8,0:0:0:0:
240,288,98225,2,0,L|168:296,1,72.0000027465821,0|0,0:0|0:0,0:0:0:0:
328,344,98537,2,0,L|416:352,1,72.0000027465821,8|0,0:0|0:0,0:0:0:0:
80,344,98850,6,0,P|64:272|88:192,1,144.000005493164,0|8,1:0|0:0,0:0:0:0:
160,176,99266,1,8,0:0:0:0:
232,160,99370,1,0,1:0:0:0:
312,144,99475,2,0,L|488:152,1,144.000005493164,0|0,1:0|0:0,0:0:0:0:
72,80,100100,6,0,L|256:56,1,144.000005493164,12|0,0:0|0:0,0:0:0:0:
288,96,100568,1,8,0:0:0:0:
152,320,100881,2,0,L|144:216,1,72.0000027465821,0|8,0:0|0:0,0:0:0:0:
424,320,101350,6,0,L|192:336,2,216.000008239746,0|0|8,1:0|1:0|0:0,0:0:0:0:
192,176,102600,6,0,L|344:192,1,144.000005493164,12|0,0:0|0:0,0:0:0:0:
400,256,103068,1,8,0:0:0:0:
224,120,103381,2,0,L|312:128,1,72.0000027465821,0|8,0:0|0:0,0:0:0:0:
64,264,103850,6,0,L|288:240,2,216.000008239746,0|0|8,1:0|1:0|0:0,0:0:0:0:
184,304,104943,1,8,0:0:0:0:
440,240,105100,6,0,P|464:184|416:40,1,216.000008239746,12|8,0:0|0:0,0:0:0:0:
200,32,106037,2,0,L|120:32,1,72.0000027465821,8|0,0:0|0:0,0:0:0:0:
288,136,106350,6,0,L|296:288,1,144.000005493164,0|0,1:0|0:0,0:0:0:0:
160,336,106818,1,8,0:0:0:0:
384,200,107131,2,0,L|464:208,1,72.0000027465821,0|8,0:0|0:0,0:0:0:0:
160,56,107600,6,0,P|112:144|152:248,1,216.000008239746,12|8,0:0|0:0,0:0:0:0:
336,312,108537,2,0,L|432:304,1,72.0000027465821,8|0,0:0|0:0,0:0:0:0:
272,240,108850,6,0,L|120:224,1,144.000005493164,0|0,1:0|0:0,0:0:0:0:
40,264,109318,1,8,0:0:0:0:
272,176,109475,2,0,L|280:80,1,72.0000027465821,0|8,1:0|0:0,0:0:0:0:
168,40,109787,1,0,1:0:0:0:
149,70,109865,1,8,0:0:0:0:
144,105,109943,1,8,0:0:0:0:
153,140,110021,1,8,0:0:0:0:
328,272,110100,6,0,L|496:272,1,144.000005493164,12|0,0:0|0:0,0:0:0:0:
400,272,110568,1,8,0:0:0:0:
208,176,110881,2,0,L|312:176,1,72.0000027465821,0|8,0:0|0:0,0:0:0:0:
56,96,111350,6,0,L|272:96,2,216.000008239746,0|0|8,1:0|1:0|0:0,0:0:0:0:
320,304,112600,6,0,L|336:152,1,144.000005493164,12|0,0:0|0:0,0:0:0:0:
216,96,113068,1,8,0:0:0:0:
432,56,113537,2,0,L|424:152,1,72.0000027465821,8|0,0:0|0:0,0:0:0:0:
152,344,113850,6,0,P|112:264|184:144,1,216.000008239746,0|0,1:0|1:0,0:0:0:0:
288,120,114475,2,0,L|368:120,1,72.0000027465821,0|8,0:0|0:0,0:0:0:0:
224,192,114787,1,4,0:3:0:0:
184,224,114865,1,0,0:0:0:0:
180,260,114943,1,0,1:0:0:0:
224,288,115021,1,0,0:0:0:0:
464,336,115100,6,0,L|240:352,2,216.000008239746,12|8|8,0:0|0:0|0:0,0:0:0:0:
184,256,116350,6,0,L|168:88,1,144.000005493164,0|0,1:0|0:0,0:0:0:0:
304,32,116818,1,0,1:0:0:0:
112,128,117131,2,0,L|120:232,1,72.0000027465821,0|8,0:0|0:0,0:0:0:0:
432,296,117600,6,0,L|200:320,1,216.000008239746,12|8,0:0|0:0,0:0:0:0:
128,264,118225,2,0,L|112:160,1,72.0000027465821,0|0,0:0|0:0,0:0:0:0:
264,72,118537,2,0,L|256:160,1,72.0000027465821,8|0,0:0|0:0,0:0:0:0:
32,40,118850,6,0,L|128:48,1,72.0000027465821,0|8,1:0|0:0,0:0:0:0:
272,72,119318,1,8,0:0:0:0:
48,176,119475,2,0,L|56:272,1,72.0000027465821,0|8,1:0|0:0,0:0:0:0:
168,240,119787,2,0,L|176:328,1,72.0000027465821,0|8,1:0|0:0,0:0:0:0:
456,104,120100,6,0,L|280:112,1,144.000005493164,12|0,0:0|0:0,0:0:0:0:
192,176,120568,1,8,0:0:0:0:
304,320,120725,2,0,L|296:224,1,72.0000027465821,0|8,1:0|0:0,0:0:0:0:
152,192,121037,2,0,L|160:88,1,72.0000027465821,8|8,0:0|0:0,0:0:0:0:
464,48,121350,6,0,L|288:56,1,144.000005493164,0|0,0:0|0:0,0:0:0:0:
216,136,121818,1,8,0:0:0:0:
336,224,121975,2,0,L|240:232,1,72.0000027465821,0|8,1:0|0:0,0:0:0:0:
112,312,122287,2,0,L|208:304,1,72.0000027465821,8|8,0:0|0:0,0:0:0:0:
232,336,122521,1,0,0:0:0:0:
40,248,122600,6,0,P|8:176|56:128,1,144.000005493164,0|0,0:0|0:0,0:0:0:0:
152,88,123068,1,8,0:0:0:0:
248,168,123225,2,0,L|336:168,1,72.0000027465821,0|8,1:0|0:0,0:0:0:0:
192,232,123537,2,0,L|112:232,1,72.0000027465821,8|8,0:0|0:0,0:0:0:0:
416,336,123850,6,0,P|448:280|400:208,1,144.000005493164,0|0,0:0|0:0,0:0:0:0:
304,192,124318,1,8,0:0:0:0:
408,136,124475,2,0,L|424:48,1,72.0000027465821,0|8,1:0|0:0,0:0:0:0:
384,32,124709,1,0,0:0:0:0:
232,80,124787,2,0,L|128:72,1,72.0000027465821,8|8,0:0|0:0,0:0:0:0:
440,328,125100,6,0,L|456:232,1,72.0000027465821,0|8,0:0|0:0,0:0:0:0:
320,192,125412,2,0,L|304:112,1,72.0000027465821,0|8,0:0|0:0,0:0:0:0:
72,136,125725,2,0,L|48:40,1,72.0000027465821,0|8,1:0|0:0,0:0:0:0:
184,176,126037,1,8,0:0:0:0:
72,216,126193,1,8,0:0:0:0:
376,288,126350,6,0,L|472:296,1,72.0000027465821,0|8,0:0|0:0,0:0:0:0:
320,208,126662,2,0,L|240:216,1,72.0000027465821,0|8,0:0|0:0,0:0:0:0:
464,168,126975,2,0,L|488:80,2,72.0000027465821,0|8|8,1:0|0:0|0:0,0:0:0:0:
344,280,127443,2,0,L|288:272,1,36.0000013732911,8|0,0:0|0:0,0:0:0:0:
128,184,127600,6,0,L|48:192,1,72.0000027465821,0|8,0:0|0:0,0:0:0:0:
208,112,127912,2,0,L|288:120,1,72.0000027465821,0|0,0:0|0:0,0:0:0:0:
312,160,128146,1,0,0:0:0:0:
80,328,128225,2,0,L|64:240,1,72.0000027465821,0|8,1:0|0:0,0:0:0:0:
232,184,128537,2,0,L|240:88,1,72.0000027465821,0|8,0:0|0:0,0:0:0:0:
200,80,128771,1,0,0:0:0:0:
384,208,128850,6,0,L|432:208,1,36.0000013732911,8|0,0:0|0:0,0:0:0:0:
256,296,129006,2,0,L|200:296,1,36.0000013732911,8|0,0:0|1:0,0:0:0:0:
448,344,129162,1,0,1:0:0:0:
488,320,129240,1,0,1:0:0:0:
488,264,129318,1,8,0:0:0:0:
440,240,129396,1,8,0:0:0:0:
216,216,129475,6,0,L|168:216,1,36.0000013732911,0|0,1:0|1:0,0:0:0:0:
216,216,129631,2,0,L|256:216,1,36.0000013732911,4|4,0:3|0:3,0:0:0:0:
176,168,129787,2,0,L|168:128,1,36.0000013732911,4|4,0:3|0:3,0:0:0:0:
112,112,129943,2,0,L|96:64,1,36.0000013732911,4|8,0:3|0:0,0:0:0:0:
360,96,130100,6,0,L|448:80,1,72.0000027465821,4|8,0:0|0:0,0:0:0:0:
360,176,130568,1,8,0:0:0:0:
120,296,130725,2,0,L|32:280,1,72.0000027465821,0|0,1:0|0:0,0:0:0:0:
208,248,131037,2,0,L|304:264,1,72.0000027465821,8|8,0:0|0:0,0:0:0:0:
152,176,131350,5,8,0:0:0:0:
416,152,131506,2,0,L|424:0,1,144.000005493164,8|8,0:0|0:0,0:0:0:0:
136,88,131975,2,0,L|136:176,1,72.0000027465821,0|8,1:0|0:0,0:0:0:0:
176,192,132209,1,0,0:0:0:0:
352,288,132287,2,0,L|432:288,1,72.0000027465821,8|8,0:0|0:0,0:0:0:0:
168,344,132600,6,0,L|344:344,1,144.000005493164,0|0,0:0|0:0,0:0:0:0:
192,296,133068,1,8,0:0:0:0:
312,240,133225,2,0,L|320:136,1,72.0000027465821,0|8,1:0|0:0,0:0:0:0:
184,88,133537,1,0,0:0:0:0:
296,40,133693,2,0,L|328:40,2,24.0000009155274,8|0|0,0:0|0:0|0:0,0:0:0:0:
80,168,133850,6,0,L|176:168,2,72.0000027465821,0|8|8,1:0|0:0|0:0,0:0:0:0:
216,232,134318,2,0,L|304:232,1,72.0000027465821,4|8,0:3|0:0,0:0:0:0:
152,296,134631,1,8,0:0:0:0:
288,336,134787,2,0,L|352:336,1,36.0000013732911,0|4,1:0|0:3,0:0:0:0:
288,336,134943,2,0,L|224:336,1,36.0000013732911,8|8,0:0|0:0,0:0:0:0:
464,296,135100,5,4,1:2:0:0:
272,296,135412,1,8,0:1:0:0:
80,288,135725,1,8,0:1:0:0:
272,280,136037,1,8,0:1:0:0:
440,280,136350,1,8,0:1:0:0:
272,280,136662,1,8,0:1:0:0:
88,280,136975,1,8,0:1:0:0:
272,280,137287,1,8,0:1:0:0:
456,256,137600,6,0,P|472:192|448:112,1,144.000005493164,8|8,0:1|0:1,0:0:0:0:
296,40,138225,2,0,P|272:88|304:184,1,144.000005493164,8|8,0:1|0:1,0:0:0:0:
448,288,138850,2,0,L|304:288,1,144.000005493164,8|0,0:1|0:0,0:0:0:0:
160,168,139475,2,0,L|328:176,1,144.000005493164,8|0,0:1|0:0,0:0:0:0:
384,320,140100,6,0,L|400:224,1,96,2|0,0:0|0:0,0:0:0:0:
256,64,140412,2,0,L|264:168,1,96,8|0,0:1|0:0,0:0:0:0:
128,168,140725,2,0,L|144:304,1,96,8|0,0:1|0:0,0:0:0:0:
272,256,141037,2,0,L|288:376,1,96,8|0,0:1|0:0,0:0:0:0:
168,232,141350,6,0,L|176:112,1,96,8|0,0:1|0:0,0:0:0:0:
304,96,141662,2,0,L|320:-16,1,96,8|0,0:1|0:0,0:0:0:0:
200,136,141975,2,0,L|216:256,1,96,8|0,0:1|0:0,0:0:0:0:
368,240,142287,2,0,L|384:344,1,96,8|0,0:1|0:0,0:0:0:0:
240,328,142600,6,0,L|144:312,1,96,8|0,0:1|0:0,0:0:0:0:
328,240,142912,2,0,L|432:224,1,96,8|0,0:1|0:0,0:0:0:0:
192,160,143225,1,8,0:1:0:0:
304,160,143381,1,0,0:0:0:0:
160,112,143537,1,8,0:1:0:0:
432,120,143693,1,0,0:0:0:0:
24,216,143850,5,2,0:0:0:0:
272,336,144475,2,0,P|224:280|304:144,1,240,0|0,0:0|0:0,0:0:0:0:
64,64,144943,6,0,L|296:80,1,192,12|8,0:0|0:0,0:0:0:0:
496,208,145412,1,0,1:0:0:0:
368,272,145568,1,0,0:0:0:0:
320,268,145646,1,0,0:0:0:0:
272,265,145724,1,8,0:0:0:0:
440,224,145881,1,8,0:0:0:0:
136,192,146037,1,0,1:0:0:0:
408,56,146193,6,0,L|192:64,1,192,0|8,0:0|0:0,0:0:0:0:
488,160,146662,1,0,1:0:0:0:
376,224,146819,2,0,L|320:216,1,48,0|0,0:0|0:0,0:0:0:0:
136,312,146975,2,0,L|240:304,2,96,8|8|0,0:0|0:0|1:0,0:0:0:0:
376,224,147443,6,0,L|384:120,1,96,12|0,0:0|0:0,0:0:0:0:
136,32,147756,2,0,L|144:136,1,96,8|0,0:0|1:0,0:0:0:0:
272,160,148068,2,0,L|320:144,1,48,8|0,0:0|0:0,0:0:0:0:
160,320,148225,2,0,L|48:328,1,96,8|8,0:0|0:0,0:0:0:0:
440,200,148537,2,0,L|456:96,1,96,0|8,1:0|0:0,0:0:0:0:
344,32,148850,5,8,0:0:0:0:
48,224,149006,2,0,L|168:208,1,96,0|8,1:0|0:0,0:0:0:0:
440,296,149318,2,0,L|328:280,1,96,0|8,1:0|0:0,0:0:0:0:
48,224,149631,2,0,L|184:200,1,96,0|8,1:0|0:0,0:0:0:0:
408,208,149943,6,0,L|184:176,1,192,12|8,0:0|0:0,0:0:0:0:
464,336,150412,2,0,L|480:240,1,96,0|8,1:0|0:0,0:0:0:0:
144,64,150725,2,0,L|152:160,1,96,0|0,1:0|0:0,0:0:0:0:
256,224,151037,1,8,0:0:0:0:
128,264,151193,1,8,0:0:0:0:
432,304,151350,6,0,L|448:200,1,96,0|0,1:0|0:0,0:0:0:0:
144,64,151662,2,0,L|152:176,1,96,0|0,1:0|0:0,0:0:0:0:
200,192,151896,1,0,0:0:0:0:
384,272,151975,2,0,L|488:272,1,96,8|8,0:0|0:0,0:0:0:0:
120,320,152287,1,0,1:0:0:0:
456,336,152443,6,0,P|512:264|432:192,1,192,12|8,0:0|0:0,0:0:0:0:
192,136,152912,2,0,L|96:136,1,96,0|8,1:0|0:0,0:0:0:0:
448,56,153225,2,0,L|344:56,2,96,0|8|0,1:0|0:0|0:0,0:0:0:0:
304,136,153693,2,0,L|248:136,1,48,8|0,0:0|0:0,0:0:0:0:
424,192,153850,6,0,L|432:320,1,96,8|4,0:0|0:3,0:0:0:0:
384,336,154084,1,0,1:0:0:0:
168,280,154162,2,0,L|104:280,1,48,0|0,1:0|1:0,0:0:0:0:
320,208,154318,2,0,L|384:208,1,48,8|8,0:0|0:0,0:0:0:0:
160,160,154475,1,0,1:0:0:0:
116,141,154553,1,4,0:3:0:0:
91,101,154631,1,4,0:3:0:0:
92,54,154709,1,4,0:3:0:0:
296,16,154787,2,0,L|352:16,1,48,4|4,0:3|0:3,0:0:0:0:
192,80,154943,2,0,L|128:80,1,48,12|0,0:0|0:0,0:0:0:0:
336,152,155100,6,0,L|456:152,1,96
136,272,155412,6,0,L|336:272,1,192,0|8,1:0|0:0,0:0:0:0:
216,272,155881,1,8,0:0:0:0:
480,200,156037,2,0,L|384:200,1,96,0|0,1:0|0:0,0:0:0:0:
336,232,156271,1,0,0:0:0:0:
120,144,156350,5,0,0:0:0:0:
240,144,156506,1,8,0:0:0:0:
120,144,156662,2,0,L|16:144,1,96,0|0,1:0|0:0,0:0:0:0:
208,80,156975,2,0,L|320:80,1,96,8|8,0:0|0:0,0:0:0:0:
48,32,157287,1,0,1:0:0:0:
384,256,157443,6,0,L|176:256,1,192,12|8,0:0|0:0,0:0:0:0:
464,184,157912,2,0,L|488:72,1,96,0|8,1:0|0:0,0:0:0:0:
440,48,158146,1,8,0:0:0:0:
208,120,158225,1,8,0:0:0:0:
160,160,158303,1,0,0:0:0:0:
160,208,158381,1,8,0:0:0:0:
208,248,158459,1,0,0:0:0:0:
400,344,158537,2,0,L|496:344,1,96,0|8,1:0|0:0,0:0:0:0:
344,296,158850,5,8,0:0:0:0:
80,232,159006,2,0,L|64:96,1,96,0|8,1:0|0:0,0:0:0:0:
384,40,159318,2,0,L|376:144,1,96,0|8,1:0|0:0,0:0:0:0:
80,232,159631,2,0,L|72:128,1,96,0|8,1:0|0:0,0:0:0:0:
336,336,159943,6,0,P|392:264|312:200,1,192,12|8,0:0|0:0,0:0:0:0:
64,104,160412,2,0,L|176:104,1,96,0|8,1:0|0:0,0:0:0:0:
416,200,160725,2,0,L|296:200,1,96,0|0,1:0|0:0,0:0:0:0:
192,288,161037,2,0,L|312:288,1,96,8|8,0:0|0:0,0:0:0:0:
64,232,161350,6,0,L|48:120,1,96,0|0,1:0|0:0,0:0:0:0:
360,80,161662,2,0,L|144:88,1,192,0|8,1:0|0:0,0:0:0:0:
456,288,162131,2,0,L|480:176,1,96,8|0,0:0|1:0,0:0:0:0:
152,360,162443,6,0,L|376:336,1,192,12|8,0:0|0:0,0:0:0:0:
64,280,162912,2,0,L|56:160,1,96,0|8,1:0|0:0,0:0:0:0:
104,144,163146,1,0,0:0:0:0:
304,64,163225,2,0,L|408:80,1,96,0|8,1:0|0:0,0:0:0:0:
264,136,163537,2,0,L|392:152,1,96,0|8,0:0|0:0,0:0:0:0:
312,144,163771,1,0,0:0:0:0:
120,224,163850,6,0,L|8:232,2,96,0|8|8,1:0|0:0|0:0,0:0:0:0:
264,280,164318,2,0,L|376:296,2,96,4|8|8,0:3|0:0|0:0,0:0:0:0:
120,200,164787,2,0,L|112:144,1,48,0|0,1:0|1:0,0:0:0:0:
56,128,164943,2,0,L|48:72,1,48,8|8,0:0|0:0,0:0:0:0:
288,64,165100,6,0,P|344:144|288:240,1,216.000008239746,12|8,0:0|0:0,0:0:0:0:
48,312,166037,1,8,0:0:0:0:
192,232,166350,6,0,L|424:240,1,216.000008239746,0|8,1:0|0:0,0:0:0:0:
136,184,167287,1,8,0:0:0:0:
424,32,167600,6,0,P|464:96|416:224,1,216.000008239746,8|8,0:0|0:0,0:0:0:0:
168,296,168537,1,8,0:0:0:0:
376,192,168850,6,0,L|152:200,2,216.000008239746,0|0|0,1:0|1:0|0:0,0:0:0:0:
496,184,169943,1,0,1:0:0:0:
176,56,170100,6,0,P|128:112|184:240,1,216.000008239746,8|8,0:0|0:0,0:0:0:0:
384,304,171037,1,8,0:0:0:0:
152,240,171350,6,0,L|392:232,1,216.000008239746,0|8,1:0|0:0,0:0:0:0:
96,192,172287,1,8,0:0:0:0:
256,48,172600,6,0,B|288:160|288:160|248:288,1,216.000008239746,8|8,0:0|0:0,0:0:0:0:
88,360,173537,1,8,0:0:0:0:
248,296,173850,6,0,L|256:232,1,36.0000013732911,4|0,0:3|3:0,0:0:0:0:
200,224,174006,2,0,L|192:160,1,36.0000013732911,0|0,1:0|1:0,0:0:0:0:
384,160,174162,1,0,1:0:0:0:
432,136,174240,1,8,0:0:0:0:
432,88,174318,1,0,1:0:0:0:
384,64,174396,1,4,0:3:0:0:
184,40,174475,2,0,L|144:40,1,36.0000013732911,0|4,1:0|0:3,0:0:0:0:
304,128,174631,2,0,L|344:128,1,36.0000013732911,8|8,0:0|0:0,0:0:0:0:
168,176,174787,1,4,0:3:0:0:
133,182,174865,1,4,0:3:0:0:
107,206,174943,1,8,0:0:0:0:
100,241,175021,1,8,0:0:0:0:
360,344,175100,6,0,P|424:288|336:208,1,216.000008239746,12|8,0:0|0:0,0:0:0:0:
192,176,176037,2,0,L|280:176,1,72.0000027465821,8|0,0:0|0:0,0:0:0:0:
160,96,176350,6,0,L|376:96,1,216.000008239746,0|8,1:0|0:0,0:0:0:0:
200,200,177287,2,0,L|96:200,1,72.0000027465821,8|0,0:0|0:0,0:0:0:0:
288,264,177600,6,0,L|512:264,1,216.000008239746,8|8,0:0|0:0,0:0:0:0:
344,336,178537,2,0,L|320:248,1,72.0000027465821,8|0,0:0|0:0,0:0:0:0:
232,232,178850,6,0,L|256:56,1,144.000005493164,0|0,1:0|0:0,0:0:0:0:
384,32,179318,2,0,L|368:96,1,36.0000013732911,8|8,0:0|0:0,0:0:0:0:
184,144,179475,2,0,L|80:160,1,72.0000027465821,0|8,1:0|0:0,0:0:0:0:
288,208,179787,2,0,L|384:224,1,72.0000027465821,0|8,0:0|0:0,0:0:0:0:
128,352,180100,6,0,P|96:288|168:168,1,216.000008239746,12|8,0:0|0:0,0:0:0:0:
328,128,181037,2,0,L|424:136,1,72.0000027465821,8|0,0:0|0:0,0:0:0:0:
264,192,181350,6,0,P|208:240|280:352,1,216.000008239746,0|8,1:0|0:0,0:0:0:0:
160,112,182287,2,0,L|80:120,1,72.0000027465821,8|0,0:0|0:0,0:0:0:0:
240,56,182600,6,0,L|456:72,1,216.000008239746,8|8,0:0|0:0,0:0:0:0:
224,240,183537,2,0,L|208:160,1,72.0000027465821,8|0,0:0|0:0,0:0:0:0:
320,112,183850,5,0,1:0:0:0:
96,64,184006,2,0,P|64:112|104:208,1,144.000005493164,0|8,1:0|0:0,0:0:0:0:
200,272,184475,2,0,L|288:264,1,72.0000027465821,0|8,1:0|0:0,0:0:0:0:
384,320,184787,2,0,L|464:312,1,72.0000027465821,8|0,0:0|0:0,0:0:0:0:
496,336,185021,1,0,0:0:0:0:
160,184,185100,5,12,0:0:0:0:
256,192,195100,12,4,196975,1:3:0:0:
40,320,197600,6,0,L|200:312,2,144.000005493164,12|8|0,0:0|0:0|1:0,0:0:0:0:
240,240,198537,2,0,L|400:248,2,144.000005493164,8|8|8,0:0|0:0|0:0,0:0:0:0:
488,104,199475,2,0,L|344:120,1,144.000005493164,0|8,1:0|0:0,0:0:0:0:
136,184,200100,5,8,0:0:0:0:
272,200,200412,1,8,0:0:0:0:
408,216,200725,1,0,1:0:0:0:
224,328,201037,2,0,L|208:168,1,144.000005493164,8|8,0:0|0:0,0:0:0:0:
344,96,201662,1,8,0:0:0:0:
120,32,201975,2,0,L|128:128,1,72.0000027465821,0|0,1:0|0:0,0:0:0:0:
224,160,202287,1,8,0:0:0:0:
440,288,202443,6,0,L|264:296,1,144.000005493164,0|0,0:0|0:0,0:0:0:0:
200,240,202912,1,8,0:0:0:0:
368,200,203225,2,0,L|376:48,1,144.000005493164,0|8,1:0|0:0,0:0:0:0:
168,96,203850,2,0,L|184:256,1,144.000005493164,8|8,0:0|0:0,0:0:0:0:
368,296,204475,1,0,0:0:0:0:
256,248,204631,2,0,L|160:256,1,72.0000027465821,0|8,0:0|0:0,0:0:0:0:
424,208,204943,6,0,P|448:120|392:64,1,144.000005493164,0|0,0:0|0:0,0:0:0:0:
320,32,205412,1,8,0:0:0:0:
152,200,205725,2,0,L|320:192,1,144.000005493164,0|8,1:0|0:0,0:0:0:0:
96,312,206350,5,8,0:0:0:0:
216,240,206506,2,0,L|224:176,1,36.0000013732911,0|0,0:0|1:0,0:0:0:0:
56,88,206662,1,0,1:0:0:0:
192,24,206818,2,0,L|256:32,1,36.0000013732911,0|0,0:0|1:0,0:0:0:0:
416,112,206975,1,0,1:0:0:0:
456,136,207053,1,4,0:3:0:0:
456,184,207131,1,4,0:3:0:0:
424,216,207209,1,4,0:3:0:0:
240,216,207287,2,0,L|176:208,1,36.0000013732911
368,328,207443,2,0,L|424:320,1,36.0000013732911,4|4,0:3|0:3,0:0:0:0:
56,248,207600,6,0,L|48:96,1,144.000005493164,12|8,0:0|0:0,0:0:0:0:
200,32,208225,2,0,L|192:184,1,144.000005493164,0|0,1:0|0:0,0:0:0:0:
344,320,208850,2,0,L|328:168,1,144.000005493164,8|8,0:0|0:0,0:0:0:0:
456,24,209475,2,0,L|448:176,1,144.000005493164,0|8,1:0|0:0,0:0:0:0:
280,272,210100,6,0,L|456:280,2,144.000005493164,8|8|0,0:0|0:0|1:0,0:0:0:0:
144,192,211037,2,0,L|0:208,2,144.000005493164,8|8|8,0:0|0:0|0:0,0:0:0:0:
272,136,211975,2,0,L|416:152,1,144.000005493164,0|8,1:0|0:0,0:0:0:0:
136,40,212600,6,0,L|128:216,1,144.000005493164,0|8,0:0|0:0,0:0:0:0:
272,200,213225,2,0,L|288:352,1,144.000005493164,0|8,1:0|0:0,0:0:0:0:
152,312,213850,1,8,0:0:0:0:
352,224,214162,1,8,0:0:0:0:
152,136,214475,1,0,1:0:0:0:
344,56,214787,1,8,0:0:0:0:
176,32,215100,6,0,L|96:40,1,72.0000027465821,0|8,0:0|0:0,0:0:0:0:
352,120,215412,2,0,L|448:136,1,72.0000027465821,0|8,1:0|0:0,0:0:0:0:
288,184,215725,2,0,L|120:200,1,144.000005493164,0|8,1:0|0:0,0:0:0:0:
304,256,216193,1,0,0:0:0:0:
48,192,216350,6,0,L|32:96,1,72.0000027465821,0|0,1:0|0:0,0:0:0:0:
416,32,216662,2,0,L|400:120,1,72.0000027465821,0|0,1:0|0:0,0:0:0:0:
368,128,216896,1,0,0:0:0:0:
168,248,216975,2,0,L|64:248,1,72.0000027465821,0|0,1:0|0:0,0:0:0:0:
464,320,217287,1,0,1:0:0:0:
152,176,217443,6,0,L|384:168,1,192,12|8,0:0|0:0,0:0:0:0:
56,96,217912,1,0,1:0:0:0:
184,32,218068,2,0,L|240:40,2,48,0|0|8,0:0|0:0|0:0,0:0:0:0:
400,288,218381,2,0,L|416:176,1,96,8|0,0:0|1:0,0:0:0:0:
176,352,218693,6,0,L|392:328,1,192,0|8,0:0|0:0,0:0:0:0:
56,272,219162,1,0,1:0:0:0:
200,184,219318,2,0,L|288:192,1,48,0|0,0:0|0:0,0:0:0:0:
56,80,219475,2,0,L|176:88,2,96,8|8|0,0:0|0:0|1:0,0:0:0:0:
320,40,219943,6,0,P|368:96|312:192,1,192,12|8,0:0|0:0,0:0:0:0:
64,208,220412,2,0,L|80:312,1,96,0|8,1:0|0:0,0:0:0:0:
128,320,220646,1,0,0:0:0:0:
304,256,220725,2,0,L|416:264,1,96,8|8,0:0|0:0,0:0:0:0:
64,168,221037,2,0,L|56:64,1,96,0|8,1:0|0:0,0:0:0:0:
176,16,221350,1,8,0:0:0:0:
480,176,221506,6,0,L|464:296,1,96,0|8,1:0|0:0,0:0:0:0:
88,240,221818,2,0,L|80:344,1,96,0|8,1:0|0:0,0:0:0:0:
448,136,222131,2,0,L|464:32,1,96,0|8,1:0|0:0,0:0:0:0:
160,144,222443,6,0,L|392:160,1,192,12|8,0:0|0:0,0:0:0:0:
80,296,222912,2,0,L|64:168,1,96,0|8,1:0|0:0,0:0:0:0:
464,48,223225,2,0,L|456:168,1,96,0|0,1:0|0:0,0:0:0:0:
328,232,223537,1,8,0:0:0:0:
472,256,223693,1,8,0:0:0:0:
144,176,223850,6,0,L|32:144,1,96,0|0,1:0|0:0,0:0:0:0:
368,240,224162,2,0,L|144:264,1,192,0|8,1:0|0:0,0:0:0:0:
448,168,224631,2,0,L|456:64,1,96,8|0,0:0|1:0,0:0:0:0:
216,64,224943,6,0,P|160:128|232:232,1,192,12|8,0:0|0:0,0:0:0:0:
488,312,225412,2,0,L|368:312,1,96,0|8,1:0|0:0,0:0:0:0:
144,240,225725,2,0,L|32:240,1,96,0|8,1:0|0:0,0:0:0:0:
192,184,226037,1,0,0:0:0:0:
96,112,226193,2,0,L|32:112,1,48,8|0,0:0|0:0,0:0:0:0:
304,64,226350,6,0,L|376:64,1,48,8|0,0:0|0:0,0:0:0:0:
160,128,226506,2,0,L|96:128,1,48,0|0,0:3|1:0,0:0:0:0:
368,336,226662,1,0,1:0:0:0:
398,299,226740,1,0,1:0:0:0:
398,252,226818,1,8,0:0:0:0:
369,216,226896,1,8,0:0:0:0:
200,160,226975,2,0,L|152:152,1,48,0|4,1:0|0:3,0:0:0:0:
320,120,227131,2,0,L|384:112,1,48,4|4,0:3|0:3,0:0:0:0:
104,72,227287,2,0,L|40:56,1,48,4|4,0:3|0:3,0:0:0:0:
360,80,227443,2,0,L|464:72,1,96,12|0,0:0|0:0,0:0:0:0:
80,168,227756,1,0,0:0:0:0:
392,320,227912,6,0,L|160:312,1,192,0|8,1:0|0:0,0:0:0:0:
304,312,228381,1,8,0:0:0:0:
200,240,228537,2,0,L|192:136,1,96,0|0,1:0|0:0,0:0:0:0:
240,104,228771,1,0,0:0:0:0:
448,240,228850,6,0,L|336:232,1,96,0|8,0:0|0:0,0:0:0:0:
48,176,229162,1,0,1:0:0:0:
152,120,229318,2,0,L|264:128,2,96,0|8|8,0:0|0:0|0:0,0:0:0:0:
456,208,229787,1,0,1:0:0:0:
136,320,229943,6,0,L|360:320,1,192,12|8,0:0|0:0,0:0:0:0:
72,248,230412,2,0,L|64:128,1,96,0|8,1:0|0:0,0:0:0:0:
104,112,230646,1,8,0:0:0:0:
320,232,230725,2,0,L|384:232,1,48,8|0,0:0|0:0,0:0:0:0:
200,336,230881,2,0,L|136:336,1,48,8|0,0:0|0:0,0:0:0:0:
328,160,231037,2,0,L|424:160,1,96,0|8,1:0|0:0,0:0:0:0:
280,120,231350,5,8,0:0:0:0:
24,224,231506,2,0,L|128:224,1,96,0|8,1:0|0:0,0:0:0:0:
448,312,231818,2,0,L|344:312,1,96,0|8,1:0|0:0,0:0:0:0:
24,224,232131,2,0,L|128:224,1,96,0|8,1:0|0:0,0:0:0:0:
368,128,232443,6,0,L|168:128,1,192,12|8,0:0|0:0,0:0:0:0:
464,216,232912,2,0,L|360:216,1,96,0|8,1:0|0:0,0:0:0:0:
72,296,233225,2,0,L|192:296,1,96,0|0,1:0|0:0,0:0:0:0:
64,216,233537,1,8,0:0:0:0:
24,176,233615,1,8,0:0:0:0:
24,120,233693,1,8,0:0:0:0:
72,88,233771,1,8,0:0:0:0:
336,136,233850,6,0,L|464:136,1,96,0|8,1:0|0:0,0:0:0:0:
120,256,234162,2,0,L|336:256,1,192,0|8,1:0|0:0,0:0:0:0:
72,168,234631,1,0,1:0:0:0:
424,176,234787,1,0,1:0:0:0:
160,80,234943,6,0,L|360:80,1,192,12|8,0:0|0:0,0:0:0:0:
56,280,235412,2,0,L|48:168,1,96,0|8,1:0|0:0,0:0:0:0:
464,56,235725,2,0,L|448:168,1,96,0|8,1:0|0:0,0:0:0:0:
336,216,236037,1,0,0:0:0:0:
224,288,236193,1,8,0:0:0:0:
192,284,236245,1,8,0:0:0:0:
160,281,236297,1,8,0:0:0:0:
328,272,236350,6,0,L|440:288,2,96,0|8|8,1:0|0:0|0:0,0:0:0:0:
159,190,236818,1,4,0:3:0:0:
254,182,236974,1,8,0:0:0:0:
350,174,237130,1,8,0:0:0:0:
192,112,237287,2,0,L|144:112,1,48,0|0,1:0|1:0,0:0:0:0:
368,56,237443,2,0,L|424:56,1,48,8|8,0:0|0:0,0:0:0:0:
48,72,237600,5,4,1:2:0:0:
184,72,237912,1,8,0:1:0:0:
320,72,238225,1,8,0:1:0:0:
456,72,238537,1,8,0:1:0:0:
320,72,238850,1,8,0:1:0:0:
184,72,239162,1,8,0:1:0:0:
320,72,239475,1,8,0:1:0:0:
184,72,239787,1,8,0:1:0:0:
392,72,240100,5,8,0:1:0:0:
256,72,240412,1,8,0:1:0:0:
120,72,240725,1,8,0:1:0:0:
8,72,241037,1,8,0:1:0:0:
144,72,241350,1,8,0:1:0:0:
280,80,241662,1,8,0:1:0:0:
144,72,241975,1,8,0:1:0:0:
280,72,242287,1,8,0:1:0:0:
464,144,242600,6,8,L|456:240,1,96,8|8,3:0|3:0,0:0:0:0:
328,240,243225,2,8,L|320:336,1,96,8|8,3:0|3:0,0:0:0:0:
192,192,243850,2,8,L|200:88,1,96,8|8,3:0|3:0,0:0:0:0:
352,104,244475,2,8,L|360:0,1,96,8|8,3:0|3:0,0:0:0:0:
224,112,245100,6,0,L|160:120,1,48,0|0,3:0|0:0,0:0:0:0:
288,168,245412,2,0,L|344:176,1,48,0|0,3:0|3:0,0:0:0:0:
136,232,245725,2,0,L|72:240,1,48,0|0,3:0|3:0,0:0:0:0:
384,312,246037,2,0,L|448:320,1,48,0|0,3:0|3:0,0:0:0:0:
32,336,246350,5,2,0:0:0:0:
