osu file format v14

[General]
AudioFilename: audio.mp3
AudioLeadIn: 0
PreviewTime: 74865
Countdown: 0
SampleSet: Soft
StackLeniency: 0.7
Mode: 2
LetterboxInBreaks: 0
WidescreenStoryboard: 0

[Editor]
DistanceSpacing: 0.5
BeatDivisor: 4
GridSize: 4
TimelineZoom: 1

[Metadata]
Title:If You Can't Hang
TitleUnicode:If You Can't Hang
Artist:Sleeping With Sirens
ArtistUnicode:Sleeping With Sirens
Creator:Ascendance
Version:Crystal's Farewell Overdose
Source:
Tags:cant Post Hardcore Kellin Quinn Let's Cheers to This chromoxx clsw crystalseed daiz_ix
BeatmapID:1246000
BeatmapSetID:588564

[Difficulty]
HPDrainRate:6
CircleSize:4
OverallDifficulty:9.5
ApproachRate:9.5
SliderMultiplier:1.6
SliderTickRate:2

[Events]
//Background and Video events
0,0,"UfntLlJ.jpg",0,0
//Break Periods
2,32800,47075
2,185300,194575
//Storyboard Layer 0 (Background)
//Storyboard Layer 1 (Fail)
//Storyboard Layer 2 (Pass)
//Storyboard Layer 3 (Foreground)
//Storyboard Sound Samples

[TimingPoints]
100,312.5,4,2,1,50,1,0
7912,-100,4,2,1,40,0,0
8068,-100,4,2,1,45,0,0
8225,-100,4,2,1,50,0,0
8381,-100,4,2,1,55,0,0
8537,-100,4,2,1,60,0,0
8693,-100,4,2,1,65,0,0
8850,-100,4,2,1,70,0,0
9475,-200,4,2,1,70,0,0
9865,-200,4,2,1,5,0,0
9943,-100,4,2,1,80,0,0
30100,-200,4,2,1,80,0,0
30178,-200,4,2,1,40,0,0
47600,-100,4,2,1,50,0,0
47834,-100,4,2,1,5,0,0
47912,-100,4,2,1,55,0,0
48146,-100,4,2,1,5,0,0
48225,-100,4,2,1,60,0,0
48459,-100,4,2,1,5,0,0
48537,-100,4,2,1,65,0,0
48771,-100,4,2,1,5,0,0
48850,-100,4,2,1,70,0,0
49084,-100,4,2,1,5,0,0
49162,-100,4,2,1,75,0,0
49396,-100,4,2,1,5,0,0
49475,-100,4,2,1,80,0,0
50021,-100,4,2,1,5,0,0
50100,-100,4,2,1,70,0,0
65100,-100,4,2,1,70,0,0
65412,-100,4,2,1,50,0,0
70100,-100,4,2,1,60,0,0
72600,-100,4,2,1,70,0,0
74006,-100,4,2,1,70,0,0
74475,-100,4,2,1,70,0,0
74865,-100,4,2,1,5,0,0
74943,-100,4,2,1,90,0,1
95100,-100,4,2,1,90,0,0
95178,-100,4,2,1,70,0,0
99475,-100,4,2,1,70,0,0
100021,-100,4,2,1,5,0,0
100100,-100,4,2,1,70,0,0
135100,-100,4,2,1,70,0,0
135412,-100,4,2,1,50,0,0
140100,-100,4,2,1,60,0,0
142600,-100,4,2,1,70,0,0
144006,-100,4,2,1,70,0,0
144475,-100,4,2,1,70,0,0
144865,-100,4,2,1,5,0,0
144943,-100,4,2,1,90,0,1
165100,-100,4,2,1,90,0,0
165178,-100,4,2,1,70,0,0
196975,-100,4,2,2,70,0,0
197600,-100,4,2,1,70,0,0
215100,-100,4,2,1,70,0,0
217443,-100,4,2,1,90,0,1
237600,-100,4,2,1,90,0,0
237912,-100,4,2,1,50,0,0
242600,-100,4,2,1,50,0,0
247560,-100,4,2,1,5,0,0

[Colours]
Combo1 : 226,226,255
Combo2 : 200,200,255

[HitObjects]
224,192,7912,5,0,1:0:0:0:
320,192,8068,1,0,1:0:0:0:
176,144,8225,5,0,1:0:0:0:
336,144,8381,1,0,1:0:0:0:
112,96,8537,5,0,1:0:0:0:
352,96,8693,1,0,1:0:0:0:
48,48,8850,5,0,1:0:0:0:
272,240,9162,6,0,L|319:129,1,120,0|0,0:0|0:0,0:0:0:0:
80,48,9475,2,0,P|48:64|80:112,1,100,2|0,0:0|0:0,0:0:0:0:
336,176,9943,6,0,L|176:176,1,160,12|8,0:0|0:0,0:0:0:0:
336,224,10412,2,0,L|256:224,1,80,0|0,1:0|0:0,0:0:0:0:
416,224,10725,2,0,L|432:144,1,80,8|8,0:0|0:0,0:0:0:0:
272,128,11037,2,0,L|352:128,1,80,0|0,1:0|0:0,0:0:0:0:
192,128,11350,5,8,0:0:0:0:
352,128,11506,1,8,0:0:0:0:
192,160,11662,2,0,L|304:160,1,80,0|0,1:0|0:0,0:0:0:0:
432,160,11975,1,8,0:0:0:0:
272,192,12131,2,0,L|352:192,1,80,8|0,0:0|1:0,0:0:0:0:
32,192,12443,6,0,P|16:240|112:288,1,160,12|8,0:0|0:0,0:0:0:0:
256,288,12912,2,0,L|176:288,1,80,0|8,1:0|0:0,0:0:0:0:
336,288,13225,2,0,L|416:288,1,80,8|8,0:0|0:0,0:0:0:0:
256,240,13537,1,0,1:0:0:0:
416,240,13693,1,8,0:0:0:0:
176,240,13850,5,8,0:0:0:0:
416,192,14006,2,0,L|432:112,1,80,0|8,1:0|0:0,0:0:0:0:
96,192,14318,2,0,L|80:112,1,80,0|8,1:0|0:0,0:0:0:0:
464,192,14631,2,0,L|480:112,1,80,0|8,1:0|0:0,0:0:0:0:
256,96,14943,6,0,L|96:96,1,160,12|8,0:0|0:0,0:0:0:0:
336,112,15412,1,0,1:0:0:0:
96,112,15568,1,8,0:0:0:0:
336,192,15725,2,0,L|240:192,1,80,0|0,1:0|0:0,0:0:0:0:
416,192,16037,1,8,0:0:0:0:
256,160,16193,1,8,0:0:0:0:
32,208,16350,5,0,1:0:0:0:
160,208,16506,1,0,0:0:0:0:
16,256,16662,1,0,1:0:0:0:
176,256,16818,1,0,0:0:0:0:
400,256,16975,2,0,L|320:256,2,80,8|8|0,0:0|0:0|1:0,0:0:0:0:
176,256,17443,6,0,P|128:256|80:160,1,160,12|8,0:0|0:0,0:0:0:0:
320,144,17912,1,0,1:0:0:0:
80,128,18068,1,0,0:0:0:0:
400,96,18225,2,0,L|304:96,1,80,0|8,1:0|0:0,0:0:0:0:
160,80,18537,2,0,L|256:80,1,80,0|8,0:0|0:0,0:0:0:0:
80,80,18850,5,8,0:0:0:0:
320,80,19006,2,0,L|336:128,1,40,4|0,0:3|1:0,0:0:0:0:
176,128,19162,1,0,1:0:0:0:
145,150,19240,1,0,1:0:0:0:
155,186,19318,1,8,0:0:0:0:
193,191,19396,1,8,0:0:0:0:
352,192,19475,6,0,L|336:240,1,40,0|4,1:0|0:3,0:0:0:0:
256,240,19631,2,0,L|240:288,1,40,8|8,0:0|0:0,0:0:0:0:
160,272,19787,2,0,L|144:320,1,40,8|8,0:0|0:0,0:0:0:0:
304,320,19943,6,0,L|480:320,1,160,12|8,0:0|0:0,0:0:0:0:
304,272,20412,1,0,1:0:0:0:
464,272,20568,1,0,0:0:0:0:
304,224,20725,2,0,L|224:224,1,80,8|8,0:0|0:0,0:0:0:0:
368,224,21037,1,0,1:0:0:0:
224,192,21193,1,0,0:0:0:0:
80,176,21350,6,0,L|160:176,1,80,8|8,0:0|0:0,0:0:0:0:
320,176,21662,2,0,L|224:176,1,80,0|0,1:0|0:0,0:0:0:0:
400,176,21975,1,8,0:0:0:0:
240,176,22131,1,8,0:0:0:0:
400,176,22287,1,0,1:0:0:0:
160,176,22443,6,0,P|96:176|64:96,1,160,12|8,0:0|0:0,0:0:0:0:
224,96,22912,1,0,1:0:0:0:
64,96,23068,1,8,0:0:0:0:
224,64,23225,2,0,L|320:64,1,80,8|8,0:0|0:0,0:0:0:0:
144,64,23537,2,0,L|80:64,2,40,0|0|8,1:0|0:0|0:0,0:0:0:0:
368,64,23850,5,8,0:0:0:0:
224,64,24006,1,0,1:0:0:0:
448,112,24162,1,8,0:0:0:0:
304,112,24318,1,0,1:0:0:0:
64,112,24475,1,8,0:0:0:0:
208,112,24631,1,0,1:0:0:0:
64,112,24787,1,8,0:0:0:0:
336,192,24943,6,0,L|144:192,1,160,12|8,0:0|0:0,0:0:0:0:
336,240,25412,1,0,1:0:0:0:
176,240,25568,1,0,0:0:0:0:
400,272,25725,1,0,1:0:0:0:
256,272,25881,1,0,0:0:0:0:
112,272,26037,1,8,0:0:0:0:
400,240,26193,1,8,0:0:0:0:
128,144,26350,6,0,L|112:224,1,80,0|0,1:0|0:0,0:0:0:0:
384,144,26662,2,0,L|400:224,1,80,0|0,1:0|0:0,0:0:0:0:
48,240,26975,1,8,0:0:0:0:
176,240,27131,1,8,0:0:0:0:
32,192,27287,1,0,1:0:0:0:
336,240,27443,6,0,L|176:240,1,160,12|8,0:0|0:0,0:0:0:0:
400,208,27912,1,0,1:0:0:0:
272,208,28068,1,8,0:0:0:0:
496,208,28225,2,0,L|336:208,1,160,0|0,1:0|0:0,0:0:0:0:
32,208,28693,6,0,L|16:176,4,20,8|0|0|0|0,0:0|0:0|0:0|0:0|1:0,0:0:0:0:
256,192,29162,1,8,0:0:0:0:
32,160,29318,2,0,L|192:160,1,160,4|8,0:3|0:0,0:0:0:0:
32,128,29787,1,0,1:0:0:0:
384,112,29943,1,8,0:0:0:0:
256,112,30100,5,12,0:0:0:0:
256,192,30178,12,8,32600,0:0:0:0:
176,144,47600,6,0,L|320:144,1,120,10|0,0:0|0:0,0:0:0:0:
224,112,47912,2,0,L|352:112,1,120,0|0,0:0|0:0,0:0:0:0:
272,80,48225,6,0,L|416:80,1,120,8|0,0:0|0:0,0:0:0:0:
320,48,48537,2,0,L|448:48,1,120,0|0,0:0|0:0,0:0:0:0:
176,48,48850,6,0,P|144:80|144:160,1,120,8|0,0:0|0:0,0:0:0:0:
336,48,49162,2,0,P|368:80|368:160,1,120,0|0,0:0|0:0,0:0:0:0:
192,48,49475,6,0,P|96:160|64:320,1,280,8|0,0:0|0:0,0:0:0:0:
336,256,50100,6,0,L|160:256,1,160,12|0,0:0|0:0,0:0:0:0:
256,224,50568,1,8,0:0:0:0:
96,224,50725,2,0,L|80:144,1,80,0|8,1:0|0:0,0:0:0:0:
240,144,51037,2,0,L|256:224,1,80,0|8,0:0|0:0,0:0:0:0:
96,224,51350,5,8,0:0:0:0:
26,199,51506,1,0,0:0:0:0:
36,126,51662,1,0,0:0:0:0:
109,122,51818,1,8,0:0:0:0:
352,128,51975,2,0,L|368:208,1,80,0|8,1:0|0:0,0:0:0:0:
208,208,52287,2,0,L|192:288,1,80,0|8,0:0|0:0,0:0:0:0:
352,272,52600,6,0,L|192:272,1,160,8|0,0:0|0:0,0:0:0:0:
272,224,53068,1,8,0:0:0:0:
112,192,53225,2,0,L|272:192,1,160,0|0,1:0|0:0,0:0:0:0:
112,192,53693,6,0,P|96:144|176:96,1,160,8|0,0:0|0:0,0:0:0:0:
336,96,54162,2,0,L|256:96,1,80,0|8,0:0|0:0,0:0:0:0:
416,96,54475,2,0,L|432:176,1,80,0|8,1:0|0:0,0:0:0:0:
272,176,54787,2,0,L|352:176,1,80,0|8,0:0|0:0,0:0:0:0:
368,208,55021,1,8,0:0:0:0:
384,240,55100,5,8,0:0:0:0:
128,240,55412,1,0,0:0:0:0:
256,240,55568,1,8,0:0:0:0:
96,240,55725,2,0,L|80:320,1,80,0|8,1:0|0:0,0:0:0:0:
384,240,56193,5,8,0:0:0:0:
256,240,56349,1,8,0:0:0:0:
416,240,56506,1,0,0:0:0:0:
128,192,56818,1,8,0:0:0:0:
256,192,56974,1,0,1:0:0:0:
96,192,57131,1,8,0:0:0:0:
416,192,57443,1,8,0:0:0:0:
176,144,57600,6,0,L|336:144,1,160,8|0,0:0|0:0,0:0:0:0:
96,192,58068,2,0,L|80:112,1,80,8|0,0:0|1:0,0:0:0:0:
240,112,58381,2,0,L|256:192,1,80,8|0,0:0|0:0,0:0:0:0:
96,192,58693,1,8,0:0:0:0:
416,192,58850,5,8,0:0:0:0:
288,192,59006,2,0,L|304:144,1,40,8|0,0:0|1:0,0:0:0:0:
384,160,59162,2,0,L|400:112,1,40,0|8,1:0|0:0,0:0:0:0:
320,112,59318,2,0,L|336:64,1,40,8|8,0:0|0:0,0:0:0:0:
416,80,59475,5,0,1:0:0:0:
444,107,59553,1,0,1:0:0:0:
459,143,59631,1,4,0:3:0:0:
458,183,59709,1,4,0:3:0:0:
440,218,59787,1,4,0:3:0:0:
409,243,59865,1,4,0:3:0:0:
336,256,59943,1,4,0:3:0:0:
297,248,60021,1,4,0:3:0:0:
144,240,60100,6,0,P|96:240|32:144,1,160,12|0,0:0|0:0,0:0:0:0:
176,144,60568,1,8,0:0:0:0:
320,192,60725,2,0,P|368:192|336:64,1,240,0|8,1:0|0:0,0:0:0:0:
176,64,61350,6,0,L|256:64,1,80,8|8,0:0|0:0,0:0:0:0:
96,64,61662,2,0,L|80:144,1,80,0|8,0:0|0:0,0:0:0:0:
240,144,61975,1,0,1:0:0:0:
80,144,62131,2,0,L|64:192,2,40,8|8|8,0:0|0:0|0:0,0:0:0:0:
336,192,62443,6,0,L|176:192,1,160,12|8,0:0|0:0,0:0:0:0:
336,160,62912,2,0,L|256:160,1,80,0|8,0:0|0:0,0:0:0:0:
416,160,63225,1,0,1:0:0:0:
176,160,63381,2,0,P|128:192|192:240,1,160,8|8,0:0|0:0,0:0:0:0:
208,240,63732,2,0,L|240:240,1,20,0|0,0:0|0:0,0:0:0:0:
208,208,63810,6,0,L|240:208,1,20,0|0,0:0|1:0,0:0:0:0:
96,192,64006,1,8,0:0:0:0:
224,160,64162,1,8,0:0:0:0:
368,128,64318,1,0,1:0:0:0:
224,112,64475,1,4,0:3:0:0:
368,80,64631,1,8,0:0:0:0:
96,96,64787,2,0,L|80:144,1,40,0|4,1:0|0:3,0:0:0:0:
224,128,64943,2,0,L|240:176,1,40,8|8,0:0|0:0,0:0:0:0:
96,192,65100,6,0,P|64:224|112:272,1,120,4|0,1:2|0:0,0:0:0:0:
176,272,65412,1,8,0:1:0:0:
256,272,65725,1,8,0:1:0:0:
336,272,66037,1,8,0:1:0:0:
416,272,66350,1,8,0:1:0:0:
336,272,66662,1,8,0:1:0:0:
256,272,66975,1,8,0:1:0:0:
176,272,67287,1,8,0:1:0:0:
64,144,67600,6,0,L|240:144,2,160,8|8|8,0:1|0:1|0:1,0:0:0:0:
336,144,68537,2,0,L|160:144,1,160,8|8,0:1|0:1,0:0:0:0:
336,144,69084,2,0,L|464:144,1,120,8|8,0:1|0:1,0:0:0:0:
176,144,69475,1,8,0:1:0:0:
320,208,69709,2,0,L|200:208,1,120,8|8,0:1|0:1,0:0:0:0:
464,144,70100,6,0,L|480:224,1,80,2|0,0:0|0:0,0:0:0:0:
352,224,70412,2,0,L|336:304,1,80,8|0,0:1|0:0,0:0:0:0:
208,272,70725,2,0,L|224:352,1,80,8|0,0:1|0:0,0:0:0:0:
480,144,71037,2,0,L|464:224,1,80,8|0,0:1|0:0,0:0:0:0:
32,144,71350,6,0,L|48:224,1,80,8|0,0:1|0:0,0:0:0:0:
176,224,71662,2,0,L|160:304,1,80,8|0,0:1|0:0,0:0:0:0:
288,304,71975,2,0,L|304:384,1,80,8|0,0:1|0:0,0:0:0:0:
48,288,72287,2,0,L|32:368,1,80,8|0,0:1|0:0,0:0:0:0:
304,192,72600,5,8,0:1:0:0:
208,192,72756,1,0,0:0:0:0:
320,160,72912,1,8,0:1:0:0:
192,160,73068,1,0,0:0:0:0:
336,128,73225,1,8,0:1:0:0:
176,128,73381,1,0,0:0:0:0:
400,96,73537,1,8,0:1:0:0:
112,96,73693,1,0,0:0:0:0:
256,80,73850,5,2,0:0:0:0:
256,192,73928,12,0,74787,0:0:0:0:
416,160,74943,6,0,L|256:160,1,160,12|8,0:0|0:0,0:0:0:0:
496,112,75412,2,0,L|416:112,1,80,0|0,1:0|0:0,0:0:0:0:
256,112,75725,2,0,L|336:112,2,80,8|8|0,0:0|0:0|1:0,0:0:0:0:
96,112,76193,6,0,L|272:112,1,160,0|8,0:0|0:0,0:0:0:0:
96,128,76662,2,0,L|80:224,1,80,0|0,1:0|0:0,0:0:0:0:
240,208,76975,2,0,L|256:288,1,80,8|8,0:0|0:0,0:0:0:0:
96,288,77287,1,0,1:0:0:0:
368,288,77443,6,0,P|416:272|480:176,1,160,12|8,0:0|0:0,0:0:0:0:
336,176,77912,1,0,1:0:0:0:
192,176,78068,2,0,L|112:176,1,80,8|8,0:0|0:0,0:0:0:0:
272,144,78381,2,0,L|368:144,1,80,8|0,0:0|1:0,0:0:0:0:
192,112,78693,5,8,0:0:0:0:
464,112,78850,1,8,0:0:0:0:
336,112,79006,1,0,1:0:0:0:
480,160,79162,1,8,0:0:0:0:
352,160,79318,1,0,1:0:0:0:
48,144,79475,1,8,0:0:0:0:
176,144,79631,1,0,1:0:0:0:
32,96,79787,1,8,0:0:0:0:
336,80,79943,6,0,L|176:80,1,160,12|8,0:0|0:0,0:0:0:0:
336,128,80412,2,0,L|256:128,1,80,0|8,1:0|0:0,0:0:0:0:
496,176,80725,2,0,L|416:176,1,80,0|0,1:0|0:0,0:0:0:0:
176,128,81037,2,0,L|256:128,1,80,8|8,0:0|0:0,0:0:0:0:
16,176,81350,6,0,L|96:176,1,80,0|0,1:0|0:0,0:0:0:0:
496,176,81662,2,0,L|416:176,1,80,0|0,1:0|0:0,0:0:0:0:
192,112,81975,1,8,0:0:0:0:
320,112,82131,1,8,0:0:0:0:
96,128,82287,1,0,1:0:0:0:
416,128,82443,6,0,P|464:128|464:208,1,146.666666666667,12|8,0:0|0:0,0:0:0:0:
304,224,82912,2,0,L|384:224,1,80,0|8,1:0|0:0,0:0:0:0:
112,240,83225,1,0,1:0:0:0:
256,224,83381,1,8,0:0:0:0:
112,224,83537,1,0,0:0:0:0:
384,224,83693,1,8,0:0:0:0:
32,224,83850,5,8,0:0:0:0:
160,224,84006,1,4,0:3:0:0:
199,225,84084,1,0,1:0:0:0:
228,200,84162,1,0,1:0:0:0:
232,161,84240,1,0,1:0:0:0:
208,130,84318,1,8,0:0:0:0:
170,124,84396,1,8,0:0:0:0:
256,224,84475,6,0,L|272:272,1,40,0|4,1:0|0:3,0:0:0:0:
208,272,84631,2,0,L|224:320,1,40,4|4,0:3|0:3,0:0:0:0:
400,304,84787,2,0,L|416:352,1,40,4|4,0:3|0:3,0:0:0:0:
256,352,84943,6,0,L|96:352,1,160,12|8,0:0|0:0,0:0:0:0:
336,352,85412,2,0,L|416:352,1,80,0|0,1:0|0:0,0:0:0:0:
256,288,85725,2,0,L|176:288,1,80,8|8,0:0|0:0,0:0:0:0:
336,240,86037,1,0,1:0:0:0:
176,240,86193,6,0,P|112:224|80:128,1,160,0|8,0:0|0:0,0:0:0:0:
240,144,86662,1,0,1:0:0:0:
160,144,86818,1,0,0:0:0:0:
320,96,86975,2,0,L|240:96,1,80,8|8,0:0|0:0,0:0:0:0:
80,96,87287,1,0,1:0:0:0:
400,96,87443,6,0,P|448:112|400:176,1,160,12|8,0:0|0:0,0:0:0:0:
240,192,87912,1,0,1:0:0:0:
400,208,88068,2,0,L|416:288,1,80,8|8,0:0|0:0,0:0:0:0:
176,272,88381,2,0,L|160:352,1,80,8|0,0:0|1:0,0:0:0:0:
400,272,88693,5,8,0:0:0:0:
112,192,88850,2,0,L|16:192,1,80,8|0,0:0|1:0,0:0:0:0:
256,160,89162,1,8,0:0:0:0:
112,160,89318,1,0,1:0:0:0:
400,160,89475,1,8,0:0:0:0:
256,160,89631,1,0,1:0:0:0:
496,192,89787,1,8,0:0:0:0:
256,192,89943,6,0,L|96:192,1,160,12|8,0:0|0:0,0:0:0:0:
256,144,90412,2,0,L|176:144,1,80,0|8,1:0|0:0,0:0:0:0:
464,144,90725,2,0,L|480:224,1,80,0|0,1:0|0:0,0:0:0:0:
48,144,91037,2,0,L|32:224,1,80,8|8,0:0|0:0,0:0:0:0:
400,224,91350,5,0,1:0:0:0:
112,224,91506,1,0,0:0:0:0:
256,224,91662,2,0,L|368:224,1,80,0|0,1:0|0:0,0:0:0:0:
176,224,91975,1,8,0:0:0:0:
336,160,92131,2,0,L|256:160,1,80,8|0,0:0|1:0,0:0:0:0:
496,160,92443,6,0,L|320:160,1,160,12|8,0:0|0:0,0:0:0:0:
16,160,92912,2,0,L|96:160,1,80,0|8,1:0|0:0,0:0:0:0:
320,96,93225,1,0,1:0:0:0:
192,96,93381,1,8,0:0:0:0:
480,144,93537,1,0,0:0:0:0:
192,160,93693,6,8,L|144:160,2,26.6666666666667
320,160,93850,2,0,L|432:160,1,80
256,160,94162,1,0,0:0:0:0:
400,192,94318,2,0,L|304:192,1,80,4|0,0:3|0:0,0:0:0:0:
464,192,94631,1,8,0:0:0:0:
224,192,94787,6,0,L|160:192,1,40,0|8,1:0|0:3,0:0:0:0:
424,160,94943,2,0,L|472:160,1,40
224,80,95100,6,0,L|64:80,1,160,12|0,0:0|0:0,0:0:0:0:
192,128,95568,2,0,L|352:128,1,160,8|0,0:0|0:0,0:0:0:0:
192,176,96037,1,8,0:0:0:0:
448,80,96350,6,0,L|288:80,1,160,0|0,1:0|0:0,0:0:0:0:
128,112,96818,2,0,L|288:112,1,160,8|0,0:0|0:0,0:0:0:0:
416,112,97287,1,8,0:0:0:0:
176,128,97600,6,0,P|144:176|224:240,1,160,8|0,0:0|0:0,0:0:0:0:
336,256,98068,2,0,P|368:208|288:144,1,160,8|0,0:0|0:0,0:0:0:0:
176,128,98537,1,8,0:0:0:0:
416,176,98850,6,0,L|240:176,1,160,0|8,1:0|0:0,0:0:0:0:
308,128,99266,2,0,L|244:128,1,53.3333333333333,8|0,0:0|1:0,0:0:0:0:
87,98,99475,6,0,P|43:160|88:345,1,280,0|0,1:0|0:0,0:0:0:0:
352,96,100100,6,0,P|416:128|448:208,1,160,12|0,0:0|0:0,0:0:0:0:
320,208,100568,2,0,L|160:208,1,160,8|0,0:0|0:0,0:0:0:0:
32,208,101037,2,0,L|48:288,1,80,8|0,0:0|0:0,0:0:0:0:
208,288,101350,6,0,P|272:272|320:192,1,160,0|0,1:0|0:0,0:0:0:0:
160,192,101818,2,0,P|96:176|48:96,1,160,0|0,1:0|0:0,0:0:0:0:
208,96,102287,2,0,L|112:96,1,80,8|0,0:0|0:0,0:0:0:0:
384,96,102600,6,0,P|448:96|480:176,1,160,12|0,0:0|0:0,0:0:0:0:
352,192,103068,2,0,L|192:192,1,160,8|0,0:0|0:0,0:0:0:0:
320,240,103537,2,0,L|416:240,1,80,8|0,0:0|0:0,0:0:0:0:
240,240,103850,6,0,L|224:160,1,80,0|0,1:0|0:0,0:0:0:0:
304,144,104162,1,8,0:0:0:0:
464,176,104318,2,0,L|480:96,1,80,0|0,1:0|0:0,0:0:0:0:
400,80,104630,1,8,0:0:0:0:
240,80,104787,1,8,0:0:0:0:
400,80,104943,1,8,0:0:0:0:
64,80,105100,6,0,P|48:128|128:176,1,160,12|0,0:0|0:0,0:0:0:0:
256,176,105568,2,0,P|272:224|192:272,1,160,8|0,0:0|0:0,0:0:0:0:
64,272,106037,2,0,L|144:272,1,80,8|0,0:0|0:0,0:0:0:0:
272,224,106350,6,0,L|112:224,1,160,0|0,1:0|0:0,0:0:0:0:
272,272,106818,2,0,L|112:272,1,160,8|0,0:0|0:0,0:0:0:0:
240,208,107287,2,0,L|160:208,1,80,8|0,0:0|0:0,0:0:0:0:
496,192,107600,6,0,P|484:115|416:79,1,160,12|0,0:0|0:0,0:0:0:0:
288,160,108068,2,0,P|299:83|367:47,1,160,8|0,0:0|0:0,0:0:0:0:
496,192,108537,2,0,L|400:192,1,80,8|0,0:0|0:0,0:0:0:0:
256,192,108850,6,0,L|176:192,2,80,0|0|0,1:0|0:0|0:0,0:0:0:0:
96,192,109318,2,0,L|0:192,1,80,8|0,0:0|1:0,0:0:0:0:
176,192,109631,1,8,0:0:0:0:
16,192,109787,2,0,L|64:240,1,40,0|8,1:0|0:0,0:0:0:0:
128,224,109943,2,0,L|176:224,1,40,8|8,0:0|0:0,0:0:0:0:
368,192,110100,6,0,P|416:208|464:304,1,160,12|0,0:0|0:0,0:0:0:0:
336,304,110568,2,0,L|176:304,1,160,8|0,0:0|0:0,0:0:0:0:
48,304,111037,2,0,L|128:304,1,80,8|0,0:0|0:0,0:0:0:0:
288,304,111350,6,0,L|128:304,1,160,0|0,1:0|0:0,0:0:0:0:
288,256,111818,2,0,L|464:256,1,160,0|0,1:0|0:0,0:0:0:0:
320,208,112287,2,0,L|400:208,1,80,8|0,0:0|0:0,0:0:0:0:
80,208,112600,6,0,P|96:160|208:128,1,160,12|0,0:0|0:0,0:0:0:0:
320,96,113068,2,0,L|160:96,1,160,8|0,0:0|0:0,0:0:0:0:
288,64,113537,2,0,L|384:64,1,80,8|0,0:0|0:0,0:0:0:0:
208,64,113850,6,0,L|48:64,1,160,0|4,1:0|0:3,0:0:0:0:
208,112,114318,2,0,L|48:112,1,160,0|8,1:0|0:0,0:0:0:0:
176,160,114787,2,0,L|80:160,1,80,4|0,0:3|1:0,0:0:0:0:
336,160,115100,6,0,P|400:176|448:256,1,160,12|0,0:0|0:0,0:0:0:0:
320,240,115568,2,0,P|256:256|208:336,1,160,8|0,0:0|0:0,0:0:0:0:
336,336,116037,2,0,L|240:336,1,80,8|0,0:0|0:0,0:0:0:0:
96,336,116350,6,0,P|96:272|192:240,1,160,0|0,1:0|0:0,0:0:0:0:
336,240,116818,2,0,P|336:176|240:144,1,160,0|0,1:0|0:0,0:0:0:0:
128,128,117287,2,0,L|208:128,1,80,8|0,0:0|0:0,0:0:0:0:
480,80,117600,6,0,L|304:80,1,160,12|0,0:0|0:0,0:0:0:0:
192,80,118068,2,0,L|32:80,1,160,8|0,0:0|0:0,0:0:0:0:
160,112,118537,2,0,L|240:112,1,80,8|0,0:0|0:0,0:0:0:0:
400,112,118850,6,0,L|304:112,1,80,0|8,1:0|0:0,0:0:0:0:
192,144,119162,1,0,0:0:0:0:
320,160,119318,1,8,0:0:0:0:
80,160,119475,2,0,L|48:160,1,20,0|0,1:0|0:0,0:0:0:0:
176,208,119631,1,8,0:0:0:0:
64,256,119787,2,0,L|96:256,1,20,0|0,1:0|0:0,0:0:0:0:
176,256,119943,1,8,0:0:0:0:
480,256,120100,6,0,P|464:208|368:176,1,160,12|0,0:0|0:0,0:0:0:0:
288,176,120568,1,8,0:0:0:0:
160,176,120725,2,0,L|240:176,2,80,0|8|8,1:0|0:0|0:0,0:0:0:0:
288,176,121193,6,0,P|352:176|416:256,1,160,8|8,0:0|0:0,0:0:0:0:
288,240,121662,2,0,L|208:240,1,80,0|8,0:0|0:0,0:0:0:0:
336,208,121975,2,0,L|256:208,1,80,0|8,1:0|0:0,0:0:0:0:
384,160,122287,1,8,0:0:0:0:
256,160,122443,6,0,P|192:160|128:240,1,160,8|8,0:0|0:0,0:0:0:0:
256,224,122912,2,0,L|176:224,1,80,0|8,0:0|0:0,0:0:0:0:
304,256,123225,2,0,L|208:256,2,80,0|8|8,1:0|0:0|0:0,0:0:0:0:
176,256,123693,6,0,P|112:240|80:144,1,160,8|8,0:0|0:0,0:0:0:0:
208,144,124162,2,0,L|304:144,1,80,0|8,0:0|0:0,0:0:0:0:
160,128,124475,2,0,L|48:128,1,80,0|8,1:0|0:0,0:0:0:0:
208,112,124787,1,8,0:0:0:0:
80,112,124943,6,0,P|112:144|240:176,1,160,8|8,0:0|0:0,0:0:0:0:
304,176,125412,1,0,0:0:0:0:
432,224,125568,2,0,L|352:224,1,80,8|0,0:0|1:0,0:0:0:0:
224,224,125881,2,0,L|128:224,1,80,8|8,0:0|0:0,0:0:0:0:
304,272,126193,6,0,L|128:272,1,160,8|8,0:0|0:0,0:0:0:0:
272,240,126662,2,0,L|192:240,1,80,0|8,0:0|0:0,0:0:0:0:
64,240,126975,2,0,L|160:240,1,80,0|8,1:0|0:0,0:0:0:0:
304,192,127287,1,8,0:0:0:0:
144,192,127443,6,0,P|80:192|32:112,1,160,8|8,0:0|0:0,0:0:0:0:
112,96,127912,1,0,0:0:0:0:
240,96,128068,2,0,L|128:96,1,80,0|0,0:0|1:0,0:0:0:0:
320,96,128381,2,0,L|400:96,1,80,8|0,0:0|0:0,0:0:0:0:
272,128,128693,1,8,0:0:0:0:
400,128,128850,5,8,0:0:0:0:
240,128,129006,1,8,0:0:0:0:
201,135,129084,1,0,1:0:0:0:
179,167,129162,1,0,1:0:0:0:
187,206,129240,1,0,1:0:0:0:
219,228,129318,1,8,0:0:0:0:
257,221,129396,1,8,0:0:0:0:
336,208,129475,6,0,L|352:256,1,40,0|0,1:0|1:0,0:0:0:0:
272,256,129631,2,0,L|256:304,1,40,4|4,0:3|0:3,0:0:0:0:
416,272,129787,1,4,0:3:0:0:
437,304,129865,1,4,0:3:0:0:
430,342,129943,1,4,0:3:0:0:
398,364,130021,1,8,0:0:0:0:
224,368,130100,5,4,0:0:0:0:
304,304,130256,2,0,L|128:304,1,160,8|8,0:0|0:0,0:0:0:0:
272,256,130725,2,0,L|80:256,1,160,0|8,1:0|0:0,0:0:0:0:
240,224,131193,6,0,L|320:224,2,80,8|8|8,0:0|0:0|0:0,0:0:0:0:
368,224,131662,2,0,L|384:304,1,80,0|8,0:0|0:0,0:0:0:0:
224,304,131975,2,0,L|144:304,2,80,0|8|8,1:0|0:0|0:0,0:0:0:0:
64,304,132443,6,0,P|48:256|144:208,1,160,8|8,0:0|0:0,0:0:0:0:
256,192,132912,2,0,L|176:192,1,80,0|8,0:0|0:0,0:0:0:0:
336,192,133225,2,0,L|416:192,2,80,0|8|0,1:0|0:0|0:0,0:0:0:0:
464,192,133693,2,0,L|480:144,1,40,8|0,0:0|0:0,0:0:0:0:
256,112,133850,6,0,L|160:112,1,80,0|8,1:0|0:0,0:0:0:0:
336,112,134162,1,8,0:0:0:0:
176,144,134318,2,0,L|80:144,1,80,4|8,0:3|0:0,0:0:0:0:
256,144,134631,1,8,0:0:0:0:
96,192,134787,2,0,L|144:192,1,40,0|4,1:0|0:3,0:0:0:0:
288,192,134943,2,0,L|336:192,1,40,8|8,0:0|0:0,0:0:0:0:
176,144,135100,6,0,P|144:176|192:240,1,120,4|0,1:2|0:0,0:0:0:0:
256,240,135412,2,0,L|384:240,1,120,8|0,0:1|0:0,0:0:0:0:
464,240,135725,2,0,P|496:272|448:336,1,120,8|0,0:1|0:0,0:0:0:0:
384,336,136037,2,0,L|240:336,1,120,8|0,0:1|0:0,0:0:0:0:
176,336,136350,6,0,P|144:304|192:240,1,120,8|0,0:1|0:0,0:0:0:0:
256,192,136662,2,0,L|112:192,1,120,8|0,0:1|0:0,0:0:0:0:
224,96,136975,2,0,P|256:128|208:192,1,120,8|0,0:1|0:0,0:0:0:0:
144,96,137287,2,0,L|272:96,1,120,8|0,0:1|0:0,0:0:0:0:
336,144,137600,6,0,P|368:176|320:240,1,120,8|0,0:1|0:0,0:0:0:0:
256,240,137912,2,0,L|128:240,1,120,8|0,0:1|0:0,0:0:0:0:
48,240,138225,2,0,P|16:272|64:336,1,120,8|0,0:1|0:0,0:0:0:0:
128,336,138537,2,0,L|272:336,1,120,8|0,0:1|0:0,0:0:0:0:
336,336,138850,6,0,P|352:304|320:256,1,80,8|0,0:1|0:0,0:0:0:0:
256,192,139084,2,0,L|368:192,1,80,8|0,0:1|0:0,0:0:0:0:
256,160,139318,2,0,L|240:208,1,40,8|0,0:1|0:0,0:0:0:0:
320,224,139475,6,0,L|208:224,1,80,8|0,0:1|0:0,0:0:0:0:
160,224,139709,2,0,P|144:192|176:144,1,80,8|0,0:1|0:0,0:0:0:0:
240,112,139943,2,0,L|176:112,1,40,8|0,0:1|0:0,0:0:0:0:
112,112,140100,6,0,L|96:192,1,80,2|0,0:0|0:0,0:0:0:0:
224,192,140412,2,0,L|240:272,1,80,8|0,0:1|0:0,0:0:0:0:
112,272,140725,2,0,L|96:352,1,80,8|0,0:1|0:0,0:0:0:0:
224,352,141037,2,0,L|240:272,1,80,8|0,0:1|0:0,0:0:0:0:
368,272,141350,5,8,0:1:0:0:
409,207,141506,1,0,0:0:0:0:
380,136,141662,1,8,0:1:0:0:
305,120,141818,1,0,0:0:0:0:
176,128,141975,2,0,L|96:128,1,80,8|0,0:1|0:0,0:0:0:0:
224,160,142287,2,0,L|320:160,1,80,8|0,0:1|0:0,0:0:0:0:
32,176,142600,6,0,L|16:256,1,80,8|0,0:1|0:0,0:0:0:0:
320,176,142912,2,0,L|336:256,1,80,8|0,0:1|0:0,0:0:0:0:
192,176,143225,2,0,L|176:256,1,80,8|0,0:1|0:0,0:0:0:0:
480,176,143537,2,0,L|496:256,1,80,8|0,0:1|0:0,0:0:0:0:
256,224,143850,5,2,0:0:0:0:
256,192,143928,12,0,144787,0:0:0:0:
336,128,144943,6,0,L|176:128,1,160,12|8,0:0|0:0,0:0:0:0:
336,176,145412,1,0,1:0:0:0:
176,176,145568,1,0,0:0:0:0:
336,176,145725,2,0,L|432:176,1,80,8|8,0:0|0:0,0:0:0:0:
256,176,146037,1,0,1:0:0:0:
416,208,146193,6,0,L|256:208,1,160,0|8,0:0|0:0,0:0:0:0:
96,208,146662,2,0,L|176:208,2,80,0|0|8,1:0|0:0|0:0,0:0:0:0:
256,208,147131,1,8,0:0:0:0:
96,208,147287,1,0,1:0:0:0:
416,96,147443,6,0,L|240:96,1,160,12|8,0:0|0:0,0:0:0:0:
96,96,147912,1,0,1:0:0:0:
256,144,148068,2,0,L|176:144,1,80,8|8,0:0|0:0,0:0:0:0:
336,144,148381,1,8,0:0:0:0:
176,144,148537,1,0,1:0:0:0:
416,144,148693,1,8,0:0:0:0:
96,160,148850,6,0,L|80:240,1,80,8|0,0:0|1:0,0:0:0:0:
320,240,149162,1,8,0:0:0:0:
192,240,149318,1,0,1:0:0:0:
432,240,149475,1,8,0:0:0:0:
304,240,149631,1,0,1:0:0:0:
432,240,149787,1,8,0:0:0:0:
176,144,149943,6,0,L|352:144,1,160,12|8,0:0|0:0,0:0:0:0:
176,96,150412,1,0,1:0:0:0:
336,96,150568,1,8,0:0:0:0:
48,96,150725,1,0,1:0:0:0:
176,96,150881,1,0,0:0:0:0:
464,96,151037,1,8,0:0:0:0:
336,96,151193,1,8,0:0:0:0:
48,96,151350,5,0,1:0:0:0:
464,96,151506,1,0,0:0:0:0:
224,176,151662,2,0,L|128:176,1,80,0|0,1:0|0:0,0:0:0:0:
288,176,151975,2,0,L|384:176,1,80,8|8,0:0|0:0,0:0:0:0:
144,176,152287,1,0,1:0:0:0:
368,176,152443,5,12,0:0:0:0:
96,208,152756,1,8,0:0:0:0:
256,208,152912,2,0,L|272:288,1,80,0|8,1:0|0:0,0:0:0:0:
112,288,153225,1,0,1:0:0:0:
352,256,153381,2,0,L|368:336,1,80,8|0,0:0|0:0,0:0:0:0:
208,336,153693,1,8,0:0:0:0:
480,336,153850,5,8,0:0:0:0:
336,336,154006,2,0,L|272:336,1,40,4|0,0:3|1:0,0:0:0:0:
480,288,154162,2,0,L|464:240,1,40,0|0,1:0|1:0,0:0:0:0:
384,256,154318,2,0,L|368:208,1,40,8|8,0:0|0:0,0:0:0:0:
448,208,154475,5,0,1:0:0:0:
439,168,154553,1,4,0:3:0:0:
418,135,154631,1,4,0:3:0:0:
388,108,154709,1,4,0:3:0:0:
350,94,154787,1,4,0:3:0:0:
311,92,154865,1,4,0:3:0:0:
144,96,154943,6,0,P|67:139|96:176,1,160,12|0,0:0|0:0,0:0:0:0:
384,160,155412,2,0,L|288:160,1,80,0|0,1:0|0:0,0:0:0:0:
144,160,155725,2,0,L|240:160,2,80,8|8|0,0:0|0:0|1:0,0:0:0:0:
304,160,156193,6,0,P|352:160|416:256,1,160,0|8,0:0|0:0,0:0:0:0:
256,240,156662,2,0,L|160:240,1,80,0|0,1:0|0:0,0:0:0:0:
336,192,156975,1,8,0:0:0:0:
176,240,157131,1,8,0:0:0:0:
336,240,157287,1,0,1:0:0:0:
96,240,157443,6,0,P|64:192|160:144,1,160,12|8,0:0|0:0,0:0:0:0:
288,128,157912,1,0,1:0:0:0:
128,128,158068,2,0,L|80:128,2,40,8|8|8,0:0|0:0|0:0,0:0:0:0:
384,128,158381,1,8,0:0:0:0:
128,128,158537,1,0,1:0:0:0:
400,208,158693,6,0,L|480:208,1,80,8|8,0:0|0:0,0:0:0:0:
256,160,159006,1,0,1:0:0:0:
480,160,159162,1,8,0:0:0:0:
256,112,159318,1,0,1:0:0:0:
96,96,159475,1,8,0:0:0:0:
256,80,159631,1,0,1:0:0:0:
32,64,159787,1,8,0:0:0:0:
336,48,159943,6,0,L|176:48,1,160,12|8,0:0|0:0,0:0:0:0:
336,96,160412,1,0,1:0:0:0:
176,96,160568,1,8,0:0:0:0:
480,144,160725,2,0,L|384:144,1,80,0|0,1:0|0:0,0:0:0:0:
32,144,161037,2,0,L|128:144,1,80,8|8,0:0|0:0,0:0:0:0:
400,144,161350,5,0,1:0:0:0:
112,144,161506,1,0,0:0:0:0:
368,192,161662,2,0,L|272:192,1,80,0|0,1:0|0:0,0:0:0:0:
144,192,161975,1,8,0:0:0:0:
368,192,162131,1,8,0:0:0:0:
144,192,162287,1,0,1:0:0:0:
384,160,162443,6,0,P|432:176|496:272,1,160,12|8,0:0|0:0,0:0:0:0:
336,272,162912,2,0,L|256:272,1,80,0|8,1:0|0:0,0:0:0:0:
480,256,163225,2,0,L|496:176,1,80,0|8,1:0|0:0,0:0:0:0:
256,176,163537,2,0,L|336:176,1,80,0|8,0:0|0:0,0:0:0:0:
362,127,163745,2,8,L|314:127,1,26.6666666666667
192,128,163850,6,0,L|112:128,2,80,0|8|8,1:0|0:0|0:0,0:0:0:0:
32,128,164318,2,0,L|16:208,1,80,4|8,0:3|0:0,0:0:0:0:
176,224,164631,2,0,L|256:224,1,80,8|0,0:0|1:0,0:0:0:0:
272,176,164865,1,0,1:0:0:0:
112,176,164943,2,0,L|96:128,1,40,8|8,0:0|0:0,0:0:0:0:
256,128,165100,6,0,L|416:128,1,160,12|0,0:0|0:0,0:0:0:0:
256,128,165568,2,0,L|96:128,1,160,8|0,0:0|0:0,0:0:0:0:
256,96,166037,1,8,0:0:0:0:
96,96,166350,6,0,P|64:144|128:224,1,160,0|0,1:0|0:0,0:0:0:0:
416,96,166818,2,0,P|448:144|384:224,1,160,8|0,0:0|0:0,0:0:0:0:
256,224,167287,1,8,0:0:0:0:
480,176,167600,6,0,L|320:176,1,160,8|0,0:0|0:0,0:0:0:0:
192,176,168068,2,0,L|32:176,1,160,8|0,0:0|0:0,0:0:0:0:
160,144,168537,1,8,0:0:0:0:
32,112,168850,6,0,L|192:112,1,160,0|8,1:0|0:0,0:0:0:0:
480,112,169318,2,0,L|320:112,1,160,0|8,1:0|0:0,0:0:0:0:
192,64,169787,1,0,0:0:0:0:
320,64,169943,1,0,1:0:0:0:
96,64,170100,6,0,L|80:144,1,80,8|0,0:0|0:0,0:0:0:0:
176,160,170412,1,0,0:0:0:0:
336,160,170568,2,0,L|176:160,1,160,8|0,0:0|0:0,0:0:0:0:
336,192,171037,2,0,L|416:192,1,80,8|0,0:0|0:0,0:0:0:0:
96,208,171350,6,0,L|176:208,2,80,0|0|0,1:0|0:0|0:0,0:0:0:0:
256,208,171818,2,0,L|416:208,1,160,8|0,0:0|0:0,0:0:0:0:
256,160,172287,2,0,L|176:160,1,80,8|0,0:0|0:0,0:0:0:0:
416,112,172600,6,0,L|256:112,1,160,8|0,0:0|0:0,0:0:0:0:
416,80,173068,2,0,L|256:80,1,160,8|0,0:0|0:0,0:0:0:0:
416,160,173537,2,0,L|336:160,1,80,8|0,0:0|0:0,0:0:0:0:
176,160,173850,6,0,L|160:208,1,40,4|0,0:3|3:0,0:0:0:0:
320,192,174006,2,0,L|336:240,1,40,0|0,1:0|1:0,0:0:0:0:
256,240,174162,1,0,1:0:0:0:
226,263,174240,1,8,0:0:0:0:
232,301,174318,1,0,1:0:0:0:
268,314,174396,1,4,0:3:0:0:
432,304,174475,6,0,L|480:304,1,40,0|4,1:0|0:3,0:0:0:0:
384,288,174631,2,0,L|368:240,1,40,8|8,0:0|0:0,0:0:0:0:
288,256,174787,2,0,L|272:208,1,40,4|4,0:3|0:3,0:0:0:0:
192,208,174943,2,0,L|128:208,1,40,8|8,0:0|0:0,0:0:0:0:
496,224,175100,6,0,L|336:224,1,160,12|0,0:0|0:0,0:0:0:0:
416,160,175568,2,0,L|240:160,1,160,8|0,0:0|0:0,0:0:0:0:
336,96,176037,2,0,L|240:96,1,80,8|0,0:0|0:0,0:0:0:0:
16,192,176350,6,0,L|176:192,1,160,0|0,1:0|0:0,0:0:0:0:
16,176,176818,2,0,L|192:176,1,160,8|0,0:0|0:0,0:0:0:0:
336,176,177287,2,0,L|240:176,1,80,8|0,0:0|0:0,0:0:0:0:
496,128,177600,6,0,L|320:128,1,160,8|0,0:0|0:0,0:0:0:0:
176,128,178068,2,0,L|336:128,1,160,8|0,0:0|0:0,0:0:0:0:
176,128,178537,2,0,L|80:128,1,80,8|0,0:0|0:0,0:0:0:0:
384,128,178850,6,0,P|432:144|480:240,1,160,0|0,1:0|0:0,0:0:0:0:
320,240,179318,2,0,L|272:240,1,40,8|8,0:0|0:0,0:0:0:0:
448,240,179475,1,0,1:0:0:0:
320,192,179631,2,0,P|304:144|384:96,1,160,8|8,0:0|0:0,0:0:0:0:
96,96,180100,6,0,P|32:112|64:192,1,160,12|0,0:0|0:0,0:0:0:0:
208,192,180568,2,0,P|272:208|240:288,1,160,8|0,0:0|0:0,0:0:0:0:
96,288,181037,2,0,L|176:288,1,80,8|0,0:0|0:0,0:0:0:0:
416,96,181350,6,0,P|480:112|448:192,1,160,0|0,1:0|0:0,0:0:0:0:
304,192,181818,2,0,P|240:208|272:288,1,160,8|0,0:0|0:0,0:0:0:0:
416,288,182287,2,0,L|336:288,1,80,8|0,0:0|0:0,0:0:0:0:
176,288,182600,6,0,L|336:288,1,160,8|0,0:0|0:0,0:0:0:0:
176,288,183068,2,0,P|112:288|80:208,1,160,8|0,0:0|0:0,0:0:0:0:
336,288,183537,2,0,L|416:288,1,80,8|0,0:0|0:0,0:0:0:0:
176,240,183850,6,0,L|160:224,1,20,0|0,1:0|0:0,0:0:0:0:
272,208,184006,2,0,P|336:192|304:112,1,160,0|8,1:0|0:0,0:0:0:0:
96,96,184475,1,0,1:0:0:0:
77,102,184514,1,0,0:0:0:0:
38,146,184631,1,8,0:0:0:0:
54,221,184787,1,8,0:0:0:0:
126,245,184943,1,0,0:0:0:0:
416,240,185100,5,12,0:0:0:0:
256,192,195100,12,4,196975,1:3:0:0:
416,192,197600,6,0,L|256:192,2,160,12|8|0,0:0|0:0|1:0,0:0:0:0:
96,160,198537,2,0,L|256:160,2,160,8|8|8,0:0|0:0|0:0,0:0:0:0:
416,160,199475,1,0,1:0:0:0:
96,160,199787,1,8,0:0:0:0:
496,128,200100,6,0,L|496:288,1,160,8|8,0:0|0:0,0:0:0:0:
256,272,200725,1,0,1:0:0:0:
16,128,201037,2,0,L|16:288,1,160,8|8,0:0|0:0,0:0:0:0:
256,272,201662,1,8,0:0:0:0:
496,160,201975,2,0,L|400:160,2,80,0|0|8,1:0|0:0|0:0,0:0:0:0:
256,160,202443,6,0,L|96:160,1,160,0|0,0:0|0:0,0:0:0:0:
256,128,202912,2,0,L|176:128,1,80,8|0,0:0|0:0,0:0:0:0:
336,96,203225,2,0,L|256:96,1,80,0|0,1:0|0:0,0:0:0:0:
416,64,203537,6,0,L|256:64,2,160,8|8|8,0:0|0:0|0:0,0:0:0:0:
96,96,204475,1,0,0:0:0:0:
176,160,204631,2,0,L|96:160,1,80,0|8,0:0|0:0,0:0:0:0:
256,160,204943,6,0,L|416:160,1,160,0|0,0:0|0:0,0:0:0:0:
256,128,205412,2,0,L|336:128,1,80,8|0,0:0|0:0,0:0:0:0:
176,96,205725,2,0,L|256:96,1,80,0|0,1:0|0:0,0:0:0:0:
96,64,206037,6,0,L|256:64,1,160,8|8,0:0|0:0,0:0:0:0:
96,112,206506,2,0,L|48:112,1,40,0|0,0:0|1:0,0:0:0:0:
256,112,206662,2,0,L|272:160,1,40,0|0,1:0|0:0,0:0:0:0:
192,160,206818,2,0,L|144:160,1,40,0|0,0:0|1:0,0:0:0:0:
320,167,206975,5,0,1:0:0:0:
342,198,207053,1,4,0:3:0:0:
351,237,207131,1,4,0:3:0:0:
344,276,207209,1,4,0:3:0:0:
322,313,207287,1,8,0:0:0:0:
289,335,207365,1,4,0:3:0:0:
208,352,207443,1,4,0:3:0:0:
168,352,207521,1,4,0:3:0:0:
336,352,207600,6,0,L|496:352,3,160,12|8|0|0,0:0|0:0|1:0|0:0,0:0:0:0:
352,304,208693,1,0,0:0:0:0:
208,272,208850,2,0,L|48:272,1,160,8|8,0:0|0:0,0:0:0:0:
304,208,209475,1,0,1:0:0:0:
48,192,209787,1,8,0:0:0:0:
336,128,210100,6,0,L|176:128,1,160,8|8,0:0|0:0,0:0:0:0:
416,160,210725,1,0,1:0:0:0:
176,160,211037,2,0,L|256:160,2,80,8|0|8,0:0|0:0|0:0,0:0:0:0:
336,160,211662,1,8,0:0:0:0:
96,160,211975,2,0,P|80:208|96:320,1,160,0|8,1:0|0:0,0:0:0:0:
256,304,212443,6,0,L|80:304,1,160,0|0,0:0|0:0,0:0:0:0:
256,240,212912,2,0,L|176:240,1,80,8|0,0:0|0:0,0:0:0:0:
336,192,213225,2,0,L|240:192,1,80,0|0,1:0|0:0,0:0:0:0:
96,192,213537,6,0,L|256:192,2,160,8|8|8,0:0|0:0|0:0,0:0:0:0:
336,144,214475,2,0,L|256:144,1,80,0|0,1:0|0:0,0:0:0:0:
96,144,214787,5,8,0:0:0:0:
256,304,214943,2,0,L|432:304,1,160,0|8,0:0|0:0,0:0:0:0:
176,256,215412,2,0,L|256:256,1,80,0|8,1:0|0:0,0:0:0:0:
96,208,215725,2,0,L|192:208,1,80,0|8,1:0|0:0,0:0:0:0:
336,208,216037,2,0,L|176:208,1,160,8|0,0:0|1:0,0:0:0:0:
448,144,216662,5,0,1:0:0:0:
64,128,216975,2,0,L|48:160,1,20,0|0,1:0|0:0,0:0:0:0:
448,144,217287,5,0,1:0:0:0:
96,160,217443,2,0,L|256:160,1,160,12|8,0:0|0:0,0:0:0:0:
16,112,217912,2,0,L|96:112,1,80,0|0,1:0|0:0,0:0:0:0:
256,112,218225,2,0,L|176:112,2,80,8|8|0,0:0|0:0|1:0,0:0:0:0:
416,112,218693,6,0,L|240:112,1,160,0|8,0:0|0:0,0:0:0:0:
416,128,219162,2,0,L|432:224,1,80,0|0,1:0|0:0,0:0:0:0:
272,208,219475,2,0,L|256:288,1,80,8|8,0:0|0:0,0:0:0:0:
416,288,219787,1,0,1:0:0:0:
144,288,219943,6,0,P|96:272|32:176,1,160,12|8,0:0|0:0,0:0:0:0:
176,176,220412,1,0,1:0:0:0:
320,176,220568,2,0,L|400:176,1,80,8|8,0:0|0:0,0:0:0:0:
240,144,220881,2,0,L|144:144,1,80,8|0,0:0|1:0,0:0:0:0:
320,112,221193,5,8,0:0:0:0:
64,112,221350,1,8,0:0:0:0:
320,112,221506,1,0,1:0:0:0:
192,112,221662,1,8,0:0:0:0:
448,112,221818,1,0,1:0:0:0:
112,192,221975,1,8,0:0:0:0:
256,192,222131,1,0,1:0:0:0:
400,192,222287,1,8,0:0:0:0:
176,256,222443,6,0,L|336:256,1,160,12|8,0:0|0:0,0:0:0:0:
32,160,222912,1,0,1:0:0:0:
256,160,223068,1,8,0:0:0:0:
144,160,223225,1,0,1:0:0:0:
368,160,223381,1,0,0:0:0:0:
256,160,223537,1,8,0:0:0:0:
480,160,223693,1,8,0:0:0:0:
144,160,223850,5,0,1:0:0:0:
368,160,224006,1,0,0:0:0:0:
32,112,224162,2,0,L|128:112,1,80,0|0,1:0|0:0,0:0:0:0:
336,112,224475,1,8,0:0:0:0:
112,112,224631,1,8,0:0:0:0:
256,112,224787,1,0,1:0:0:0:
480,80,224943,6,0,L|320:80,1,160,12|8,0:0|0:0,0:0:0:0:
96,80,225412,1,0,1:0:0:0:
320,112,225568,1,8,0:0:0:0:
176,112,225725,2,0,L|96:112,1,80,0|8,1:0|0:0,0:0:0:0:
320,160,226037,1,0,0:0:0:0:
176,160,226193,1,8,0:0:0:0:
416,160,226350,6,0,L|464:160,1,40,8|0,0:0|0:0,0:0:0:0:
256,160,226506,1,0,0:3:0:0:
218,166,226584,1,0,1:0:0:0:
210,203,226662,1,0,1:0:0:0:
240,226,226740,1,0,1:0:0:0:
320,256,226818,2,0,L|256:256,1,40,8|8,0:0|0:0,0:0:0:0:
112,256,226975,6,0,L|64:256,1,40,0|4,1:0|0:3,0:0:0:0:
128,208,227131,2,0,L|192:208,1,40,4|4,0:3|0:3,0:0:0:0:
112,176,227287,2,0,L|64:176,1,40,4|4,0:3|0:3,0:0:0:0:
400,240,227443,6,0,P|464:272|416:320,1,160,12|0,0:0|0:0,0:0:0:0:
144,208,227912,2,0,L|48:208,1,80,0|0,1:0|0:0,0:0:0:0:
224,128,228225,2,0,L|128:128,2,80,8|8|0,0:0|0:0|1:0,0:0:0:0:
64,128,228693,6,0,P|100:59|176:46,1,160,0|8,0:0|0:0,0:0:0:0:
336,48,229162,2,0,L|240:48,1,80,0|0,1:0|0:0,0:0:0:0:
96,80,229475,1,8,0:0:0:0:
256,160,229631,2,0,L|176:160,1,80,8|0,0:0|1:0,0:0:0:0:
400,160,229943,6,0,P|432:112|336:64,1,160,12|8,0:0|0:0,0:0:0:0:
288,48,230412,1,0,1:0:0:0:
448,48,230568,2,0,L|496:48,2,40,8|8|8,0:0|0:0|0:0,0:0:0:0:
288,112,230881,1,8,0:0:0:0:
448,112,231037,1,0,1:0:0:0:
32,208,231193,6,0,L|112:208,1,80,8|8,0:0|0:0,0:0:0:0:
352,208,231506,1,0,1:0:0:0:
112,176,231662,1,8,0:0:0:0:
352,176,231818,1,0,1:0:0:0:
208,176,231975,1,8,0:0:0:0:
448,176,232131,1,0,1:0:0:0:
304,176,232287,1,8,0:0:0:0:
16,96,232443,6,0,L|176:96,1,160,12|8,0:0|0:0,0:0:0:0:
320,96,232912,1,0,1:0:0:0:
176,96,233068,1,8,0:0:0:0:
464,96,233225,1,0,1:0:0:0:
160,128,233381,1,0,0:0:0:0:
304,128,233537,2,0,L|320:176,1,40,8|8,0:0|0:0,0:0:0:0:
240,176,233693,2,0,L|224:224,1,40,8|8,0:0|0:0,0:0:0:0:
304,224,233850,5,0,1:0:0:0:
160,208,234006,1,8,0:0:0:0:
448,208,234162,1,0,1:0:0:0:
144,240,234318,1,8,0:0:0:0:
432,240,234475,1,8,0:0:0:0:
288,240,234631,1,0,1:0:0:0:
32,240,234787,1,0,1:0:0:0:
480,96,234943,6,0,L|320:96,1,160,12|8,0:0|0:0,0:0:0:0:
32,80,235412,1,0,1:0:0:0:
320,96,235568,1,8,0:0:0:0:
176,112,235725,1,0,1:0:0:0:
336,128,235881,1,8,0:0:0:0:
192,144,236037,1,0,0:0:0:0:
464,176,236193,2,8,L|448:208,1,26.6666666666667
424,208,236297,1,8,0:0:0:0:
256,208,236350,6,0,L|176:208,1,80,0|8,1:0|0:0,0:0:0:0:
336,208,236662,1,8,0:0:0:0:
176,176,236818,2,0,L|64:176,1,80,4|8,0:3|0:0,0:0:0:0:
320,112,237131,1,8,0:0:0:0:
192,112,237287,2,0,L|144:112,1,40,0|0,1:0|1:0,0:0:0:0:
320,112,237443,2,0,L|368:112,1,40,8|8,0:0|0:0,0:0:0:0:
64,112,237600,6,0,P|16:144|58:208,1,120,4|0,1:2|0:0,0:0:0:0:
96,192,237912,2,0,L|224:192,1,120,8|0,0:1|0:0,0:0:0:0:
288,192,238225,2,0,P|336:224|304:288,1,120,8|0,0:1|0:0,0:0:0:0:
256,288,238537,2,0,L|128:288,1,120,8|0,0:1|0:0,0:0:0:0:
400,304,238850,6,0,P|464:288|480:224,1,120,8|0,0:1|0:0,0:0:0:0:
416,240,239162,2,0,L|288:240,1,120,8|0,0:1|0:0,0:0:0:0:
224,240,239475,6,0,P|160:224|144:160,1,120,8|0,0:1|0:0,0:0:0:0:
208,176,239787,2,0,L|336:176,1,120,8|0,0:1|0:0,0:0:0:0:
176,112,240100,6,0,B|96:112|96:112|144:112,1,120,8|0,0:1|0:0,0:0:0:0:
192,160,240412,2,0,B|112:160|112:160|160:160,1,120,8|0,0:1|0:0,0:0:0:0:
208,192,240725,2,0,B|288:192|288:192|240:192,1,120,8|0,0:1|0:0,0:0:0:0:
192,144,241037,2,0,B|272:144|272:144|224:144,1,120,8|0,0:1|0:0,0:0:0:0:
400,192,241350,6,0,B|480:192|480:192|432:192,1,120,8|0,0:1|0:0,0:0:0:0:
368,192,241662,2,0,B|288:192|288:192|240:192,1,120,8|0,0:1|0:0,0:0:0:0:
176,192,241975,2,0,B|96:192|96:192|144:192,1,120,8|0,0:1|0:0,0:0:0:0:
208,192,242287,2,0,B|288:192|288:192|336:192,1,120,8|0,0:1|0:0,0:0:0:0:
48,336,242600,5,0,3:0:0:0:
43,262,242756,1,0,3:0:0:0:
75,241,242834,1,0,0:0:0:0:
114,245,242912,1,0,0:0:0:0:
272,240,243068,1,0,3:0:0:0:
278,166,243224,1,0,3:0:0:0:
246,145,243302,1,0,0:0:0:0:
207,149,243380,1,0,3:0:0:0:
48,128,243537,2,0,L|144:128,1,80,0|0,3:0|3:0,0:0:0:0:
160,96,243771,1,0,0:0:0:0:
128,64,243850,5,0,0:0:0:0:
256,128,244006,2,0,L|160:128,1,80,0|0,3:0|3:0,0:0:0:0:
144,96,244240,1,0,0:0:0:0:
176,64,244319,1,0,3:0:0:0:
304,64,244475,2,0,L|352:64,2,40,0|0|0,3:0|3:0|3:0,0:0:0:0:
144,144,244787,2,0,L|240:144,1,80,0|0,3:0|3:0,0:0:0:0:
352,160,245100,6,0,L|272:160,1,80,0|0,3:0|0:0,0:0:0:0:
400,176,245412,2,0,L|416:224,1,40,0|0,3:0|3:0,0:0:0:0:
352,208,245568,2,0,L|368:256,1,40,0|0,3:0|3:0,0:0:0:0:
288,256,245725,6,0,L|240:256,1,40,0|0,3:0|0:0,0:0:0:0:
168,256,245881,2,0,L|120:256,1,40,0|0,3:0|0:0,0:0:0:0:
272,288,246037,2,0,L|320:288,1,40,0|0,3:0|3:0,0:0:0:0:
144,288,246193,2,0,L|80:288,1,40,0|0,3:0|3:0,0:0:0:0:
400,288,246350,5,2,0:0:0:0:
256,192,246428,12,0,247600,0:0:0:0:
