osu file format v14

[General]
AudioFilename: audio.mp3
AudioLeadIn: 0
PreviewTime: 20585
Countdown: 0
SampleSet: Soft
StackLeniency: 0.7
Mode: 0
LetterboxInBreaks: 0
EpilepsyWarning: 1
WidescreenStoryboard: 1

[Editor]
DistanceSpacing: 1.5
BeatDivisor: 4
GridSize: 4
TimelineZoom: 3.200005

[Metadata]
Title:Better Off Dead
TitleUnicode:Better Off Dead
Artist:Sleeping With Sirens
ArtistUnicode:Sleeping With Sirens
Creator:Tomadoi
Version:Another
Source:
Tags:emo hardcore madness armin a_r_m_i_n xchorse mark101 marcuddles cut short version lowaccuracyss lass dashyy- peter
BeatmapID:1628133
BeatmapSetID:774670

[Difficulty]
HPDrainRate:6
CircleSize:3.8
OverallDifficulty:8.5
ApproachRate:9.2
SliderMultiplier:1.6
SliderTickRate:1

[Events]
//Background and Video events
0,0,"39973.jpg",0,0
//Break Periods
//Storyboard Layer 0 (Background)
//Storyboard Layer 1 (Fail)
//Storyboard Layer 2 (Pass)
//Storyboard Layer 3 (Foreground)
Sprite,Foreground,Centre,"sb\hl.png",507,213 C,0,34559,,128,128,128 F,2,34559,35059,1,0 S,2,34559,35059,1,0.2 P,0,34559,35059,A
Sprite,Foreground,Centre,"sb\hl.png",377,352 C,0,34717,,128,128,128 F,2,34717,35217,1,0 S,2,34717,35217,1,0.2 P,0,34717,35217,A
Sprite,Foreground,Centre,"sb\hl.png",376,111 C,0,34874,,128,64,64 F,2,34874,35374,1,0 S,2,34874,35374,1,0.2 P,0,34874,35374,A
Sprite,Foreground,Centre,"sb\hl.png",276,372 C,0,35032,,128,64,64 F,2,35032,35532,1,0 S,2,35032,35532,1,0.2 P,0,35032,35532,A
Sprite,Foreground,Centre,"sb\hl.png",190,95 C,0,35190,,128,128,128 F,2,35190,35690,1,0 S,2,35190,35690,1,0.2 P,0,35190,35690,A
Sprite,Foreground,Centre,"sb\hl.png",0,0 C,0,35348,,128,128,128 M,0,35348,35387,140,392,165.7719,388.5638 F,2,35348,35926,1,0 S,2,35348,35926,1,0.2 P,0,35348,35926,A M,0,35387,35426,165.7719,388.5638,191.5439,385.1275
Sprite,Foreground,Centre,"sb\hl.png",0,0 C,0,35506,,128,128,128 M,0,35506,35545,332,212,357.8219,215.0379 F,2,35506,36084,1,0 S,2,35506,36084,1,0.2 P,0,35506,36084,A M,0,35545,35584,357.8219,215.0379,383,218
Sprite,Foreground,Centre,"sb\hl.png",0,0 C,0,35664,,128,64,64 M,0,35664,35703,502,233,487.1158,231.1395 F,2,35664,36479,1,0 S,2,35664,36479,1,0.2 P,0,35664,36479,A M,0,35703,35742,487.1158,231.1395,472.2317,229.279 M,0,35742,35782,472.2317,229.279,457.3475,227.4184 M,0,35782,35821,457.3475,227.4184,442.4633,225.5579 M,0,35821,35861,442.4633,225.5579,427.5792,223.6974 M,0,35861,35900,427.5792,223.6974,412.695,221.8369 M,0,35900,35940,412.695,221.8369,397.8108,219.9763 M,0,35940,35979,397.8108,219.9763,382.9266,218.1158
Sprite,Foreground,Centre,"sb\hl.png",0,0 C,0,45138,,128,128,128 M,0,45138,45177,196,392,193.6177,372.1682 F,2,45138,45716,1,0 S,2,45138,45716,1,0.2 P,0,45138,45716,A M,0,45177,45216,193.6177,372.1682,188.6373,352.8352
Sprite,Foreground,Centre,"sb\hl.png",140,280 C,0,45296,,128,128,128 F,2,45296,45796,1,0 S,2,45296,45796,1,0.2 P,0,45296,45796,A
Sprite,Foreground,Centre,"sb\hl.png",0,0 C,0,45453,,128,64,64 M,0,45453,45492,140,280,142.3823,260.1682 F,2,45453,46031,1,0 S,2,45453,46031,1,0.2 P,0,45453,46031,A M,0,45492,45531,142.3823,260.1682,147.3627,240.8353
Sprite,Foreground,Centre,"sb\hl.png",196,168 C,0,45611,,128,64,64 F,2,45611,46111,1,0 S,2,45611,46111,1,0.2 P,0,45611,46111,A
Sprite,Foreground,Centre,"sb\hl.png",228,280 C,0,45769,,128,128,128 F,2,45769,46269,1,0 S,2,45769,46269,1,0.2 P,0,45769,46269,A
Sprite,Foreground,Centre,"sb\hl.png",228,280 C,0,45927,,128,128,128 F,2,45927,46427,1,0 S,2,45927,46427,1,0.2 P,0,45927,46427,A
Sprite,Foreground,Centre,"sb\hl.png",444,92 C,0,40243,,128,128,128 F,2,40243,40743,1,0 S,2,40243,40743,1,0.2 P,0,40243,40743,A
Sprite,Foreground,Centre,"sb\hl.png",464,124 C,0,40322,,128,128,128 F,2,40322,40822,1,0 S,2,40322,40822,1,0.2 P,0,40322,40822,A
Sprite,Foreground,Centre,"sb\hl.png",472,160 C,0,40401,,128,128,128 F,2,40401,40901,1,0 S,2,40401,40901,1,0.2 P,0,40401,40901,A
Sprite,Foreground,Centre,"sb\hl.png",464,196 C,0,40480,,128,128,128 F,2,40480,40980,1,0 S,2,40480,40980,1,0.2 P,0,40480,40980,A
Sprite,Foreground,Centre,"sb\hl.png",0,0 C,0,40559,,128,128,128 M,0,40559,40598,444,228,429.0616,226.642 F,2,40559,41137,1,0 S,2,40559,41137,1,0.2 P,0,40559,41137,A M,0,40598,40637,429.0616,226.642,414.1232,225.2839
Sprite,Foreground,Centre,"sb\hl.png",325,147 C,0,40717,,128,64,64 F,2,40717,41217,1,0 S,2,40717,41217,1,0.2 P,0,40717,41217,A
Sprite,Foreground,Centre,"sb\hl.png",325,147 C,0,40874,,128,64,64 F,2,40874,41374,1,0 S,2,40874,41374,1,0.2 P,0,40874,41374,A
Sprite,Foreground,Centre,"sb\hl.png",174,184 C,0,24453,,128,64,64 F,2,24453,24953,1,0 S,2,24453,24953,1,0.2 P,0,24453,24953,A
Sprite,Foreground,Centre,"sb\hl.png",370,301 C,0,24611,,128,64,64 F,2,24611,25111,1,0 S,2,24611,25111,1,0.2 P,0,24611,25111,A
Sprite,Foreground,Centre,"sb\hl.png",373,72 C,0,24769,,128,64,64 F,2,24769,25269,1,0 S,2,24769,25269,1,0.2 P,0,24769,25269,A
Sprite,Foreground,Centre,"sb\hl.png",0,0 C,0,24927,,128,64,64 M,0,24927,24966,251,287,251.9513,306.9774 F,2,24927,25584,1,0 S,2,24927,25584,1,0.2 P,0,24927,25584,A M,0,24966,25005,251.9513,306.9774,252.9026,326.9547 M,0,25005,25045,252.9026,326.9547,253.8539,346.9321 M,0,25045,25084,253.8539,346.9321,254.8052,366.9095
Sprite,Foreground,Centre,"sb\hl.png",0,0 C,0,25243,,128,64,64 M,0,25243,25282,464,424,465.8107,404.0821 F,2,25243,25821,1,0 S,2,25243,25821,1,0.2 P,0,25243,25821,A M,0,25282,25321,465.8107,404.0821,467.6214,384.1643
Sprite,Foreground,Centre,"sb\hl.png",0,0 C,0,25401,,128,64,64 M,0,25401,25440,380,264,378.0099,244.0993 F,2,25401,25979,1,0 S,2,25401,25979,1,0.2 P,0,25401,25979,A M,0,25440,25479,378.0099,244.0993,376.0198,224.1985
Sprite,Foreground,Centre,"sb\hl.png",0,0 C,0,25559,,128,128,128 M,0,25559,25598,250,152,232.5935,171.1516 F,2,25559,26295,1,0 S,2,25559,26295,1,0.2 P,0,25559,26295,A M,0,25598,25637,232.5935,171.1516,221.6521,194.5749 M,0,25637,25677,221.6521,194.5749,218.1429,220.1657 M,0,25677,25716,218.1429,220.1657,222.3691,245.6299 M,0,25716,25756,222.3691,245.6299,233.9434,268.6874 M,0,25756,25795,233.9434,268.6874,251.8233,287.2748
Sprite,Foreground,Centre,"sb\hl.png",477,233 C,0,9927,,128,64,64 F,2,9927,10427,1,0 S,2,9927,10427,1,0.2 P,0,9927,10427,A
Sprite,Foreground,Centre,"sb\hl.png",437,149 C,0,10085,,128,64,64 F,2,10085,10585,1,0 S,2,10085,10585,1,0.2 P,0,10085,10585,A
Sprite,Foreground,Centre,"sb\hl.png",337,237 C,0,10243,,128,64,64 F,2,10243,10743,1,0 S,2,10243,10743,1,0.2 P,0,10243,10743,A
//Storyboard Sound Samples

[TimingPoints]
296,315.789473684211,4,2,1,60,1,0
9848,-100,4,2,1,5,0,0
9927,-100,4,2,1,60,0,0
20503,-100,4,2,1,35,0,0
20506,-100,4,2,1,35,0,0
20822,-200,4,2,1,35,0,0
23348,-250,4,2,1,35,0,0
24138,-250,4,2,1,5,0,0
24296,-250,4,2,1,60,0,0
24374,-250,4,2,1,5,0,0
24450,-250,4,2,1,60,0,0
24453,-100,4,2,1,60,0,0
25322,-100,4,2,1,5,0,0
25401,-100,4,2,1,60,0,0
25480,-100,4,2,1,5,0,0
25559,-76.9230769230769,4,2,1,60,0,1
25796,-76.9230769230769,4,2,1,5,0,1
25874,-76.9230769230769,4,2,1,60,0,1
28164,-76.9230769230769,4,2,1,5,0,1
28243,-76.9230769230769,4,2,1,60,0,1
28325,-76.9230769230769,4,2,1,5,0,1
28401,-76.9230769230769,4,2,1,60,0,1
31953,-76.9230769230769,4,2,1,5,0,1
32032,-76.9230769230769,4,2,1,60,0,1
33217,-76.9230769230769,4,2,1,5,0,1
33296,-76.9230769230769,4,2,1,60,0,1
34403,-76.9230769230769,4,2,1,60,0,1
34461,-76.9230769230769,4,2,1,70,0,1
34719,-76.9230769230769,4,2,1,70,0,1
34777,-76.9230769230769,4,2,1,80,0,1
35034,-76.9230769230769,4,2,1,80,0,1
35092,-76.9230769230769,4,2,1,90,0,1
35664,-133.333333333333,4,2,1,60,0,0
40717,-100,4,2,1,60,0,0
41269,-100,4,2,1,5,0,0
41348,-100,4,2,1,60,0,0
42059,-100,4,2,1,5,0,0
42138,-100,4,2,1,60,0,0
46006,-100,4,2,1,5,0,0
46085,-100,4,2,1,60,0,0
51059,-100,4,2,1,5,0,0
51138,-100,4,2,1,60,0,0
51374,-100,4,2,1,5,0,0
51453,-100,4,2,1,60,0,0
53901,-100,4,2,1,5,0,0
53980,-100,4,2,1,60,0,0
59901,-100,4,2,1,25,0,0

[Colours]
Combo1 : 128,64,64
Combo2 : 128,128,128

[HitObjects]
152,280,296,5,4,0:0:0:0:
152,280,453,1,0,0:0:0:0:
63,319,611,2,0,P|53:276|64:239,1,80,8|0,0:0|0:0,0:0:0:0:
148,178,927,1,0,0:0:0:0:
148,178,1085,1,0,0:0:0:0:
238,139,1243,2,0,P|247:177|237:215,1,80,8|0,0:0|0:0,0:0:0:0:
148,178,1559,6,0,L|152:90,1,80,0|0,0:0|0:0,0:0:0:0:
65,317,1874,1,8,0:0:0:0:
65,317,2032,2,0,L|61:229,1,80,0|0,0:0|0:0,0:0:0:0:
192,192,2348,1,0,0:0:0:0:
220,272,2506,2,0,P|180:276|136:256,1,80,8|0,0:0|0:0,0:0:0:0:
276,208,2822,6,0,L|360:204,1,80,0|0,0:0|0:0,0:0:0:0:
195,112,3138,1,8,0:0:0:0:
195,112,3296,2,0,L|111:108,1,80,0|0,0:0|0:0,0:0:0:0:
276,208,3611,1,0,0:0:0:0:
356,125,3769,2,0,P|364:89|356:37,1,80,8|0,0:0|0:0,0:0:0:0:
195,209,4085,6,0,L|200:301,1,80,0|0,0:0|0:0,0:0:0:0:
279,360,4401,2,0,P|235:329|134:342,1,160,8|0,0:0|0:0,0:0:0:0:
64,264,4874,1,0,0:0:0:0:
121,177,5032,2,0,L|124:97,1,80,8|0,0:0|0:0,0:0:0:0:
236,52,5348,6,0,L|240:144,1,80,4|0,0:0|0:0,0:0:0:0:
355,204,5664,1,8,0:0:0:0:
407,60,5822,2,0,L|404:140,1,80,0|0,0:0|0:0,0:0:0:0:
242,211,6138,2,0,L|238:119,1,80,0|8,0:0|0:0,0:0:0:0:
355,204,6453,1,0,0:0:0:0:
248,292,6611,6,0,P|208:300|160:284,1,80,0|0,0:0|0:0,0:0:0:0:
56,256,6927,1,8,0:0:0:0:
56,256,7085,2,0,P|82:286|93:336,1,80,0|0,0:0|0:0,0:0:0:0:
212,224,7401,2,0,P|222:185|249:156,1,80,0|8,0:0|0:0,0:0:0:0:
367,82,7717,6,0,L|204:75,1,160,0|0,0:0|0:0,0:0:0:0:
108,144,8190,1,8,0:0:0:0:
100,24,8348,1,0,0:0:0:0:
208,76,8506,2,0,P|219:113|209:151,1,80,0|0,0:0|0:0,0:0:0:0:
132,244,8822,1,8,0:0:0:0:
132,244,8980,1,0,0:0:0:0:
356,256,9138,6,0,P|320:224|200:248,1,160,0|8,0:0|0:0,0:0:0:0:
408,324,9611,2,0,P|440:280|416:200,1,120,0|0,0:0|0:0,0:0:0:0:
413,177,9927,1,8,0:0:0:0:
373,93,10085,1,8,0:0:0:0:
273,181,10243,1,8,0:0:0:0:
172,80,10401,6,0,L|84:76,1,80,4|0,0:0|0:0,0:0:0:0:
4,148,10717,2,0,L|83:151,1,80,8|0,0:0|0:0,0:0:0:0:
148,208,11032,1,0,0:0:0:0:
184,288,11190,2,0,P|140:296|96:280,1,80,0|8,0:0|0:0,0:0:0:0:
148,208,11506,1,0,0:0:0:0:
264,260,11664,6,0,L|260:340,1,80,0|0,0:0|0:0,0:0:0:0:
356,292,11980,2,0,L|352:212,1,80,8|0,0:0|0:0,0:0:0:0:
404,132,12296,1,0,0:0:0:0:
404,132,12453,1,0,0:0:0:0:
332,64,12611,2,0,L|252:68,1,80,8|0,0:0|0:0,0:0:0:0:
160,120,12927,6,0,P|148:84|156:28,1,80,0|0,0:0|0:0,0:0:0:0:
248,168,13243,1,8,0:0:0:0:
164,224,13401,2,0,L|76:220,1,80,0|0,0:0|0:0,0:0:0:0:
248,168,13717,2,0,L|336:164,1,80,0|8,0:0|0:0,0:0:0:0:
404,216,14032,1,0,0:0:0:0:
328,332,14190,6,0,P|316:296|328:244,1,80,0|0,0:0|0:0,0:0:0:0:
480,164,14506,1,8,0:0:0:0:
322,255,14664,1,0,0:0:0:0:
334,88,14822,2,0,P|341:127|318:176,1,80,0|0,0:0|0:0,0:0:0:0:
152,160,15138,2,0,P|145:199|168:248,1,80,8|0,0:0|0:0,0:0:0:0:
176,280,15374,1,0,0:0:0:0:
176,280,15453,5,0,0:0:0:0:
277,284,15611,1,0,0:0:0:0:
74,275,15769,1,8,0:0:0:0:
216,360,15927,5,0,0:0:0:0:
114,369,16085,1,0,0:0:0:0:
313,353,16243,2,0,L|397:345,1,80,0|8,0:0|0:0,0:0:0:0:
472,268,16559,1,0,0:0:0:0:
376,128,16717,5,0,0:0:0:0:
248,248,16874,2,0,L|332:244,1,80,0|8,0:0|0:0,0:0:0:0:
252,106,17190,2,0,P|220:158|256:254,1,160,0|0,0:0|0:0,0:0:0:0:
312,52,17664,2,0,P|276:28|220:32,1,80,8|0,0:0|0:0,0:0:0:0:
104,120,17980,5,0,0:0:0:0:
252,106,18138,1,0,0:0:0:0:
256,320,18296,5,8,0:0:0:0:
181,149,18454,1,0,0:0:0:0:
380,236,18611,5,0,0:0:0:0:
165,255,18769,1,0,0:0:0:0:
376,128,18927,5,8,0:0:0:0:
364,328,19085,1,0,0:0:0:0:
101,155,19243,6,0,L|184:148,1,80,0|0,0:0|0:0,0:0:0:0:
459,242,19559,2,0,L|376:235,1,80,8|0,0:0|0:0,0:0:0:0:
289,235,19796,1,0,0:0:0:0:
271,243,19874,5,0,0:0:0:0:
176,360,20032,1,0,0:0:0:0:
92,216,20190,1,8,0:0:0:0:
187,99,20348,1,8,0:0:0:0:
176,360,20506,5,4,0:0:0:0:
180,344,20822,6,0,L|264:336,1,80,0|0,0:0|0:0,0:0:0:0:
328,252,21453,1,0,0:0:0:0:
340,264,21769,2,0,L|256:256,1,80,0|0,0:0|0:0,0:0:0:0:
176,196,22401,1,0,0:0:0:0:
185,211,22717,5,0,0:0:0:0:
304,48,22874,1,0,0:0:0:0:
308,64,22953,1,0,0:0:0:0:
312,80,23032,1,8,0:0:0:0:
272,160,23348,6,0,B|176:136|184:240|74:209,1,208,0|0,0:0|0:0,0:0:0:0:
110,128,24453,5,12,0:0:0:0:
306,245,24611,1,0,0:0:0:0:
309,16,24769,1,0,0:0:0:0:
187,231,24927,2,0,L|191:315,1,80,12|0,0:0|0:0,0:0:0:0:
400,368,25243,2,0,L|404:324,1,40,8|0,0:0|0:0,0:0:0:0:
316,208,25401,2,8,L|312:168,1,40,8|0,0:0|0:0,0:0:0:0:
186,96,25559,6,0,P|154:168|210:244,1,155.999992858887,4|0,0:0|0:0,0:0:0:0:
232,164,25874,1,8,0:0:0:0:
72,156,26032,1,0,0:0:0:0:
312,168,26190,2,0,P|328:124|312:64,1,103.999995239258,0|0,0:0|0:0,0:0:0:0:
186,96,26506,1,8,0:0:0:0:
268,240,26664,6,0,B|368:280|368:180|480:248,1,207.999990478516,0|0,0:0|0:0,0:0:0:0:
271,338,27138,2,0,P|255:294|271:234,1,103.999995239258,8|0,0:0|0:0,0:0:0:0:
407,66,27453,1,0,0:0:0:0:
312,168,27611,1,0,0:0:0:0:
270,36,27769,1,8,0:0:0:0:
267,239,27927,6,0,P|219:199|115:219,1,155.999992858887,0|0,0:0|0:0,0:0:0:0:
64,252,28243,2,0,L|72:360,1,103.999995239258,0|8,0:0|0:0,0:0:0:0:
212,168,28559,2,0,P|236:128|236:68,1,103.999995239258,0|0,0:0|0:0,0:0:0:0:
130,207,28874,1,0,0:0:0:0:
267,239,29032,1,8,0:0:0:0:
206,367,29190,6,0,B|198:291|198:291|222:259|222:259|210:151,1,207.999990478516,0|0,0:0|0:0,0:0:0:0:
118,103,29664,2,0,L|130:207,1,103.999995239258,8|0,0:0|0:0,0:0:0:0:
292,128,29980,2,0,L|304:24,1,103.999995239258,0|0,0:0|0:0,0:0:0:0:
303,24,30296,1,8,0:0:0:0:
448,216,30453,6,0,P|420:184|340:180,1,103.999995239258,0|4,0:0|0:0,0:0:0:0:
206,367,30769,2,0,P|256:359|292:323,1,103.999995239258,0|8,0:0|0:0,0:0:0:0:
312,32,31085,2,0,P|261:39|225:75,1,103.999995239258,0|0,0:0|0:0,0:0:0:0:
373,348,31401,2,0,P|392:300|379:251,1,103.999995239258,0|8,0:0|0:0,0:0:0:0:
225,75,31717,6,0,L|113:67,1,103.999995239258,0|0,0:0|0:0,0:0:0:0:
380,252,32032,2,0,L|492:244,1,103.999995239258,0|8,0:0|0:0,0:0:0:0:
216,156,32348,2,0,L|104:148,1,103.999995239258,0|0,0:0|0:0,0:0:0:0:
384,160,32664,2,0,L|496:152,1,103.999995239258,0|8,0:0|0:0,0:0:0:0:
113,242,32980,6,0,P|141:174|225:158,1,155.999992858887,0|0,0:0|0:0,0:0:0:0:
288,188,33296,1,0,0:0:0:0:
440,140,33453,2,0,P|396:120|316:144,1,103.999995239258,8|0,0:0|0:0,0:0:0:0:
220,232,33769,5,0,0:0:0:0:
243,84,33927,1,0,0:0:0:0:
319,274,34085,1,8,0:0:0:0:
342,126,34243,1,0,0:0:0:0:
419,309,34401,1,0,0:0:0:0:
443,157,34559,5,8,0:0:0:0:
313,296,34717,1,0,0:0:0:0:
312,55,34874,5,0,0:0:0:0:
212,316,35032,1,8,0:0:0:0:
126,39,35190,5,0,0:0:0:0:
76,336,35348,2,0,L|136:328,1,51.999997619629,8|0,0:0|0:0,0:0:0:0:
268,156,35506,2,8,L|319:162,1,51.999997619629,8|0,0:0|0:0,0:0:0:0:
438,177,35664,6,0,L|310:161,1,120.000004577637,4|0,0:0|0:0,0:0:0:0:
168,288,36296,1,8,0:0:0:0:
228,344,36453,2,0,P|248:304|220:224,1,120.000004577637,0|0,0:0|0:0,0:0:0:0:
150,89,36927,6,0,P|130:145|152:200,1,120.000004577637,12|0,0:0|0:0,0:0:0:0:
376,75,37559,2,0,L|380:16,1,60.0000022888184,8|0,0:0|0:0,0:0:0:0:
464,188,37874,1,0,0:0:0:0:
464,188,38032,5,0,0:0:0:0:
379,218,38190,2,0,P|337:189|257:200,1,120.000004577637,4|0,0:0|0:0,0:0:0:0:
193,240,38664,1,0,0:0:0:0:
111,202,38822,2,0,P|84:213|44:213,1,60.0000022888184,8|0,0:0|0:0,0:0:0:0:
156,52,39296,1,0,0:0:0:0:
156,52,39453,6,0,L|160:120,1,60.0000022888184,4|8,0:0|0:0,0:0:0:0:
228,239,39769,1,0,0:0:0:0:
228,239,39927,2,0,L|232:171,1,60.0000022888184,0|8,0:0|0:0,0:0:0:0:
380,36,40243,1,0,0:0:0:0:
400,68,40322,1,0,0:0:0:0:
408,104,40401,1,8,0:0:0:0:
400,140,40480,1,0,0:0:0:0:
380,172,40559,2,8,L|336:168,1,30.0000011444092,8|0,0:0|0:0,0:0:0:0:
261,91,40717,5,4,0:0:0:0:
261,91,40874,1,0,0:0:0:0:
189,187,41032,2,0,L|193:271,1,80,8|0,0:0|0:0,0:0:0:0:
283,346,41348,1,0,0:0:0:0:
375,270,41506,6,0,P|383:230|371:190,1,80,0|8,0:0|0:0,0:0:0:0:
214,310,41822,2,0,P|244:336|285:346,1,80,0|0,0:0|0:0,0:0:0:0:
255,147,42138,2,0,P|216:160|187:190,1,80,0|8,0:0|0:0,0:0:0:0:
350,306,42453,2,0,L|430:302,1,80,0|0,0:0|0:0,0:0:0:0:
361,69,42769,1,0,0:0:0:0:
265,279,42927,1,8,0:0:0:0:
496,257,43085,1,0,0:0:0:0:
375,201,43243,5,4,0:0:0:0:
256,192,43322,12,0,44980,0:0:0:0:
132,336,45138,6,8,P|128:308|120:284,1,40,8|0,0:0|0:0,0:0:0:0:
76,224,45296,1,0,0:0:0:0:
76,224,45453,6,8,P|80:196|88:172,1,40,8|0,0:0|0:0,0:0:0:0:
132,112,45611,1,0,0:0:0:0:
164,224,45769,5,4,0:0:0:0:
164,224,45927,1,0,0:0:0:0:
252,308,46085,2,0,L|344:304,1,80,8|0,0:0|0:0,0:0:0:0:
408,204,46401,1,0,0:0:0:0:
408,204,46559,1,0,0:0:0:0:
320,112,46717,2,0,L|324:196,1,80,8|0,0:0|0:0,0:0:0:0:
184,120,47032,6,0,P|204:84|256:64,1,80,0|0,0:0|0:0,0:0:0:0:
112,176,47348,2,0,P|70:176|27:141,1,80,8|0,0:0|0:0,0:0:0:0:
196,212,47664,2,0,P|217:247|208:302,1,80,0|0,0:0|0:0,0:0:0:0:
120,276,47980,1,8,0:0:0:0:
120,276,48138,1,0,0:0:0:0:
184,120,48296,6,0,P|228:100|332:148,1,160,4|8,0:0|0:0,0:0:0:0:
378,250,48769,1,0,0:0:0:0:
385,69,48927,2,0,P|409:33|461:13,1,80,0|0,0:0|0:0,0:0:0:0:
512,146,49243,2,0,L|424:142,1,80,8|0,0:0|0:0,0:0:0:0:
253,103,49559,6,0,P|244:141|260:184,1,80,0|0,0:0|0:0,0:0:0:0:
97,166,49874,2,0,P|134:154|160:124,1,80,8|0,0:0|0:0,0:0:0:0:
229,262,50190,2,0,P|201:236|162:227,1,80,0|0,0:0|0:0,0:0:0:0:
82,73,50506,1,8,0:0:0:0:
82,73,50664,1,0,0:0:0:0:
44,308,50822,6,0,L|196:300,1,120,4|0,0:0|0:0,0:0:0:0:
230,263,51138,2,0,L|310:267,1,80,8|0,0:0|0:0,0:0:0:0:
454,305,51453,1,0,0:0:0:0:
309,344,51611,2,0,P|300:305|309:266,1,80,0|8,0:0|0:0,0:0:0:0:
461,185,51927,6,0,P|430:210|392:222,1,80,0|0,0:0|0:0,0:0:0:0:
336,70,52243,2,0,P|374:83|413:128,1,80,0|8,0:0|0:0,0:0:0:0:
230,263,52559,2,0,L|146:259,1,80,0|0,0:0|0:0,0:0:0:0:
256,74,52874,2,0,L|340:70,1,80,0|8,0:0|0:0,0:0:0:0:
371,296,53190,6,0,P|311:252|227:264,1,160,0|0,0:0|0:0,0:0:0:0:
75,273,53664,2,0,P|115:277|155:253,1,80,8|0,0:0|0:0,0:0:0:0:
224,136,53980,1,0,0:0:0:0:
229,262,54138,1,0,0:0:0:0:
140,120,54296,1,8,0:0:0:0:
308,192,54453,6,0,L|400:184,1,80,0|0,0:0|0:0,0:0:0:0:
276,56,54769,2,0,L|184:48,1,80,12|0,0:0|0:0,0:0:0:0:
308,192,55085,1,0,0:0:0:0:
382,58,55243,1,12,0:0:0:0:
355,265,55401,1,0,0:0:0:0:
276,56,55559,1,8,0:0:0:0:
305,330,55717,1,8,0:0:0:0:
452,138,55874,5,4,0:0:0:0:
256,192,55953,12,0,59901,0:0:0:0:
