osu file format v14

[General]
AudioFilename: audio.ogg
AudioLeadIn: 0
PreviewTime: 143558
Countdown: 0
SampleSet: Soft
StackLeniency: 0.7
Mode: 0
LetterboxInBreaks: 0
WidescreenStoryboard: 0

[Editor]
Bookmarks: 37923,70445,102988,135550,151821,184364,200635,233177,265719,298262,330804,363347,371482,404025,436567,452838,477245,485380
DistanceSpacing: 1.6
BeatDivisor: 8
GridSize: 32
TimelineZoom: 1.8

[Metadata]
Title:Take Me Back To Eden
TitleUnicode:Take Me Back To Eden
Artist:Sleep Token
ArtistUnicode:Sleep Token
Creator:Mir
Version:Paradise
Source:
Tags:metal rock english hip hop rap rnb worship take me back to eden
BeatmapID:4158756
BeatmapSetID:2000299

[Difficulty]
HPDrainRate:5
CircleSize:4.5
OverallDifficulty:8
ApproachRate:9
SliderMultiplier:1.8
SliderTickRate:1

[Events]
//Background and Video events
0,0,"shimamoto flower.jpg",0,0
//Break Periods
2,184563,198764
//Storyboard Layer 0 (Background)
//Storyboard Layer 1 (Fail)
//Storyboard Layer 2 (Pass)
//Storyboard Layer 3 (Foreground)
//Storyboard Layer 4 (Overlay)
//Storyboard Sound Samples

[TimingPoints]
5381,508.474576271186,4,2,1,30,1,0
36906,-250,4,2,1,30,0,0
70465,-200,4,2,1,30,0,0
151821,-83.3333333333333,4,2,1,70,0,0
182075,-100,4,2,1,70,0,0
184364,-100,4,2,1,30,0,0
199364,-200,4,2,1,50,0,0
200635,-100,4,2,1,50,0,0
227075,-83.3333333333333,4,2,1,50,0,0
229109,-100,4,2,1,50,0,0
233177,-76.9230769230769,4,2,1,50,0,0
257075,-133.333333333333,4,2,1,50,0,0
257584,-76.9230769230769,4,2,1,50,0,0
265719,-250,4,2,1,25,0,0
329279,-166.666666666667,4,2,1,25,0,0
330804,-100,4,2,1,70,0,0
363347,-100,4,2,1,70,0,0
363431,-100,4,2,1,40,0,0
364872,-1000,4,2,1,30,0,0
370465,-1000,4,2,1,5,0,0
370847,-1000,4,2,1,30,0,0
371482,-66.6666666666667,4,2,1,100,0,1
372181,-66.6666666666667,4,2,1,5,0,1
372245,-66.6666666666667,4,2,1,100,0,1
403961,-66.6666666666667,4,2,1,100,0,0
404025,-66.6666666666667,4,2,1,100,0,1
435042,-100,4,2,1,100,0,1
436058,-100,4,2,1,100,0,0
436567,-50,4,2,1,100,0,1
439618,-100,4,2,1,100,0,1
439872,-50,4,2,1,100,0,1
440126,-100,4,2,1,100,0,1
440635,-50,4,2,1,100,0,1
443686,-40,4,2,1,100,0,1
448008,-100,4,2,1,100,0,1
448262,-40,4,2,1,100,0,1
449787,-66.6666666666667,4,2,1,100,0,1
450296,-40,4,2,1,100,0,1
450550,-66.6666666666667,4,2,1,100,0,1
450804,-40,4,2,1,100,0,1
451058,-66.6666666666667,4,2,1,100,0,1
451821,-66.6666666666667,4,2,1,100,0,0
452838,-50,4,2,1,100,0,1
460211,-12.1105472280585,4,2,1,100,0,0
460974,-50,4,2,1,100,0,1
468601,-50,4,2,1,100,0,0
469109,-50,4,2,1,100,0,1
474194,-50,4,2,1,80,0,1
476482,-29.6240500324569,4,2,1,80,0,0
479279,-29.6240500324569,4,2,1,70,0,0
481313,-29.6240500324569,4,2,1,50,0,0
483347,-29.6240500324569,4,2,1,30,0,0
485380,-29.6240500324569,4,2,1,10,0,0

[Colours]
Combo1 : 221,221,221
Combo2 : 255,121,124

[HitObjects]
244,373,36906,6,0,L|254:294,1,72,2|0,0:2|0:2,0:2:0:0:
224,161,37923,6,0,B|141:149|164:215|78:203,1,144,2|0,0:2|0:2,0:2:0:0:
32,153,39448,1,2,0:2:0:0:
74,10,39957,2,0,P|89:58|102:124,1,108,2|2,0:2|0:2,0:2:0:0:
295,223,41482,2,0,P|309:150|331:80,1,144,2|2,0:2|0:2,0:2:0:0:
330,83,44025,6,0,P|384:80|434:49,1,108,2|2,0:2|0:2,0:2:0:0:
479,168,45550,2,0,P|416:166|336:218,1,144,2|2,0:2|0:2,0:2:0:0:
347,205,48092,6,0,P|357:240|368:314,1,108,2|2,0:2|0:2,0:2:0:0:
492,369,49618,2,0,P|499:315|506:285,1,72,2|0,0:2|0:2,0:2:0:0:
446,246,50635,2,0,P|438:192|432:162,1,72,2|0,0:2|0:2,0:2:0:0:
493,123,51652,2,0,P|500:69|507:39,1,72,2|0,0:2|0:2,0:2:0:0:
503,51,53177,1,2,0:2:0:0:
438,11,53686,2,0,P|402:17|365:27,1,72,2|0,0:2|0:2,0:2:0:0:
215,249,55719,5,2,0:2:0:0:
150,302,56228,2,0,P|114:296|77:286,2,72,2|2|0,0:2|0:2|0:2,0:2:0:0:
155,18,57753,6,0,P|72:41|58:101,1,144,2|2,0:2|0:2,0:2:0:0:
56,89,59279,1,2,0:2:0:0:
5,165,59787,2,0,P|42:175|146:218,1,144,2|0,0:2|0:2,0:2:0:0:
139,214,61313,1,2,0:2:0:0:
207,173,61821,2,0,P|225:168|277:146,2,72,2|0|0,0:2|0:2|0:2,0:2:0:0:
212,258,63347,6,0,P|220:289|229:335,1,72,2|0,0:2|0:2,0:2:0:0:
295,384,64364,2,0,P|301:348|310:313,1,72,2|0,0:2|0:2,0:2:0:0:
379,257,65380,2,0,P|385:292|394:327,1,72,2|0,0:2|0:2,0:2:0:0:
465,291,66397,1,2,0:2:0:0:
304,232,67414,6,0,P|272:228|229:213,1,72,2|0,0:2|0:2,0:2:0:0:
192,151,68431,2,0,P|160:155|117:170,1,72,2|0,0:2|0:2,0:2:0:0:
72,228,69448,2,0,P|36:219|6:155,1,108,2|0,0:2|0:2,0:2:0:0:
6,152,70465,6,0,P|14:114|20:48,2,90,4|0|0,0:3|0:2|0:2,0:2:0:0:
6,152,71991,1,2,0:2:0:0:
62,314,72499,6,0,B|133:327|110:259|205:274,1,135,2|2,0:2|0:2,0:2:0:0:
184,271,74025,2,0,P|201:310|252:322,1,90,2|0,0:2|0:2,0:2:0:0:
298,381,75042,2,0,P|339:368|357:328,2,90,2|0|0,0:2|0:2|0:2,0:2:0:0:
264,247,76567,6,0,P|269:211|287:98,1,135,2|2,0:2|0:2,0:2:0:0:
284,113,78092,2,0,P|326:103|380:89,1,90,2|0,0:2|0:2,0:2:0:0:
248,38,79109,2,0,P|206:28|152:14,2,90,2|0|0,0:2|0:2|0:2,0:2:0:0:
285,111,80635,5,2,0:2:0:0:
436,19,81143,2,0,P|476:31|488:83,1,90,2|0,0:2|0:2,0:2:0:0:
418,255,82160,6,0,P|363:244|317:229,1,90,2|0,0:2|0:2,0:2:0:0:
221,332,83177,2,0,P|166:343|120:358,1,90,2|0,0:2|0:2,0:2:0:0:
18,254,84194,2,0,P|16:217|135:193,1,180,2|0,0:2|0:2,0:2:0:0:
128,185,85719,1,2,0:2:0:0:
124,361,86228,6,0,P|119:324|101:264,2,90,2|0|0,0:2|0:2|0:2,0:2:0:0:
124,361,88262,1,2,0:2:0:0:
220,280,88770,1,2,0:2:0:0:
323,336,89279,2,0,P|361:348|419:371,1,90,2|0,0:2|0:2,0:2:0:0:
300,255,90296,6,0,P|294:195|290:150,1,90,2|0,0:2|0:2,0:2:0:0:
178,169,91313,2,0,P|184:109|188:64,1,90,2|0,0:2|0:2,0:2:0:0:
348,102,92330,2,0,P|342:42|338:-3,2,90,2|0|0,0:2|0:2|0:2,0:2:0:0:
348,102,93855,1,2,0:2:0:0:
178,169,94364,6,0,P|115:177|81:183,2,90,2|0|0,0:2|0:2|0:2,0:2:0:0:
234,222,95889,2,0,P|263:232|330:255,1,90,2|0,0:2|0:2,0:2:0:0:
364,186,96906,2,0,P|393:176|460:153,1,90,2|0,0:2|0:2,0:2:0:0:
512,200,97923,1,2,0:2:0:0:
512,200,98431,1,2,0:2:0:0:
457,67,98940,6,0,P|452:106|448:169,1,90,2|0,0:2|0:2,0:2:0:0:
376,280,99957,2,0,P|372:235|367:190,1,90,2|0,0:2|0:2,0:2:0:0:
297,112,100974,2,0,P|292:151|288:214,1,90,2|0,0:2|0:2,0:2:0:0:
226,249,101991,1,2,0:2:0:0:
83,149,102499,1,2,0:2:0:0:
25,343,103008,1,4,0:3:0:0:
25,343,103516,5,2,0:2:0:0:
226,249,104025,1,2,0:2:0:0:
1,135,104533,5,2,0:2:0:0:
168,299,105042,1,2,0:2:0:0:
294,92,105550,1,2,0:2:0:0:
99,31,106058,5,2,0:2:0:0:
213,116,106313,1,2,0:2:0:0:
116,192,106567,1,2,0:2:0:0:
174,252,106821,1,2,0:2:0:0:
251,258,107075,6,0,P|256:227|279:158,1,90,2|2,0:2|0:2,0:2:0:0:
77,375,108092,2,0,P|72:344|49:275,1,90,2|2,0:2|0:2,0:2:0:0:
0,240,108855,1,0,0:2:0:0:
145,292,109109,6,0,P|181:301|206:310,1,45,2|0,0:2|0:2,0:2:0:0:
155,212,109618,2,0,P|133:218|111:223,1,45,2|0,0:2|0:2,0:2:0:0:
54,288,110126,5,2,0:2:0:0:
234,240,110380,2,0,B|309:239|272:195|372:194,1,135,4|0,0:3|0:2,0:2:0:0:
418,241,111652,5,2,0:2:0:0:
507,72,112160,1,2,0:2:0:0:
471,298,112669,5,2,0:2:0:0:
238,161,113177,1,2,0:2:0:0:
451,17,113686,1,2,0:2:0:0:
340,156,114194,5,2,0:2:0:0:
236,74,114448,1,2,0:2:0:0:
94,158,114703,1,2,0:2:0:0:
42,102,114957,1,2,0:2:0:0:
59,28,115211,6,0,P|105:48|113:90,1,90,2|2,0:2|0:2,0:2:0:0:
295,207,116228,2,0,P|249:227|241:269,1,90,2|2,0:2|0:2,0:2:0:0:
262,337,116991,1,2,0:2:0:0:
357,294,117245,6,0,P|327:286|309:279,1,45,2|0,0:2|0:2,0:2:0:0:
295,207,117753,2,0,P|325:199|343:192,1,45,2|0,0:2|0:2,0:2:0:0:
239,262,118262,5,2,0:2:0:0:
413,236,118516,2,0,P|424:192|460:102,1,135,4|0,0:3|0:2,0:2:0:0:
512,55,119787,5,2,0:2:0:0:
340,213,120296,1,2,0:2:0:0:
189,104,120804,5,2,0:2:0:0:
363,288,121313,1,2,0:2:0:0:
302,144,121821,1,2,0:2:0:0:
226,319,122330,5,2,0:2:0:0:
72,350,122584,1,2,0:2:0:0:
11,215,122838,1,2,0:2:0:0:
81,240,123092,1,2,0:2:0:0:
136,195,123347,6,0,P|128:146|120:100,1,90,2|2,0:2|0:2,0:2:0:0:
311,271,124364,2,0,P|304:315|297:360,1,90,2|2,0:2|0:2,0:2:0:0:
297,360,125126,1,2,0:2:0:0:
427,342,125380,6,0,P|396:334|377:329,1,45,2|0,0:2|0:2,0:2:0:0:
236,256,125889,2,0,P|214:262|193:268,1,45,2|0,0:2|0:2,0:2:0:0:
205,347,126397,5,2,0:2:0:0:
398,251,126652,2,0,P|367:204|277:199,1,135,4|0,0:3|0:2,0:2:0:0:
459,180,127923,6,0,P|467:156|475:132,1,45,2|0,0:2|0:2,0:2:0:0:
215,199,128431,2,0,P|222:220|229:241,1,45,2|0,0:2|0:2,0:2:0:0:
410,249,128940,2,0,L|460:270,1,45,2|0,0:2|0:2,0:2:0:0:
206,119,129448,6,0,L|156:140,1,45,2|0,0:2|0:2,0:2:0:0:
115,80,129957,2,0,L|73:62,1,45,2|0,0:2|0:2,0:2:0:0:
247,8,130465,2,0,L|255:61,1,45,2|0,0:2|0:2,0:2:0:0:
89,159,130974,2,0,L|47:176,1,45,2|0,0:2|0:2,0:2:0:0:
143,326,131482,6,0,L|154:374,1,45,2|0,0:2|0:2,0:2:0:0:
223,318,131991,2,0,L|234:270,1,45,2|0,0:2|0:2,0:2:0:0:
58,293,132499,2,0,L|68:336,1,45,2|0,0:2|0:2,0:2:0:0:
313,248,133008,2,0,P|296:215|193:194,1,135,2|0,0:2|0:2,0:2:0:0:
208,189,134025,6,0,B|276:177|228:129|325:113,1,135,2|4,0:0|0:3,0:2:0:0:
314,115,135550,6,0,P|322:88|350:17,1,90,2|0,0:2|0:2,0:2:0:0:
343,30,136567,1,2,0:2:0:0:
239,5,136821,2,0,P|247:32|252:60,1,45,2|0,0:2|0:2,0:2:0:0:
104,170,137330,2,0,P|64:168|35:110,1,90,2|0,0:2|0:2,0:2:0:0:
35,130,138092,1,2,0:2:0:0:
98,0,138347,2,0,P|111:27|104:89,1,90,2|0,0:2|0:2,0:2:0:0:
105,85,139109,1,2,0:2:0:0:
20,242,139618,6,0,P|71:225|200:197,1,180,2|2,0:2|0:2,0:2:0:0:
394,132,141143,2,0,P|442:140|494:32,2,180,2|2|0,0:2|0:2|0:2,0:2:0:0:
332,85,143686,6,0,P|340:51|345:31,1,45,2|0,0:2|0:2,0:2:0:0:
194,188,144194,2,0,P|186:154|181:134,1,45,2|0,0:2|0:2,0:2:0:0:
331,210,144703,2,0,P|339:176|344:156,1,45,2|0,0:2|0:2,0:2:0:0:
193,313,145211,1,2,0:2:0:0:
193,313,145465,2,0,P|185:279|180:259,1,45,2|0,0:2|0:2,0:2:0:0:
338,360,145974,2,0,P|346:326|351:306,1,45,2|0,0:2|0:2,0:2:0:0:
354,306,146736,6,0,L|411:294,1,45,2|0,0:2|0:2,0:2:0:0:
188,260,147245,2,0,L|245:272,1,45,2|0,0:2|0:2,0:2:0:0:
340,97,147753,2,0,L|322:197,1,90,2|0,0:2|0:2,0:2:0:0:
311,259,148770,1,2,0:2:0:0:
194,189,149279,6,0,P|151:191|115:243,1,90,2|0,0:2|0:2,0:2:0:0:
104,383,150296,2,0,P|57:368|41:216,1,225,2|0,0:2|0:2,0:2:0:0:
397,131,151821,6,0,B|410:144|410:144|536:121,1,107.999996704102,4|0,0:1|0:2,0:2:0:0:
102,377,152330,2,0,B|89:364|89:364|-37:387,1,107.999996704102,4|0,0:1|0:2,0:2:0:0:
288,384,152838,2,0,L|322:184,1,161.999995056153,0|0,1:2|0:2,0:2:0:0:
325,219,153347,1,4,0:1:0:0:
144,109,153601,6,0,B|109:126|109:126|136:240,1,107.999996704102,4|0,0:1|0:2,0:2:0:0:
457,363,154109,2,0,B|446:324|446:324|293:301,1,161.999995056153,4|0,0:1|0:2,0:2:0:0:
319,315,154618,1,4,0:3:0:0:
512,264,154872,2,0,L|395:287,1,107.999996704102,0|0,1:2|0:2,0:2:0:0:
236,326,155380,5,4,0:3:0:0:
21,30,155635,2,0,B|72:49|72:49|88:93|88:93|151:111,1,161.999995056153,4|0,0:1|0:2,0:2:0:0:
208,163,156143,2,0,P|284:142|328:133,1,107.999996704102,4|0,0:1|0:2,0:2:0:0:
505,186,156652,5,4,0:3:0:0:
130,187,156906,2,0,P|123:244|109:315,1,107.999996704102,0|0,1:2|0:2,0:2:0:0:
70,136,157414,5,0,1:2:0:0:
385,239,157669,2,0,P|397:188|421:98,1,107.999996704102,4|0,0:1|0:2,0:2:0:0:
221,384,158177,2,0,P|209:333|185:243,1,107.999996704102,4|0,0:1|0:2,0:2:0:0:
98,193,158686,5,4,0:3:0:0:
46,186,158770,1,4,0:3:0:0:
17,220,158855,1,4,0:3:0:0:
26,246,158940,1,0,1:2:0:0:
102,277,159194,5,4,0:3:0:0:
33,113,159448,1,0,1:2:0:0:
181,200,159703,1,8,0:3:0:0:
20,373,159957,6,0,L|37:298,1,53.9999983520508,4|0,0:1|0:2,0:2:0:0:
188,192,160211,2,0,L|205:267,1,53.9999983520508,2|0,0:2|0:2,0:2:0:0:
328,342,160465,2,0,P|385:330|511:307,1,161.999995056153,4|0,0:1|0:2,0:2:0:0:
489,302,160974,6,0,L|505:249,1,53.9999983520508,2|0,1:3|0:2,0:2:0:0:
484,252,161228,2,0,L|500:199,1,53.9999983520508,0|0,0:2|0:2,0:2:0:0:
479,202,161482,2,0,L|495:149,1,53.9999983520508,2|0,0:3|0:2,0:2:0:0:
158,34,161736,6,0,L|221:51,1,53.9999983520508,4|0,0:1|0:2,0:2:0:0:
389,107,161991,6,0,L|373:160,1,53.9999983520508,2|0,0:3|0:2,0:2:0:0:
394,157,162245,2,0,L|378:210,1,53.9999983520508,4|0,0:3|0:2,0:2:0:0:
399,207,162499,2,0,L|383:260,1,53.9999983520508,2|0,0:3|0:2,0:2:0:0:
404,256,162753,2,0,L|388:309,1,53.9999983520508,4|0,0:3|0:2,0:2:0:0:
86,371,163008,6,0,B|53:331|53:331|94:265,1,107.999996704102,2|0,1:3|0:2,0:2:0:0:
155,324,163389,1,4,0:3:0:0:
155,324,163516,1,0,1:2:0:0:
19,237,163770,1,4,0:3:0:0:
216,14,164025,6,0,B|241:157|241:157|295:181,1,161.999995056153,4|0,0:1|0:2,0:2:0:0:
456,251,164533,2,0,B|471:244|471:244|496:101,1,161.999995056153,4|0,0:1|0:2,0:2:0:0:
328,73,165042,2,0,B|191:101|191:101|185:149,1,161.999995056153,4|0,0:1|0:2,0:2:0:0:
125,165,165550,6,0,B|133:191|133:191|187:201,1,53.9999983520508,4|0,0:1|0:2,0:2:0:0:
411,106,165804,2,0,L|432:-20,1,107.999996704102,4|0,0:1|0:2,0:2:0:0:
103,265,166313,2,0,L|120:371,1,107.999996704102,4|0,0:1|0:2,0:2:0:0:
419,317,166821,6,0,P|386:352|303:338,1,107.999996704102,4|0,0:1|0:2,0:2:0:0:
159,195,167330,1,0,1:2:0:0:
345,275,167584,1,4,0:3:0:0:
34,336,167838,1,0,1:2:0:0:
305,109,168092,6,0,B|325:117|325:117|385:76|502:54,1,161.999995056153,4|0,0:1|0:2,0:2:0:0:
474,60,168601,2,0,P|502:109|463:143,1,107.999996704102,6|0,0:3|0:2,0:2:0:0:
245,60,169109,5,2,1:3:0:0:
245,60,169364,1,0,0:2:0:0:
111,140,169618,5,6,0:3:0:0:
444,321,169872,2,0,L|463:209,1,107.999996704102,4|2,0:1|0:3,0:2:0:0:
18,91,170380,2,0,L|36:197,1,107.999996704102,4|2,0:1|0:3,0:2:0:0:
0,270,170889,5,4,0:3:0:0:
242,292,171143,2,0,B|184:277|184:277|169:236|169:236|92:216,1,161.999995056153,2|0,1:3|0:2,0:2:0:0:
111,234,171652,6,0,L|100:297,1,53.9999983520508,4|0,0:1|0:2,0:2:0:0:
361,384,171906,2,0,L|342:272,1,107.999996704102,4|2,0:1|0:3,0:2:0:0:
255,0,172414,2,0,L|236:112,1,107.999996704102,4|2,0:1|0:3,0:2:0:0:
426,285,172923,5,4,0:3:0:0:
473,292,173008,1,4,0:3:0:0:
497,272,173092,1,4,0:3:0:0:
493,255,173177,1,2,1:3:0:0:
431,208,173431,5,4,0:3:0:0:
280,353,173686,2,0,L|208:338,1,53.9999983520508,4|0,0:1|0:2,0:2:0:0:
366,125,173940,6,0,B|433:140|433:140|440:167|440:167|535:187,1,161.999995056153,4|0,0:1|0:2,0:2:0:0:
181,243,174448,2,0,B|248:228|248:228|255:201|255:201|350:181,1,161.999995056153,4|0,0:3|0:2,0:2:0:0:
181,159,174957,5,4,0:3:0:0:
125,162,175042,1,4,0:3:0:0:
101,190,175126,1,4,0:3:0:0:
101,215,175211,1,2,1:3:0:0:
324,273,175465,5,4,0:1:0:0:
61,126,175719,1,2,1:3:0:0:
313,19,175974,1,8,0:3:0:0:
180,251,176228,6,0,L|166:366,1,107.999996704102,4|0,0:1|0:2,0:2:0:0:
496,107,176736,2,0,L|482:0,1,107.999996704102,4|0,0:1|0:2,0:2:0:0:
153,178,177245,2,0,P|92:196|-38:247,1,161.999995056153,2|0,1:3|0:2,0:2:0:0:
5,241,177753,6,0,L|21:180,1,53.9999983520508,4|0,0:1|0:2,0:2:0:0:
229,98,178008,2,0,P|259:212|273:252,1,107.999996704102,4|2,0:1|0:3,0:2:0:0:
485,384,178516,2,0,P|515:270|529:230,1,107.999996704102,4|2,0:1|0:3,0:2:0:0:
255,288,179025,5,4,0:3:0:0:
306,288,179109,1,4,0:3:0:0:
336,255,179194,1,4,0:3:0:0:
333,234,179279,1,2,1:3:0:0:
255,202,179533,5,4,0:3:0:0:
495,52,179787,1,2,1:3:0:0:
179,254,180042,6,0,P|169:165|161:128,1,107.999996704102,4|2,0:1|0:3,0:2:0:0:
429,384,180550,2,0,P|433:355|442:289,1,53.9999983520508,4|0,0:1|0:2,0:2:0:0:
506,300,180804,2,4,P|502:271|489:190,1,107.999996704102,4|4,0:1|0:1,0:1:0:0:
421,161,181143,1,4,0:3:0:0:
421,161,181228,1,4,0:3:0:0:
421,161,181313,2,0,L|300:137,1,107.999996704102,2|0,1:3|0:2,0:2:0:0:
76,60,181821,6,0,P|84:88|91:123,1,53.9999983520508,4|0,0:1|0:2,0:2:0:0:
210,292,182075,2,0,P|197:335|190:379,1,90,4|2,0:1|0:3,0:2:0:0:
328,266,182584,6,0,B|339:286|339:286|397:304|452:364,1,135,12|0,0:3|0:2,0:2:0:0:
105,250,183092,2,0,B|94:230|94:230|36:212|-19:152,1,135,12|0,0:3|0:2,0:2:0:0:
271,29,183601,2,0,B|282:44|282:44|236:128|214:255|214:255|229:274|242:307,1,270,12|0,0:3|0:2,0:2:0:0:
142,145,199364,5,2,0:2:0:0:
142,145,199618,2,0,P|185:100|253:107,1,135,2|0,0:2|0:2,0:2:0:0:
254,378,200635,6,0,P|257:335|265:266,1,90,2|0,0:2|0:2,0:2:0:0:
280,268,201016,2,0,P|278:245|275:223,1,45,2|0,0:2|0:2,0:2:0:0:
218,179,201270,1,2,0:2:0:0:
218,179,201397,1,2,0:2:0:0:
457,156,201652,6,0,P|398:147|355:139,1,90,8|0,0:2|0:2,0:2:0:0:
355,134,202033,2,0,P|361:92|370:-6,1,135,2|0,0:2|0:2,0:2:0:0:
109,40,202669,6,0,P|56:58|64:110,1,90,2|0,0:2|0:2,0:2:0:0:
40,99,203050,2,0,P|66:132|95:126,1,45,2|0,0:2|0:2,0:2:0:0:
142,120,203304,1,2,0:2:0:0:
142,120,203431,1,2,0:2:0:0:
205,296,203686,6,0,P|258:278|250:226,1,90,10|0,0:2|0:2,0:2:0:0:
258,230,204067,2,0,P|230:205|203:227,1,45,2|0,0:2|0:2,0:2:0:0:
158,235,204321,1,2,0:2:0:0:
158,235,204448,1,2,0:2:0:0:
93,310,204703,6,0,P|41:295|28:292,2,45,2|0|0,0:2|0:2|0:2,0:2:0:0:
95,327,205084,2,0,P|131:371|175:363,1,90,2|2,0:2|0:2,0:2:0:0:
173,360,205465,1,2,0:2:0:0:
211,261,205719,6,0,P|206:210|204:161,1,90,10|0,0:2|0:2,0:2:0:0:
216,161,206101,2,0,P|221:110|223:61,1,90,2|0,0:2|0:2,0:2:0:0:
206,59,206482,1,2,0:2:0:0:
293,209,206736,6,0,P|376:223|405:227,1,90,2|0,0:2|0:2,0:2:0:0:
392,212,207118,1,2,0:2:0:0:
495,273,207372,1,2,0:2:0:0:
495,273,207499,6,0,L|486:211,1,45,2|0,0:2|0:2,0:2:0:0:
361,100,207753,2,0,L|352:162,1,45,10|0,0:2|0:2,0:2:0:0:
216,280,208008,2,0,L|209:235,1,45,2|0,0:2|0:2,0:2:0:0:
142,198,208262,2,0,B|52:176|52:176|78:194|81:221,1,135,2|0,0:2|0:2,0:2:0:0:
75,217,208770,6,0,P|87:237|96:257,1,45,6|0,0:3|0:2,0:2:0:0:
8,357,209025,1,2,0:2:0:0:
7,365,209152,2,0,P|45:354|94:341,1,90,2|0,0:2|0:2,0:2:0:0:
101,353,209533,2,0,L|158:347,1,45,2|0,0:2|0:2,0:2:0:0:
283,302,209787,2,0,B|355:325|303:369|403:389,2,135,10|2|0,0:2|0:2|0:2,0:2:0:0:
61,113,210804,6,0,P|92:169|129:167,1,90,2|0,0:2|0:2,0:2:0:0:
123,171,211186,2,0,P|168:152|206:150,1,45,2|0,0:2|0:2,0:2:0:0:
238,176,211440,1,2,0:2:0:0:
238,176,211567,1,4,0:3:0:0:
359,234,211821,6,0,P|376:176|391:142,1,90,10|0,0:2|0:2,0:2:0:0:
403,135,212203,2,0,P|391:91|376:55,1,45,2|0,0:2|0:2,0:2:0:0:
341,37,212457,1,2,0:2:0:0:
341,37,212584,1,2,0:2:0:0:
483,125,212838,5,4,0:3:0:0:
312,113,213092,1,2,0:2:0:0:
311,106,213219,2,0,P|245:86|216:82,1,90,2|0,0:2|0:2,0:2:0:0:
228,96,213601,1,2,0:2:0:0:
387,148,213855,6,0,P|406:222|417:255,1,90,10|0,0:2|0:2,0:2:0:0:
428,239,214236,2,0,P|415:282|397:378,1,135,2|0,0:2|0:2,0:2:0:0:
56,344,214872,6,0,P|43:291|77:259,1,90,2|0,0:2|0:2,0:2:0:0:
56,255,215253,2,0,P|71:203|161:195,1,135,2|4,0:2|0:3,0:2:0:0:
8,161,215889,5,10,0:2:0:0:
137,261,216143,1,4,0:3:0:0:
141,270,216270,2,0,P|197:286|238:305,1,90,2|0,0:2|0:2,0:2:0:0:
229,305,216652,1,2,0:2:0:0:
449,217,216906,6,0,P|435:151|435:134,1,45,4|0,0:3|0:2,0:2:0:0:
510,146,217160,1,2,0:2:0:0:
512,158,217287,2,0,P|446:140|378:111,1,135,2|2,0:2|0:2,0:2:0:0:
114,22,217923,6,0,P|66:45|65:91,1,90,10|0,0:2|0:2,0:2:0:0:
64,93,218304,2,0,P|120:108|154:188,1,135,2|0,0:2|0:2,0:2:0:0:
399,312,218940,6,0,P|381:364|347:370,1,90,2|0,0:2|0:2,0:2:0:0:
345,379,219321,2,0,B|345:312|282:337|295:243,1,135,2|4,0:2|0:3,0:2:0:0:
431,174,219957,6,0,P|411:223|367:231,1,90,10|0,0:2|0:2,0:2:0:0:
367,228,220338,1,2,0:2:0:0:
202,274,220592,5,2,0:2:0:0:
210,279,220719,2,0,L|222:336,1,45,2|0,0:2|0:2,0:2:0:0:
302,183,220974,2,0,L|311:138,2,45,4|0|0,0:3|0:2|0:2,0:2:0:0:
386,238,221355,2,0,P|437:252|494:275,1,90,2|2,0:2|0:2,0:2:0:0:
483,277,221736,2,0,L|433:293,1,45,2|0,0:2|0:2,0:2:0:0:
412,164,221991,2,0,L|455:178,1,45,10|0,0:2|0:2,0:2:0:0:
298,256,222245,5,2,0:2:0:0:
303,263,222372,2,0,P|313:321|324:364,1,90,2|0,0:2|0:2,0:2:0:0:
330,365,222753,2,0,L|343:313,1,45,2|0,0:2|0:2,0:2:0:0:
228,317,223008,2,0,L|215:265,1,45,2|0,0:2|0:2,0:2:0:0:
107,314,223262,5,2,0:2:0:0:
96,318,223389,2,0,P|53:306|-8:299,1,90,2|2,0:2|0:2,0:2:0:0:
9,309,223770,6,0,L|0:249,1,45,6|0,0:3|0:2,0:2:0:0:
150,205,224025,2,0,L|143:249,1,45,10|0,0:2|0:2,0:2:0:0:
235,366,224279,2,0,L|228:321,1,45,6|0,0:3|0:2,0:2:0:0:
415,242,224533,2,0,B|458:227|498:203|498:203|478:230|471:265,1,135,2|0,0:2|0:2,0:2:0:0:
469,247,225042,6,0,P|403:217|350:200,1,90,4|0,0:3|0:2,0:2:0:0:
353,136,225423,2,0,P|311:152|270:171,1,90,2|0,0:2|0:2,0:2:0:0:
210,225,225804,2,0,L|144:197,1,45,2|0,0:2|0:2,0:2:0:0:
174,54,226058,6,0,L|205:151,1,90,10|0,0:2|0:2,0:2:0:0:
286,254,226440,2,0,L|248:390,1,135,2|0,0:2|0:2,0:2:0:0:
249,384,227075,6,0,P|300:367|365:360,1,107.999996704102,2|0,0:2|0:2,0:2:0:0:
380,288,227457,2,0,P|431:305|496:312,1,107.999996704102,2|0,0:2|0:2,0:2:0:0:
512,218,227838,2,0,P|491:226|443:228,1,53.9999983520508,6|0,0:3|0:2,0:2:0:0:
344,102,228092,6,0,P|372:172|388:221,1,107.999996704102,10|0,0:2|0:2,0:2:0:0:
493,52,228474,2,0,P|465:122|449:171,1,107.999996704102,2|0,0:2|0:2,0:2:0:0:
412,52,228855,2,0,P|404:20|394:-15,1,53.9999983520508,2|0,0:2|0:2,0:2:0:0:
183,90,229109,6,0,L|126:76,2,45,4|0|0,0:3|0:2|0:2,0:2:0:0:
130,161,229491,2,0,P|82:180|32:224,1,90,2|0,0:2|0:2,0:2:0:0:
43,281,229872,2,0,L|-14:295,1,45,2|0,0:2|0:2,0:2:0:0:
133,169,230126,6,0,B|181:194|149:212|207:231,1,90,10|0,0:2|0:2,0:2:0:0:
221,304,230508,2,0,P|261:282|267:220,1,90,2|0,0:2|0:2,0:2:0:0:
288,152,230889,2,0,P|266:161|232:172,1,45,2|0,0:2|0:2,0:2:0:0:
143,288,231143,6,0,P|110:336|98:373,1,90,2|0,0:2|0:2,0:2:0:0:
49,279,231525,2,0,P|32:237|5:201,1,90,2|0,0:2|0:2,0:2:0:0:
108,221,231906,1,4,0:3:0:0:
347,351,232160,6,0,P|391:342|464:328,1,90,10|4,0:2|0:3,0:2:0:0:
512,268,232669,2,0,P|468:259|395:245,1,90,2|0,0:2|0:2,0:2:0:0:
260,12,233177,2,0,P|250:102|243:177,1,116.999994644165,4|0,0:1|0:2,0:2:0:0:
128,360,233686,6,0,P|68:346|45:289,1,116.999994644165,2|0,0:2|0:2,0:2:0:0:
243,213,234194,2,0,P|303:199|326:142,1,116.999994644165,10|0,0:2|0:2,0:2:0:0:
158,53,234703,6,0,P|168:143|175:218,1,116.999994644165,2|0,0:2|0:2,0:2:0:0:
340,379,235211,2,0,P|345:320|352:262,1,116.999994644165,2|0,0:2|0:2,0:2:0:0:
470,28,235719,2,0,P|480:118|487:193,1,116.999994644165,2|4,0:2|0:3,0:2:0:0:
243,213,236228,5,10,0:2:0:0:
432,283,236482,1,2,0:2:0:0:
410,210,236736,5,2,0:2:0:0:
352,262,236991,1,2,0:2:0:0:
320,191,237245,2,0,L|332:121,2,58.4999973220826,4|0|0,0:3|0:2|0:2,0:2:0:0:
183,311,237753,2,0,B|116:322|159:356|68:364,1,116.999994644165,2|0,0:2|0:2,0:2:0:0:
8,137,238262,2,0,P|66:150|113:272,1,175.499991966248,10|0,0:2|0:2,0:2:0:0:
114,253,238770,5,2,0:2:0:0:
201,384,239025,1,2,0:2:0:0:
236,124,239279,2,0,P|166:145|110:160,1,116.999994644165,2|0,0:2|0:2,0:2:0:0:
11,305,239787,2,0,P|67:320|123:337,1,116.999994644165,2|4,0:2|0:3,0:2:0:0:
161,67,240296,5,10,0:2:0:0:
67,218,240550,1,4,0:3:0:0:
291,272,240804,2,0,B|300:273|312:276|312:276|372:222|431:208|431:208|427:224|428:241,1,175.499991966248,2|0,0:2|0:2,0:2:0:0:
416,223,241313,2,0,B|339:219|383:176|290:177,1,116.999994644165,4|0,0:3|0:2,0:2:0:0:
208,291,241821,6,0,P|248:351|315:347,1,116.999994644165,2|0,0:2|0:2,0:2:0:0:
341,64,242330,2,0,P|319:132|311:181,1,116.999994644165,10|0,0:2|0:2,0:2:0:0:
432,305,242838,2,0,P|486:289|512:239,1,116.999994644165,2|0,0:2|0:2,0:2:0:0:
311,176,243347,6,0,P|228:203|125:213,1,175.499991966248,2|0,0:2|0:2,0:2:0:0:
127,218,243855,2,0,P|100:139|76:95,1,116.999994644165,2|4,0:2|0:3,0:2:0:0:
304,263,244364,5,10,0:2:0:0:
30,185,244618,1,2,0:2:0:0:
294,79,244872,5,2,0:2:0:0:
229,121,245126,1,2,0:2:0:0:
172,70,245380,2,0,P|177:41|181:1,2,58.4999973220826,4|0|0,0:3|0:2|0:2,0:2:0:0:
285,266,245889,6,0,P|350:287|425:318,1,116.999994644165,2|0,0:2|0:2,0:2:0:0:
512,82,246397,2,0,P|433:103|418:206,1,175.499991966248,10|0,0:2|0:2,0:2:0:0:
418,194,246906,1,2,0:2:0:0:
353,76,247160,1,2,0:2:0:0:
510,166,247414,6,0,P|491:222|477:300,1,116.999994644165,2|0,0:2|0:2,0:2:0:0:
225,384,247923,2,0,P|213:326|194:271,1,116.999994644165,2|4,0:2|0:3,0:2:0:0:
441,340,248431,5,10,0:2:0:0:
184,186,248686,2,0,P|130:207|106:263,2,116.999994644165,4|0|0,0:3|0:2|0:2,0:2:0:0:
510,166,249448,2,0,P|400:147|347:66,1,175.499991966248,4|0,0:1|0:2,0:2:0:0:
358,91,249957,6,0,P|303:51|244:81,1,116.999994644165,2|0,0:2|0:2,0:2:0:0:
229,336,250465,2,0,P|284:376|343:346,1,116.999994644165,10|0,0:2|0:2,0:2:0:0:
458,21,250974,6,0,P|443:77|436:135,1,116.999994644165,2|0,0:2|0:2,0:2:0:0:
295,283,251482,2,0,P|287:224|273:168,1,116.999994644165,2|0,0:2|0:2,0:2:0:0:
128,21,251991,2,0,P|120:79|106:135,1,116.999994644165,2|4,0:2|0:3,0:2:0:0:
39,173,252499,5,10,0:2:0:0:
316,104,252753,1,2,0:2:0:0:
209,268,253008,5,2,0:2:0:0:
155,215,253262,1,2,0:2:0:0:
88,255,253516,2,0,P|60:267|29:276,2,58.4999973220826,4|0|0,0:3|0:2|0:2,0:2:0:0:
299,278,254025,6,0,B|387:286|348:363|449:361,1,175.499991966248,2|0,0:2|0:2,0:2:0:0:
455,371,254533,2,0,P|473:311|492:252,1,116.999994644165,10|0,0:2|0:2,0:2:0:0:
298,358,255042,5,2,0:2:0:0:
406,246,255296,1,2,0:2:0:0:
264,197,255550,2,0,P|212:238|218:297,1,116.999994644165,2|0,0:2|0:2,0:2:0:0:
406,246,256058,2,0,P|388:186|369:127,1,116.999994644165,2|4,0:2|0:3,0:2:0:0:
473,174,256567,5,2,0:2:0:0:
321,260,256821,1,4,0:3:0:0:
134,74,257075,2,0,L|151:-13,1,67.5000025749208,2|0,0:2|0:2,0:2:0:0:
39,87,257584,2,0,P|127:105|167:206,1,175.499991966248,4|0,0:3|0:2,0:2:0:0:
177,182,258092,6,0,P|164:239|160:304,1,116.999994644165,2|0,0:2|0:2,0:2:0:0:
408,373,258601,2,0,P|403:314|390:257,1,116.999994644165,8|0,0:2|0:2,0:2:0:0:
70,260,259109,2,0,P|74:318|87:375,1,116.999994644165,2|0,0:2|0:2,0:2:0:0:
465,221,259618,6,0,P|413:171|363:173,1,116.999994644165,2|0,0:2|0:2,0:2:0:0:
0,222,260126,2,0,P|56:215|93:171,1,116.999994644165,0|4,0:3|0:3,0:3:0:0:
303,6,260635,2,0,P|261:86|226:236,1,233.999989288331,10|2,0:2|0:2,0:2:0:0:
226,224,261397,1,0,0:2:0:0:
456,141,261652,6,0,P|488:112|530:93,2,58.4999973220826,4|0|0,0:3|0:2|0:2,0:2:0:0:
138,287,262160,2,0,P|205:306|264:330,1,116.999994644165,2|0,0:2|0:2,0:2:0:0:
512,217,262669,2,0,P|445:236|386:260,1,116.999994644165,10|0,0:2|0:2,0:2:0:0:
269,159,263177,2,0,P|311:239|346:389,1,233.999989288331,2|0,0:2|0:2,0:2:0:0:
345,377,263940,1,0,0:2:0:0:
249,323,264194,5,2,0:2:0:0:
371,172,264448,1,4,0:3:0:0:
223,37,264703,2,0,B|148:60|210:96|88:110,1,116.999994644165,10|4,0:2|0:3,0:2:0:0:
63,62,265211,1,2,0:2:0:0:
63,62,265465,1,2,0:2:0:0:
269,159,265719,5,4,0:3:0:0:
266,140,266736,1,2,0:2:0:0:
273,109,267753,1,2,0:2:0:0:
259,76,268770,1,2,0:2:0:0:
246,257,269787,5,2,0:2:0:0:
260,279,270804,1,2,0:2:0:0:
249,298,271821,1,2,0:2:0:0:
267,326,272838,1,2,0:2:0:0:
82,248,273855,5,2,0:2:0:0:
113,234,274872,1,2,0:2:0:0:
149,247,275889,1,2,0:2:0:0:
182,232,276906,1,2,0:2:0:0:
190,236,277160,1,0,0:2:0:0:
198,238,277669,5,0,0:2:0:0:
252,278,277923,1,2,0:2:0:0:
282,252,278177,1,2,0:2:0:0:
281,227,278940,5,0,0:2:0:0:
377,283,279194,1,2,0:2:0:0:
395,271,279957,5,0,0:2:0:0:
457,237,280211,1,2,0:2:0:0:
459,243,280465,5,0,0:2:0:0:
335,198,280719,1,2,0:2:0:0:
335,205,280974,5,0,0:2:0:0:
475,123,281228,1,2,0:2:0:0:
328,30,281482,1,2,0:2:0:0:
373,116,281991,5,2,0:2:0:0:
353,130,283008,1,2,0:2:0:0:
326,124,284025,1,2,0:2:0:0:
303,133,285042,5,2,0:2:0:0:
230,112,285296,1,2,0:2:0:0:
175,170,285550,1,2,0:2:0:0:
100,153,285804,1,2,0:2:0:0:
38,260,286058,5,2,0:2:0:0:
48,298,287075,1,2,0:2:0:0:
30,327,288092,1,2,0:2:0:0:
218,330,289109,5,2,0:2:0:0:
211,349,289618,1,0,0:2:0:0:
442,140,290126,5,2,0:2:0:0:
439,129,291143,2,0,L|513:112,1,72,2|0,0:2|0:2,0:2:0:0:
364,99,292160,2,0,L|438:116,1,72,2|0,0:2|0:2,0:2:0:0:
291,125,293177,2,0,L|365:108,1,72,2|0,0:2|0:2,0:2:0:0:
220,118,294194,2,0,L|294:135,1,72,2|0,0:2|0:2,0:2:0:0:
147,144,295211,2,0,L|221:127,2,72,2|0|0,0:2|0:2|0:2,0:2:0:0:
87,100,296482,5,2,0:2:0:0:
149,153,296736,1,2,0:2:0:0:
238,55,296991,1,2,0:2:0:0:
339,116,297245,2,0,P|328:153|326:163,1,36,2|0,0:2|0:2,0:2:0:0:
410,86,297753,5,2,0:2:0:0:
275,218,298008,1,2,0:2:0:0:
275,218,298262,2,0,P|315:230|359:246,1,72,2|2,0:2|0:2,0:2:0:0:
405,191,299279,1,2,0:2:0:0:
254,346,299787,2,0,P|214:358|170:374,1,72,2|0,0:2|0:2,0:2:0:0:
112,351,300550,5,2,0:2:0:0:
107,347,300804,2,0,L|101:307,1,36,2|0,0:2|0:2,0:2:0:0:
186,253,301313,5,2,0:2:0:0:
181,257,301567,2,0,L|175:297,1,36,2|0,0:2|0:2,0:2:0:0:
40,239,302075,1,2,0:2:0:0:
40,239,302330,2,0,P|68:234|115:216,2,72,2|0|0,0:2|0:2|0:2,0:2:0:0:
134,22,303855,6,0,P|159:24|209:128,1,144,2|2,0:2|0:2,0:2:0:0:
217,122,305126,2,0,P|248:135|263:140,1,36,2|0,0:2|0:2,0:2:0:0:
287,198,305635,2,0,P|318:185|333:180,1,36,2|0,0:2|0:2,0:2:0:0:
329,72,306143,1,2,0:2:0:0:
329,72,306397,2,0,P|323:97|322:114,1,36,0|0,0:2|0:2,0:2:0:0:
395,146,306906,2,0,P|410:106|437:1,1,144,2|0,0:2|0:2,0:2:0:0:
447,12,308431,5,0,0:2:0:0:
451,28,308940,1,2,0:2:0:0:
245,85,309448,5,2,0:2:0:0:
241,101,309957,1,0,0:2:0:0:
304,146,310465,5,2,0:2:0:0:
308,162,310974,1,0,0:2:0:0:
182,189,311482,5,2,0:2:0:0:
178,205,311991,1,0,0:2:0:0:
227,267,312499,1,2,0:2:0:0:
323,375,312753,5,2,0:2:0:0:
462,303,313008,1,2,0:2:0:0:
405,255,313262,1,2,0:2:0:0:
391,327,313516,2,0,L|404:368,1,36,2|0,0:2|0:2,0:2:0:0:
482,231,314025,2,0,L|495:190,1,36,2|0,0:2|0:2,0:2:0:0:
299,234,314533,6,0,B|220:254|276:303|185:324,1,144,2|2,0:2|0:2,0:2:0:0:
129,368,316058,1,0,0:2:0:0:
129,368,316567,2,0,P|119:343|113:332,1,36,2|0,0:2|0:2,0:2:0:0:
9,299,317075,2,0,P|35:302|48:303,1,36,2|0,0:2|0:2,0:2:0:0:
128,229,317584,2,0,P|111:250|104:260,1,36,2|0,0:2|0:2,0:2:0:0:
98,153,318092,5,2,0:2:0:0:
98,153,318347,2,0,P|93:134|88:113,2,36,2|0|2,0:2|0:2|0:2,0:2:0:0:
333,253,319618,2,0,P|328:270|324:287,2,36,2|0|0,0:2|0:2|0:2,0:2:0:0:
340,244,320635,2,0,L|379:234,1,36,2|0,0:2|0:2,0:2:0:0:
437,281,321143,5,0,0:2:0:0:
512,160,321397,2,0,L|473:150,1,36,2|0,0:2|0:2,0:2:0:0:
453,73,321906,2,0,L|492:63,1,36,2|0,0:2|0:2,0:2:0:0:
398,160,322414,1,0,0:2:0:0:
398,160,322669,2,0,P|385:116|376:89,2,72,2|2|0,0:2|0:2|0:2,0:2:0:0:
343,218,324194,1,0,0:2:0:0:
343,218,324703,6,0,P|333:255|326:292,1,72,2|0,0:2|0:2,0:2:0:0:
257,363,325719,2,0,P|249:327|240:292,1,72,2|0,0:2|0:2,0:2:0:0:
91,213,326736,2,0,P|55:205|9:198,1,72,2|0,0:2|0:2,0:2:0:0:
191,94,327753,2,0,P|155:102|109:109,1,72,2|0,0:2|0:2,0:2:0:0:
286,170,328770,5,2,0:2:0:0:
213,161,329025,1,2,0:2:0:0:
392,30,329279,2,0,P|395:62|405:94,1,53.9999983520508,2|0,0:2|0:2,0:2:0:0:
344,266,329787,2,0,P|350:239|352:212,1,53.9999983520508,2|0,0:2|0:2,0:2:0:0:
462,127,330296,2,0,P|505:109|525:104,1,53.9999983520508,2|0,0:2|0:2,0:2:0:0:
178,353,330804,6,0,P|103:326|-10:295,1,180,4|2,0:1|0:3,0:2:0:0:
1,378,331567,1,4,0:3:0:0:
140,256,331821,2,0,P|131:194|120:156,1,90,2|4,1:3|0:3,0:2:0:0:
346,36,332330,2,0,P|335:79|329:124,1,90,2|0,0:3|0:2,0:2:0:0:
495,318,332838,6,0,B|395:293|453:239|351:216,1,180,2|2,0:3|0:3,0:2:0:0:
409,141,333601,2,0,P|452:131|494:113,1,90,2|2,0:2|1:3,0:2:0:0:
482,197,334109,1,4,0:3:0:0:
313,94,334364,1,4,0:2:0:0:
142,375,334618,1,4,0:0:0:0:
26,347,334872,5,4,0:1:0:0:
26,347,335380,2,0,P|37:304|42:237,1,90,2|0,0:3|0:2,0:2:0:0:
210,182,335889,2,0,P|214:226|225:270,1,90,2|4,1:3|0:3,0:2:0:0:
24,157,336397,2,0,P|83:172|132:178,1,90,2|0,0:3|0:2,0:2:0:0:
294,346,336906,2,0,P|149:368|106:380,1,180,2|2,0:3|0:3,0:2:0:0:
55,345,337669,5,2,1:2:0:0:
303,267,337923,1,2,1:3:0:0:
153,251,338177,1,4,0:3:0:0:
370,238,338431,1,2,1:3:0:0:
221,303,338686,1,4,0:3:0:0:
494,251,338940,6,0,P|483:199|473:142,1,90,4|0,0:1|0:2,0:2:0:0:
207,29,339448,2,0,P|198:73|189:117,1,90,2|4,0:3|0:3,0:2:0:0:
119,158,339957,1,2,1:3:0:0:
281,91,340211,1,4,0:3:0:0:
30,162,340465,6,0,P|92:182|212:255,1,180,2|2,0:3|0:3,0:2:0:0:
218,322,341228,2,0,P|256:299|272:258,2,90,0|2|0,1:2|0:3|0:2,0:2:0:0:
173,384,341991,1,2,1:3:0:0:
40,244,342245,2,0,B|142:228|83:163|206:152,1,180,4|0,0:3|0:2,0:2:0:0:
264,185,342880,1,4,0:3:0:0:
264,185,343008,6,0,L|281:78,1,90,4|0,0:1|0:2,0:2:0:0:
346,58,343389,1,4,0:3:0:0:
346,58,343517,2,0,L|453:41,1,90,2|0,0:3|0:2,0:2:0:0:
195,233,344025,5,2,1:3:0:0:
347,163,344279,1,4,0:3:0:0:
172,63,344533,2,0,L|186:151,2,90,2|0|0,0:3|0:2|0:2,0:2:0:0:
242,28,345296,5,0,1:2:0:0:
121,196,345550,1,10,0:3:0:0:
264,274,345804,1,4,0:3:0:0:
135,384,346058,5,2,1:3:0:0:
243,202,346313,1,4,0:3:0:0:
343,290,346567,1,10,0:3:0:0:
410,258,346821,1,4,0:3:0:0:
142,281,347075,6,0,B|81:300|81:300|63:346|63:346|-3:367,1,180,4|2,0:1|0:3,0:2:0:0:
1,283,347838,1,4,0:3:0:0:
151,365,348092,1,2,1:3:0:0:
151,203,348347,2,0,P|158:156|167:113,2,90,4|2|0,0:3|0:3|0:2,0:2:0:0:
290,384,349109,6,0,P|374:358|401:353,1,90,2|0,0:3|0:2,0:2:0:0:
496,252,349618,2,0,P|452:240|410:225,1,90,2|0,0:3|0:2,0:2:0:0:
238,177,350126,1,2,1:3:0:0:
316,286,350380,1,4,0:3:0:0:
435,103,350635,2,0,P|416:159|396:246,1,135,2|0,0:3|0:2,0:2:0:0:
383,233,351143,5,4,0:1:0:0:
512,97,351397,2,0,P|486:36|395:38,1,135,2|0,1:2|0:2,0:2:0:0:
417,31,351906,5,4,0:1:0:0:
153,152,352160,1,2,1:3:0:0:
212,90,352414,2,0,P|227:136|244:207,2,90,4|2|0,0:3|0:3|0:2,0:2:0:0:
0,158,353177,6,0,P|43:172|95:198,1,90,6|0,0:3|0:2,0:2:0:0:
230,0,353686,2,0,P|187:14|106:49,1,120,2|4,0:3|0:3,0:2:0:0:
75,102,354194,1,0,1:2:0:0:
75,102,354364,1,4,0:3:0:0:
209,167,354703,5,0,1:2:0:0:
247,126,354872,1,0,1:2:0:0:
300,136,355042,1,4,0:3:0:0:
360,91,355211,6,0,P|377:40|392:-12,1,90,4|0,0:1|0:2,0:2:0:0:
460,19,355719,1,2,0:3:0:0:
302,156,355974,1,4,0:3:0:0:
426,316,356228,2,0,P|475:299|518:292,1,90,0|0,1:2|0:2,0:2:0:0:
337,303,356736,6,0,P|312:345|304:391,1,90,2|0,0:3|0:2,0:2:0:0:
259,261,357118,1,0,0:2:0:0:
259,261,357245,2,0,P|236:214|210:178,2,90,6|0|2,0:3|1:2|0:3,0:2:0:0:
426,316,358008,5,0,3:2:0:0:
226,339,358262,1,0,1:2:0:0:
394,245,358516,1,4,0:3:0:0:
394,245,358770,2,0,P|411:190|467:86,1,135,2|0,3:3|0:2,0:2:0:0:
457,115,359279,6,0,P|443:52|379:63,1,120,4|0,0:3|1:2,0:2:0:0:
327,90,359787,2,0,P|338:118|343:148,2,60,0|0|0,3:2|3:2|3:2,3:2:0:0:
247,18,360296,2,0,P|233:81|169:70,1,120,0|4,1:2|0:3,0:2:0:0:
110,61,360804,2,0,P|121:33|125:3,2,60,0|0|0,3:2|3:2|3:2,3:2:0:0:
28,126,361313,5,0,1:2:0:0:
101,147,361482,1,0,1:2:0:0:
120,219,361652,1,4,0:3:0:0:
193,246,361821,5,8,0:3:0:0:
219,209,361991,1,8,0:3:0:0:
267,213,362160,1,4,0:3:0:0:
294,310,362330,5,0,1:2:0:0:
350,237,362499,1,4,0:3:0:0:
439,250,362669,5,8,0:3:0:0:
365,232,362838,1,4,0:3:0:0:
335,159,363008,5,4,0:3:0:0:
353,224,363177,1,4,0:3:0:0:
496,202,363347,5,4,0:1:0:0:
359,234,363855,1,2,0:2:0:0:
288,188,364364,1,2,0:2:0:0:
221,216,364872,2,0,L|25:189,1,198,2|0,0:2|0:2,0:2:0:0:
24,188,370847,5,8,0:3:0:0:
24,188,370910,1,8,0:3:0:0:
24,188,370974,1,8,0:3:0:0:
384,369,371482,6,0,P|390:334|399:287,1,67.5000025749208,4|0,0:1|0:2,0:2:0:0:
236,207,371736,2,0,P|242:240|247:273,1,67.5000025749208,4|0,0:1|0:2,0:2:0:0:
507,248,371991,2,0,P|430:225|418:184,1,101.250003862381,2|0,0:2|0:2,0:2:0:0:
428,199,372245,2,0,P|412:159|385:144,1,67.5000025749208,4|0,0:3|0:2,0:2:0:0:
174,281,372499,5,0,1:2:0:0:
347,211,372753,1,4,0:3:0:0:
108,16,373008,2,0,P|92:76|69:155,1,135.000005149842,4|0,0:1|0:2,0:2:0:0:
298,373,373516,2,0,P|279:308|261:242,1,135.000005149842,2|4,0:3|0:3,0:2:0:0:
512,33,374025,2,0,P|486:103|348:117,1,202.500007724762,4|0,0:1|0:2,0:2:0:0:
313,79,374533,5,2,1:3:0:0:
151,350,374787,1,4,0:1:0:0:
262,243,375042,1,2,0:3:0:0:
195,206,375296,1,0,1:2:0:0:
422,237,375550,6,0,P|402:211|370:210,1,67.5000025749208,4|0,0:1|0:2,0:2:0:0:
211,70,375804,2,0,P|198:100|214:128,1,67.5000025749208,4|0,0:1|0:2,0:2:0:0:
66,366,376058,2,0,P|162:373|217:293,1,202.500007724762,4|0,0:1|0:2,0:2:0:0:
287,261,376567,6,0,P|276:232|263:184,1,67.5000025749208,2|0,1:3|0:2,0:2:0:0:
299,129,376821,1,4,0:3:0:0:
5,257,377075,2,0,P|92:285|139:310,1,135.000005149842,4|0,0:1|0:2,0:2:0:0:
162,375,377584,1,2,0:2:0:0:
78,137,377838,6,0,P|96:190|103:220,1,67.5000025749208,4|0,0:1|0:2,0:2:0:0:
399,384,378092,2,0,P|412:325|444:246,1,135.000005149842,4|0,0:1|0:2,0:2:0:0:
504,217,378474,5,4,0:3:0:0:
504,217,378537,1,4,0:3:0:0:
504,217,378601,1,2,1:3:0:0:
178,235,378855,6,0,P|208:230|261:222,1,67.5000025749208,4|0,0:1|0:2,0:2:0:0:
508,298,379109,1,2,1:3:0:0:
44,171,379364,6,0,P|74:176|127:184,1,67.5000025749208,4|0,0:1|0:2,0:2:0:0:
374,108,379618,1,0,1:2:0:0:
82,323,379872,6,0,L|109:240,1,67.5000025749208,4|0,0:1|0:2,0:2:0:0:
447,383,380126,2,0,L|400:240,1,135.000005149842,4|2,0:1|0:3,0:2:0:0:
460,203,380508,1,4,0:3:0:0:
403,269,380635,6,0,L|327:250,1,67.5000025749208,0|0,1:2|0:2,0:2:0:0:
143,376,380889,1,4,0:3:0:0:
512,139,381143,6,0,B|442:160|442:160|422:212|422:212|337:237,1,202.500007724762,4|0,0:1|0:2,0:2:0:0:
168,113,381652,2,0,B|98:92|98:92|78:40|78:40|7:19,1,202.500007724762,4|0,0:1|0:2,0:2:0:0:
36,154,382160,2,0,L|189:117,1,135.000005149842,2|0,0:3|0:2,0:2:0:0:
441,228,382669,5,2,1:3:0:0:
219,53,382923,1,4,0:3:0:0:
145,333,383177,1,2,0:3:0:0:
33,152,383431,5,0,1:2:0:0:
99,132,383558,1,0,1:2:0:0:
142,189,383686,2,0,L|233:211,1,67.5000025749208,4|0,0:1|0:2,0:2:0:0:
416,137,383940,2,0,L|388:1,2,135.000005149842,4|2|0,0:1|0:3|0:2,0:2:0:0:
481,52,384703,5,2,1:3:0:0:
206,125,384957,1,4,0:3:0:0:
484,288,385211,1,2,1:3:0:0:
351,164,385465,1,2,0:3:0:0:
204,360,385719,5,2,0:3:0:0:
36,305,385974,2,0,P|28:243|9:164,1,135.000005149842,4|0,0:1|0:2,0:2:0:0:
0,370,386482,1,4,0:3:0:0:
62,106,386736,6,8,P|45:85|31:66,2,45.0000017166138,8|8|8,0:3|0:3|0:3,0:3:0:0:
127,53,386991,2,8,P|129:27|133:2,2,45.0000017166138,8|8|8,0:3|0:3|0:3,0:3:0:0:
220,167,387245,5,4,0:3:0:0:
263,168,387329,1,4,0:3:0:0:
293,137,387414,1,4,0:3:0:0:
287,97,387499,1,4,0:3:0:0:
317,65,387584,1,4,0:3:0:0:
362,67,387668,1,4,0:3:0:0:
392,90,387753,6,0,L|411:8,1,67.5000025749208,4|0,0:1|0:2,0:2:0:0:
134,131,388008,2,0,L|149:196,1,67.5000025749208,4|0,0:1|0:2,0:2:0:0:
320,59,388262,5,2,0:3:0:0:
72,202,388516,1,4,0:3:0:0:
312,380,388770,2,0,L|333:263,1,67.5000025749208,2|0,1:3|0:2,0:2:0:0:
263,266,389025,1,4,0:3:0:0:
479,126,389279,6,0,P|450:195|293:213,1,202.500007724762,4|0,0:1|0:2,0:2:0:0:
270,187,389787,1,2,0:3:0:0:
500,262,390042,5,4,0:1:0:0:
156,28,390296,2,0,P|86:39|56:160,1,180.000006866455,4|4,0:1|0:3,0:2:0:0:
92,193,390719,1,4,0:3:0:0:
92,193,390804,5,0,1:2:0:0:
394,118,391058,1,4,0:3:0:0:
179,362,391313,5,0,1:2:0:0:
471,130,391567,5,0,1:2:0:0:
445,61,391694,1,0,1:2:0:0:
373,45,391821,2,0,P|341:57|323:84,1,67.5000025749208,4|0,0:1|0:2,0:2:0:0:
96,201,392075,2,0,P|121:221|155:223,1,67.5000025749208,4|0,0:1|0:2,0:2:0:0:
370,363,392330,2,0,P|375:330|252:230,1,202.500007724762,4|0,0:1|0:2,0:2:0:0:
211,280,392838,5,2,1:3:0:0:
293,152,393092,1,4,0:3:0:0:
126,8,393347,2,0,P|139:74|152:141,1,135.000005149842,2|0,0:3|0:2,0:2:0:0:
99,200,393855,5,2,0:3:0:0:
404,285,394109,2,0,P|416:218|429:152,1,135.000005149842,0|2,1:2|0:3,0:2:0:0:
495,122,394618,1,4,0:2:0:0:
324,279,394872,5,0,1:2:0:0:
512,384,395126,1,4,0:3:0:0:
137,317,395380,5,0,1:2:0:0:
364,214,395635,1,4,0:3:0:0:
305,169,395762,1,4,0:3:0:0:
305,169,395825,1,4,0:3:0:0:
305,169,395889,6,0,L|219:153,1,67.5000025749208,0|0,1:2|0:2,0:2:0:0:
137,317,396143,2,0,L|51:333,1,67.5000025749208,4|0,0:3|0:2,0:2:0:0:
2,225,396397,1,4,0:3:0:0:
2,225,396652,1,4,0:3:0:0:
357,107,396906,5,0,1:2:0:0:
268,25,397160,2,0,L|284:111,1,67.5000025749208,4|0,0:1|0:2,0:2:0:0:
451,384,397414,2,0,L|481:220,1,135.000005149842,4|0,0:1|0:2,0:2:0:0:
121,141,397923,6,0,B|196:163|196:163|213:219|213:219|307:248,1,202.500007724762,4|0,0:1|0:2,0:2:0:0:
286,227,398431,2,0,L|422:198,1,135.000005149842,2|4,0:3|0:3,0:2:0:0:
83,220,398940,2,0,P|28:155|51:98,2,135.000005149842,2|4|2,1:3|0:3|0:3,0:2:0:0:
276,148,399703,1,4,0:3:0:0:
22,278,399957,5,4,0:1:0:0:
327,0,400211,2,0,P|335:34|362:162,1,135.000005149842,4|0,0:1|0:2,0:2:0:0:
329,206,400719,5,4,0:3:0:0:
38,113,400974,1,0,1:2:0:0:
276,148,401228,1,4,0:3:0:0:
150,372,401482,5,0,1:2:0:0:
304,76,401736,1,0,3:2:0:0:
304,76,401991,1,2,3:3:0:0:
502,244,402245,6,0,L|515:159,1,67.5000025749208,4|0,0:1|0:2,0:2:0:0:
189,121,402499,2,0,P|216:234|226:304,1,135.000005149842,4|0,0:1|0:2,0:2:0:0:
217,330,402880,1,4,0:3:0:0:
217,330,402944,1,4,0:3:0:0:
217,330,403008,1,0,1:2:0:0:
109,145,403262,1,4,0:3:0:0:
319,384,403516,5,0,1:2:0:0:
401,374,403643,1,0,1:2:0:0:
466,320,403770,1,0,1:2:0:0:
489,240,403897,1,0,1:2:0:0:
473,158,404025,6,0,L|482:91,1,67.5000025749208,4|0,0:1|0:2,0:2:0:0:
271,274,404279,2,0,B|142:282|220:369|79:373,1,202.500007724762,4|0,0:1|0:2,0:2:0:0:
97,355,404787,1,4,0:3:0:0:
318,214,405042,1,2,1:3:0:0:
257,360,405296,1,4,0:3:0:0:
0,163,405550,6,0,P|81:171|101:289,1,202.500007724762,4|0,0:1|0:2,0:2:0:0:
97,276,406058,1,2,0:3:0:0:
184,171,406313,6,0,P|105:151|77:139,1,67.5000025749208,4|0,0:1|0:2,0:2:0:0:
262,370,406567,2,0,P|328:345|446:326,1,168.750006437302,4|0,0:1|0:2,0:2:0:0:
504,197,407075,5,2,1:3:0:0:
351,379,407330,1,4,0:3:0:0:
241,116,407584,1,2,1:3:0:0:
452,20,407838,5,0,1:2:0:0:
509,72,407965,1,0,1:2:0:0:
461,134,408092,2,0,P|385:109|364:105,1,67.5000025749208,4|0,0:1|0:2,0:2:0:0:
167,167,408347,2,0,P|148:93|264:36,1,202.500007724762,4|0,0:1|0:2,0:2:0:0:
259,33,408855,5,4,0:3:0:0:
128,241,409109,2,0,P|46:210|-28:199,1,135.000005149842,2|0,1:3|0:2,0:2:0:0:
173,176,409618,6,0,P|209:171|256:161,1,67.5000025749208,4|0,0:1|0:2,0:2:0:0:
496,273,409872,2,0,P|468:360|347:350,1,202.500007724762,4|0,0:1|0:2,0:2:0:0:
352,384,410380,6,0,P|332:306|325:291,1,67.5000025749208,4|0,0:1|0:2,0:2:0:0:
502,53,410635,2,0,P|458:162|440:239,1,180.000006866455,4|4,0:1|0:3,0:2:0:0:
418,295,411058,1,4,0:3:0:0:
418,295,411143,1,0,1:2:0:0:
151,250,411397,6,0,P|158:213|165:167,1,67.5000025749208,4|0,0:1|0:2,0:2:0:0:
422,78,411652,2,0,P|427:111|433:144,1,67.5000025749208,4|0,0:1|0:2,0:2:0:0:
206,334,411906,5,0,3:2:0:0:
206,334,412033,1,0,3:2:0:0:
144,373,412160,2,0,P|70:360|44:224,1,202.500007724762,4|0,0:1|0:2,0:2:0:0:
82,200,412669,1,2,0:3:0:0:
435,226,412923,6,0,P|466:220|534:203,1,67.5000025749208,4|0,0:1|0:2,0:2:0:0:
152,240,413177,1,0,1:2:0:0:
471,78,413431,6,0,P|463:111|458:150,1,67.5000025749208,4|0,0:1|0:2,0:2:0:0:
212,193,413686,2,0,P|207:159|152:-10,1,202.500007724762,4|0,0:1|0:2,0:2:0:0:
34,48,414194,6,0,P|67:59|128:83,1,67.5000025749208,2|0,0:3|0:2,0:2:0:0:
276,89,414448,2,0,P|289:53|298:7,1,67.5000025749208,4|0,0:1|0:2,0:2:0:0:
107,155,414703,2,0,P|120:191|133:308,1,135.000005149842,4|0,0:1|0:2,0:2:0:0:
94,367,415211,5,2,1:3:0:0:
322,153,415465,1,4,0:3:0:0:
512,311,415719,2,0,P|437:384|397:356,1,135.000005149842,4|0,0:1|0:2,0:2:0:0:
340,360,416101,5,0,1:2:0:0:
422,369,416228,2,0,P|412:327|406:284,1,67.5000025749208,4|0,0:1|0:2,0:2:0:0:
193,82,416482,2,0,P|176:152|166:225,1,135.000005149842,4|2,0:1|0:3,0:2:0:0:
93,239,416991,5,4,0:3:0:0:
483,168,417245,1,0,1:2:0:0:
127,30,417499,5,4,0:3:0:0:
493,189,417753,1,0,1:2:0:0:
67,129,418008,5,4,0:3:0:0:
510,182,418262,1,0,1:2:0:0:
366,40,418516,5,8,0:3:0:0:
297,37,418643,1,8,0:3:0:0:
270,102,418770,1,8,0:3:0:0:
315,161,418897,1,4,0:3:0:0:
288,226,419024,1,4,0:3:0:0:
218,220,419151,1,4,0:3:0:0:
172,161,419279,6,0,P|165:128|154:89,1,67.5000025749208,0|0,1:2|3:2,0:2:0:0:
372,227,419533,2,0,P|364:259|357:293,1,67.5000025749208,0|0,1:2|3:2,0:2:0:0:
261,384,419787,5,4,0:3:0:0:
207,334,419914,1,0,1:2:0:0:
145,298,420041,1,4,0:3:0:0:
77,277,420168,1,4,0:3:0:0:
5,271,420296,6,0,P|3:240|-6:167,1,67.5000025749208,4|0,0:1|0:2,0:2:0:0:
288,305,420550,2,0,P|354:286|501:200,1,202.500007724762,4|0,0:1|0:2,0:2:0:0:
477,234,421058,1,4,0:3:0:0:
244,185,421313,6,0,L|229:264,1,67.5000025749208,2|0,1:3|0:2,0:2:0:0:
166,295,421567,1,4,0:3:0:0:
12,29,421821,2,0,P|108:60|195:110,1,202.500007724762,4|0,0:1|0:2,0:2:0:0:
202,107,422330,6,0,P|215:71|223:23,1,67.5000025749208,2|0,0:3|0:2,0:2:0:0:
402,265,422584,2,0,P|388:229|381:181,1,67.5000025749208,4|0,0:1|0:2,0:2:0:0:
80,377,422838,2,0,P|93:341|111:232,1,135.000005149842,4|0,0:1|0:2,0:2:0:0:
43,203,423347,5,2,1:3:0:0:
169,361,423601,1,4,0:3:0:0:
318,195,423855,2,0,P|279:185|226:169,1,67.5000025749208,4|0,0:1|0:2,0:2:0:0:
137,178,424109,5,0,1:2:0:0:
195,220,424236,1,0,1:2:0:0:
251,167,424364,2,0,P|259:134|273:93,1,67.5000025749208,4|0,0:1|0:2,0:2:0:0:
25,141,424618,2,0,P|35:173|43:205,1,67.5000025749208,4|0,0:1|0:2,0:2:0:0:
261,263,424872,6,0,B|333:278|297:321|384:336,1,135.000005149842,0|4,0:2|0:3,0:2:0:0:
506,268,425380,1,2,1:3:0:0:
298,384,425635,1,4,0:3:0:0:
410,199,425889,6,0,P|421:237|433:287,1,67.5000025749208,4|0,0:1|0:2,0:2:0:0:
73,384,426143,2,0,P|94:313|106:235,1,135.000005149842,4|0,0:1|0:2,0:2:0:0:
43,205,426652,1,2,0:3:0:0:
327,25,426906,6,0,P|318:57|291:79,1,67.5000025749208,4|0,0:1|0:2,0:2:0:0:
56,127,427160,2,0,P|88:134|109:160,1,67.5000025749208,4|0,0:1|0:2,0:2:0:0:
131,329,427414,5,2,1:3:0:0:
43,205,427669,1,4,0:3:0:0:
495,309,427923,5,4,0:3:0:0:
502,236,428050,1,0,1:2:0:0:
468,174,428177,1,0,1:2:0:0:
403,143,428304,1,4,0:3:0:0:
332,155,428431,6,0,P|318:258|302:375,1,202.500007724762,4|0,0:1|0:2,0:2:0:0:
309,361,428940,2,0,L|386:345,1,67.5000025749208,2|0,0:3|0:2,0:2:0:0:
240,251,429194,2,0,L|163:235,1,67.5000025749208,4|0,0:3|0:2,0:2:0:0:
122,295,429448,1,2,1:3:0:0:
435,105,429703,6,0,P|424:139|409:187,1,67.5000025749208,4|0,0:1|0:2,0:2:0:0:
140,376,429957,2,0,P|45:339|54:247,1,202.500007724762,4|0,0:1|0:2,0:2:0:0:
96,195,430465,1,2,0:3:0:0:
445,245,430719,6,0,P|478:237|511:230,1,67.5000025749208,4|0,0:1|0:2,0:2:0:0:
187,128,430974,2,0,B|63:115|147:38|14:24,1,202.500007724762,4|0,0:1|0:2,0:1:0:0:
17,34,431482,5,2,1:3:0:0:
168,208,431736,1,4,0:3:0:0:
290,26,431991,2,0,L|271:103,1,67.5000025749208,4|0,0:3|0:2,0:2:0:0:
412,205,432245,5,0,1:2:0:0:
366,149,432372,1,0,1:2:0:0:
436,137,432499,2,0,L|515:123,1,67.5000025749208,4|0,0:1|0:2,0:2:0:0:
313,298,432753,2,0,L|286:134,1,135.000005149842,4|2,0:1|0:3,0:2:0:0:
390,78,433262,1,4,0:3:0:0:
223,369,433516,5,2,1:3:0:0:
508,225,433770,1,4,0:3:0:0:
64,314,434025,5,2,1:3:0:0:
487,299,434279,1,4,0:3:0:0:
8,138,434533,5,2,1:3:0:0:
312,384,434787,1,4,0:3:0:0:
511,156,435042,6,0,L|451:167,1,45,8|0,0:3|0:2,0:2:0:0:
346,213,435296,2,0,L|286:202,1,45,4|0,0:3|0:2,0:2:0:0:
222,123,435550,5,0,1:2:0:0:
193,144,435635,1,0,1:2:0:0:
159,131,435719,1,8,0:3:0:0:
132,155,435804,1,8,0:3:0:0:
96,141,435888,1,4,0:3:0:0:
69,165,435973,1,4,0:3:0:0:
5,131,436058,5,0,1:2:0:0:
412,378,436567,6,0,B|453:349|460:324|460:324|448:306|448:306|489:274|495:218|495:218|479:214|479:214|480:142|424:115,1,270,4|0,0:1|0:2,0:2:0:0:
104,288,437075,2,0,B|62:259|55:234|55:234|67:216|67:216|26:184|20:128|20:128|36:124|36:124|35:52|91:25,1,270,4|0,0:1|0:2,0:2:0:0:
97,6,437584,6,0,B|117:23|117:23|120:39|135:58|135:58|106:113,1,90,0|0,1:2|0:2,0:2:0:0:
383,176,437838,2,0,B|371:155|371:155|387:135|390:119|390:119|410:102,1,90,0|0,0:2|0:2,0:2:0:0:
487,81,438092,5,4,0:1:0:0:
0,236,438347,2,0,B|-4:244|-4:244|36:239|68:251|68:251|62:261|62:261|111:261|159:286|159:286|150:294|150:294|189:314|218:349,1,270,4|0,0:1|0:2,0:2:0:0:
257,384,438855,2,0,B|295:363|295:363|298:357|298:357|259:295,1,90,4|0,0:1|0:2,0:2:0:0:
155,143,439109,6,0,B|160:157|160:157|122:202|122:202|121:242,1,90,2|0,0:2|0:2,0:2:0:0:
101,296,439364,2,0,B|106:310|106:310|68:355|68:355|67:395,1,90,0|4,0:2|0:3,0:2:0:0:
67,371,439554,1,4,0:3:0:0:
67,371,439618,6,0,L|124:358,1,45,0|0,1:2|0:2,0:2:0:0:
363,155,439872,6,0,B|367:145|367:145|401:153|430:131|430:131|462:161,1,90,0|0,0:2|0:2,0:2:0:0:
359,165,440126,2,0,L|288:135,1,45,0|0,1:2|0:2,0:2:0:0:
512,343,440635,6,0,B|472:354|433:345|433:345|439:356|439:356|385:348|345:323|345:323|351:336|351:336|274:269,1,270,4|0,0:1|0:2,0:2:0:0:
229,257,441143,2,0,B|189:246|150:254|150:254|156:244|156:244|102:252|62:276|62:276|68:264|68:264|-8:330,1,270,4|0,0:3|0:2,0:2:0:0:
463,239,441652,6,0,B|486:205|528:198|528:198|478:180|455:140|455:140|466:184|439:254,1,270,0|0,1:2|0:2,0:2:0:0:
132,371,442160,6,0,B|122:361|122:361|137:339|153:256,1,90,4|0,0:1|0:2,0:2:0:0:
512,68,442414,2,0,B|448:38|391:70|391:70|376:52|376:52|292:71|260:138,1,270,4|0,0:1|0:2,0:2:0:0:
209,57,442923,6,0,B|200:44|185:42|185:42|203:35|211:20|211:20|207:36|217:62,1,90,4|0,0:1|0:2,0:2:0:0:
491,237,443177,2,0,B|427:227|392:273|392:273|321:258|322:191|322:191|350:176|365:107,1,270,0|4,0:2|0:3,0:2:0:0:
442,150,443622,1,4,0:3:0:0:
442,150,443686,6,0,B|451:166|451:166|405:197|393:259,1,112.5,2|0,1:3|0:2,0:2:0:0:
220,173,443940,2,0,B|237:177|237:177|227:232|262:284,1,112.5,2|0,0:3|0:2,0:2:0:0:
31,41,444194,6,0,B|22:57|22:57|68:88|80:150,1,112.5,2|0,0:3|0:2,0:2:0:0:
253,64,444448,2,0,B|235:68|235:68|245:123|210:175,1,112.5,2|0,0:3|0:2,0:2:0:0:
73,344,444703,6,0,B|21:336|-14:381|-14:381|-2:335|43:319|43:319|57:327|57:327|88:295|155:284|155:284|170:294|170:294|278:274,1,337.5,4|0,0:1|0:2,0:2:0:0:
446,303,445211,2,0,B|498:311|533:265|533:265|521:311|475:327|475:327|461:319|461:319|431:352|364:363|364:363|349:353|349:353|343:353,1,337.5,4|4,0:1|0:3,0:2:0:0:
251,377,445656,5,4,0:3:0:0:
251,377,445719,2,0,B|248:357|248:357|258:350|258:350|270:298|270:298|266:288|266:288|284:241|284:241|283:228|283:228|289:171,1,168.75,0|0,1:2|0:2,0:2:0:0:
300,209,445974,5,8,0:3:0:0:
224,144,446101,1,8,0:3:0:0:
324,47,446228,1,4,0:3:0:0:
295,121,446355,1,4,0:3:0:0:
133,66,446482,6,0,B|71:72|16:22|16:22|39:31|39:31|23:96|61:135|61:135|97:135|129:160,1,337.5,4|0,0:1|0:2,0:2:0:0:
388,254,446991,2,0,B|420:229|456:229|456:229|494:190|478:125|478:125|501:116|501:116|446:166|374:159,1,337.5,4|0,0:1|0:2,0:2:0:0:
259,169,447499,5,4,0:3:0:0:
266,220,447584,1,4,0:3:0:0:
234,253,447669,1,4,0:3:0:0:
298,305,447753,6,0,B|320:309|336:334|336:334|339:320|339:320|316:343|270:329,1,112.5,0|0,1:2|0:2,0:2:0:0:
5,299,448008,2,0,L|62:282,1,45,4|0,0:3|0:2,0:2:0:0:
424,327,448262,6,0,B|465:334|495:387|495:387|500:355|500:355|454:393|371:369,1,225,12|0,1:3|0:2,0:2:0:0:
87,16,448770,5,4,3:1:0:0:
110,39,448855,1,0,3:3:0:0:
103,71,448939,1,0,3:3:0:0:
127,95,449025,1,0,3:3:0:0:
119,126,449108,1,0,3:3:0:0:
142,151,449194,1,0,3:3:0:0:
134,183,449278,1,0,3:3:0:0:
157,208,449364,1,0,3:3:0:0:
148,240,449447,1,0,3:3:0:0:
169,265,449533,1,0,3:3:0:0:
160,296,449617,1,0,3:3:0:0:
181,322,449702,1,0,3:3:0:0:
170,353,449787,6,0,B|115:351|85:379|85:379|36:375|31:343|31:343|52:323|60:279,1,202.500007724762,0|0,1:2|0:2,0:2:0:0:
40,295,450296,6,0,B|63:293|63:293|107:260|190:249,1,112.5,0|0,1:2|0:2,0:2:0:0:
152,264,450550,2,0,L|166:197,1,67.5000025749208,4|0,0:1|0:2,0:2:0:0:
423,28,450804,6,0,B|468:11|481:52|481:52|448:45|396:94,1,112.5,2|0,0:2|0:2,0:2:0:0:
436,67,451058,2,0,B|418:81|418:81|319:96|259:191|259:191|251:162|275:127,1,270.000010299683,4|0,0:3|0:2,0:2:0:0:
312,87,451652,5,4,0:3:0:0:
312,87,451736,1,4,0:3:0:0:
312,87,451821,1,0,1:2:0:0:
46,288,452075,6,0,B|18:268|18:268|19:236|19:236|49:201,1,90.0000034332277,4|0,0:3|0:2,0:2:0:0:
256,0,452330,1,0,1:2:0:0:
256,0,452584,1,2,0:3:0:0:
412,378,452838,6,0,B|453:349|460:324|460:324|448:306|448:306|489:274|495:218|495:218|479:214|479:214|480:142|424:115,1,270,4|0,0:1|0:2,0:2:0:0:
100,378,453347,2,0,B|58:349|51:324|51:324|63:306|63:306|22:274|16:218|16:218|32:214|32:214|31:142|87:115,1,270,4|4,0:1|0:3,0:2:0:0:
42,160,453792,1,4,0:3:0:0:
42,160,453855,1,0,1:2:0:0:
111,211,454109,1,4,0:3:0:0:
512,128,454364,2,0,B|478:117|478:117|467:151|467:151|438:169,1,90,4|0,0:3|0:2,0:2:0:0:
81,383,454618,6,0,B|48:344|48:318|48:318|64:304|64:304|33:263|41:206|41:206|58:207|58:207|75:138|136:126,1,270,4|0,0:1|0:2,0:2:0:0:
431,383,455126,2,0,B|463:344|463:318|463:318|447:304|447:304|478:263|470:206|470:206|453:207|453:207|436:138|375:126,1,270,4|0,0:1|0:2,0:2:0:0:
448,145,455635,1,4,0:3:0:0:
8,132,455889,1,0,1:2:0:0:
8,132,456397,2,0,B|0:100|0:100|16:84|16:84|29:121,1,90,4|0,0:3|0:2,0:2:0:0:
433,380,456652,6,0,B|454:334|448:309|448:309|428:299|428:299|448:251|425:199|425:199|409:204|409:204|374:142|312:146,1,270,4|0,0:1|0:2,0:2:0:0:
79,380,457160,2,0,B|57:334|63:309|63:309|83:299|83:299|63:251|86:199|86:199|102:204|102:204|137:142|199:146,1,270,4|0,0:1|0:2,0:2:0:0:
102,99,457669,1,4,0:3:0:0:
507,213,457923,1,0,1:2:0:0:
449,68,458177,5,4,0:3:0:0:
449,68,458304,1,4,0:3:0:0:
512,106,458431,2,0,B|510:126|510:126|471:133|425:165,1,90,0|0,1:2|0:2,0:2:0:0:
79,380,458686,6,0,B|70:330|82:307|82:307|103:303|103:303|97:252|132:207|132:207|146:216|146:216|197:165|255:185,1,270,4|0,0:1|0:2,0:2:0:0:
433,380,459194,2,0,B|441:330|429:307|429:307|408:303|408:303|414:252|379:207|379:207|365:216|365:216|314:165|256:185,1,270,4|0,0:1|0:2,0:2:0:0:
258,245,459703,1,4,0:3:0:0:
258,245,459830,1,4,0:3:0:0:
301,313,459957,6,0,B|299:322|299:322|233:330|233:330|224:320,1,90,0|0,1:2|0:2,0:2:0:0:
100,57,460211,6,0,B|104:58|104:58|99:60|99:60|100:66|100:66|102:66|102:66|104:65|104:65|104:70|104:70|107:72|107:72|100:71|100:71|98:73|98:73|103:72|103:72|106:77|106:77|109:78|109:78|102:78|102:78|103:78|103:78|104:80|104:80|105:84|105:84|104:85|104:85|109:81|109:81|107:83|107:83|106:87|106:87|108:87|108:87|111:91|111:91|117:90|117:90|115:94|115:94|113:97|113:97|112:99|112:99|115:94|115:94|116:94|116:94|118:97|118:97|112:100|112:100|116:100|116:100|120:106|120:106|121:103|121:103|123:100|123:100|118:104|118:104|121:110|121:110|121:113|121:113|123:111|123:111|124:110|124:110|127:113|127:113|124:115|124:115|124:112|124:112|128:116|128:116|134:118|134:118|129:120|129:120|134:121|134:121|136:124|136:124|136:118|136:118|136:122|136:122|140:126|140:126|140:123|140:123|142:128|142:128|146:127|146:127|141:130|141:130|141:132|141:132|140:134|140:134|144:130|144:130|149:132|149:132|152:130|152:130|151:135|151:135|154:137|154:137|153:139|153:139|154:133|154:133|155:136|155:136|155:140|155:140|158:139|158:139|163:141|163:141|166:135|166:135|166:137|166:137|166:142|166:142|163:144|163:144|166:140|166:140|168:140|168:140|171:141|171:141|173:141|173:141|174:142|174:142|170:147|170:147|172:146|172:146|175:143|175:143|176:141|176:141|176:145|176:145|182:147|182:147|181:153|181:153|181:150|181:150|186:148|186:148|189:146|189:146|186:151|186:151|184:151|184:151|188:151|188:151|190:146|190:146|192:149|192:149|198:150|198:150|198:152|198:152|195:153|195:153|199:154|199:154|198:149|198:149|199:150|199:150|204:149|204:149|202:151|202:151|203:153|203:153|209:153|209:153|211:153|211:153|207:153|207:153|209:151|209:151|215:156|215:156|213:151|213:151|218:151|218:151|220:147|220:147|218:151|218:151|222:154|222:154|225:155|225:155|223:149|223:149|227:149|227:149|227:150|227:150|225:155|225:155|227:154|227:154|231:150|231:150|229:147|229:147|231:152|231:152|238:152|238:152|239:158|239:158|239:155|239:155|242:151|242:151|243:149|243:149|242:155|242:155|244:154|244:154|246:150|246:150|247:151|247:151|253:151|253:151|254:156|254:156|253:154|253:154|257:150|257:150|259:147|259:147|258:153|258:153|261:152|261:152|260:151|260:151|265:149|265:149|262:145|262:145|262:147|262:147|265:148|265:148|268:151|268:151|267:147|267:147|272:145|272:145|273:140|273:140|272:144|272:144|278:146|278:146|281:147|281:147|277:142|277:142|280:145|280:145|279:143|279:143|279:145|279:145|286:144|286:144|287:145|287:145|282:144|282:144|286:143|286:143|289:138|289:138|289:145|289:145|293:140|293:140|296:140|296:140|291:137|291:137|294:139|294:139|300:138|300:138|297:136|297:136|303:135|303:135|305:132|305:132|305:139|305:139|302:138|302:138|305:137|305:137|311:136|311:136|305:132|305:132|308:132|308:132|315:132|315:132|313:136|313:136|313:133|313:133|319:129|319:129|319:134|319:134|322:129|322:129|325:129|325:129|320:124|320:124|326:124|326:124|329:123|329:123|326:128|326:128|326:124|326:124|331:120|331:120|329:120|329:120|331:117|331:117|331:118|331:118|332:124|332:124|334:122|334:122|335:117|335:117|332:115|332:115|336:118|336:118|341:116|341:116|346:119|346:119|345:116|345:116|344:113|344:113|346:109|346:109|347:115|347:115|347:116|347:116|348:113|348:113|346:108|346:108|350:108|350:108|355:105|355:105|356:107|356:107|354:108|354:108|357:105|357:105|357:100|357:100|359:105|359:105|362:102|362:102|362:104|362:104|364:102|364:102|365:101|365:101|360:99|360:99|362:100|362:100|364:100|364:100|368:100|368:100|365:97|365:97|369:92|369:92|367:87|367:87|369:90|369:90|374:90|374:90|377:90|377:90|372:88|372:88|371:89|371:89|374:86|374:86|378:89|378:89|376:85|376:85|380:81|380:81|378:84|378:84|378:82|378:82|382:78|382:78|384:84|384:84|384:81|384:81|386:73|386:73|383:75|383:75|386:77|386:77|390:73|390:73|389:71|389:71|386:71|386:71|390:69|390:69|392:65|392:65|395:70|395:70|396:68|396:68|396:64|396:64|394:60|394:60|398:64|398:64|400:64|400:64|400:62|400:62|402:61|402:61|402:57|402:57|396:57|396:57|399:58|399:58|401:55|401:55|406:52|406:52|401:52|401:52|405:48|405:48|404:44|404:44|403:48|403:48|405:48|405:48|407:42|407:42|407:40|407:40|410:43|410:43|410:38|410:38|413:37|413:37|407:38|407:38|408:34|408:34|406:38|406:38|407:35|407:35|409:30|409:30|413:34|413:34|411:31|411:31|411:23|411:23|410:24|410:24|414:27|414:27|414:24|414:24|410:20|410:20|408:21|408:21|413:21|413:21|414:15|414:15|419:14|419:14|416:13|416:13|413:11|413:11|410:10|410:10|416:12|416:12|417:10|417:10|416:8|416:8|411:8|411:8|412:5|412:5|411:0|411:0|412:-2|412:-2|414:0|414:0|415:4|415:4|414:1|414:1|412:-5|412:-5|408:-1|408:-1|410:-7|410:-7|408:-11|408:-11|409:-11|409:-11|406:-7|406:-7|405:-7|405:-7|406:-10|406:-10|406:-13|406:-13|405:-13|405:-13|400:-16|400:-16|396:-11|396:-11|398:-13|398:-13|395:-17|395:-17|394:-22|394:-22|394:-16|394:-16|394:-15|394:-15|392:-17|392:-17|388:-17|388:-17|388:-18|388:-18|392:-22|392:-22|390:-22|390:-22|385:-18|385:-18|386:-16|386:-16|386:-21|386:-21|380:-22|380:-22|379:-27|379:-27|376:-24|376:-24|375:-20|375:-20|374:-18|374:-18|375:-23|375:-23|375:-25|375:-25|373:-23|373:-23|371:-19|371:-19|370:-20|370:-20|365:-19|365:-19|364:-20|364:-20|365:-22|365:-22|360:-22|360:-22|364:-17|364:-17|362:-18|362:-18|358:-14|358:-14|359:-18|359:-18|358:-19|358:-19|353:-16|353:-16|351:-15|351:-15|355:-18|355:-18|352:-15|352:-15|345:-16|345:-16|349:-11|349:-11|345:-12|345:-12|341:-10|341:-10|343:-14|343:-14|344:-10|344:-10|339:-7|339:-7|338:-9|338:-9|336:-11|336:-11|336:-8|336:-8|332:-5|332:-5|334:0|334:0|333:-2|333:-2|327:-1|327:-1|324:-3|324:-3|330:1|330:1|329:1|329:1|326:2|326:2|327:0|327:0|322:3|322:3|318:2|318:2|322:1|322:1|320:3|320:3|319:8|319:8|317:3|317:3|316:6|316:6|311:8|311:8|314:9|314:9|309:12|309:12|308:14|308:14|313:15|313:15|307:17|307:17|307:20|307:20|305:14|305:14|302:18|302:18|301:20|301:20|306:22|306:22|302:21|302:21|301:26|301:26|299:22|299:22|300:23|300:23|296:29|296:29|295:29|295:29|294:26|294:26|292:31|292:31|290:31|290:31|295:32|295:32|291:36|291:36|290:38|290:38|289:33|289:33|289:36|289:36|287:41|287:41|286:41|286:41|285:39|285:39|288:40|288:40|286:38|286:38|285:42|285:42|282:46|282:46|282:47|282:47|285:46|285:46|288:48|288:48|283:45|283:45|279:51|279:51|276:50|276:50|278:51|278:51|279:55|279:55|279:58|279:58|275:52|275:52|274:55|274:55|278:59|278:59|275:59|275:59|271:65|271:65|267:63|267:63|269:63|269:63|270:68|270:68|272:71|272:71|267:70|267:70|266:73|266:73|264:74|264:74|271:74|271:74|269:73|269:73|267:75|267:75|262:80|262:80|266:80|266:80|265:82|265:82|266:86|266:86|264:84|264:84|264:85|264:85|262:91|262:91|262:92|262:92|258:89|258:89|259:95|259:95|257:96|257:96|263:95|263:95|260:100|260:100|259:102|259:102|256:97|256:97|258:100|258:100|258:107|258:107|256:105|256:105|259:104|259:104|257:104|257:104|255:111|255:111|253:110|253:110|256:108|256:108|256:112,1,1857.88469157274,4|0,0:1|0:0,0:0:0:0:
445,347,460974,6,0,B|478:308|478:282|478:282|462:268|462:268|493:227|485:170|485:170|468:171|468:171|451:102|390:90,1,270,4|0,0:1|0:2,0:2:0:0:
67,347,461482,2,0,B|34:308|34:282|34:282|50:268|50:268|19:227|27:170|27:170|44:171|44:171|61:102|122:90,1,270,4|4,0:1|0:3,0:2:0:0:
66,122,461927,1,4,0:3:0:0:
66,122,461991,1,0,1:2:0:0:
495,56,462245,5,0,1:2:0:0:
422,36,462372,1,0,1:2:0:0:
371,90,462499,2,0,B|332:87|332:87|326:105|326:105|288:137,1,90,4|0,0:3|0:2,0:2:0:0:
57,374,462753,6,0,B|35:327|41:302|41:302|61:293|61:293|41:245|64:192|64:192|80:198|80:198|114:135|176:139,1,270,4|0,0:1|0:2,0:2:0:0:
478,363,463262,2,0,B|499:316|493:291|493:291|473:282|473:282|493:234|470:181|470:181|454:187|454:187|420:124|358:128,1,270,4|2,0:1|0:3,0:2:0:0:
441,74,463770,5,2,0:3:0:0:
441,74,463897,1,4,0:3:0:0:
370,95,464025,1,0,1:2:0:0:
57,62,464279,5,4,0:3:0:0:
57,62,464406,1,4,0:3:0:0:
22,129,464533,2,0,B|13:146|13:146|57:153|57:153|76:179,1,90,0|0,1:2|0:2,0:2:0:0:
478,363,464787,6,0,B|487:312|474:290|474:290|453:286|453:286|459:235|424:189|424:189|409:199|409:199|360:147|301:167,1,270,4|0,0:1|0:2,0:2:0:0:
34,363,465296,2,0,B|24:312|37:290|37:290|58:286|58:286|52:235|87:189|87:189|102:199|102:199|151:147|210:167,1,270,4|0,0:1|0:2,0:2:0:0:
192,225,465804,1,4,0:3:0:0:
512,82,466058,5,0,1:2:0:0:
205,127,466313,1,4,0:3:0:0:
258,4,466567,2,0,B|272:18|272:18|243:56|243:56|272:96,1,90,0|0,1:2|0:2,0:2:0:0:
478,363,466821,6,0,B|473:312|455:293|455:293|434:295|434:295|427:244|381:209|381:209|369:222|369:222|309:185|257:220,1,270,4|0,0:1|0:2,0:2:0:0:
34,363,467330,2,0,B|38:312|56:293|56:293|77:295|77:295|84:244|130:209|130:209|142:222|142:222|202:185|254:220,1,270,4|0,0:1|0:2,0:2:0:0:
258,248,467838,5,4,0:3:0:0:
399,132,467965,1,4,0:3:0:0:
399,132,468029,1,4,0:3:0:0:
399,132,468092,1,0,1:2:0:0:
118,191,468347,1,0,1:2:0:0:
495,33,468601,6,0,B|492:20|492:20|446:58|446:58|388:49,1,90,0|0,1:2|0:2,0:2:0:0:
113,90,468855,2,0,B|130:88|130:88|176:126|176:126|179:113,1,90,0|0,1:2|0:2,0:2:0:0:
487,373,469109,6,0,B|520:334|520:308|520:308|504:294|504:294|535:252|527:195|527:195|510:197|510:197|493:128|432:115,1,270,4|0,0:1|0:2,0:2:0:0:
56,364,469618,5,4,3:1:0:0:
34,326,469702,1,0,3:2:0:0:
37,290,469787,1,0,3:2:0:0:
9,271,469872,1,0,3:2:0:0:
10,235,469956,1,0,3:2:0:0:
32,209,470041,1,0,3:2:0:0:
18,174,470126,5,0,1:2:0:0:
99,248,470380,1,4,0:3:0:0:
465,75,470635,2,0,B|461:56|461:56|411:37|411:37|397:47,1,90,0|0,1:2|0:2,0:2:0:0:
29,360,470889,6,0,B|7:313|13:288|13:288|33:279|33:279|13:231|36:178|36:178|52:184|52:184|86:121|148:125,1,270,4|0,0:1|0:2,0:2:0:0:
483,360,471397,2,0,B|504:313|498:288|498:288|478:279|478:279|498:231|475:178|475:178|459:184|459:184|425:121|363:125,1,270,4|0,0:1|0:2,0:2:0:0:
400,65,471906,5,4,0:3:0:0:
428,54,471969,1,4,0:3:0:0:
458,57,472033,1,4,0:3:0:0:
483,74,472096,1,4,0:3:0:0:
498,100,472160,1,0,1:2:0:0:
426,143,472414,5,4,0:3:0:0:
118,56,472669,2,0,B|95:19|95:19|133:104,1,90,0|0,1:2|0:2,0:2:0:0:
483,360,472923,6,0,B|492:309|479:287|479:287|458:283|458:283|464:232|429:186|429:186|414:196|414:196|365:144|306:164,1,270,4|0,0:1|0:2,0:2:0:0:
29,360,473431,2,0,B|20:309|33:287|33:287|54:283|54:283|48:232|83:186|83:186|98:196|98:196|147:144|206:164,1,270,4|0,0:1|0:2,0:2:0:0:
231,182,473940,5,4,0:3:0:0:
276,170,474025,1,4,0:3:0:0:
294,127,474109,1,4,0:3:0:0:
278,86,474194,1,0,1:2:0:0:
361,175,474448,5,4,0:3:0:0:
181,32,474703,2,0,B|156:29|156:29|182:43|182:43|203:107,1,90,0|0,1:2|0:2,0:2:0:0:
483,360,474957,6,0,B|478:309|460:290|460:290|439:292|439:292|432:241|386:206|386:206|374:219|374:219|314:182|262:217,1,270,4|0,0:1|0:2,0:2:0:0:
29,360,475465,2,0,B|33:309|51:290|51:290|72:292|72:292|79:241|125:206|125:206|137:219|137:219|197:182|249:217,1,270,4|0,0:1|0:2,0:2:0:0:
256,232,475974,1,4,0:3:0:0:
394,123,476101,5,4,0:3:0:0:
394,123,476164,1,4,0:3:0:0:
394,123,476228,1,0,1:2:0:0:
128,38,476482,6,2,B|124:33|121:28|121:28|118:28|118:28|118:25|118:25|115:22|111:18|111:18|111:16|111:16|108:16|108:16|104:12|100:10|100:10|97:10|97:10|97:8|97:8|92:5|88:3|88:3|87:1|87:1|84:2|84:2|79:0|74:-1|74:-1|72:0|72:0|70:-2|70:-2|65:-3|61:-4|61:-4|59:-6|59:-6|57:-4|57:-4|52:-4|47:-3|47:-3|45:-1|45:-1|43:-2|43:-2|38:-2|33:0|33:0|30:-1|30:-1|29:1|29:1|25:3|20:6|20:6|20:9|20:9|17:8|17:8|13:11|10:15|10:15|7:15|7:15|7:18|7:18|4:22|2:27|2:27|3:29|3:29|1:30|1:30|0:35|1:40|1:40|-1:43|-1:43|2:44|2:44|4:49|7:53|7:53|10:52|10:52|10:55|10:55|14:58|19:60|19:60|20:63|20:63|22:62|22:62|27:64|32:65|32:65|34:64|34:64|36:66|36:66|41:67|46:68|46:68|47:70|47:70|50:68|50:68|55:69|59:70|59:70|62:68|62:68|63:70|63:70|68:71|73:71|73:71|75:74|75:74|77:72|77:72|82:72|87:73|87:73|89:71|89:71|91:74|91:74|96:74|101:75|101:75|103:77|103:77|105:76|105:76|110:76|115:77|115:77|117:76|117:76|119:78|119:78|124:79|129:80|129:80|130:82|130:82|133:81|133:81|137:82|142:83|142:83|145:82|145:82|146:84|146:84|151:86|156:87|156:87|157:90|157:90|159:88|159:88|164:90|169:91|169:91|172:90|172:90|173:93|173:93|178:95|182:96|182:96|183:99|183:99|186:98|186:98|191:100|195:101|195:101|198:100|198:100|199:103|199:103|204:105|208:107|208:107|209:110|209:110|212:109|212:109|216:111|221:113|221:113|223:112|223:112|224:115|224:115|229:117|233:119|233:119|234:122|234:122|237:121|237:121|241:124|246:126|246:126|248:125|248:125|249:128|249:128|253:130|258:133|258:133|258:136|258:136|261:135|261:135|266:138|270:140|270:140|272:139|272:139|273:142|273:142|277:145|281:148|281:148|282:151|282:151|285:150|285:150|289:153|293:156|293:156|296:156|296:156|296:158|296:158|300:161|304:165|304:165|304:168|304:168|307:167|307:167|310:171|314:174|314:174|317:175|317:175|316:177|316:177|320:181|322:186|322:186|321:188|321:188|324:189|324:189|326:194|327:199|327:199|329:201|329:201|327:203|327:203|327:208|324:212|324:212|321:213|321:213|322:216|322:216|319:220|315:223|315:223|315:226|315:226|312:225|312:225|308:228|303:230|303:230|300:229|300:229|299:231|299:231|295:233|290:234|290:234|288:237|288:237|286:235|286:235|281:236|276:237|276:237|274:235|274:235|272:237|272:237|267:238|262:238|262:238|260:240|260:240|258:238|258:238|253:237|248:237|248:237|247:235|247:235|244:236|244:236|239:235|234:234|234:234|232:236|232:236|231:233|231:233|226:232|221:230|221:230|220:228|220:228|217:229|217:229|213:227|208:224|208:224|206:225|206:225|205:222|205:222|200:220|196:217|196:217|196:214|196:214|193:214|193:214|189:211|186:208|186:208|183:208|183:208|183:205|183:205|180:201|177:197|177:197|177:194|177:194|174:194|174:194|172:190|169:185|169:185|167:184|167:184|168:182|168:182|165:177|164:172|164:172|165:170|165:170|163:169|163:169|161:164|160:159|160:159|158:157|158:157|160:155|160:155|159:150|159:145|159:145|161:143|161:143|159:141|159:141|159:136|159:131|159:131|157:129|157:129|159:127|159:127|160:122|161:117,1,911.42166585549,4|4,0:1|0:1,0:1:0:0:
256,192,477372,12,0,485380,0:2:0:0:
