osu file format v14

[General]
AudioFilename: audio.ogg
AudioLeadIn: 0
PreviewTime: 233909
Countdown: 0
SampleSet: Soft
StackLeniency: 0.7
Mode: 0
LetterboxInBreaks: 0
WidescreenStoryboard: 0

[Editor]
Bookmarks: 33042,65863,98683,106858,123268,139678,156088,172499,205319,238140,270960,279165,311986,344806,381729,414550,425319
DistanceSpacing: 0.4
BeatDivisor: 4
GridSize: 32
TimelineZoom: 2

[Metadata]
Title:Ascensionism
TitleUnicode:Ascensionism
Artist:Sleep Token
ArtistUnicode:Sleep Token
Creator:Mir
Version:Divinity
Source:
Tags:english rock pop metal hip hop rap worship vessel bring me back to eden
BeatmapID:4147550
BeatmapSetID:1995641

[Difficulty]
HPDrainRate:5
CircleSize:4
OverallDifficulty:8
ApproachRate:9
SliderMultiplier:2
SliderTickRate:1

[Events]
//Background and Video events
0,0,"brody bellon ascension landscape.jpg",0,0
//Break Periods
2,98883,105745
2,270894,278131
//Storyboard Layer 0 (Background)
//Storyboard Layer 1 (Fail)
//Storyboard Layer 2 (Pass)
//Storyboard Layer 3 (Foreground)
//Storyboard Layer 4 (Overlay)
//Storyboard Sound Samples

[TimingPoints]
222,512.820512820513,4,2,1,30,1,0
222,-333.333333333333,4,2,1,30,0,0
65863,-200,4,2,1,30,0,0
74068,-333.333333333333,4,2,1,30,0,0
80734,-200,4,2,1,30,0,0
82786,-333.333333333333,4,2,1,30,0,0
106345,512.820512820513,4,2,1,50,1,0
106849,512.820512820513,4,2,1,50,1,0
124541,-83.3333333333333,4,2,1,50,0,0
139670,-83.3333333333333,4,2,1,50,0,0
156592,-66.6666666666667,4,2,1,50,0,0
158131,-83.3333333333333,4,2,1,50,0,0
160182,-66.6666666666667,4,2,1,50,0,0
160695,-83.3333333333333,4,2,1,50,0,0
168387,-66.6666666666667,4,2,1,50,0,0
170951,-333.333333333333,4,2,1,50,0,0
172490,-66.6666666666667,4,2,1,60,0,1
176592,-55.5555555555556,4,2,1,60,0,1
178131,-66.6666666666667,4,2,1,60,0,1
181208,-55.5555555555556,4,2,1,60,0,1
181720,-66.6666666666667,4,2,1,60,0,1
188900,-66.6666666666667,4,2,1,60,0,0
189925,-55.5555555555556,4,2,1,60,0,1
191464,-66.6666666666667,4,2,1,60,0,1
205310,-333.333333333333,4,2,1,40,0,0
237618,-33.3333333333333,4,2,1,40,0,0
238131,-100,4,2,1,80,0,1
241464,-33.3333333333333,4,2,1,80,0,1
242490,-100,4,2,1,80,0,1
258387,-33.3333333333333,4,2,1,80,0,1
258644,-100,4,2,1,80,0,1
270438,-200,4,2,1,80,0,1
270951,-200,4,2,1,40,0,0
279156,-133.333333333333,4,2,1,80,0,1
280951,-66.6666666666667,4,2,1,80,0,1
281977,-133.333333333333,4,2,1,80,0,1
282233,-66.6666666666667,4,2,1,80,0,1
286592,-133.333333333333,4,2,1,80,0,1
289156,-66.6666666666667,4,2,1,80,0,1
290182,-133.333333333333,4,2,1,80,0,1
290438,-66.6666666666667,4,2,1,80,0,1
294541,-133.333333333333,4,2,1,80,0,1
295054,-1000,4,2,1,80,0,0
296592,-133.333333333333,4,2,1,80,0,1
297361,-66.6666666666667,4,2,1,80,0,1
299156,-133.333333333333,4,2,1,80,0,1
299413,-66.6666666666667,4,2,1,80,0,1
299926,-133.333333333333,4,2,1,80,0,1
305567,-66.6666666666667,4,2,1,80,0,1
306849,-33.3333333333333,4,2,1,80,0,1
307618,-133.333333333333,4,2,1,80,0,1
310951,-66.6666666666667,4,2,1,80,0,1
311464,-66.6666666666667,4,2,1,40,0,0
311977,-333.333333333333,4,2,1,40,0,0
343259,-200,4,2,1,40,0,0
353515,-333.333333333333,4,2,1,40,0,0
359669,-200,4,2,1,40,0,0
361720,-333.333333333333,4,2,1,40,0,0
363772,-200,4,2,1,40,0,0
367361,-333.333333333333,4,2,1,40,0,0
368387,-200,4,2,1,40,0,0
370951,-333.333333333333,4,2,1,40,0,0
377618,-1000,4,2,1,40,0,0
381720,-66.6666666666667,4,2,1,80,0,1
387106,422.535211267606,4,2,1,80,1,1
387330,540.540540540541,4,2,1,80,1,1
387330,-66.6666666666667,4,2,1,80,0,1
387870,512.820512820513,4,2,1,80,1,1
387870,-66.6666666666667,4,2,1,80,0,1
397100,-50,4,2,1,80,0,1
397998,-50,4,2,1,80,0,0
398126,-66.6666666666667,4,2,1,80,0,1
414536,-133.333333333333,4,2,1,80,0,0

[Colours]
Combo1 : 237,135,135
Combo2 : 242,207,134
Combo3 : 240,164,233

[HitObjects]
98,208,222,6,0,L|109:142,2,59.9999981689454,2|0|0,0:2|0:2|0:2,0:2:0:0:
185,188,1760,2,0,L|196:254,2,59.9999981689454,2|0|0,0:2|0:2|0:2,0:2:0:0:
250,138,3298,1,0,0:2:0:0:
250,138,3555,2,0,L|318:127,1,59.9999981689454,2|0,0:2|0:2,0:2:0:0:
412,82,4324,6,0,L|471:91,2,59.9999981689454,2|0|0,0:2|0:2|0:2,0:2:0:0:
455,173,5863,2,0,L|395:182,2,59.9999981689454,2|0|0,0:2|0:2|0:2,0:2:0:0:
471,253,7401,1,0,0:2:0:0:
471,253,7657,2,0,P|465:296|463:325,1,59.9999981689454,2|0,0:2|0:2,0:2:0:0:
388,382,8427,6,0,P|385:352|380:322,2,59.9999981689454,2|0|0,0:2|0:2|0:2,0:2:0:0:
303,288,9965,2,0,P|300:317|295:347,2,59.9999981689454,2|0|0,0:2|0:2|0:2,0:2:0:0:
210,374,11504,2,0,P|207:344|202:314,2,59.9999981689454,2|0|0,0:2|0:2|0:2,0:2:0:0:
125,347,13042,1,0,0:2:0:0:
183,227,13555,6,0,P|214:233|249:241,2,59.9999981689454,2|0|0,0:2|0:2|0:2,0:2:0:0:
66,136,15093,2,0,P|35:142|0:150,2,59.9999981689454,2|0|0,0:2|0:2|0:2,0:2:0:0:
245,6,16632,6,0,P|228:52|222:72,2,59.9999981689454,2|0|0,0:2|0:2|0:2,0:2:0:0:
309,81,18170,2,0,P|326:127|332:147,2,59.9999981689454,2|0|0,0:2|0:2|0:2,0:2:0:0:
187,134,19709,1,0,0:2:0:0:
187,134,19965,2,0,P|224:143|249:153,1,59.9999981689454,2|0,0:2|0:2,0:2:0:0:
300,219,20734,6,0,P|337:210|362:200,2,59.9999981689454,2|0|0,0:2|0:2|0:2,0:2:0:0:
361,288,22273,2,0,P|398:297|423:307,2,59.9999981689454,2|0|0,0:2|0:2|0:2,0:2:0:0:
286,364,23811,1,0,0:2:0:0:
286,364,24068,2,0,P|276:320|272:293,1,59.9999981689454,2|0,0:2|0:2,0:2:0:0:
198,257,24837,6,0,P|192:286|185:315,2,59.9999981689454,2|0|0,0:2|0:2|0:2,0:2:0:0:
112,271,26375,2,0,P|104:241|99:212,2,59.9999981689454,2|0|0,0:2|0:2|0:2,0:2:0:0:
30,269,27914,2,0,P|22:298|17:327,1,59.9999981689454,2|0,0:2|0:2,0:2:0:0:
172,177,28939,6,0,P|205:173|235:162,2,59.9999981689454,2|0|0,0:2|0:2|0:2,0:2:0:0:
74,120,30478,2,0,P|45:110|15:107,1,59.9999981689454,2|0,0:2|0:2,0:2:0:0:
31,188,31504,5,2,0:2:0:0:
129,367,32016,2,0,P|171:355|198:350,1,59.9999981689454,2|0,0:2|0:2,0:2:0:0:
263,380,32786,2,0,P|268:353|272:338,1,29.9999990844727,2|0,0:2|0:2,0:2:0:0:
211,209,33555,6,0,P|202:165|198:144,2,59.9999981689454,2|0|0,0:2|0:2|0:2,0:2:0:0:
159,266,35093,1,0,0:2:0:0:
263,132,35606,5,2,0:2:0:0:
138,97,36119,2,0,L|100:106,1,29.9999990844727,2|0,0:2|0:2,0:2:0:0:
270,124,36632,2,0,L|283:57,1,59.9999981689454,2|0,0:2|0:2,0:2:0:0:
343,22,37401,2,0,L|381:13,1,29.9999990844727,2|0,0:2|0:2,0:2:0:0:
372,15,38170,1,0,0:2:0:0:
444,153,38683,6,0,P|483:159|515:167,2,59.9999981689454,2|0|0,0:2|0:2|0:2,0:2:0:0:
388,203,40222,2,0,P|358:214|350:217,1,29.9999990844727,2|0,0:2|0:2,0:2:0:0:
311,277,40734,2,0,P|272:271|240:263,1,59.9999981689454,2|0,0:2|0:2,0:2:0:0:
232,192,41760,6,0,P|198:202|183:233,2,59.9999981689454,2|0|0,0:2|0:2|0:2,0:2:0:0:
114,185,43298,2,0,P|97:216|108:248,2,59.9999981689454,2|0|0,0:2|0:2|0:2,0:2:0:0:
64,344,44837,6,0,P|38:352|5:370,2,59.9999981689454,2|0|0,0:2|0:2|0:2,0:2:0:0:
249,306,46375,2,0,P|223:298|190:280,2,59.9999981689454,2|0|0,0:2|0:2|0:2,0:2:0:0:
411,354,47914,2,0,P|385:362|352:380,2,59.9999981689454,2|0|0,0:2|0:2|0:2,0:2:0:0:
455,228,49452,6,0,P|467:183|478:161,2,59.9999981689454,2|0|0,0:2|0:2|0:2,0:2:0:0:
312,161,50991,2,0,P|300:116|289:94,2,59.9999981689454,2|0|0,0:2|0:2|0:2,0:2:0:0:
456,92,52529,6,0,P|493:82|514:58,1,59.9999981689454,2|0,0:2|0:2,0:2:0:0:
438,15,53298,2,0,P|416:23|407:31,2,29.9999990844727,2|0|0,0:2|0:2|0:2,0:2:0:0:
446,97,54068,2,0,P|429:124|415:161,2,59.9999981689454,2|0|0,0:2|0:2|0:2,0:2:0:0:
336,185,55606,2,0,P|353:212|367:249,1,59.9999981689454,2|0,0:2|0:2,0:2:0:0:
334,307,56632,2,0,P|327:333|326:345,1,29.9999990844727,2|0,0:2|0:2,0:2:0:0:
499,259,57145,6,0,P|466:236|437:232,2,59.9999981689454,2|0|0,0:2|0:2|0:2,0:2:0:0:
326,335,58683,2,0,P|293:358|264:362,2,59.9999981689454,2|0|0,0:2|0:2|0:2,0:2:0:0:
433,367,60222,6,0,P|419:332|410:300,2,59.9999981689454,2|0|0,0:2|0:2|0:2,0:2:0:0:
258,279,61760,2,0,P|272:244|281:212,2,59.9999981689454,2|0|0,0:2|0:2|0:2,0:2:0:0:
378,161,63298,2,0,P|364:126|355:94,1,59.9999981689454,2|0,0:2|0:2,0:2:0:0:
379,33,64324,1,2,0:2:0:0:
282,127,64837,1,2,0:2:0:0:
445,198,65350,6,0,P|474:188|507:179,1,59.9999981689454,2|0,0:2|0:2,0:2:0:0:
487,299,66375,2,0,P|449:287|389:275,1,100,2|0,0:2|0:2,0:2:0:0:
338,333,67401,5,2,0:2:0:0:
439,202,67914,1,2,0:2:0:0:
354,106,68427,1,2,0:2:0:0:
386,37,68939,1,2,0:2:0:0:
243,160,69452,6,0,B|187:164|210:201|130:196,1,100,2|0,0:2|0:2,0:2:0:0:
47,80,70478,2,0,P|99:102|151:117,1,100,2|0,0:2|0:2,0:2:0:0:
213,88,71504,1,0,0:2:0:0:
75,175,72016,5,2,0:2:0:0:
155,38,72529,1,2,0:2:0:0:
213,88,73042,1,2,0:2:0:0:
167,211,73555,2,0,P|111:188|65:171,1,100,2|0,0:2|0:2,0:2:0:0:
44,252,74580,6,0,P|14:272|5:298,2,59.9999981689454,2|0|0,0:2|0:2|0:2,0:2:0:0:
110,301,76119,2,0,P|102:336|114:361,2,59.9999981689454,2|0|0,0:2|0:2|0:2,0:2:0:0:
195,304,77657,2,0,P|214:334|241:343,1,59.9999981689454,2|0,0:2|0:2,0:2:0:0:
434,328,78683,6,0,P|445:282|451:262,2,59.9999981689454,2|0|0,0:2|0:2|0:2,0:2:0:0:
495,377,80222,1,0,0:2:0:0:
364,289,80734,5,2,0:2:0:0:
498,205,81247,1,2,0:2:0:0:
341,133,81760,2,0,P|276:127|237:114,1,100,2|0,0:2|0:2,0:2:0:0:
207,52,82786,2,0,P|178:70|169:99,2,59.9999981689454,2|0|0,0:2|0:2|0:2,0:2:0:0:
243,116,84324,1,0,0:2:0:0:
139,3,84837,5,2,0:2:0:0:
187,169,85350,1,2,0:2:0:0:
331,62,85863,2,0,P|366:51|395:38,1,59.9999981689454,2|0,0:2|0:2,0:2:0:0:
477,40,86632,1,2,0:2:0:0:
477,40,86888,2,0,P|465:60|452:101,2,59.9999981689454,2|0|0,0:2|0:2|0:2,0:2:0:0:
374,117,88427,2,0,P|386:137|399:178,1,59.9999981689454,2|0,0:2|0:2,0:2:0:0:
504,165,89452,2,0,P|477:175|466:182,1,29.9999990844727,2|0,0:2|0:2,0:2:0:0:
405,299,89965,6,0,P|425:261|427:235,2,59.9999981689454,2|0|0,0:2|0:2|0:2,0:2:0:0:
273,361,91504,2,0,P|253:323|251:297,2,59.9999981689454,2|0|0,0:2|0:2|0:2,0:2:0:0:
85,326,93042,2,0,P|105:288|107:262,2,59.9999981689454,2|0|0,0:2|0:2|0:2,0:2:0:0:
206,236,94580,6,0,P|245:228|271:225,3,59.9999981689454,2|0|0|0,0:2|0:2|0:2|0:2,0:2:0:0:
82,137,96632,2,0,P|52:133|23:127,1,59.9999981689454,2|0,0:2|0:2,0:2:0:0:
231,43,97657,2,0,P|270:35|296:32,1,59.9999981689454,2|0,0:2|0:2,0:2:0:0:
179,133,98683,5,2,0:2:0:0:
512,133,106345,6,0,P|506:156|497:198,1,50,8|0,0:3|0:2,0:2:0:0:
422,220,106601,2,0,P|416:195|410:171,1,50,4|0,0:3|0:2,0:2:0:0:
386,96,106850,5,2,1:2:0:0:
356,95,106978,1,2,0:2:0:0:
345,122,107106,1,0,0:0:0:0:
98,148,107362,6,0,P|15:132|-9:127,1,100,2|0,0:2|3:2,0:2:0:0:
51,244,107747,1,0,3:2:0:0:
51,244,107875,2,0,P|134:228|158:223,1,100,8|0,0:2|0:2,0:2:0:0:
286,20,108388,2,0,P|349:32|359:118,1,150,2|0,0:2|0:2,0:2:0:0:
233,237,108900,5,2,0:2:0:0:
230,228,109028,2,0,P|226:205|217:161,1,50,2|0,0:2|1:2,0:2:0:0:
452,115,109285,2,0,P|447:139|443:164,1,50,2|0,0:2|0:2,0:2:0:0:
367,188,109541,5,2,0:2:0:0:
356,192,109669,2,0,P|295:209|282:215,1,50,2|0,0:2|0:2,0:2:0:0:
441,374,109926,2,0,P|474:370|494:287,1,100,10|0,0:2|0:2,0:2:0:0:
439,247,110310,2,0,P|434:271|430:296,1,50,2|0,0:2|0:2,0:2:0:0:
315,335,110567,5,2,0:2:0:0:
314,342,110695,2,0,P|375:359|388:365,1,50,2|0,0:2|0:2,0:2:0:0:
362,271,110951,1,2,1:2:0:0:
353,264,111079,2,0,P|349:234|337:184,1,50,2|0,0:2|0:2,0:2:0:0:
512,169,111336,2,0,P|457:219|408:212,1,100,2|0,0:2|0:2,0:2:0:0:
396,152,111720,2,0,P|362:108|307:107,2,100,2|8|0,0:2|0:2|0:2,0:2:0:0:
230,379,112490,2,0,P|166:355|162:270,1,150,2|0,0:2|0:2,0:2:0:0:
300,201,113002,6,0,P|275:249|252:305,1,100,2|0,0:2|0:2,0:2:0:0:
205,214,113387,2,0,P|192:153|181:121,1,50,2|0,0:2|1:2,0:2:0:0:
350,288,113644,2,0,P|363:349|383:402,1,100,2|0,0:2|0:2,0:2:0:0:
463,239,114028,6,0,P|427:208|365:214,1,100,10|0,0:2|0:2,0:2:0:0:
266,293,114413,2,0,P|230:324|168:318,1,100,2|0,0:2|0:2,0:2:0:0:
116,365,114797,1,2,1:2:0:0:
116,365,114926,1,0,1:2:0:0:
45,331,115054,6,0,P|33:279|26:264,1,50,2|0,1:2|0:2,0:2:0:0:
251,143,115310,1,2,0:2:0:0:
242,151,115438,2,0,P|214:214|207:251,1,100,2|0,0:2|0:2,0:2:0:0:
266,293,115823,1,2,0:2:0:0:
124,254,116079,5,10,0:2:0:0:
313,155,116336,1,0,0:2:0:0:
108,5,116592,2,0,P|41:16|41:107,1,150,0|0,0:2|0:2,0:2:0:0:
38,161,117105,5,2,0:2:0:0:
138,113,117276,1,2,0:2:0:0:
201,152,117447,1,2,0:2:0:0:
336,65,117618,5,2,0:2:0:0:
197,163,117789,1,2,0:2:0:0:
205,77,117960,1,2,0:2:0:0:
391,140,118131,6,0,P|366:206|359:249,1,100,10|0,0:2|0:2,0:2:0:0:
150,296,118515,2,0,P|138:247|119:201,1,100,2|0,0:2|0:2,0:2:0:0:
56,156,118900,6,0,P|12:199|30:246,1,100,2|0,0:2|1:2,0:2:0:0:
198,367,119285,2,0,P|242:324|224:277,1,100,2|0,0:2|0:2,0:2:0:0:
13,322,119669,6,0,P|60:339|108:367,1,100,2|0,1:2|0:2,0:2:0:0:
157,296,120054,2,0,P|131:252|99:214,1,100,2|0,0:2|0:2,0:2:0:0:
302,162,120438,2,0,P|310:211|311:261,1,100,2|0,0:2|0:2,0:2:0:0:
437,355,120823,2,0,P|461:311|478:264,1,100,2|0,0:2|0:2,0:2:0:0:
511,186,121208,6,0,P|462:173|454:162,1,50,2|0,1:2|0:2,0:2:0:0:
363,9,121464,1,2,0:2:0:0:
374,1,121592,2,0,P|403:52|398:69,1,50,2|0,0:2|0:2,0:2:0:0:
481,49,121849,1,2,0:2:0:0:
494,51,121977,2,0,P|478:107|462:116,1,50,0|0,1:2|0:2,0:2:0:0:
316,150,122233,6,0,P|391:118|430:117,1,100,10|0,0:2|0:2,0:2:0:0:
326,227,122618,1,2,0:2:0:0:
317,234,122746,2,0,P|273:221|253:190,1,50,0|0,1:2|0:2,0:2:0:0:
174,41,123002,2,0,P|129:54|109:85,1,50,2|0,1:2|0:2,0:2:0:0:
31,231,123259,5,0,1:2:0:0:
40,233,123387,2,0,P|68:292|86:386,2,150,2|2|0,0:2|0:2|0:2,0:2:0:0:
0,165,124285,1,8,0:2:0:0:
0,165,124541,6,0,P|63:142|72:135,1,59.9999981689454,2|0,0:2|0:2,0:2:0:0:
111,201,124797,2,0,P|154:149|158:139,1,59.9999981689454,2|0,0:2|0:2,0:2:0:0:
225,176,125054,2,0,P|236:109|235:98,1,59.9999981689454,2|0,0:2|0:2,0:2:0:0:
234,36,125310,6,0,P|297:59|306:66,1,59.9999981689454,2|0,0:2|0:2,0:2:0:0:
345,0,125566,2,0,P|388:51|392:61,1,59.9999981689454,2|0,1:2|0:2,0:2:0:0:
512,74,125823,2,0,P|453:98|360:217,1,179.999994506836,2|0,0:2|0:2,0:2:0:0:
304,217,126336,6,0,P|350:257|372:253,1,59.9999981689454,10|0,0:2|0:2,0:2:0:0:
476,228,126592,2,0,P|418:247|410:268,1,59.9999981689454,2|0,0:2|0:2,0:2:0:0:
318,376,126849,2,0,P|380:364|380:289,1,119.999996337891,2|0,0:2|0:2,0:2:0:0:
299,133,127361,6,0,P|237:170|224:193,1,59.9999981689454,2|0,1:2|0:2,0:2:0:0:
171,137,127618,2,0,P|153:207|160:232,1,59.9999981689454,2|0,0:2|0:2,0:2:0:0:
158,365,127874,6,0,P|96:328|83:305,1,59.9999981689454,2|0,1:2|0:2,0:2:0:0:
30,361,128131,2,0,P|12:290|19:265,1,59.9999981689454,2|0,0:2|0:2,0:2:0:0:
7,191,128387,6,0,B|81:211|38:244|128:264,1,119.999996337891,10|0,0:2|0:2,0:2:0:0:
259,365,128900,2,0,B|333:345|290:312|380:292,1,119.999996337891,2|0,0:2|0:2,0:2:0:0:
512,213,129413,6,0,P|503:249|500:278,1,59.9999981689454,2|0,1:2|0:2,0:2:0:0:
490,267,129669,2,0,P|493:237|501:208,1,59.9999981689454,0|0,1:2|0:2,0:2:0:0:
446,384,129926,6,0,P|442:354|434:325,1,59.9999981689454,2|0,1:2|0:2,0:2:0:0:
278,248,130182,2,0,P|281:218|289:189,1,59.9999981689454,2|0,0:2|0:2,0:2:0:0:
504,81,130438,2,0,P|429:140|368:118,1,119.999996337891,10|0,0:2|0:2,0:2:0:0:
249,78,130951,6,0,P|245:48|237:19,1,59.9999981689454,2|0,1:2|0:2,0:2:0:0:
237,19,131208,1,0,1:2:0:0:
237,19,131336,1,0,1:2:0:0:
321,54,131464,5,0,1:2:0:0:
199,137,131635,1,2,0:2:0:0:
289,186,131806,1,2,0:2:0:0:
184,289,131977,6,0,P|107:314|93:320,1,59.9999981689454,2|0,0:2|0:2,0:2:0:0:
82,370,132233,2,0,P|5:345|-9:339,1,59.9999981689454,2|0,0:2|0:2,0:2:0:0:
24,271,132490,2,0,P|56:263|83:162,1,119.999996337891,10|0,0:2|0:2,0:2:0:0:
167,165,132874,2,0,P|150:109|105:98,1,59.9999981689454,2|0,0:2|0:2,0:2:0:0:
8,131,133131,5,2,0:2:0:0:
0,140,133259,2,0,P|16:195|62:207,1,59.9999981689454,2|0,0:2|0:2,0:2:0:0:
158,270,133515,2,0,P|229:239|290:240,1,119.999996337891,2|0,0:2|1:2,0:2:0:0:
302,167,133900,2,0,P|358:195|369:211,1,59.9999981689454,2|0,0:2|0:2,0:2:0:0:
451,352,134156,1,2,0:2:0:0:
459,360,134285,2,0,P|515:332|526:316,1,59.9999981689454,2|0,0:2|0:2,0:2:0:0:
444,209,134541,5,10,0:2:0:0:
436,216,134669,2,0,P|424:256|421:288,1,59.9999981689454,2|0,0:2|0:2,0:2:0:0:
365,377,134926,2,0,P|347:309|317:245,1,119.999996337891,2|0,0:2|0:2,0:2:0:0:
256,241,135310,1,2,0:2:0:0:
144,39,135567,5,2,1:2:0:0:
133,46,135695,2,0,L|154:123,1,59.9999981689454,2|0,0:2|0:2,0:2:0:0:
320,191,135951,2,0,L|341:114,1,59.9999981689454,2|0,0:2|1:2,0:2:0:0:
396,87,136208,1,2,0:2:0:0:
405,97,136336,2,0,L|468:82,1,59.9999981689454,2|0,0:2|0:2,0:2:0:0:
218,40,136592,5,10,0:2:0:0:
280,87,136720,1,2,0:2:0:0:
80,144,136977,1,2,0:2:0:0:
53,73,137233,5,2,0:2:0:0:
53,73,137361,1,2,0:2:0:0:
218,139,137618,6,0,L|204:199,1,59.9999981689454,2|0,1:2|0:2,0:2:0:0:
63,296,137874,1,2,0:2:0:0:
55,294,138002,2,0,L|41:235,1,59.9999981689454,2|0,0:2|0:2,0:2:0:0:
253,259,138259,1,2,0:2:0:0:
258,266,138387,2,0,L|244:324,1,59.9999981689454,2|0,1:2|0:2,0:2:0:0:
119,356,138644,5,10,0:2:0:0:
171,296,138772,1,2,0:2:0:0:
32,259,139028,1,2,0:2:0:0:
34,265,139156,6,0,P|63:275|99:280,1,59.9999981689454,0|0,1:2|0:2,0:2:0:0:
247,334,139413,2,0,P|276:324|312:319,1,59.9999981689454,0|0,1:2|0:2,0:2:0:0:
469,243,139669,5,2,1:3:0:0:
489,271,139926,1,2,0:3:0:0:
467,266,140182,1,2,0:3:0:0:
493,250,140438,1,2,0:3:0:0:
489,356,140695,6,0,P|421:335|292:318,1,179.999994506836,10|0,0:2|0:2,0:2:0:0:
263,378,141208,2,0,P|235:335|237:311,1,59.9999981689454,2|0,1:2|0:2,0:2:0:0:
429,239,141464,6,0,L|407:324,1,59.9999981689454,2|0,0:2|0:2,0:2:0:0:
160,308,141720,2,2,P|161:293|166:279,2,29.9999990844727,2|2|2,0:2|0:2|0:2,0:2:0:0:
242,260,141977,1,0,1:2:0:0:
500,202,142233,2,0,P|441:198|396:160,1,119.999996337891,2|0,0:2|0:2,0:2:0:0:
224,32,142746,5,10,0:2:0:0:
194,36,142874,1,2,0:2:0:0:
170,53,143002,1,2,0:2:0:0:
157,80,143130,1,2,0:2:0:0:
158,109,143258,1,2,0:2:0:0:
223,155,143515,1,2,0:2:0:0:
2,260,143772,6,0,P|81:240|108:235,1,59.9999981689454,2|0,1:2|0:2,0:2:0:0:
91,170,144028,2,0,P|170:190|197:195,1,59.9999981689454,2|0,0:2|0:2,0:2:0:0:
272,246,144285,6,0,L|258:304,1,59.9999981689454,2|0,0:2|0:2,0:2:0:0:
180,315,144541,2,0,L|193:373,1,59.9999981689454,2|0,0:2|0:2,0:2:0:0:
415,357,144797,2,0,P|471:347|481:295,1,89.9999972534181,8|2,0:2|0:2,0:2:0:0:
487,305,145054,2,2,P|472:290|448:282,2,29.9999990844727,2|2|2,0:2|0:2|0:2,0:2:0:0:
408,179,145310,6,0,L|394:86,1,59.9999981689454,2|0,0:2|0:2,0:2:0:0:
469,99,145567,2,0,L|455:6,1,59.9999981689454,2|0,1:2|0:2,0:2:0:0:
301,78,145823,2,0,B|202:98|281:177|161:195,1,179.999994506836,2|0,0:2|0:2,0:2:0:0:
0,31,146336,2,0,P|92:55|192:100,1,179.999994506836,2|0,1:2|0:2,0:2:0:0:
321,157,146849,6,0,P|302:223|297:254,1,59.9999981689454,10|0,0:2|0:2,0:2:0:0:
303,214,147105,1,2,0:2:0:0:
303,214,147233,1,2,0:2:0:0:
248,308,147361,2,0,P|240:278|230:250,1,59.9999981689454,0|0,1:2|0:2,0:2:0:0:
25,155,147618,5,0,1:2:0:0:
66,215,147746,1,0,1:2:0:0:
136,189,147874,2,0,L|226:171,2,79.9999975585938,2|2|2,1:2|0:2|0:2,0:2:0:0:
127,268,148387,6,0,P|114:332|111:350,1,59.9999981689454,2|0,0:2|0:2,0:2:0:0:
98,122,148644,2,2,P|90:82|88:71,2,29.9999990844727,2|2|2,0:2|0:2|0:2,0:2:0:0:
222,162,148900,6,0,L|292:181,1,59.9999981689454,8|0,0:2|0:2,0:2:0:0:
279,177,149156,1,2,0:2:0:0:
279,177,149285,1,2,0:2:0:0:
357,147,149413,6,0,P|426:125|438:114,1,59.9999981689454,2|0,0:2|0:2,0:2:0:0:
508,331,149669,2,0,P|480:319|450:316,1,59.9999981689454,2|0,0:2|0:2,0:2:0:0:
399,220,149926,6,0,P|374:281|360:345,1,119.999996337891,2|0,0:2|1:2,0:2:0:0:
199,384,150438,2,0,P|184:325|161:270,1,119.999996337891,2|2,0:2|0:2,0:2:0:0:
161,270,150823,1,2,0:2:0:0:
112,208,150951,2,0,P|83:203|54:194,1,59.9999981689454,10|0,0:2|0:2,0:2:0:0:
256,284,151208,2,0,P|284:275|314:270,1,59.9999981689454,2|0,0:2|0:2,0:2:0:0:
109,365,151464,1,2,0:2:0:0:
109,365,151720,1,2,0:2:0:0:
221,210,151977,5,2,1:2:0:0:
225,180,152105,1,2,0:2:0:0:
232,152,152233,1,2,0:2:0:0:
242,124,152361,1,2,0:2:0:0:
254,98,152489,1,2,1:2:0:0:
315,156,152746,1,2,0:2:0:0:
209,27,153002,6,0,P|155:44|111:48,1,59.9999981689454,10|0,0:2|0:2,0:2:0:0:
99,114,153259,2,0,P|128:120|156:131,1,59.9999981689454,2|0,0:2|0:2,0:2:0:0:
377,218,153515,2,0,P|409:164|435:136,2,59.9999981689454,2|0|2,0:2|0:2|0:2,0:2:0:0:
258,379,154028,6,0,B|201:362|201:362|181:305|181:305|123:285,1,179.999994506836,2|0,1:2|0:2,0:2:0:0:
65,227,154541,2,0,B|10:253|10:253|45:306,1,119.999996337891,2|0,0:2|1:2,0:2:0:0:
205,315,155054,6,0,L|226:233,1,59.9999981689454,10|0,0:2|0:2,0:2:0:0:
51,309,155310,2,0,L|65:367,1,59.9999981689454,2|0,0:2|0:2,0:2:0:0:
289,306,155567,2,2,L|329:300,2,29.9999990844727,2|2|2,1:2|0:2|0:2,0:2:0:0:
130,287,155823,1,2,1:2:0:0:
130,287,155951,1,2,0:2:0:0:
204,258,156079,6,0,P|195:229|187:193,1,59.9999981689454,2|0,1:2|0:2,0:2:0:0:
353,188,156336,2,0,P|351:157|353:120,1,59.9999981689454,2|0,0:2|0:2,0:2:0:0:
512,56,156592,6,0,P|473:44|414:19,1,75.0000028610231,2|0,0:2|0:2,0:2:0:0:
266,133,156849,2,2,P|240:123|213:115,2,37.5000014305115,2|2|2,0:2|0:2|0:2,0:2:0:0:
465,368,157105,6,0,P|499:354|507:301,1,75.0000028610231,10|0,0:2|0:2,0:2:0:0:
281,221,157361,2,0,P|294:254|328:267,1,75.0000028610231,2|0,0:2|0:2,0:2:0:0:
504,137,157618,6,0,B|511:167|511:167|416:255|378:359,1,262.500010013581,2|0,1:2|0:2,0:2:0:0:
378,366,158131,2,2,L|341:383,2,29.9999990844727,2|2|2,0:2|0:2|0:2,0:2:0:0:
460,264,158387,1,0,1:2:0:0:
200,226,158644,6,0,P|142:203|110:194,1,59.9999981689454,2|0,0:2|0:2,0:2:0:0:
12,93,158900,2,0,P|40:103|67:115,1,59.9999981689454,2|0,0:2|0:2,0:2:0:0:
44,256,159156,2,0,L|70:166,1,59.9999981689454,10|0,0:2|0:2,0:2:0:0:
168,64,159413,2,0,L|151:121,2,59.9999981689454,2|0|0,0:2|0:2|0:2,0:2:0:0:
168,64,159926,1,2,0:2:0:0:
301,217,160182,6,0,B|314:222|314:222|344:203|388:196,1,75.0000028610231,2|0,1:2|0:2,0:2:0:0:
435,148,160438,2,0,B|440:160|440:160|475:168|511:194,1,75.0000028610231,2|0,0:2|0:2,0:2:0:0:
387,72,160695,2,0,P|355:142|352:170,2,59.9999981689454,2|0|0,0:2|0:2|0:2,0:2:0:0:
438,245,161208,6,0,P|445:282|452:320,1,59.9999981689454,10|0,0:2|0:2,0:2:0:0:
383,342,161464,2,2,P|385:356|388:371,2,29.9999990844727,2|2|2,0:2|0:2|0:2,0:2:0:0:
246,360,161720,6,0,P|253:323|260:285,1,59.9999981689454,2|0,0:2|0:2,0:2:0:0:
178,313,161977,2,0,P|185:276|192:238,1,59.9999981689454,2|0,1:2|0:2,0:2:0:0:
151,90,162233,6,0,B|51:106|103:186|-2:195,1,179.999994506836,2|0,0:2|0:2,0:2:0:0:
0,108,162746,2,0,P|86:132|175:191,1,179.999994506836,2|0,1:2|0:2,0:2:0:0:
222,128,163259,2,0,P|238:93|233:68,1,59.9999981689454,10|0,0:2|0:2,0:2:0:0:
73,46,163515,5,2,0:2:0:0:
73,46,163644,1,2,0:2:0:0:
73,46,163772,2,0,L|95:120,1,59.9999981689454,2|0,1:2|0:2,0:2:0:0:
241,226,164028,5,2,1:2:0:0:
291,176,164156,1,2,1:2:0:0:
363,197,164285,2,0,P|449:178|461:175,2,79.9999975585938,2|2|2,1:2|0:2|0:2,0:2:0:0:
236,235,164797,6,0,L|160:222,1,59.9999981689454,2|0,0:2|0:2,0:2:0:0:
47,364,165054,2,2,L|-4:372,2,29.9999990844727,2|2|2,0:2|0:2|0:2,0:2:0:0:
124,329,165310,6,0,L|111:258,1,59.9999981689454,10|0,0:2|0:2,0:2:0:0:
290,107,165567,2,0,L|277:178,1,59.9999981689454,2|0,0:2|0:2,0:2:0:0:
47,202,165823,6,0,P|106:189|128:186,1,59.9999981689454,2|0,0:2|0:2,0:2:0:0:
266,320,166079,2,0,P|236:314|207:307,1,59.9999981689454,2|0,0:2|0:2,0:2:0:0:
176,103,166336,6,0,P|194:181|200:240,1,119.999996337891,2|0,0:2|1:2,0:2:0:0:
345,384,166849,2,0,P|353:324|367:266,1,119.999996337891,2|0,0:2|0:2,0:2:0:0:
478,201,167361,6,0,P|440:247|415:242,1,59.9999981689454,10|0,0:2|0:2,0:2:0:0:
271,334,167618,2,0,P|246:317|238:289,1,59.9999981689454,2|0,0:2|0:2,0:2:0:0:
287,80,167874,2,0,P|374:98|390:186,1,179.999994506836,2|0,0:2|0:2,0:2:0:0:
314,162,168387,6,0,B|311:172|311:172|277:177|231:217,1,75.0000028610231,2|0,1:2|0:2,0:2:0:0:
170,210,168644,2,0,B|174:219|174:219|154:246|150:307,1,75.0000028610231,2|0,0:2|0:2,0:2:0:0:
8,242,168900,6,0,B|11:252|11:252|45:257|91:297,1,75.0000028610231,2|0,1:2|0:2,0:2:0:0:
152,290,169157,2,0,B|147:299|147:299|167:326|171:387,1,75.0000028610231,2|0,0:2|0:2,0:2:0:0:
334,360,169413,6,0,B|452:327|352:240|512:214,1,225.000008583069,10|0,0:2|0:2,0:2:0:0:
500,335,169926,2,0,P|462:321|412:304,1,75.0000028610231,2|0,0:2|0:2,0:2:0:0:
319,260,170182,2,0,P|357:246|407:229,1,75.0000028610231,2|0,0:2|0:2,0:2:0:0:
423,156,170438,5,0,1:2:0:0:
423,156,170951,2,0,L|430:113,2,29.9999990844727,2|2|2,0:2|0:2|0:2,0:2:0:0:
101,294,171977,6,0,P|97:280|104:294,1,44.999998626709,8|0,0:3|0:2,0:2:0:0:
0,303,172490,6,0,P|85:312|211:390,1,225.000008583069,4|0,0:3|0:2,0:2:0:0:
298,234,173002,2,0,B|215:246|263:300|167:312,1,150.000005722046,2|2,0:2|0:2,0:2:0:0:
162,309,173323,2,2,P|124:327|121:331,2,37.5000014305115,2|2|2,0:2|0:2|0:2,0:2:0:0:
76,124,173515,2,0,P|136:154|156:264,1,150.000005722046,10|0,0:2|0:2,0:2:0:0:
340,378,174028,6,0,P|311:345|326:284,1,75.0000028610231,0|0,1:2|0:2,0:2:0:0:
463,181,174285,1,2,0:2:0:0:
463,181,174413,1,2,0:2:0:0:
463,181,174541,2,2,P|486:176|515:158,2,37.5000014305115,2|2|2,0:2|0:2|0:2,0:2:0:0:
382,156,174797,1,0,1:2:0:0:
510,289,175054,6,0,B|492:295|492:295|393:234|283:215,1,225.000008583069,2|0,0:2|0:2,0:2:0:0:
230,252,175567,5,10,0:2:0:0:
194,241,175695,1,2,0:2:0:0:
169,213,175823,1,2,0:2:0:0:
162,177,175951,1,2,0:2:0:0:
174,142,176079,2,0,P|266:134|339:117,1,150.000005722046,2|0,0:2|0:2,0:2:0:0:
393,75,176592,6,0,B|423:109|423:109|393:159,1,89.9999972534181,2|0,1:2|0:2,0:2:0:0:
220,227,176849,2,0,B|197:265|197:265|227:299,1,89.9999972534181,2|0,0:2|0:2,0:2:0:0:
408,376,177105,2,0,B|430:337|430:337|400:303,1,89.9999972534181,2|0,0:2|0:2,0:2:0:0:
353,242,177361,1,2,0:2:0:0:
468,240,177618,6,0,B|454:253|454:253|369:268|290:338,1,179.999994506836,10|2,0:2|0:2,0:2:0:0:
300,333,177938,2,2,P|280:359|275:370,2,44.999998626709,2|2|2,0:2|0:2|0:2,0:2:0:0:
320,174,178131,6,0,B|311:170|313:145|313:145|292:170|301:186,1,75.0000028610231,2|0,0:2|0:2,0:2:0:0:
353,242,178387,1,0,1:2:0:0:
158,195,178644,6,0,P|66:176|15:138,1,150.000005722046,2|0,0:2|0:2,0:2:0:0:
21,144,179028,1,0,0:2:0:0:
56,47,179156,6,0,P|88:61|94:121,1,75.0000028610231,2|0,1:2|0:2,0:2:0:0:
183,45,179413,2,0,P|195:77|157:124,1,75.0000028610231,2|0,0:2|0:2,0:2:0:0:
26,252,179669,2,0,P|107:198|203:208,1,150.000005722046,10|2,0:2|0:2,0:2:0:0:
157,194,180054,1,2,0:2:0:0:
203,268,180182,5,2,1:2:0:0:
239,278,180310,1,2,0:2:0:0:
280,252,180438,1,2,1:2:0:0:
281,191,180567,1,2,1:2:0:0:
320,144,180695,5,0,1:2:0:0:
385,184,180866,1,2,0:2:0:0:
430,122,181037,1,2,0:2:0:0:
506,121,181208,6,0,P|405:127|388:18,1,179.999994506836,4|2,0:3|0:2,0:2:0:0:
377,56,181528,2,2,P|385:29|392:-1,2,44.999998626709,2|2|2,0:2|0:2|0:2,0:2:0:0:
352,139,181720,6,0,P|308:149|258:162,1,75.0000028610231,8|0,0:2|0:2,0:2:0:0:
239,89,181977,2,0,P|195:78|145:66,1,75.0000028610231,2|0,0:2|0:2,0:2:0:0:
35,252,182233,6,0,P|78:241|129:229,1,75.0000028610231,2|0,0:2|0:2,0:2:0:0:
148,302,182490,2,0,P|191:312|242:325,1,75.0000028610231,2|0,0:2|0:2,0:2:0:0:
203,216,182746,6,0,L|165:70,1,150.000005722046,2|0,0:2|1:2,0:2:0:0:
343,239,183259,2,0,L|305:384,1,150.000005722046,2|0,0:2|0:2,0:2:0:0:
284,165,183772,2,0,B|405:136|321:65|451:25,1,225.000008583069,10|0,0:2|0:2,0:2:0:0:
512,103,184285,6,0,P|481:111|438:134,1,75.0000028610231,2|0,0:2|0:2,0:2:0:0:
218,41,184541,2,0,P|250:59|286:68,1,75.0000028610231,2|0,0:2|0:2,0:2:0:0:
356,116,184797,5,2,1:2:0:0:
369,151,184925,1,2,0:2:0:0:
377,187,185053,1,2,0:2:0:0:
382,224,185181,1,2,0:2:0:0:
428,300,185310,6,0,B|307:271|391:200|264:161,1,225.000008583069,2|0,1:2|0:2,0:2:0:0:
259,305,185823,2,0,P|401:231|463:218,1,225.000008583069,10|0,0:2|0:2,0:2:0:0:
503,334,186336,6,0,P|438:371|423:353,1,75.0000028610231,2|0,0:2|0:2,0:2:0:0:
390,333,186592,2,0,P|325:296|310:314,1,75.0000028610231,2|0,0:2|0:2,0:2:0:0:
165,234,186849,2,0,P|193:304|270:296,1,150.000005722046,2|0,1:2|0:2,0:2:0:0:
472,133,187361,2,0,P|444:203|367:195,1,150.000005722046,2|0,0:2|1:2,0:2:0:0:
209,4,187874,2,0,P|260:103|291:231,1,225.000008583069,10|0,0:2|0:2,0:2:0:0:
299,140,188387,6,2,L|312:88,2,37.5000014305115,2|2|2,1:2|0:2|0:2,0:2:0:0:
221,121,188644,2,2,L|234:69,2,37.5000014305115,2|2|2,1:2|0:2|0:2,0:2:0:0:
287,33,188900,5,0,1:2:0:0:
287,33,189413,1,2,0:2:0:0:
292,18,189669,1,2,0:2:0:0:
512,213,189926,6,0,P|393:247|238:348,1,269.999991760254,12|0,0:1|0:2,0:2:0:0:
160,351,190438,1,2,1:2:0:0:
116,359,190566,1,2,0:2:0:0:
77,339,190694,1,2,0:2:0:0:
58,299,190822,1,2,0:2:0:0:
68,256,190951,6,2,P|77:233|79:197,2,44.999998626709,2|2|2,0:2|0:2|0:2,0:2:0:0:
8,378,191208,1,0,1:2:0:0:
35,139,191464,2,0,P|79:187|167:174,1,150.000005722046,2|0,0:2|0:2,0:2:0:0:
258,28,191977,5,10,0:2:0:0:
302,20,192105,1,2,0:2:0:0:
341,40,192233,1,2,0:2:0:0:
360,80,192361,1,2,0:2:0:0:
356,122,192490,2,0,P|334:207|331:232,1,75.0000028610231,2|0,0:2|0:2,0:2:0:0:
213,326,192746,2,0,P|204:289|193:253,1,75.0000028610231,2|0,0:2|0:2,0:2:0:0:
158,180,193002,5,0,1:2:0:0:
320,369,193259,1,2,0:2:0:0:
506,134,193515,1,2,0:2:0:0:
461,133,193644,1,2,0:2:0:0:
442,168,193772,1,2,0:2:0:0:
499,286,194028,6,0,P|502:248|513:189,1,75.0000028610231,8|0,0:2|0:2,0:2:0:0:
392,91,194285,2,2,P|386:74|379:38,2,37.5000014305115,2|2|2,0:2|0:2|0:2,0:2:0:0:
435,162,194541,6,0,B|349:180|399:223|309:248,1,150.000005722046,2|0,0:2|1:2,0:2:0:0:
145,111,195054,2,0,P|231:142|350:174,1,150.000005722046,2|2,0:2|0:2,0:2:0:0:
287,158,195438,1,2,0:2:0:0:
196,176,195567,6,0,P|223:259|237:350,1,150.000005722046,2|0,1:2|0:2,0:2:0:0:
426,325,196079,2,0,P|431:289|444:239,1,75.0000028610231,10|0,0:2|0:2,0:2:0:0:
153,383,196336,2,0,P|148:347|135:297,1,75.0000028610231,2|0,0:2|0:2,0:2:0:0:
309,258,196592,1,0,1:2:0:0:
148,29,196849,5,2,1:2:0:0:
80,61,196977,1,2,1:2:0:0:
86,140,197105,5,2,1:2:0:0:
151,49,197276,1,2,0:2:0:0:
19,10,197447,1,2,0:2:0:0:
92,150,197618,6,0,P|192:84|280:93,1,150.000005722046,2|2,0:2|0:2,0:2:0:0:
229,77,197938,2,2,P|251:36|245:22,2,37.5000014305115,2|2|2,0:2|0:2|0:2,0:2:0:0:
6,170,198131,6,0,B|101:184|30:237|156:252,1,150.000005722046,10|2,0:2|0:2,0:2:0:0:
264,355,198515,1,2,0:2:0:0:
273,367,198644,2,0,B|266:282|344:328|325:209,1,150.000005722046,2|0,0:2|0:2,0:2:0:0:
481,268,199156,6,0,P|436:339|330:319,1,150.000005722046,2|0,0:2|1:2,0:2:0:0:
232,234,199669,2,0,P|240:197|249:160,1,75.0000028610231,2|0,0:2|0:2,0:2:0:0:
41,238,199926,2,0,P|49:274|58:311,1,75.0000028610231,2|0,0:2|0:2,0:2:0:0:
162,381,200182,6,0,P|142:246|125:156,1,225.000008583069,10|0,0:2|0:2,0:2:0:0:
69,110,200695,1,2,0:2:0:0:
69,110,200951,1,0,0:2:0:0:
286,40,201208,5,2,1:2:0:0:
328,28,201336,1,2,0:2:0:0:
370,43,201464,1,2,0:2:0:0:
394,80,201592,1,2,0:2:0:0:
448,149,201720,6,0,P|471:134|479:84,1,75.0000028610231,2|0,1:2|0:2,0:2:0:0:
313,113,201977,2,0,P|326:146|368:164,1,75.0000028610231,2|0,0:2|0:2,0:2:0:0:
453,234,202233,2,0,P|389:241|341:338,1,150.000005722046,10|0,0:2|0:2,0:2:0:0:
475,379,202746,5,2,0:2:0:0:
466,341,202874,1,2,0:2:0:0:
427,323,203002,1,2,0:2:0:0:
247,311,203259,6,0,P|344:356|405:425,1,150.000005722046,2|0,1:2|0:2,0:2:0:0:
252,226,203772,2,0,P|167:259|159:324,1,150.000005722046,2|0,0:2|1:2,0:2:0:0:
330,254,204285,6,0,P|358:180|369:162,1,75.0000028610231,10|0,0:2|0:2,0:2:0:0:
164,219,204541,2,0,P|136:145|125:127,1,75.0000028610231,2|0,0:2|0:2,0:2:0:0:
34,357,204797,2,2,P|11:346|-30:338,2,37.5000014305115,2|2|2,1:2|0:2|0:2,0:2:0:0:
108,307,205054,5,0,1:2:0:0:
155,309,205182,1,2,0:2:0:0:
176,356,205310,2,0,P|204:337|232:325,2,59.9999981689454,2|0|0,0:2|0:2|0:2,0:2:0:0:
284,269,206849,2,0,P|317:275|345:286,2,59.9999981689454,2|0|0,0:2|0:2|0:2,0:2:0:0:
407,333,208387,2,0,P|417:316|421:298,2,29.9999990844727,2|2|0,0:2|0:2|0:2,0:2:0:0:
204,249,209413,6,0,P|193:202|185:178,2,59.9999981689454,2|0|0,0:2|0:2|0:2,0:2:0:0:
269,163,210951,2,0,P|280:116|288:92,2,59.9999981689454,2|0|0,0:2|0:2|0:2,0:2:0:0:
199,96,212490,2,0,P|188:49|180:25,1,59.9999981689454,2|0,0:2|0:2,0:2:0:0:
336,197,213515,6,0,P|386:206|408:212,2,59.9999981689454,2|0|0,0:2|0:2|0:2,0:2:0:0:
441,142,215054,2,0,P|491:133|513:127,2,59.9999981689454,2|0|0,0:2|0:2|0:2,0:2:0:0:
366,124,216592,2,0,P|372:90|374:55,2,59.9999981689454,2|0|0,0:2|0:2|0:2,0:2:0:0:
479,216,218131,2,0,P|473:250|471:285,2,59.9999981689454,2|0|0,0:2|0:2|0:2,0:2:0:0:
422,170,219669,5,2,0:2:0:0:
429,163,220182,1,0,0:2:0:0:
420,163,220695,1,2,0:2:0:0:
363,207,220951,1,2,0:2:0:0:
293,182,221208,1,2,0:2:0:0:
286,189,221720,6,0,P|244:200|222:208,2,59.9999981689454,2|0|0,0:2|0:2|0:2,0:2:0:0:
185,144,223259,2,0,P|143:133|121:125,2,59.9999981689454,2|0|0,0:2|0:2|0:2,0:2:0:0:
53,150,224797,2,0,P|49:126|51:111,2,29.9999990844727,0|2|0,0:2|0:2|0:2,0:2:0:0:
262,114,225823,6,0,P|277:70|280:46,2,59.9999981689454,2|0|0,0:2|0:2|0:2,0:2:0:0:
370,67,227361,2,0,P|355:23|352:-1,2,59.9999981689454,2|0|0,0:2|0:2|0:2,0:2:0:0:
209,23,228900,2,0,P|179:34|147:42,1,59.9999981689454,2|0,0:2|0:2,0:2:0:0:
38,163,229926,6,0,P|77:177|102:191,2,59.9999981689454,2|0|0,0:2|0:2|0:2,0:2:0:0:
168,162,231464,2,0,P|185:199|193:227,2,59.9999981689454,2|0|0,0:2|0:2|0:2,0:2:0:0:
260,264,233002,2,0,P|246:303|232:328,1,59.9999981689454,2|0,0:2|0:2,0:2:0:0:
345,89,237618,6,2,B|342:60|301:22|301:22|495:91|495:91|404:119|352:198,1,450.000017166138,2|0,0:2|0:2,0:1:0:0:
202,363,238131,6,0,B|121:340|121:340|109:301|109:301|25:278,1,200,4|2,0:1|0:3,0:2:0:0:
0,346,238900,1,4,0:3:0:0:
136,96,239156,2,0,B|172:107|172:107|198:288,1,200,2|2,1:3|0:3,0:2:0:0:
368,216,239926,6,0,L|262:189,1,100,4|2,0:1|0:3,0:2:0:0:
136,318,240438,1,4,0:3:0:0:
447,187,240695,2,0,B|466:236|466:236|420:279,1,100,2|0,1:3|0:2,0:2:0:0:
368,216,241208,1,2,0:3:0:0:
18,166,241464,6,0,B|109:180|65:96|217:124,1,150.000005722046,0|0,1:2|0:2,0:2:0:0:
83,0,241720,2,0,B|137:74|165:-16|253:111,1,150.000005722046,0|0,1:2|0:2,0:2:0:0:
356,315,241977,2,0,B|281:260|372:232|244:144,1,150.000005722046,4|0,1:2|0:2,0:2:0:0:
428,151,242233,2,0,B|337:165|380:81|229:109,1,150.000005722046,0|0,1:2|0:2,0:2:0:0:
137,332,242490,6,0,P|163:299|203:158,1,150,4|0,0:1|0:2,0:2:0:0:
201,188,243002,1,4,0:3:0:0:
512,13,243259,6,0,P|477:84|348:88,1,200,2|2,1:3|0:3,0:2:0:0:
33,254,244028,2,0,P|79:212|127:215,1,100,0|2,1:2|0:3,0:2:0:0:
189,234,244541,5,4,0:3:0:0:
250,13,244797,2,0,P|311:53|303:180,1,200,2|2,1:3|0:3,0:2:0:0:
237,174,245567,1,4,0:3:0:0:
388,24,245823,1,4,0:2:0:0:
246,95,246079,1,4,0:3:0:0:
459,262,246336,6,0,P|462:237|470:209,1,50,4|0,0:1|0:2,0:2:0:0:
383,237,246592,2,0,P|379:212|379:182,1,50,4|0,0:3|0:2,0:2:0:0:
246,258,246849,6,0,P|249:282|257:311,1,50,2|0,0:3|0:2,0:2:0:0:
170,283,247105,2,0,P|166:307|166:337,1,50,4|0,0:3|0:2,0:2:0:0:
443,138,247361,6,0,L|511:111,1,50,2|0,1:3|0:2,0:2:0:0:
365,52,247618,2,0,L|433:79,1,50,4|0,0:3|0:2,0:2:0:0:
38,248,247874,6,0,P|34:223|27:195,1,50,4|0,0:1|0:2,0:2:0:0:
160,176,248130,2,0,P|163:151|163:121,1,50,4|0,0:2|0:2,0:2:0:0:
245,134,248387,2,0,P|241:158|234:187,1,50,4|0,0:2|0:2,0:2:0:0:
350,265,248643,2,0,P|346:288|338:317,1,50,4|0,0:3|0:2,0:2:0:0:
57,119,248900,6,0,L|-11:92,1,50,4|0,0:1|0:2,0:2:0:0:
135,33,249157,2,0,L|67:60,1,50,0|4,0:2|0:3,0:2:0:0:
88,51,249349,1,4,0:3:0:0:
88,51,249413,1,0,1:2:0:0:
312,191,249669,2,0,L|401:171,1,50,4|0,0:3|0:2,0:2:0:0:
492,100,249926,5,0,1:2:0:0:
454,51,250011,1,0,1:2:0:0:
391,46,250096,1,0,1:2:0:0:
361,86,250182,1,4,0:3:0:0:
335,101,250267,1,4,0:3:0:0:
308,85,250353,1,4,0:3:0:0:
301,68,250438,6,0,L|291:0,1,50,4|0,0:1|0:2,0:2:0:0:
167,261,250695,2,0,L|177:193,1,50,4|0,0:1|0:2,0:2:0:0:
98,213,250951,2,0,L|90:144,1,50,4|0,0:3|0:2,0:2:0:0:
18,187,251208,2,0,L|-7:123,1,50,4|0,0:3|0:2,0:2:0:0:
334,218,251464,6,0,P|394:203|415:195,1,50,0|0,1:2|0:2,0:2:0:0:
401,284,251720,2,0,P|341:299|320:307,1,50,4|0,0:3|0:2,0:2:0:0:
0,376,251977,6,0,L|7:307,1,50,2|0,0:3|0:2,0:2:0:0:
80,350,252234,2,0,L|105:286,1,50,4|0,0:3|0:2,0:2:0:0:
238,140,252490,6,0,P|295:154|316:162,1,50,0|0,1:2|0:2,0:2:0:0:
457,230,252746,5,4,0:3:0:0:
495,210,252832,1,4,0:3:0:0:
508,180,252917,1,4,0:3:0:0:
505,167,253002,2,0,P|494:107|493:100,1,50,4|0,0:3|0:2,0:2:0:0:
512,45,253259,5,4,0:3:0:0:
257,221,253515,2,0,L|180:241,1,50,0|0,1:2|0:2,0:2:0:0:
88,61,253772,5,4,0:3:0:0:
240,303,254028,2,0,L|317:323,1,50,0|0,1:2|0:2,0:2:0:0:
331,251,254285,1,2,0:3:0:0:
61,373,254541,6,0,P|38:281|3:168,1,200,4|2,0:1|0:3,0:2:0:0:
39,111,255310,1,4,0:3:0:0:
331,251,255567,6,0,B|397:270|397:270|418:323|418:323|497:344,1,200,2|2,1:3|0:3,0:2:0:0:
264,199,256336,2,0,B|230:234|230:234|254:289,1,100,4|2,0:1|0:3,0:2:0:0:
313,331,256849,1,4,0:3:0:0:
217,63,257105,6,0,B|151:82|151:82|130:135|130:135|51:156,1,200,2|2,1:3|0:3,0:2:0:0:
17,54,257874,2,0,L|103:78,1,50,4|0,0:3|0:2,0:2:0:0:
327,250,258131,6,0,L|340:179,1,50,2|0,1:3|0:2,0:2:0:0:
222,53,258387,2,0,B|237:64|237:64|260:229,1,150.000005722046,4|0,0:3|0:2,0:2:0:0:
332,255,258644,2,0,L|345:184,1,50,2|0,1:3|0:2,0:2:0:0:
2,374,258900,6,0,B|51:360|51:360|68:316|68:316|119:303,1,150,4|0,0:1|0:2,0:2:0:0:
176,354,259413,1,4,0:3:0:0:
334,117,259669,6,0,B|399:134|399:134|421:193|421:193|490:210,1,200,2|2,1:3|0:3,0:2:0:0:
511,38,260438,2,0,L|384:60,1,100,0|2,1:2|0:3,0:2:0:0:
340,206,260951,1,4,0:3:0:0:
71,196,261208,6,0,L|34:-11,1,200,2|2,1:3|0:3,0:2:0:0:
32,91,261977,2,0,L|97:106,1,50,4|0,0:3|0:2,0:2:0:0:
166,146,262233,5,0,1:2:0:0:
202,105,262319,1,0,1:2:0:0:
256,114,262404,1,0,1:2:0:0:
284,170,262490,1,4,0:3:0:0:
324,173,262575,1,4,0:3:0:0:
344,158,262661,1,4,0:3:0:0:
346,145,262746,6,0,L|337:78,1,50,4|0,0:1|0:2,0:2:0:0:
416,94,263002,2,0,L|407:27,1,50,4|0,0:3|0:2,0:2:0:0:
506,286,263259,6,0,L|515:219,1,50,2|0,0:3|0:2,0:2:0:0:
436,235,263515,2,0,L|445:168,1,50,4|0,0:3|0:2,0:2:0:0:
274,184,263772,6,0,P|212:196|184:197,1,50,2|0,1:3|0:2,0:2:0:0:
243,269,264028,2,0,P|305:257|333:256,1,50,4|0,0:3|0:2,0:2:0:0:
442,337,264285,6,0,L|374:307,1,50,6|0,0:3|0:2,0:2:0:0:
274,108,264541,2,0,L|284:32,1,50,4|0,0:2|0:2,0:2:0:0:
191,44,264797,2,0,L|197:93,1,50,4|0,0:2|0:2,0:2:0:0:
80,231,265054,2,0,L|12:261,1,50,6|0,0:3|0:2,0:2:0:0:
212,384,265310,6,0,L|235:294,1,50,4|0,0:1|0:2,0:2:0:0:
246,266,265567,2,0,L|269:176,1,50,0|0,0:2|0:2,0:2:0:0:
464,196,265823,6,0,P|397:177|373:171,1,50,0|0,1:2|0:2,0:2:0:0:
381,254,266079,2,0,P|314:273|290:279,1,50,4|0,0:3|0:2,0:2:0:0:
209,151,266336,6,0,P|142:170|118:176,1,50,2|0,0:3|0:2,0:2:0:0:
126,93,266592,2,0,P|59:74|35:68,1,50,4|0,0:3|0:2,0:2:0:0:
285,39,266849,5,4,0:3:0:0:
329,64,266934,1,4,0:3:0:0:
336,115,267020,1,4,0:3:0:0:
309,155,267105,6,0,P|299:179|285:230,1,50,4|0,0:3|0:2,0:2:0:0:
222,233,267361,2,0,P|225:258|238:309,1,50,4|0,0:1|0:2,0:2:0:0:
177,337,267618,2,0,P|192:357|229:395,1,50,4|0,0:3|0:2,0:2:0:0:
102,120,267874,5,0,1:2:0:0:
283,344,268131,1,4,0:3:0:0:
445,31,268387,5,0,1:2:0:0:
230,282,268644,1,4,0:3:0:0:
78,47,268900,5,0,1:2:0:0:
331,243,269156,1,4,0:3:0:0:
378,212,269242,1,4,0:3:0:0:
431,223,269327,1,4,0:3:0:0:
478,191,269413,1,4,0:3:0:0:
481,181,269669,6,0,L|396:158,1,50,4|0,0:3|0:2,0:2:0:0:
403,307,269926,2,0,L|318:330,1,50,2|0,1:3|0:2,0:2:0:0:
259,95,270182,2,0,L|174:72,1,50,4|0,0:3|0:2,0:2:0:0:
56,346,270438,2,0,L|-29:369,1,50,2|0,1:3|0:2,0:2:0:0:
502,356,279156,6,0,B|493:365|493:365|279:298,1,225.000008583069,4|0,0:1|0:2,0:2:0:0:
139,130,280182,2,0,B|130:120|130:120|-14:163,1,150.000005722046,4|0,1:2|0:2,0:2:0:0:
457,243,280951,6,0,B|468:206|468:206|431:161,1,75.0000028610231,0|0,1:2|0:2,0:2:0:0:
130,317,281208,2,0,B|119:354|119:354|156:399,1,75.0000028610231,4|0,0:1|0:2,0:2:0:0:
373,226,281464,2,0,B|320:217|320:217|253:322|253:322|191:339,1,225.000008583069,4|0,0:1|0:2,0:2:0:0:
305,284,281977,6,0,L|243:250,1,37.5000014305115,4|0,0:3|0:2,0:2:0:0:
229,122,282233,6,0,L|259:235,1,75.0000028610231,0|0,1:2|0:2,0:2:0:0:
366,378,282490,2,0,L|396:265,1,75.0000028610231,0|0,1:2|0:2,0:2:0:0:
187,255,282746,2,0,B|142:261|142:261|203:237,1,75.0000028610231,4|0,0:3|0:2,0:2:0:0:
323,48,283002,6,0,B|409:75|409:75|420:152|420:152|486:171,1,225.000008583069,4|0,0:1|0:2,0:2:0:0:
488,89,283515,2,0,B|405:112|405:112|389:228|389:228|260:268,1,300.000011444092,4|4,0:1|0:3,0:2:0:0:
42,64,284285,5,0,1:2:0:0:
46,53,284349,1,0,1:2:0:0:
270,102,284541,5,0,1:2:0:0:
317,116,284626,1,0,1:2:0:0:
313,162,284712,1,4,0:3:0:0:
297,170,284797,1,4,0:3:0:0:
0,367,285054,6,0,B|13:340|13:340|99:321|99:321|150:354,1,150.000005722046,4|0,0:1|0:2,0:2:0:0:
485,298,285567,2,0,B|444:324|444:324|313:295|313:295|293:254,1,225.000008583069,4|0,0:1|0:2,0:2:0:0:
268,185,286079,1,4,0:3:0:0:
374,342,286336,5,0,1:2:0:0:
377,353,286400,1,0,1:2:0:0:
399,231,286592,6,0,L|412:168,1,37.5000014305115,4|0,0:3|0:2,0:2:0:0:
428,123,286849,2,0,P|445:106|422:119,1,75.0000028610231,6|0,0:3|0:2,0:2:0:0:
0,136,287361,6,0,B|65:158|65:158|76:201|76:201|157:227,1,187.500007152558,4|0,0:1|0:2,0:2:0:0:
151,235,288131,1,4,0:3:0:0:
493,33,288387,2,0,L|330:71,1,150.000005722046,4|0,1:1|0:2,0:2:0:0:
154,139,289156,6,0,B|159:101|159:101|228:90,1,75.0000028610231,0|0,1:2|0:2,0:2:0:0:
388,146,289413,2,0,B|418:169|418:169|393:234,1,75.0000028610231,0|0,1:2|0:2,0:2:0:0:
288,384,289669,2,0,B|233:345|233:345|258:244|271:188,1,225.000008583069,4|0,0:1|0:2,0:2:0:0:
263,285,290182,6,0,L|207:300,1,37.5000014305115,4|0,0:3|0:2,0:2:0:0:
416,300,290438,6,0,L|297:256,1,75.0000028610231,2|0,1:2|0:2,0:2:0:0:
113,244,290695,2,0,L|232:200,1,75.0000028610231,2|0,1:2|0:2,0:2:0:0:
499,283,290951,2,0,L|380:327,1,75.0000028610231,2|0,1:2|0:2,0:2:0:0:
0,207,291208,6,0,B|-6:237|-6:237|164:265,1,150.000005722046,4|0,0:1|0:2,0:2:0:0:
450,147,291720,2,0,L|431:220,1,75.0000028610231,4|0,0:1|0:2,0:2:0:0:
123,369,291977,2,0,B|88:368|88:368|118:225,1,150.000005722046,4|0,0:1|0:2,0:2:0:0:
419,76,292490,5,0,1:2:0:0:
432,71,292554,1,0,1:2:0:0:
135,129,292746,5,0,1:2:0:0:
88,123,292832,1,0,1:2:0:0:
64,153,292917,1,4,0:3:0:0:
68,163,293002,1,4,0:3:0:0:
512,309,293259,6,0,B|497:312|497:312|426:262|426:262|356:253,1,150.000005722046,4|0,0:1|0:2,0:2:0:0:
184,354,293772,2,0,B|211:373|211:373|262:332|262:332|345:361|345:361|405:337,1,225.000008583069,4|0,0:1|0:2,0:2:0:0:
258,206,294285,5,4,0:3:0:0:
274,195,294370,1,4,0:3:0:0:
315,196,294455,1,4,0:3:0:0:
355,240,294541,6,0,L|346:285,1,37.5000014305115,0|0,1:2|0:2,0:2:0:0:
262,324,294797,2,0,L|254:287,1,37.5000014305115,4|0,0:3|0:2,0:2:0:0:
199,50,295054,6,0,B|179:35|179:35|156:44,1,50,2|0,0:2|0:2,0:2:0:0:
18,157,296592,6,0,L|172:119,1,150.000005722046,4|4,0:1|0:2,0:2:0:0:
230,167,297361,2,0,B|259:141|259:141|229:83,1,75.0000028610231,4|0,0:3|0:2,0:2:0:0:
104,174,297618,2,0,B|111:212|111:212|176:215,1,75.0000028610231,4|0,1:2|0:2,0:2:0:0:
256,373,297874,2,0,B|273:279|273:279|200:242,1,150.000005722046,4|4,0:3|0:2,0:2:0:0:
222,262,298387,6,0,L|327:233,1,75.0000028610231,0|0,1:2|0:2,0:2:0:0:
296,28,298644,2,0,L|401:57,1,75.0000028610231,4|0,0:1|0:2,0:2:0:0:
366,283,298900,2,0,L|351:362,1,75.0000028610231,4|0,0:1|0:2,0:2:0:0:
448,282,299156,2,0,L|436:234,1,37.5000014305115,4|0,0:2|0:2,0:2:0:0:
139,169,299413,6,0,B|79:184|79:184|66:227|66:227|18:241,1,150.000005722046,0|4,1:2|0:2,0:2:0:0:
202,120,299926,2,0,B|228:144|228:144|218:187,1,75.0000028610231,4|4,0:1|0:2,0:2:0:0:
1,155,300438,5,4,0:3:0:0:
291,222,300695,1,0,1:2:0:0:
291,222,301079,5,4,0:3:0:0:
291,222,301208,1,4,0:3:0:0:
53,363,301464,6,0,L|69:262,1,75.0000028610231,4|4,0:1|0:2,0:2:0:0:
473,297,301977,2,0,L|457:196,1,75.0000028610231,4|4,0:1|0:2,0:2:0:0:
291,28,302490,5,4,0:3:0:0:
296,55,302575,1,4,0:3:0:0:
333,83,302661,1,4,0:3:0:0:
380,73,302746,1,0,1:2:0:0:
419,7,303002,5,4,0:3:0:0:
265,128,303259,2,0,P|258:155|272:132,1,75.0000028610231,2|0,0:3|0:2,0:2:0:0:
512,353,303772,6,0,B|482:329|482:329|353:367,1,150.000005722046,4|4,0:1|0:2,0:2:0:0:
446,310,304541,2,0,L|398:297,1,37.5000014305115,4|0,0:3|0:2,0:2:0:0:
95,251,304797,2,0,B|61:263|61:263|75:403,1,150.000005722046,4|4,1:2|0:2,0:2:0:0:
231,338,305567,6,0,L|126:311,1,75.0000028610231,0|0,1:2|0:2,0:2:0:0:
0,191,305823,2,0,L|105:164,1,75.0000028610231,4|0,0:1|0:2,0:2:0:0:
314,24,306079,2,0,B|351:49|351:49|312:183|312:183|261:198,1,225.000008583069,4|0,0:1|0:2,0:2:0:0:
178,145,306592,5,4,0:3:0:0:
178,103,306678,1,4,0:3:0:0:
216,83,306763,1,4,0:3:0:0:
261,103,306849,6,0,B|269:109|269:109|396:128|396:128|432:162,1,150.000005722046,0|0,1:2|0:2,0:2:0:0:
443,292,307105,2,0,B|444:282|444:282|397:162|397:162|408:114,1,150.000005722046,0|0,1:2|0:2,0:2:0:0:
512,37,307361,2,0,B|502:40|502:40|422:141|422:141|375:155,1,150.000005722046,0|0,1:2|0:2,0:2:0:0:
86,341,307618,6,0,B|60:317|60:317|71:277,1,75.0000028610231,4|4,0:1|0:2,0:2:0:0:
452,302,308131,2,0,B|445:326|445:326|298:355,1,150.000005722046,4|4,0:1|0:3,0:2:0:0:
262,300,308900,1,0,1:2:0:0:
126,118,309156,5,4,0:3:0:0:
79,79,309285,1,4,0:3:0:0:
28,94,309413,1,4,0:3:0:0:
393,252,309669,6,0,L|409:162,1,75.0000028610231,4|0,0:1|0:2,0:2:0:0:
59,167,310182,2,0,L|92:308,1,112.500004291535,4|0,0:1|0:2,0:2:0:0:
27,330,310695,5,4,0:3:0:0:
39,347,310780,1,4,0:3:0:0:
73,361,310866,1,4,0:3:0:0:
128,347,310951,6,0,L|213:323,1,75.0000028610231,0|0,1:2|0:2,0:2:0:0:
250,181,311208,2,0,L|335:205,1,75.0000028610231,4|0,0:1|0:2,0:2:0:0:
323,212,311977,6,0,L|390:202,2,59.9999981689454,2|0|0,0:2|0:2|0:2,0:2:0:0:
432,139,313515,2,0,L|499:149,2,59.9999981689454,2|0|0,0:2|0:2|0:2,0:2:0:0:
356,124,315054,2,0,P|347:96|344:82,2,29.9999990844727,2|2|0,0:2|0:2|0:2,0:2:0:0:
461,220,316079,6,0,P|454:264|454:288,2,59.9999981689454,2|0|0,0:2|0:2|0:2,0:2:0:0:
378,306,317618,2,0,P|385:350|385:374,2,59.9999981689454,2|0|0,0:2|0:2|0:2,0:2:0:0:
309,274,319156,2,0,P|276:261|272:259,1,29.9999990844727,2|0,0:2|0:2,0:2:0:0:
463,348,319669,2,0,P|496:335|500:333,1,29.9999990844727,2|0,0:2|0:2,0:2:0:0:
400,240,320182,6,0,P|393:284|393:308,2,59.9999981689454,2|0|0,0:2|0:2|0:2,0:2:0:0:
376,155,321720,2,0,P|339:181|322:198,2,59.9999981689454,2|0|0,0:2|0:2|0:2,0:2:0:0:
254,161,323259,2,0,P|252:131|247:102,1,59.9999981689454,2|0,0:2|0:2,0:2:0:0:
318,53,324285,2,0,P|295:33|271:17,1,59.9999981689454,2|0,0:2|0:2,0:2:0:0:
373,121,325310,6,0,P|420:113|441:109,2,59.9999981689454,2|0|0,0:2|0:2|0:2,0:2:0:0:
213,196,326849,2,0,P|243:202|273:207,2,59.9999981689454,2|0|0,0:2|0:2|0:2,0:2:0:0:
44,366,328387,6,0,P|33:319|26:301,2,59.9999981689454,2|0|0,0:2|0:2|0:2,0:2:0:0:
117,298,329926,2,0,P|128:251|135:233,2,59.9999981689454,2|0|0,0:2|0:2|0:2,0:2:0:0:
53,217,331464,2,0,P|29:211|15:206,2,29.9999990844727,2|2|0,0:2|0:2|0:2,0:2:0:0:
129,371,332490,6,0,P|175:355|194:353,2,59.9999981689454,2|0|0,0:2|0:2|0:2,0:2:0:0:
233,284,334028,2,0,P|279:300|298:302,2,59.9999981689454,2|0|0,0:2|0:2|0:2,0:2:0:0:
346,373,335567,2,0,P|359:351|368:340,2,29.9999990844727,2|2|0,0:2|0:2|0:2,0:2:0:0:
215,210,336592,6,0,P|207:166|200:143,2,59.9999981689454,2|0|0,0:2|0:2|0:2,0:2:0:0:
276,116,338131,2,0,P|284:72|291:49,2,59.9999981689454,2|0|0,0:2|0:2|0:2,0:2:0:0:
202,69,339669,2,0,P|166:60|135:41,1,59.9999981689454,2|0,0:2|0:2,0:2:0:0:
299,194,340695,2,0,P|335:203|366:222,2,59.9999981689454,2|0|0,0:2|0:2|0:2,0:2:0:0:
173,305,342233,2,0,P|146:318|116:324,1,59.9999981689454,2|0,0:2|0:2,0:2:0:0:
243,383,343259,6,0,P|251:337|256:323,1,50,2|0,0:2|0:2,0:2:0:0:
114,190,343772,2,0,P|120:214|122:239,1,50,2|0,0:2|0:2,0:2:0:0:
331,355,344285,2,0,P|394:323|440:318,1,100,2|0,0:2|0:2,0:2:0:0:
311,266,345310,2,0,P|262:254|219:229,1,100,2|0,0:2|0:2,0:2:0:0:
219,222,346336,6,0,P|206:183|201:171,1,50,2|0,0:2|0:2,0:2:0:0:
317,141,346849,2,0,P|308:164|300:188,1,50,2|0,0:2|0:2,0:2:0:0:
162,284,347361,2,0,P|139:249|131:239,1,50,2|0,0:2|0:2,0:2:0:0:
408,172,347874,2,0,P|393:192|379:213,1,50,2|0,0:2|0:2,0:2:0:0:
242,101,348387,6,0,P|226:44|208:-8,1,100,2|0,0:2|0:2,0:2:0:0:
482,232,349413,2,0,P|498:175|516:123,1,100,2|0,0:2|0:2,0:2:0:0:
422,283,350438,1,2,0:2:0:0:
511,129,350951,6,0,P|478:117|461:107,1,50,2|0,0:2|0:2,0:2:0:0:
439,188,351464,2,0,P|406:200|389:210,1,50,2|0,0:2|0:2,0:2:0:0:
397,74,351977,2,0,P|368:53|354:39,1,50,2|0,0:2|0:2,0:2:0:0:
332,252,352490,2,0,P|303:272|266:331,1,100,2|0,0:2|0:2,0:2:0:0:
203,374,353515,6,0,P|162:363|145:342,2,59.9999981689454,2|0|0,0:2|0:2|0:2,0:2:0:0:
187,281,355054,2,0,P|156:250|152:224,2,59.9999981689454,2|0|0,0:2|0:2|0:2,0:2:0:0:
371,219,356592,6,0,P|412:208|429:187,1,59.9999981689454,2|0,0:2|0:2,0:2:0:0:
387,126,357618,2,0,P|417:95|421:69,2,59.9999981689454,2|0|0,0:2|0:2|0:2,0:2:0:0:
387,126,359156,1,2,0:2:0:0:
56,125,359669,6,0,P|45:85|37:68,1,50,2|0,0:2|0:2,0:2:0:0:
129,84,360182,2,0,P|128:42|125:24,1,50,2|0,0:2|0:2,0:2:0:0:
219,16,360695,2,0,P|214:76|203:119,1,100,2|0,0:2|0:2,0:2:0:0:
86,204,361720,6,0,P|56:218|30:241,1,59.9999981689454,2|0,0:2|0:2,0:2:0:0:
150,317,362746,2,0,P|126:298|99:285,1,59.9999981689454,2|0,0:2|0:2,0:2:0:0:
9,373,363772,6,0,P|32:341|50:332,1,50,2|0,0:2|0:2,0:2:0:0:
161,226,364285,2,0,P|199:219|218:226,1,50,2|0,0:2|0:2,0:2:0:0:
368,179,364797,2,0,P|415:196|455:241,1,100,2|0,0:2|0:2,0:2:0:0:
502,291,365567,1,2,0:2:0:0:
502,291,365823,2,0,P|489:326|471:391,2,100,2|0|0,0:2|0:2|0:2,0:2:0:0:
392,334,367361,2,0,P|384:307|369:274,1,59.9999981689454,2|0,0:2|0:2,0:2:0:0:
479,208,368387,5,2,0:2:0:0:
479,208,368644,2,0,P|449:228|427:227,1,50,2|0,0:2|0:2,0:2:0:0:
288,299,369156,1,2,0:2:0:0:
288,299,369413,2,0,P|252:271|191:265,2,100,2|0|0,0:2|0:2|0:2,0:2:0:0:
180,189,370951,2,0,P|143:207|127:232,2,59.9999981689454,2|0|0,0:2|0:2|0:2,0:2:0:0:
62,177,372490,2,0,P|48:215|54:244,1,59.9999981689454,0|0,0:2|0:2,0:2:0:0:
306,347,373515,6,0,P|339:332|371:328,2,59.9999981689454,2|0|0,0:2|0:2|0:2,0:2:0:0:
238,309,375054,1,2,0:2:0:0:
399,260,375567,2,0,P|432:275|464:279,1,59.9999981689454,2|0,0:2|0:2,0:2:0:0:
332,219,376592,2,0,P|302:224|275:237,1,59.9999981689454,2|0,0:2|0:2,0:2:0:0:
408,180,377618,2,0,P|437:136|451:49,1,140,2|2,0:2|0:3,0:2:0:0:
25,223,381720,6,0,P|130:259|213:334,1,225.000008583069,4|0,0:1|0:2,0:2:0:0:
283,384,382233,2,0,P|301:353|292:304,1,75.0000028610231,4|0,0:2|0:2,0:2:0:0:
145,302,382490,1,4,0:3:0:0:
479,298,382746,6,0,P|379:281|361:213,1,150.000005722046,4|0,1:2|0:2,0:2:0:0:
208,99,383259,2,0,P|240:132|269:292,1,150.000005722046,4|0,0:1|0:2,0:2:0:0:
442,222,383772,6,0,P|453:189|459:143,1,75.0000028610231,4|0,0:2|0:2,0:2:0:0:
311,92,384028,2,0,P|304:57|286:15,1,75.0000028610231,2|0,0:3|0:2,0:2:0:0:
177,201,384285,2,0,P|153:174|117:146,1,75.0000028610231,4|0,3:2|3:2,3:2:0:0:
390,118,384541,5,4,0:3:0:0:
171,280,384797,1,4,1:2:0:0:
228,133,385054,1,4,0:3:0:0:
512,374,385310,6,0,P|477:360|440:351,1,75.0000028610231,4|0,0:2|0:2,0:2:0:0:
171,280,385567,2,0,P|82:311|70:318,1,75.0000028610231,4|0,0:2|0:2,0:2:0:0:
262,384,385823,6,0,B|243:276|380:319|325:178,1,225.000008583069,4|0,0:1|0:2,0:2:0:0:
326,113,386336,2,0,P|393:150|383:196,1,75.0000028610231,4|0,0:2|0:2,0:2:0:0:
251,293,386592,1,4,0:3:0:0:
512,192,386849,6,0,P|423:222|325:305,1,150.000005722046,4|0,1:2|0:2,0:2:0:0:
26,303,387330,2,0,P|96:326|174:392,1,150,4|0,0:1|0:2,0:2:0:0:
457,384,387870,2,0,P|431:310|431:292,1,75.0000028610231,4|0,0:2|0:2,0:2:0:0:
163,106,388126,6,0,B|183:76|183:76|231:84,1,75.0000028610231,4|0,0:1|0:2,0:2:0:0:
194,220,388382,2,0,B|158:217|158:217|140:172,1,75.0000028610231,4|0,0:1|0:2,0:2:0:0:
278,137,388639,2,0,B|293:169|293:169|263:206,1,75.0000028610231,4|0,2:2|0:2,0:2:0:0:
106,272,388895,1,0,1:2:0:0:
354,93,389151,6,0,L|288:128,1,75.0000028610231,8|0,0:3|0:2,0:2:0:0:
188,307,389408,2,0,L|192:233,1,75.0000028610231,0|0,1:2|3:2,3:2:0:0:
85,56,389664,2,0,L|149:97,1,75.0000028610231,4|0,3:3|3:2,3:2:0:0:
343,245,389921,6,0,B|327:251|327:251|158:181|46:173,1,300.000011444092,4|4,0:1|0:2,0:2:0:0:
371,168,390690,2,0,P|401:178|423:213,1,75.0000028610231,4|0,0:3|0:2,0:2:0:0:
199,384,390946,2,0,P|125:355|132:263,1,150.000005722046,4|0,1:2|0:2,0:2:0:0:
508,9,391459,6,0,P|396:107|343:246,1,300.000011444092,4|4,0:1|0:2,0:2:0:0:
496,144,392228,6,0,B|509:132|509:132|476:130|460:191,1,75.0000028610231,2|0,0:3|0:2,0:2:0:0:
264,208,392485,2,0,B|264:190|264:190|239:212|271:266,1,75.0000028610231,6|0,0:2|3:2,3:2:0:0:
301,309,392741,1,4,0:3:0:0:
186,49,392997,6,0,P|260:113|326:107,1,150.000005722046,4|0,1:2|0:2,0:2:0:0:
512,267,393510,2,0,P|365:294|240:395,1,300.000011444092,4|4,0:1|0:2,0:2:0:0:
181,317,394280,6,0,P|170:340|184:319,1,75.0000028610231,4|0,0:3|0:2,0:2:0:0:
400,94,394536,2,0,P|479:136|469:206,1,150.000005722046,4|0,0:1|0:2,0:2:0:0:
477,366,394921,5,4,0:3:0:0:
477,366,394985,1,4,0:3:0:0:
477,366,395049,2,0,P|444:348|405:332,1,75.0000028610231,0|0,1:2|0:2,0:2:0:0:
363,268,395305,2,0,P|328:282|295:300,1,75.0000028610231,4|0,0:3|0:2,0:2:0:0:
76,383,395562,6,0,P|89:351|96:300,1,75.0000028610231,6|0,0:2|0:2,0:2:0:0:
236,243,395818,2,0,P|223:211|216:160,1,75.0000028610231,4|0,0:3|0:2,0:2:0:0:
215,58,396075,1,0,1:2:0:0:
215,58,396332,5,0,1:2:0:0:
259,58,396460,1,0,1:2:0:0:
304,62,396588,1,0,1:2:0:0:
349,69,396716,1,4,0:3:0:0:
392,80,396844,1,4,0:3:0:0:
435,94,396973,1,4,0:3:0:0:
506,143,397100,6,0,B|535:100|535:100|499:34,1,100,0|0,1:2|0:2,0:2:0:0:
149,8,397356,2,0,B|120:49|120:49|143:92,1,100,4|0,0:1|0:2,0:2:0:0:
388,194,397613,5,0,1:2:0:0:
398,190,397677,1,0,1:2:0:0:
217,58,397869,1,4,0:3:0:0:
30,363,398126,6,0,B|84:345|84:345|98:315|98:315|178:289,1,150.000005722046,4|0,0:1|0:2,0:2:0:0:
494,331,398639,2,0,B|469:362|469:362|353:331,1,150.000005722046,4|0,0:1|0:2,0:2:0:0:
34,269,399151,1,4,1:2:0:0:
419,255,399408,6,0,P|443:242|426:264,1,75.0000028610231,2|0,0:3|0:2,0:2:0:0:
272,384,399664,2,0,P|262:307|243:202,1,150.000005722046,4|0,0:2|0:2,0:2:0:0:
477,14,400177,2,0,P|464:87|458:142,1,75.0000028610231,4|0,0:2|0:2,0:2:0:0:
503,152,400433,5,4,0:3:0:0:
232,135,400690,2,0,B|102:137|187:252|-9:228,1,225.000008583069,4|0,0:1|0:2,0:2:0:0:
33,136,401203,6,0,P|111:166|136:172,1,75.0000028610231,4|0,1:2|0:2,0:2:0:0:
260,306,401459,2,0,P|175:266|100:241,1,150.000005722046,4|4,0:3|0:2,0:2:0:0:
404,211,401972,5,0,1:2:0:0:
50,381,402228,2,0,P|65:338|85:272,1,75.0000028610231,4|0,0:1|0:2,0:2:0:0:
313,153,402485,2,0,P|335:260|388:377,1,225.000008583069,4|0,0:1|0:2,0:2:0:0:
391,370,402997,1,4,0:3:0:0:
427,176,403254,5,4,1:2:0:0:
277,348,403510,1,4,0:3:0:0:
323,148,403767,2,0,B|446:163|370:256|502:271,1,225.000008583069,4|0,0:1|0:2,0:2:0:0:
497,151,404280,6,0,P|463:165|403:179,1,75.0000028610231,4|0,0:2|0:2,0:2:0:0:
151,17,404536,2,0,B|142:52|142:52|165:83,1,75.0000028610231,4|0,0:1|0:2,0:2:0:0:
272,356,404792,2,0,P|327:309|294:204,1,150.000005722046,4|4,0:1|0:3,0:2:0:0:
317,143,405134,5,4,0:3:0:0:
273,164,405220,1,4,0:3:0:0:
242,129,405305,2,0,B|212:150|212:150|256:131,1,75.0000028610231,0|0,1:2|0:2,0:2:0:0:
294,70,405562,1,4,0:3:0:0:
40,384,405818,5,0,1:2:0:0:
23,332,405903,1,0,1:2:0:0:
65,288,405989,1,0,1:2:0:0:
124,300,406074,1,4,0:3:0:0:
170,296,406160,1,4,0:3:0:0:
187,265,406245,1,4,0:3:0:0:
172,250,406331,6,0,L|149:353,1,75.0000028610231,4|0,0:1|0:2,0:2:0:0:
22,137,406587,2,0,L|45:240,1,75.0000028610231,4|0,0:1|0:2,0:2:0:0:
283,233,406844,2,0,L|48:292,1,225.000008583069,4|0,0:1|0:2,0:2:0:0:
270,325,407356,6,0,L|420:367,1,150.000005722046,4|0,1:2|0:2,0:2:0:0:
487,30,407869,2,0,P|433:23|380:128,1,150.000005722046,4|0,0:1|3:2,0:2:0:0:
297,107,408254,1,0,3:2:0:0:
297,107,408382,2,0,P|307:140|382:159,1,75.0000028610231,0|0,3:2|0:2,0:2:0:0:
457,108,408639,6,0,P|439:181|432:212,1,75.0000028610231,4|0,0:1|0:2,0:2:0:0:
409,379,408895,2,0,P|396:305|378:232,1,150.000005722046,4|0,0:1|0:2,0:2:0:0:
228,176,409408,5,4,1:2:0:0:
470,292,409664,2,0,P|396:304|323:322,1,150.000005722046,4|4,0:3|0:2,0:2:0:0:
512,224,410177,5,0,1:2:0:0:
275,384,410433,1,4,0:1:0:0:
254,125,410690,6,0,P|272:105|264:131,1,75.0000028610231,4|0,0:2|0:2,0:2:0:0:
183,64,410946,2,0,P|165:16|192:58,1,150.000005722046,4|4,0:2|0:3,0:2:0:0:
67,241,411459,6,0,B|154:224|84:163|211:144,1,150.000005722046,4|4,1:2|0:3,0:2:0:0:
361,50,411972,2,0,P|289:28|261:13,1,75.0000028610231,4|0,0:2|0:2,0:2:0:0:
95,104,412228,1,4,0:3:0:0:
407,266,412485,6,0,P|416:232|440:159,1,75.0000028610231,4|0,1:2|0:2,0:2:0:0:
421,115,412741,5,0,1:2:0:0:
468,107,412827,1,0,1:2:0:0:
498,131,412912,1,4,0:3:0:0:
497,147,412997,1,4,0:3:0:0:
358,165,413254,5,4,0:3:0:0:
168,75,413510,2,0,P|159:41|135:-32,1,75.0000028610231,4|0,1:2|0:2,0:2:0:0:
242,102,413767,5,4,0:3:0:0:
161,255,414023,2,0,B|108:269|108:269|51:372|51:372|-6:384,1,225.000008583069,4|0,1:2|0:2,0:2:0:0:
163,241,414536,6,0,L|322:279,1,150.000005722046,4|0,0:1|0:2,0:2:0:0:
0,302,415305,1,4,0:3:0:0:
451,152,415562,2,0,L|292:190,1,150.000005722046,4|0,1:2|0:2,0:2:0:0:
156,383,416331,6,0,B|80:366|80:366|100:268,1,150.000005722046,4|0,0:1|0:2,0:2:0:0:
287,0,417100,2,0,B|362:16|362:16|343:115,1,150.000005722046,4|0,0:1|0:2,0:2:0:0:
181,305,417869,5,0,1:2:0:0:
181,305,417933,1,0,1:2:0:0:
511,135,418639,6,0,B|498:159|498:159|342:184,1,150.000005722046,4|0,0:1|0:2,0:2:0:0:
512,123,419408,1,4,0:3:0:0:
164,214,419664,2,0,B|151:190|151:190|-5:165,1,150.000005722046,4|0,1:2|0:2,0:2:0:0:
356,383,420433,6,0,B|431:366|431:366|412:268,1,150.000005722046,4|0,0:1|0:2,0:2:0:0:
225,0,421203,2,0,B|187:8|187:8|196:57,1,75.0000028610231,4|0,0:1|0:2,0:2:0:0:
277,71,421587,1,4,0:3:0:0:
277,71,421651,1,4,0:3:0:0:
277,71,421715,1,0,1:2:0:0:
500,290,421972,6,0,L|516:221,1,37.5000014305115,4|0,0:1|0:2,0:2:0:0:
216,120,422228,1,2,0:3:0:0:
26,364,422741,6,0,B|42:372|42:372|149:331|149:331|151:291,1,150.000005722046,4|0,0:1|0:2,0:2:0:0:
65,278,423510,1,4,0:3:0:0:
384,202,423767,2,0,B|400:194|400:194|507:235|507:235|509:275,1,150.000005722046,4|0,1:2|0:2,0:2:0:0:
65,278,424536,6,0,L|20:131,1,150.000005722046,4|0,0:1|0:2,0:2:0:0:
417,288,425305,2,0,L|389:377,1,75.0000028610231,4|0,0:1|0:2,0:2:0:0:
