osu file format v14

[General]
AudioFilename: audio.mp3
AudioLeadIn: 0
PreviewTime: 33023
Countdown: 0
SampleSet: Soft
StackLeniency: 0.7
Mode: 0
LetterboxInBreaks: 0
WidescreenStoryboard: 0

[Editor]
Bookmarks: 11040,55178,60695,82764,104833,115868,137937,160006
DistanceSpacing: 2.7
BeatDivisor: 4
GridSize: 32
TimelineZoom: 2.3

[Metadata]
Title:Alone
TitleUnicode:Alone
Artist:Slayyyter
ArtistUnicode:Slayyyter
Creator:defiance
Version:Playing With Fire
Source:
Tags:hyperpop electropop pop english co23 ko1b nm4 corsace quanhitter39 osuskrub yaspo risen ayesha erotica nicole smith
BeatmapID:4274701
BeatmapSetID:2047520

[Difficulty]
HPDrainRate:5.5
CircleSize:4
OverallDifficulty:9.3
ApproachRate:9.8
SliderMultiplier:2
SliderTickRate:1

[Events]
//Background and Video events
0,0,"omg slay.png",0,0
//Break Periods
//Storyboard Layer 0 (Background)
//Storyboard Layer 1 (Fail)
//Storyboard Layer 2 (Pass)
//Storyboard Layer 3 (Foreground)
//Storyboard Layer 4 (Overlay)
//Storyboard Sound Samples

[TimingPoints]
6,344.827586206897,4,2,1,90,1,0
6,-100,4,2,1,70,0,0
1385,-66.6666666666667,4,2,1,70,0,0
2592,-50,4,2,1,70,0,0
2764,-66.6666666666667,4,2,1,70,0,0
4661,-50,4,2,1,70,0,0
5523,-66.6666666666667,4,2,1,70,0,0
5868,-100,4,2,1,70,0,0
6902,-66.6666666666667,4,2,1,70,0,0
8109,-50,4,2,1,70,0,0
8281,-100,4,2,1,70,0,0
9661,-66.6666666666667,4,2,1,70,0,0
10350,-90.9090909090909,4,2,1,70,0,0
10954,-100,4,2,1,70,0,0
11040,-52.6315789473684,4,2,1,70,0,0
12074,-100,4,2,1,90,0,0
12419,-43.4782608695652,4,2,1,90,0,0
12678,-52.6315789473684,4,2,1,90,0,0
13799,-50,4,2,1,90,0,0
14143,-55.5555555555556,4,2,1,90,0,0
14833,-66.6666666666667,4,2,1,90,0,0
15868,-66.6666666666667,4,2,1,90,0,0
16557,-52.6315789473684,4,2,1,90,0,0
17592,-100,4,2,1,90,0,0
17937,-43.4782608695652,4,2,1,90,0,0
18195,-52.6315789473684,4,2,1,90,0,0
19316,-47.6190476190476,4,2,1,90,0,0
19661,-52.6315789473684,4,2,1,90,0,0
20350,-66.6666666666667,4,2,1,90,0,0
20695,-66.6666666666667,4,2,1,90,0,0
21471,-50,4,2,1,90,0,0
22074,-41.6666666666667,4,2,1,80,0,0
22937,-100,4,2,1,80,0,0
23454,-66.6666666666667,4,2,1,80,0,0
24833,-52.6315789473684,4,2,1,80,0,0
25523,-66.6666666666667,4,2,1,80,0,0
25868,-66.6666666666667,4,2,1,80,0,0
26212,-57.1428571428571,4,2,1,80,0,0
26902,-200,4,2,1,80,0,0
27592,-43.4782608695652,4,2,1,80,0,0
27937,-47.6190476190476,4,2,1,80,0,0
28626,-100,4,2,1,80,0,0
28971,-66.6666666666667,4,2,1,80,0,0
30350,-41.6666666666667,4,2,1,80,0,0
30695,-58.8235294117647,4,2,1,80,0,0
31040,-133.333333333333,4,2,1,80,0,0
31299,-200,4,2,1,80,0,0
31730,-200,4,2,1,80,0,0
32419,-50,4,2,1,80,0,0
33109,-50,4,2,1,100,0,0
34488,-43.4782608695652,4,2,1,100,0,0
35178,-58.8235294117647,4,2,1,100,0,0
35868,-43.4782608695652,4,2,1,100,0,0
36557,-50,4,2,1,100,0,0
36902,-43.4782608695652,4,2,1,100,0,0
37937,-58.8235294117647,4,2,1,100,0,0
38626,-43.4782608695652,4,2,1,100,0,0
39316,-58.8235294117647,4,2,1,100,0,0
40006,-43.4782608695652,4,2,1,100,0,0
40695,-58.8235294117647,4,2,1,100,0,0
41385,-43.4782608695652,4,2,1,100,0,0
42764,-37.037037037037,4,2,1,100,0,0
43023,-43.4782608695652,4,2,1,100,0,0
43454,-58.8235294117647,4,2,1,100,0,0
44143,-41.6666666666667,4,2,1,100,0,0
44488,-37.037037037037,4,2,1,100,0,0
44833,-71.4285714285714,4,2,1,100,0,0
45523,-43.4782608695652,4,2,1,100,0,0
46212,-58.8235294117647,4,2,1,100,0,0
46902,-43.4782608695652,4,2,1,100,0,0
48281,-36.3636363636364,4,2,1,100,0,0
48540,-43.4782608695652,4,2,1,100,0,0
48971,-58.8235294117647,4,2,1,100,0,0
49661,-43.4782608695652,4,2,1,100,0,0
50006,-50,4,2,1,100,0,0
51730,-58.8235294117647,4,2,1,100,0,0
52419,-43.4782608695652,4,2,1,100,0,0
53799,-50,4,2,1,100,0,0
54488,-58.8235294117647,4,2,1,100,0,0
55178,-100,4,2,1,70,0,0
56557,-66.6666666666667,4,2,1,70,0,0
57764,-50,4,2,1,70,0,0
57937,-100,4,2,1,70,0,0
59316,-66.6666666666667,4,2,1,70,0,0
60695,-52.6315789473684,4,2,1,70,0,0
61730,-100,4,2,1,70,0,0
62074,-43.4782608695652,4,2,1,70,0,0
62333,-52.6315789473684,4,2,1,70,0,0
63454,-47.6190476190476,4,2,1,70,0,0
63799,-52.6315789473684,4,2,1,70,0,0
64488,-66.6666666666667,4,2,1,70,0,0
65523,-66.6666666666667,4,2,1,70,0,0
66212,-47.6190476190476,4,2,1,70,0,0
66557,-52.6315789473684,4,2,1,70,0,0
67247,-100,4,2,1,70,0,0
67592,-43.4782608695652,4,2,1,70,0,0
67850,-52.6315789473684,4,2,1,70,0,0
68971,-47.6190476190476,4,2,1,70,0,0
69316,-52.6315789473684,4,2,1,70,0,0
70006,-66.6666666666667,4,2,1,70,0,0
71385,-50,4,2,1,70,0,0
71730,-41.6666666666667,4,2,1,80,0,0
72074,-52.6315789473684,4,2,1,80,0,0
72764,-100,4,2,1,80,0,0
73109,-66.6666666666667,4,2,1,80,0,0
74316,-52.6315789473684,4,2,1,80,0,0
74488,-45.4545454545455,4,2,1,80,0,0
74833,-52.6315789473684,4,2,1,80,0,0
75178,-66.6666666666667,4,2,1,80,0,0
75868,-55.5555555555556,4,2,1,80,0,0
77247,-43.4782608695652,4,2,1,80,0,0
77592,-52.6315789473684,4,2,1,80,0,0
78281,-100,4,2,1,80,0,0
78626,-66.6666666666667,4,2,1,80,0,0
80006,-43.4782608695652,4,2,1,80,0,0
80350,-52.6315789473684,4,2,1,80,0,0
81385,-200,4,2,1,80,0,0
82764,-50,4,2,1,100,0,0
84143,-43.4782608695652,4,2,1,100,0,0
84833,-58.8235294117647,4,2,1,100,0,0
85523,-41.6666666666667,4,2,1,100,0,0
87592,-58.8235294117647,4,2,1,100,0,0
88281,-41.6666666666667,4,2,1,100,0,0
89661,-41.6666666666667,4,2,1,100,0,0
90350,-58.8235294117647,4,2,1,100,0,0
91040,-41.6666666666667,4,2,1,100,0,0
93109,-58.8235294117647,4,2,1,100,0,0
93799,-41.6666666666667,4,2,1,100,0,0
94143,-37.037037037037,4,2,1,100,0,0
94488,-71.4285714285714,4,2,1,100,0,0
95178,-43.4782608695652,4,2,1,100,0,0
95868,-58.8235294117647,4,2,1,100,0,0
96557,-43.4782608695652,4,2,1,100,0,0
97937,-40,4,2,1,100,0,0
98626,-58.8235294117647,4,2,1,100,0,0
99316,-40,4,2,1,100,0,0
99661,-66.6666666666667,4,2,1,100,0,0
100006,-45.4545454545455,4,2,1,100,0,0
101385,-58.8235294117647,4,2,1,100,0,0
102074,-45.4545454545455,4,2,1,100,0,0
103454,-58.8235294117647,4,2,1,100,0,0
105178,-100,4,2,1,70,0,0
106212,-66.6666666666667,4,2,1,70,0,0
107419,-50,4,2,1,70,0,0
107592,-66.6666666666667,4,2,1,70,0,0
108281,-100,4,2,1,70,0,0
108971,-66.6666666666667,4,2,1,70,0,0
110350,-100,4,2,1,70,0,0
111730,-66.6666666666667,4,2,1,70,0,0
112937,-50,4,2,1,70,0,0
113109,-66.6666666666667,4,2,1,70,0,0
115868,-43.4782608695652,4,2,1,70,0,0
116212,-52.6315789473684,4,2,1,70,0,0
117247,-43.4782608695652,4,2,1,70,0,0
117506,-52.6315789473684,4,2,1,70,0,0
118626,-43.4782608695652,4,2,1,70,0,0
118971,-66.6666666666667,4,2,1,70,0,0
120954,-83.3333333333333,4,2,1,70,0,0
121385,-43.4782608695652,4,2,1,70,0,0
121730,-66.6666666666667,4,2,1,70,0,0
122074,-100,4,2,1,70,0,0
124661,-83.3333333333333,4,2,1,70,0,0
125006,-66.6666666666667,4,2,1,70,0,0
126902,-43.4782608695652,4,2,1,80,0,0
127247,-66.6666666666667,4,2,1,80,0,0
127592,-83.3333333333333,4,2,1,80,0,0
128281,-66.6666666666667,4,2,1,80,0,0
129661,-43.4782608695652,4,2,1,80,0,0
130006,-52.6315789473684,4,2,1,80,0,0
130350,-52.6315789473684,4,2,1,30,0,0
132419,-43.4782608695652,4,2,1,80,0,0
132764,-52.6315789473684,4,2,1,80,0,0
133454,-100,4,2,1,80,0,0
133799,-66.6666666666667,4,2,1,80,0,0
135178,-43.4782608695652,4,2,1,80,0,0
135523,-55.5555555555556,4,2,1,80,0,0
136902,-111.111111111111,4,2,1,80,0,0
137937,-50,4,2,1,100,0,0
139316,-40,4,2,1,100,0,0
140006,-58.8235294117647,4,2,1,100,0,0
140695,-40,4,2,1,100,0,0
141385,-41.6666666666667,4,2,1,100,0,0
142074,-40,4,2,1,100,0,0
142764,-55.5555555555556,4,2,1,100,0,0
143454,-41.6666666666667,4,2,1,100,0,0
144143,-58.8235294117647,4,2,1,100,0,0
144833,-41.6666666666667,4,2,1,100,0,0
145523,-55.5555555555556,4,2,1,100,0,0
146902,-41.6666666666667,4,2,1,100,0,0
147592,-38.4615384615385,4,2,1,100,0,0
148281,-55.5555555555556,4,2,1,100,0,0
148971,-43.4782608695652,4,2,1,100,0,0
149316,-35.7142857142857,4,2,1,100,0,0
149661,-71.4285714285714,4,2,1,100,0,0
150350,-41.6666666666667,4,2,1,100,0,0
150695,-45.4545454545455,4,2,1,100,0,0
151040,-55.5555555555556,4,2,1,100,0,0
151730,-41.6666666666667,4,2,1,100,0,0
153109,-38.4615384615385,4,2,1,100,0,0
153799,-55.5555555555556,4,2,1,100,0,0
154488,-40,4,2,1,100,0,0
154833,-66.6666666666667,4,2,1,100,0,0
155178,-45.4545454545455,4,2,1,100,0,0
156557,-55.5555555555556,4,2,1,100,0,0
157247,-41.6666666666667,4,2,1,100,0,0
159316,-55.5555555555556,4,2,1,100,0,0

[Colours]
Combo1 : 198,89,238
Combo2 : 207,115,227
Combo3 : 249,157,231

[HitObjects]
154,36,6,6,0,L|196:27,4,25,0|0|0|0|0,3:0|3:0|3:0|3:0|3:0,0:0:0:0:
54,31,350,1,0,0:0:0:0:
54,31,609,1,0,3:0:0:0:
61,105,695,2,0,L|65:219,2,100,8|0|0,0:0|3:0|3:0,0:0:0:0:
61,105,1385,6,0,P|105:133|143:144,1,75.0000028610231,0|0,1:0|0:0,0:0:0:0:
398,167,1557,1,0,3:0:0:0:
390,184,1643,1,0,3:0:0:0:
265,219,1730,6,0,P|327:166|416:170,1,150.000005722046,0|0,3:0|0:0,0:0:0:0:
511,353,2074,1,8,0:0:0:0:
492,362,2247,5,8,0:0:0:0:
430,384,2333,1,8,0:0:0:0:
329,295,2419,1,8,0:0:0:0:
403,318,2506,1,8,0:0:0:0:
512,328,2592,2,0,P|507:279|491:206,1,100,0|0,3:0|0:0,0:0:0:0:
409,38,2764,6,0,L|423:-12,4,37.5000014305115,0|0|0|0|0,3:0|3:0|3:0|3:0|3:0,0:0:0:0:
512,0,3109,1,0,0:0:0:0:
145,110,3454,1,8,0:0:0:0:
216,135,3626,2,0,L|205:174,10,37.5000014305115,0|0|0|0|0|0|0|0|0|0|0,3:0|3:0|3:0|3:0|3:0|3:0|3:0|3:0|3:0|3:0|3:0,0:0:0:0:
257,51,4143,6,0,P|284:95|301:139,1,75.0000028610231,0|0,1:0|0:0,0:0:0:0:
181,319,4316,1,0,3:0:0:0:
204,282,4402,1,0,3:0:0:0:
299,318,4488,1,0,3:0:0:0:
227,336,4574,1,0,3:0:0:0:
149,351,4661,2,0,L|127:236,1,100,0|0,3:0|0:0,0:0:0:0:
89,22,4833,5,8,0:0:0:0:
74,120,4919,1,8,0:0:0:0:
74,120,5523,6,0,L|117:111,4,37.5000014305115,0|0|0|0|0,3:0|3:0|3:0|3:0|3:0,0:0:0:0:
11,193,5868,1,0,0:0:0:0:
11,193,6126,1,0,0:0:0:0:
95,248,6212,2,0,L|213:228,2,100,8|0|0,0:0|0:0|0:0,0:0:0:0:
95,248,6902,6,0,P|109:180|127:151,1,75.0000028610231,0|0,1:0|0:0,0:0:0:0:
357,68,7074,1,0,3:0:0:0:
422,103,7161,1,0,3:0:0:0:
236,104,7247,2,0,P|317:78|395:23,1,150.000005722046,0|0,3:0|3:0,0:0:0:0:
493,233,7592,1,8,0:0:0:0:
497,245,7764,5,8,0:0:0:0:
427,239,7850,1,8,0:0:0:0:
367,185,7937,1,8,0:0:0:0:
443,268,8023,1,8,0:0:0:0:
359,306,8109,2,0,L|243:320,1,100,0|0,3:0|0:0,0:0:0:0:
25,343,8281,6,0,L|69:334,4,25,0|0|0|0|0,3:0|3:0|3:0|3:0|3:0,0:0:0:0:
137,353,8626,1,0,0:0:0:0:
110,138,8971,1,8,0:0:0:0:
191,157,9143,2,0,L|181:202,10,25,0|0|0|0|0|0|0|0|0|0|0,3:0|3:0|3:0|3:0|3:0|3:0|3:0|3:0|3:0|3:0|3:0,0:0:0:0:
199,80,9661,6,0,P|239:73|298:50,1,75.0000028610231,0|0,1:0|0:0,0:0:0:0:
442,24,9833,1,8,0:0:0:0:
512,87,9919,1,0,3:0:0:0:
384,103,10006,5,0,3:0:0:0:
358,159,10092,1,0,3:0:0:0:
384,216,10178,1,0,3:0:0:0:
445,232,10264,1,0,3:0:0:0:
479,163,10350,6,2,B|400:156|343:238|343:238|214:247|276:162|134:158,1,385.000011749268,10|2,0:0|0:0,0:0:0:0:
2,134,11040,6,0,B|57:132|126:104|126:104|96:146|71:217|101:273,1,284.999992389679,0|0,1:0|0:0,0:0:0:0:
52,379,11385,2,0,B|216:387|155:293|347:301,1,284.999992389679,0|0,1:0|0:0,0:0:0:0:
464,362,11730,1,8,0:0:0:0:
461,352,11902,1,0,0:0:0:0:
492,177,12074,2,0,P|452:225|422:281,1,100,2|2,0:0|0:0,0:0:0:0:
107,82,12419,6,0,B|199:105|199:105|250:95|250:95|331:112,1,230.000004386902,0|0,3:0|0:0,0:0:0:0:
496,77,12678,2,0,P|447:-4|368:34,1,189.999994926453,0|0,3:0|0:0,0:0:0:0:
356,233,12937,2,0,B|333:235|312:257|312:257|315:230|307:197,1,94.9999974632264,0|0,3:0|0:0,0:0:0:0:
243,9,13109,1,8,0:0:0:0:
247,23,13281,5,8,0:0:0:0:
189,78,13368,1,8,0:0:0:0:
111,112,13454,1,8,0:0:0:0:
201,95,13540,1,8,0:0:0:0:
278,143,13626,1,0,3:0:0:0:
0,18,13799,6,0,B|68:54|88:159|88:159|159:116|232:125,1,300,0|0,1:0|0:0,0:0:0:0:
299,220,14143,2,0,B|196:247|196:247|159:295|159:295|48:323,1,269.999991760254,0|0,1:0|0:0,0:0:0:0:
5,237,14488,1,8,0:0:0:0:
16,243,14661,1,0,0:0:0:0:
181,368,14833,6,0,P|228:352|289:339,1,75.0000028610231,2|0,0:0|0:0,0:0:0:0:
349,332,15006,2,0,P|402:357|448:363,1,75.0000028610231,2|0,0:0|0:0,0:0:0:0:
484,43,15178,6,0,P|455:96|447:128,1,75.0000028610231,0|0,3:0|0:0,0:0:0:0:
397,221,15350,1,0,3:0:0:0:
398,241,15437,1,0,3:0:0:0:
494,268,15523,2,0,P|482:239|423:206,1,75.0000028610231
276,161,15695,2,0,L|326:141,2,37.5000014305115
300,165,15868,2,0,B|216:117|153:147|153:147|159:59|249:11,1,300.000011444092,2|2,0:0|0:0,0:0:0:0:
21,269,16557,6,0,B|99:281|170:367|170:367|212:327|278:341,1,284.999992389679,0|0,1:0|0:0,0:0:0:0:
431,367,16902,2,0,B|338:345|333:254|411:249|421:129,1,284.999992389679,0|0,1:0|0:0,0:0:0:0:
496,45,17247,1,8,0:0:0:0:
508,66,17419,1,0,0:0:0:0:
334,121,17592,2,0,P|287:93|260:52,1,100,2|2,0:0|0:0,0:0:0:0:
346,12,17937,6,0,P|284:105|150:120,1,230.000004386902,0|0,3:0|0:0,0:0:0:0:
0,219,18195,2,0,P|120:227|170:287,1,189.999994926453,0|0,3:0|0:0,0:0:0:0:
267,311,18454,2,0,B|285:294|313:283|313:283|290:286|252:272,1,94.9999974632264,0|0,3:0|0:0,0:0:0:0:
88,103,18626,1,8,0:0:0:0:
78,93,18799,5,8,0:0:0:0:
66,82,18885,1,8,0:0:0:0:
2,165,18971,1,8,0:0:0:0:
86,150,19057,1,8,0:0:0:0:
171,134,19143,2,0,L|272:107,1,94.9999974632264,0|0,3:0|0:0,0:0:0:0:
454,38,19316,6,0,B|394:38|339:-1|339:-1|414:119|402:192,1,314.999990386963,0|0,1:0|0:0,0:0:0:0:
512,203,19661,2,0,B|354:194|385:290|190:268,1,284.999992389679,0|0,1:0|0:0,0:0:0:0:
121,355,20006,1,8,0:0:0:0:
127,342,20178,1,0,0:0:0:0:
0,244,20350,6,0,P|36:224|78:227,1,75.0000028610231,2|0,0:0|0:0,0:0:0:0:
157,223,20523,2,0,P|189:189|194:149,1,75.0000028610231,2|0,0:0|0:0,0:0:0:0:
378,33,20695,6,0,L|476:47,1,75.0000028610231,0|0,3:0|0:0,0:0:0:0:
277,113,20868,1,0,3:0:0:0:
278,129,20954,1,0,3:0:0:0:
201,73,21040,2,0,L|225:-11,1,75.0000028610231,2|0,0:0|0:0,0:0:0:0:
256,231,21212,2,0,L|263:329,1,75.0000028610231,2|0,0:0|0:0,0:0:0:0:
334,366,21385,5,8,0:0:0:0:
429,355,21471,1,8,0:0:0:0:
429,355,21730,6,2,B|373:284|204:297|251:207|270:117,1,300,0|0,0:0|0:0,1:0:0:0:
356,130,22074,6,0,B|279:210|196:156|87:74|29:234|66:283,1,359.999989013672,0|0,1:0|0:0,0:0:0:0:
10,334,22419,2,0,B|119:346|173:297|165:187|62:148|137:34,1,359.999989013672,0|0,1:0|0:0,0:0:0:0:
239,7,22764,1,8,0:0:0:0:
241,17,22937,1,0,0:0:0:0:
18,113,23109,2,0,L|1:55,1,50,2|0,0:0|0:0,0:0:0:0:
21,59,23281,2,0,L|10:120,1,50,2|0,0:0|0:0,0:0:0:0:
107,206,23454,6,0,L|225:219,1,75.0000028610231,0|0,1:0|0:0,0:0:0:0:
408,255,23626,1,0,3:0:0:0:
410,274,23712,1,0,3:0:0:0:
352,363,23799,2,0,P|377:274|451:202,1,150.000005722046,0|0,3:0|0:0,0:0:0:0:
506,73,24143,1,8,0:0:0:0:
501,76,24316,5,8,0:0:0:0:
447,138,24402,1,8,0:0:0:0:
461,52,24488,1,8,0:0:0:0:
392,0,24574,1,8,0:0:0:0:
443,57,24661,2,0,L|344:93,1,75.0000028610231,0|0,3:0|0:0,0:0:0:0:
160,82,24833,6,0,B|228:118|248:223|248:223|319:180|383:188,1,284.999992389679,0|0,1:0|0:0,0:0:0:0:
451,270,25177,2,0,B|350:296|350:296|313:344|313:344|190:376,1,284.999992389679,0|0,1:0|0:0,0:0:0:0:
95,351,25523,2,0,L|49:343,6,37.5000014305115,0|0|0|0|0|0|0,3:0|3:0|3:0|3:0|3:0|3:0|3:0,0:0:0:0:
164,282,25868,6,0,P|128:250|87:240,1,75.0000028610231,2|0,0:0|0:0,0:0:0:0:
7,174,26040,2,0,P|55:156|77:129,1,75.0000028610231,2|0,0:0|0:0,0:0:0:0:
266,26,26212,6,0,L|372:36,1,87.500000834465,0|0,3:0|0:0,0:0:0:0:
135,143,26385,1,0,3:0:0:0:
125,121,26471,1,0,3:0:0:0:
93,19,26557,2,0,L|80:108,1,87.500000834465,0|0,3:0|0:0,0:0:0:0:
289,170,26730,2,0,L|342:159,2,43.7500004172325
211,226,26902,5,2,0:0:0:0:
211,226,27074,1,2,0:0:0:0:
396,12,27247,1,2,0:0:0:0:
396,12,27592,6,0,B|315:12|315:12|264:51|264:51|165:57|165:57|72:128,1,345.000006580353,0|0,1:0|0:0,0:0:0:0:
9,201,27937,2,0,B|106:207|106:207|164:272|164:272|231:248|231:248|315:282,1,314.999990386963,0|0,1:0|0:0,0:0:0:0:
376,340,28281,1,8,0:0:0:0:
372,356,28454,1,0,0:0:0:0:
356,226,28626,2,0,P|383:195|438:177,1,100,2|2,0:0|0:0,0:0:0:0:
501,77,28971,6,0,L|409:91,1,75.0000028610231,0|0,1:0|0:0,0:0:0:0:
171,141,29143,1,0,3:0:0:0:
229,87,29229,1,0,3:0:0:0:
175,24,29316,2,0,P|196:143|191:186,1,150.000005722046,0|0,3:0|0:0,0:0:0:0:
37,324,29660,1,8,0:0:0:0:
46,333,29833,5,8,0:0:0:0:
69,371,29919,1,8,0:0:0:0:
156,287,30006,1,8,0:0:0:0:
85,260,30092,1,8,0:0:0:0:
13,236,30178,1,0,3:0:0:0:
312,37,30350,6,0,B|257:119|329:188|433:275|290:368|276:344,1,359.999989013672,0|0,1:0|0:0,0:0:0:0:
246,235,30695,2,0,B|379:237|326:330|510:328,1,255.000004863739,0|0,1:0|0:0,0:0:0:0:
506,208,31040,5,10,0:0:0:0:
447,152,31212,1,2,0:0:0:0:
378,137,31385,1,2,0:0:0:0:
346,142,31557,1,2,0:0:0:0:
332,151,31730,2,0,P|303:186|295:207,2,50,2|2|2,0:0|0:0|0:0,0:0:0:0:
73,3,33109,5,4,0:0:0:0:
289,158,33281,2,0,P|339:139|370:99,1,100,2|0,0:0|0:0,0:0:0:0:
196,77,33454,2,0,B|286:59|323:108|330:114|340:122|394:168|494:156,1,300,4|0,1:2|0:0,0:0:0:0:
505,69,33799,6,0,P|464:139|424:285,1,200,8|0,0:0|0:0,0:0:0:0:
184,373,34143,1,2,0:0:0:0:
245,255,34230,1,0,0:0:0:0:
197,299,34316,1,2,0:0:0:0:
125,320,34402,1,0,0:0:0:0:
233,241,34488,6,0,B|154:238|103:299|103:299|37:268|-29:277,1,230.000004386902,0|0,3:0|0:0,0:0:0:0:
340,374,34747,2,0,B|354:316|334:249|334:249|396:290|455:311,1,230.000004386902,0|0,3:0|0:0,0:0:0:0:
400,112,35006,1,0,3:0:0:0:
412,125,35092,1,0,3:0:0:0:
512,151,35178,2,0,L|398:141,1,85.0000016212464,8|0,0:0|0:0,0:0:0:0:
199,73,35350,1,0,3:0:0:0:
287,21,35437,2,0,L|186:44,1,85.0000016212464,8|0,0:0|0:0,0:0:0:0:
51,54,35609,1,0,3:0:0:0:
55,39,35695,5,8,0:0:0:0:
117,131,35781,1,8,0:0:0:0:
0,137,35868,6,0,B|37:196|96:187|96:187|151:129|230:140,1,230.000004386902,0|0,1:0|0:0,0:0:0:0:
363,272,36126,1,0,0:0:0:0:
397,188,36212,5,2,0:0:0:0:
358,246,36298,1,0,0:0:0:0:
412,303,36384,1,2,0:0:0:0:
435,384,36470,1,0,0:0:0:0:
490,331,36557,6,0,P|343:361|284:397,1,200,8|0,0:0|0:0,0:0:0:0:
135,193,36816,1,0,0:0:0:0:
73,247,36902,1,2,0:0:0:0:
52,330,36988,1,0,0:0:0:0:
87,339,37074,1,2,0:0:0:0:
127,330,37161,1,0,0:0:0:0:
86,261,37247,6,0,B|93:205|73:155|73:155|32:127|32:127|6:43,1,230.000004386902,0|0,3:0|0:0,0:0:0:0:
213,353,37506,2,0,B|205:296|226:247|226:247|267:219|267:219|293:135,1,230.000004386902,0|0,3:0|0:0,0:0:0:0:
380,5,37764,1,0,3:0:0:0:
385,21,37850,1,0,3:0:0:0:
495,18,37937,6,0,L|375:58,1,85.0000016212464,8|0,0:0|0:0,0:0:0:0:
235,144,38109,1,0,3:0:0:0:
131,137,38195,2,0,L|222:163,1,85.0000016212464,8|0,0:0|0:0,0:0:0:0:
504,158,38454,5,8,0:0:0:0:
452,245,38540,1,8,0:0:0:0:
391,322,38626,6,0,B|312:305|240:376|240:376|143:291|184:211,1,345.000006580353,4|0,1:0|0:0,0:0:0:0:
203,15,38971,2,0,B|243:-1|283:7|283:7|245:32,1,115.000002193451,0|0,1:0|0:0,0:0:0:0:
0,112,39143,1,0,3:0:0:0:
9,120,39316,6,0,L|93:129,1,85.0000016212464,8|0,0:0|0:0,0:0:0:0:
252,139,39488,5,0,0:0:0:0:
221,134,39574,1,0,0:0:0:0:
311,99,39661,1,2,0:0:0:0:
375,131,39747,1,0,0:0:0:0:
409,195,39833,5,0,3:0:0:0:
389,115,39919,1,0,3:0:0:0:
501,122,40006,6,0,B|449:104|393:100|393:100|357:172|282:190,1,230.000004386902,0|0,3:0|0:0,0:0:0:0:
112,335,40264,1,0,3:0:0:0:
201,365,40350,2,0,P|219:322|160:283,1,115.000002193451,2|0,0:0|0:0,0:0:0:0:
121,105,40523,1,0,3:0:0:0:
111,133,40609,1,0,3:0:0:0:
6,109,40695,2,0,L|103:86,1,85.0000016212464,8|0,0:0|0:0,0:0:0:0:
276,23,40868,1,0,3:0:0:0:
168,17,40954,2,0,L|259:33,1,85.0000016212464,8|0,0:0|0:0,0:0:0:0:
440,35,41126,1,0,3:0:0:0:
407,11,41212,5,8,0:0:0:0:
439,110,41299,1,8,0:0:0:0:
466,201,41385,6,0,B|534:144|507:65|424:57|375:100|322:147|235:127,1,345.000006580353,0|0,3:0|0:0,0:0:0:0:
37,191,41730,1,2,0:0:0:0:
48,202,41816,1,2,0:0:0:0:
139,182,41902,2,0,B|156:188|200:181|200:181|154:214|118:232,1,115.000002193451,2|0,0:0|0:0,0:0:0:0:
55,31,42074,6,0,B|117:85|94:187|80:199|66:211|12:283|86:363,1,345.000006580353,8|0,0:0|0:0,0:0:0:0:
296,349,42419,1,2,0:0:0:0:
281,332,42506,1,2,0:0:0:0:
220,272,42592,1,0,3:0:0:0:
310,247,42678,1,0,3:0:0:0:
391,303,42764,6,0,B|431:303|487:362|487:362|516:273|470:226|387:195,1,270.000001029968,0|0,3:0|0:0,0:0:0:0:
317,163,43023,2,0,B|236:177|181:216|181:216|127:192|96:142,1,230.000004386902,0|0,3:0|0:0,0:0:0:0:
433,15,43281,1,0,3:0:0:0:
437,28,43368,1,0,3:0:0:0:
416,130,43454,2,0,L|396:6,1,85.0000016212464,8|0,0:0|0:0,0:0:0:0:
510,234,43626,1,0,3:0:0:0:
464,335,43712,2,0,L|488:233,1,85.0000016212464,8|0,0:0|0:0,0:0:0:0:
279,97,43885,1,0,3:0:0:0:
266,77,43971,5,8,0:0:0:0:
316,181,44057,1,8,0:0:0:0:
290,269,44143,6,0,B|211:240|150:278|74:328|11:325|11:325|22:265|68:253,1,359.999989013672,4|0,0:0|0:0,0:0:0:0:
202,347,44488,2,0,B|269:361|327:324|294:261|389:201|509:230|504:371,1,405.000001544952,4|0,1:0|0:0,0:0:0:0:
488,87,44833,2,0,B|366:102|420:158|281:177,1,209.999993591309,14|0,0:0|0:0,0:0:0:0:
130,56,45178,1,2,0:0:0:0:
140,68,45264,1,2,0:0:0:0:
191,0,45350,1,0,3:0:0:0:
218,80,45437,1,0,3:0:0:0:
163,153,45523,6,0,B|126:222|223:307|223:307|295:236|372:244,1,345.000006580353,0|0,3:0|0:0,0:0:0:0:
498,312,45868,2,0,P|471:352|381:365,1,115.000002193451,2|0,0:0|0:0,0:0:0:0:
205,271,46040,1,0,3:0:0:0:
212,287,46126,1,0,3:0:0:0:
261,366,46212,6,0,L|129:353,1,85.0000016212464,8|0,0:0|0:0,0:0:0:0:
0,305,46385,1,0,3:0:0:0:
5,196,46471,2,0,L|20:279,1,85.0000016212464,8|0,0:0|0:0,0:0:0:0:
158,24,46643,1,0,3:0:0:0:
150,10,46730,5,8,0:0:0:0:
83,104,46816,1,8,0:0:0:0:
2,28,46902,6,0,B|116:30|70:98|233:119,1,230.000004386902,0|0,1:0|0:0,0:0:0:0:
416,14,47161,1,0,0:0:0:0:
303,68,47247,1,0,0:0:0:0:
333,7,47333,1,0,0:0:0:0:
404,5,47419,1,0,3:0:0:0:
328,63,47506,1,0,3:0:0:0:
287,150,47592,6,0,B|206:165|206:165|174:208|174:208|66:236,1,230.000004386902,8|0,0:0|0:0,0:0:0:0:
281,384,47850,1,0,0:0:0:0:
275,361,47937,1,0,0:0:0:0:
237,271,48023,1,0,0:0:0:0:
309,296,48109,1,0,3:0:0:0:
370,345,48195,1,0,3:0:0:0:
217,283,48281,6,0,B|296:280|347:341|347:341|413:310|503:321,1,275.000002622604,0|0,3:0|0:0,0:0:0:0:
122,376,48540,2,0,B|108:318|128:251|128:251|66:292|7:313,1,230.000004386902,0|0,3:0|0:0,0:0:0:0:
127,84,48799,1,0,3:0:0:0:
136,98,48885,1,0,3:0:0:0:
36,115,48971,2,0,L|150:129,1,85.0000016212464,8|0,0:0|0:0,0:0:0:0:
368,86,49143,1,0,3:0:0:0:
251,88,49230,2,0,L|345:58,1,85.0000016212464,8|0,0:0|0:0,0:0:0:0:
512,233,49402,1,0,3:0:0:0:
436,285,49488,5,8,0:0:0:0:
467,139,49574,1,8,0:0:0:0:
495,232,49661,6,0,B|410:216|410:216|339:267|339:267|268:253|168:305,1,345.000006580353,4|0,0:0|0:0,0:0:0:0:
107,175,50006,2,0,B|149:78|88:18|88:18|166:49|180:137,1,300,4|0,1:0|0:0,0:0:0:0:
314,277,50350,2,0,P|295:314|230:329,1,100,8|0,0:0|0:0,0:0:0:0:
0,323,50523,1,0,0:0:0:0:
81,343,50609,1,0,0:0:0:0:
64,301,50695,1,0,0:0:0:0:
112,358,50781,1,0,0:0:0:0:
79,300,50868,1,2,0:0:0:0:
83,206,50954,1,2,0:0:0:0:
1,217,51040,6,0,P|57:196|113:206,1,100,2|0,0:0|0:0,0:0:0:0:
215,220,51212,2,0,P|277:189|297:140,1,100,2|0,0:0|0:0,0:0:0:0:
371,2,51385,2,0,B|351:120|436:77|413:209,1,200,2|0,0:0|0:0,0:0:0:0:
370,350,51643,1,0,3:0:0:0:
460,320,51730,6,0,L|377:334,1,85.0000016212464,8|0,0:0|0:0,0:0:0:0:
239,303,51902,1,0,3:0:0:0:
141,291,51988,2,0,L|236:314,1,85.0000016212464,8|0,0:0|0:0,0:0:0:0:
265,0,52247,5,8,0:0:0:0:
369,20,52333,1,8,0:0:0:0:
483,39,52419,6,0,B|404:67|404:67|386:108|386:108|281:148,1,230.000004386902,4|0,1:0|0:0,0:0:0:0:
141,196,52678,1,0,0:0:0:0:
91,119,52764,5,2,0:0:0:0:
60,189,52850,1,0,0:0:0:0:
95,248,52937,1,2,0:0:0:0:
72,173,53023,1,0,0:0:0:0:
151,127,53109,6,0,B|203:109|259:105|259:105|295:177|370:195,1,230.000004386902,8|0,0:0|0:0,0:0:0:0:
451,135,53368,1,0,0:0:0:0:
510,208,53454,1,2,0:0:0:0:
493,220,53540,1,0,0:0:0:0:
428,277,53626,1,0,3:0:0:0:
453,296,53712,1,0,3:0:0:0:
509,355,53799,6,0,P|451:324|397:325,1,100,0|0,3:0|0:0,0:0:0:0:
299,325,53971,2,0,P|233:350|166:353,1,100,2|0,0:0|3:0,0:0:0:0:
78,308,54143,1,2,0:0:0:0:
278,131,54316,1,0,3:0:0:0:
267,145,54402,1,0,3:0:0:0:
294,230,54488,2,0,L|304:125,1,85.0000016212464,8|0,0:0|0:0,0:0:0:0:
186,33,54661,1,0,3:0:0:0:
88,58,54747,2,0,L|190:47,1,85.0000016212464,8|0,0:0|0:0,0:0:0:0:
390,21,54919,5,0,3:0:0:0:
466,46,55006,1,0,3:0:0:0:
506,112,55092,1,0,3:0:0:0:
499,114,55178,6,0,L|490:162,4,25,0|0|0|0|0,3:0|3:0|3:0|3:0|3:0,0:0:0:0:
383,225,55523,1,0,0:0:0:0:
383,225,55781,1,0,3:0:0:0:
294,240,55868,2,0,L|156:261,2,100,8|0|0,0:0|0:0|0:0,0:0:0:0:
279,6,56557,6,0,P|262:63|237:96,1,75.0000028610231,0|0,1:0|0:0,0:0:0:0:
53,176,56730,1,0,3:0:0:0:
30,161,56816,1,0,3:0:0:0:
177,122,56902,2,0,P|105:172|39:183,1,150.000005722046,0|0,3:0|0:0,0:0:0:0:
180,353,57247,1,8,0:0:0:0:
174,343,57419,5,8,0:0:0:0:
108,370,57505,1,8,0:0:0:0:
11,276,57591,1,8,0:0:0:0:
98,292,57678,1,8,0:0:0:0:
194,308,57764,2,0,P|189:259|173:186,1,100,0|0,3:0|0:0,0:0:0:0:
158,34,57937,6,0,L|117:24,4,25,0|0|0|0|0,3:0|3:0|3:0|3:0|3:0,0:0:0:0:
260,41,58281,1,0,0:0:0:0:
375,270,58626,1,8,0:0:0:0:
458,277,58799,2,0,L|449:324,10,25,0|0|0|0|0|0|0|0|0|0|0,3:0|3:0|3:0|3:0|3:0|3:0|3:0|3:0|3:0|3:0|3:0,0:0:0:0:
366,246,59316,6,0,P|362:208|369:172,1,75.0000028610231,0|0,1:0|0:0,0:0:0:0:
435,0,59488,1,0,3:0:0:0:
453,83,59574,1,0,3:0:0:0:
507,16,59661,1,0,3:0:0:0:
415,12,59747,1,0,3:0:0:0:
336,46,59833,2,0,P|301:77|277:106,1,75.0000028610231,0|0,3:0|3:0,0:0:0:0:
78,204,60006,5,8,0:0:0:0:
63,101,60092,1,8,0:0:0:0:
18,372,60695,6,0,B|106:335|106:335|169:361|169:361|210:337|210:337|305:333,1,284.999992389679,0|0,1:0|0:0,0:0:0:0:
441,269,61040,2,0,B|353:232|353:232|290:258|290:258|249:234|249:234|154:230,1,284.999992389679,0|0,1:0|0:0,0:0:0:0:
13,124,61385,1,8,0:0:0:0:
23,144,61557,1,0,0:0:0:0:
146,62,61730,2,0,P|114:27|58:19,1,100,2|2,0:0|0:0,0:0:0:0:
126,217,62074,6,0,P|201:306|311:289,1,230.000004386902,0|0,3:0|0:0,0:0:0:0:
481,153,62333,2,0,B|455:103|410:94|410:94|414:156|372:204,1,189.999994926453,0|0,3:0|0:0,0:0:0:0:
424,322,62592,2,0,B|451:324|493:343|493:343|446:285,1,94.9999974632264,0|0,3:0|0:0,0:0:0:0:
281,110,62764,1,8,0:0:0:0:
280,97,62937,5,8,0:0:0:0:
356,60,63023,1,8,0:0:0:0:
283,4,63109,1,8,0:0:0:0:
369,78,63195,1,8,0:0:0:0:
440,29,63281,1,0,3:0:0:0:
130,20,63454,6,0,B|180:56|157:158|143:170|129:182|75:254|136:313,1,314.999990386963,0|0,1:0|0:0,0:0:0:0:
301,297,63799,2,0,B|234:311|176:274|209:211|114:151|-6:180|3:267,1,284.999992389679,0|0,1:0|0:0,0:0:0:0:
0,334,64143,1,8,0:0:0:0:
7,353,64316,1,0,0:0:0:0:
146,314,64488,2,0,L|228:340,1,75.0000028610231,2|0,0:0|0:0,0:0:0:0:
313,284,64661,2,0,L|356:368,1,75.0000028610231,2|0,0:0|0:0,0:0:0:0:
470,144,64833,6,0,L|491:35,1,75.0000028610231,0|0,3:0|0:0,0:0:0:0:
450,238,65006,1,0,3:0:0:0:
462,292,65092,1,0,3:0:0:0:
511,359,65178,2,0,L|490:271,1,75.0000028610231,0|0,3:0|0:0,0:0:0:0:
323,118,65350,2,0,L|360:97,2,37.5000014305115
403,166,65523,6,0,B|194:124|194:124|125:176,1,300.000011444092,2|2,0:0|0:0,0:0:0:0:
125,176,66212,6,0,B|114:118|189:-1|189:-1|134:37|74:37,1,314.999990386963,0|0,1:0|0:0,0:0:0:0:
4,190,66557,2,0,B|162:181|131:277|326:255,1,284.999992389679,0|0,1:0|0:0,0:0:0:0:
375,380,66902,1,8,0:0:0:0:
383,352,67074,1,0,0:0:0:0:
267,269,67247,2,0,P|207:293|173:332,1,100,2|2,0:0|0:0,0:0:0:0:
36,384,67592,6,0,P|59:269|146:203,1,230.000004386902,0|0,3:0|0:0,0:0:0:0:
379,271,67850,2,0,P|300:221|276:132,1,189.999994926453,0|0,3:0|0:0,0:0:0:0:
169,19,68109,2,0,B|151:36|123:47|123:47|146:44|184:58,1,94.9999974632264,0|0,3:0|0:0,0:0:0:0:
426,14,68281,1,8,0:0:0:0:
433,25,68454,5,8,0:0:0:0:
509,0,68540,1,8,0:0:0:0:
470,105,68626,1,8,0:0:0:0:
388,84,68712,1,8,0:0:0:0:
303,67,68799,2,0,L|281:178,1,94.9999974632264,0|0,3:0|0:0,0:0:0:0:
411,366,68971,6,0,B|341:331|326:279|326:279|245:341|136:320,1,314.999990386963,0|0,1:0|0:0,0:0:0:0:
45,343,69316,2,0,B|106:301|153:295|153:295|132:252|97:180|97:125,1,284.999992389679,0|0,1:0|0:0,0:0:0:0:
30,18,69661,1,8,0:0:0:0:
46,0,69833,1,0,0:0:0:0:
170,63,70006,6,0,L|248:52,1,75.0000028610231,2|0,0:0|0:0,0:0:0:0:
351,61,70178,2,0,L|445:22,1,75.0000028610231,2|0,0:0|0:0,0:0:0:0:
458,201,70350,6,0,L|441:275,1,75.0000028610231,0|0,3:0|0:0,0:0:0:0:
255,351,70523,1,0,3:0:0:0:
220,358,70609,1,0,3:0:0:0:
258,270,70695,2,0,P|315:296|337:339,1,75.0000028610231,0|0,3:0|0:0,0:0:0:0:
127,183,70868,2,0,P|77:212|47:248,1,75.0000028610231,2|0,0:0|0:0,0:0:0:0:
12,384,71040,1,8,0:0:0:0:
0,305,71126,1,8,0:0:0:0:
0,305,71385,2,2,B|64:318|122:281|89:218|184:158|304:187|333:241,1,300,2|0,0:0|0:0,0:0:0:0:
394,228,71730,6,0,B|326:221|240:269|240:269|251:136|310:84,1,359.999989013672,0|0,1:0|0:0,0:0:0:0:
377,326,72074,2,0,B|445:319|531:367|531:367|526:275|481:228,1,284.999992389679,0|0,1:0|0:0,0:0:0:0:
397,142,72419,1,8,0:0:0:0:
400,154,72592,1,0,0:0:0:0:
505,32,72764,2,0,P|449:49|408:60,1,100,2|2,0:0|0:0,0:0:0:0:
300,83,73109,6,0,L|278:159,1,75.0000028610231,0|0,1:0|0:0,0:0:0:0:
139,324,73281,1,0,3:0:0:0:
63,270,73368,1,0,3:0:0:0:
68,365,73454,2,0,P|78:266|116:183,1,150.000005722046,0|0,3:0|0:0,0:0:0:0:
167,33,73799,1,8,0:0:0:0:
166,46,73971,5,8,0:0:0:0:
87,71,74057,1,8,0:0:0:0:
27,13,74143,1,8,0:0:0:0:
84,89,74230,1,8,0:0:0:0:
139,157,74316,2,0,L|271:180,1,94.9999974632264,0|0,3:0|0:0,0:0:0:0:
505,217,74488,6,0,B|387:244|387:244|366:326|366:326|231:354,1,330.000010070801,0|0,1:0|0:0,0:0:0:0:
480,335,74833,2,0,B|504:242|504:242|439:200|439:200|434:131|434:131|480:101,1,284.999992389679,0|0,1:0|0:0,0:0:0:0:
445,17,75178,2,0,L|396:14,6,37.5000014305115,0|0|0|0|0|0|0,3:0|3:0|3:0|3:0|3:0|3:0|3:0,0:0:0:0:
312,44,75523,6,0,P|296:94|306:136,1,75.0000028610231,2|0,0:0|0:0,0:0:0:0:
334,202,75695,2,0,P|286:239|259:247,1,75.0000028610231,2|0,0:0|0:0,0:0:0:0:
87,90,75868,6,0,L|-4:68,1,89.9999972534181,0|0,3:0|0:0,0:0:0:0:
135,201,76040,1,0,3:0:0:0:
149,223,76126,1,0,3:0:0:0:
34,259,76212,2,0,P|30:207|62:166,1,89.9999972534181,0|0,3:0|0:0,0:0:0:0:
206,62,76385,2,0,L|196:6,2,44.999998626709
228,157,76557,5,2,0:0:0:0:
228,157,76730,1,2,0:0:0:0:
155,375,76902,1,2,0:0:0:0:
155,375,77247,6,0,B|113:283|113:283|132:185|132:185|106:126|106:126|126:48,1,345.000006580353,0|0,1:3|0:3,0:3:0:0:
0,198,77592,2,0,B|56:221|56:221|123:197|123:197|181:262|181:262|266:266,1,284.999992389679,0|0,1:0|0:0,0:0:0:0:
206,77,77937,1,8,0:0:0:0:
208,90,78109,1,0,0:0:0:0:
349,6,78281,2,0,P|382:40|397:115,1,100,2|2,0:0|0:0,0:0:0:0:
428,228,78626,6,0,L|336:253,1,75.0000028610231,0|0,1:0|0:0,0:0:0:0:
116,224,78799,1,0,3:0:0:0:
198,204,78885,1,0,3:0:0:0:
145,296,78971,2,0,P|141:196|85:126,1,150.000005722046,0|0,3:0|0:0,0:0:0:0:
1,25,79316,1,8,0:0:0:0:
15,37,79488,5,8,0:0:0:0:
84,80,79574,1,8,0:0:0:0:
17,144,79661,1,8,0:0:0:0:
101,80,79747,1,8,0:0:0:0:
103,184,79833,1,0,3:0:0:0:
0,381,80006,6,0,B|77:301|160:355|269:437|327:277|301:239,1,345.000006580353,0|0,1:0|0:0,0:0:0:0:
239,114,80350,2,0,B|227:223|276:277|386:269|416:202,1,284.999992389679,0|0,1:0|0:0,0:0:0:0:
416,121,80695,5,10,0:0:0:0:
510,186,80868,1,2,0:0:0:0:
505,274,81040,1,2,0:0:0:0:
466,322,81212,1,2,0:0:0:0:
427,333,81385,2,0,L|370:326,2,50,2|2|2,0:0|0:0|0:0,0:0:0:0:
455,0,82764,5,4,0:0:0:0:
190,181,82937,2,0,P|144:166|116:120,1,100,2|0,0:0|0:0,0:0:0:0:
281,90,83109,2,0,B|116:77|166:190|-19:174,1,300,4|0,1:0|0:0,0:0:0:0:
9,268,83454,6,0,P|106:294|212:357,1,200,8|0,0:0|0:0,0:0:0:0:
459,344,83799,1,2,0:0:0:0:
308,287,83885,1,0,0:0:0:0:
389,290,83971,1,2,0:0:0:0:
433,354,84057,1,0,0:0:0:0:
394,282,84143,6,0,B|376:230|372:174|372:174|444:138|462:63,1,230.000004386902,0|0,3:0|0:0,0:0:0:0:
261,364,84402,2,0,B|279:312|283:256|283:256|211:220|193:145,1,230.000004386902,0|0,3:0|0:0,0:0:0:0:
105,28,84661,1,0,3:0:0:0:
113,42,84747,1,0,3:0:0:0:
13,36,84833,2,0,L|109:56,1,85.0000016212464,8|0,0:0|0:0,0:0:0:0:
209,185,85006,1,0,3:0:0:0:
315,137,85092,2,0,L|231:154,1,85.0000016212464,8|0,0:0|0:0,0:0:0:0:
28,231,85264,1,0,3:0:0:0:
26,217,85350,5,8,0:0:0:0:
97,319,85437,1,8,0:0:0:0:
0,341,85523,6,0,B|68:290|68:290|166:291|166:291|254:246,1,239.999992675781,0|0,1:0|2:0,2:0:0:0:
365,209,85781,1,0,0:0:0:0:
440,253,85868,5,2,0:0:0:0:
381,194,85954,1,0,0:0:0:0:
378,118,86040,1,2,0:0:0:0:
444,60,86126,1,0,0:0:0:0:
388,6,86212,6,0,P|356:94|214:102,1,239.999992675781,8|0,0:0|0:0,0:0:0:0:
118,0,86471,1,0,0:0:0:0:
180,73,86557,1,2,0:0:0:0:
103,127,86643,1,0,0:0:0:0:
73,137,86730,1,2,0:0:0:0:
41,141,86816,1,0,0:0:0:0:
172,207,86902,6,0,B|258:234|258:234|309:294|309:294|397:316,1,239.999992675781,0|0,3:0|0:0,0:0:0:0:
504,182,87161,2,0,B|418:209|418:209|367:269|367:269|298:286,1,239.999992675781,0|0,3:0|0:0,3:0:0:0:
56,281,87419,1,0,3:0:0:0:
65,295,87506,1,0,3:0:0:0:
112,368,87592,2,0,L|101:265,1,85.0000016212464,8|0,0:0|0:0,0:0:0:0:
76,94,87764,1,0,3:0:0:0:
16,181,87850,2,0,L|38:88,1,85.0000016212464,8|0,0:0|0:0,0:0:0:0:
339,0,88109,5,8,0:0:0:0:
241,20,88195,1,8,0:0:0:0:
148,62,88281,6,0,B|207:108|255:208|255:208|289:148|411:124,1,359.999989013672,0|0,1:0|0:0,0:0:0:0:
443,24,88626,2,0,B|359:64|360:127|362:197|476:202|515:259|495:349,1,359.999989013672,0|0,1:0|0:0,0:0:0:0:
287,371,88971,5,10,0:0:0:0:
247,263,89057,1,0,0:0:0:0:
329,310,89143,1,0,0:0:0:0:
284,254,89230,1,0,0:0:0:0:
217,224,89316,1,2,0:0:0:0:
141,238,89402,1,2,0:0:0:0:
191,272,89488,5,0,3:0:0:0:
212,180,89574,1,0,3:0:0:0:
228,89,89661,6,0,B|176:71|120:67|120:67|84:139|-5:155,1,239.999992675781,0|0,3:0|0:0,0:0:0:0:
297,12,89919,2,0,P|345:118|474:117,1,239.999992675781,0|0,3:0|0:0,0:0:0:0:
481,257,90178,1,0,3:0:0:0:
475,270,90264,1,0,3:0:0:0:
448,358,90350,2,0,L|434:262,1,85.0000016212464,8|0,0:0|0:0,0:0:0:0:
293,144,90523,1,0,3:0:0:0:
392,159,90609,2,0,L|291:179,1,85.0000016212464,8|0,0:0|0:0,0:0:0:0:
27,86,90781,1,0,3:0:0:0:
52,74,90867,5,8,0:0:0:0:
47,164,90954,1,8,0:0:0:0:
37,255,91040,6,0,B|147:249|192:296|199:303|207:310|274:373|397:359,1,359.999989013672,0|0,1:0|0:0,0:0:0:0:
465,214,91385,1,2,0:0:0:0:
445,217,91471,1,2,0:0:0:0:
339,226,91557,2,0,B|328:258|315:280|315:280|348:278|397:297,1,119.999996337891,2|0,0:0|0:0,0:0:0:0:
429,4,91730,6,0,B|493:77|456:196|456:196|405:128|298:110,1,359.999989013672,8|0,0:0|0:0,0:0:0:0:
232,85,92074,1,2,0:0:0:0:
210,83,92161,1,2,0:0:0:0:
206,4,92247,1,0,3:0:0:0:
132,88,92333,1,0,3:0:0:0:
202,176,92419,6,0,B|121:190|66:229|66:229|12:205|-13:157,1,239.999992675781,0|0,3:0|0:0,0:0:0:0:
167,366,92678,2,0,B|212:305|286:289|286:289|323:336|390:337,1,239.999992675781,0|0,3:0|0:0,0:0:0:0:
501,267,92937,1,0,3:0:0:0:
494,282,93023,1,0,3:0:0:0:
474,364,93109,2,0,L|461:270,1,85.0000016212464,8|0,0:0|0:0,0:0:0:0:
388,105,93281,1,0,3:0:0:0:
401,209,93368,2,0,L|415:116,1,85.0000016212464,8|0,0:0|0:0,0:0:0:0:
202,15,93540,1,0,3:0:0:0:
183,6,93626,5,8,0:0:0:0:
254,131,93712,1,8,0:0:0:0:
285,28,93799,6,0,B|147:55|75:140|75:140|41:81|-22:57,1,359.999989013672,4|0,0:0|0:0,0:0:0:0:
192,193,94143,2,0,B|306:234|265:102|387:80|491:174|417:264|536:297,1,405.000001544952,4|0,1:0|0:0,0:0:0:0:
193,321,94488,2,0,B|76:298|107:392|-13:374,1,209.999993591309,12|0,0:0|0:0,0:0:0:0:
305,357,94833,1,2,0:0:0:0:
307,337,94919,1,2,0:0:0:0:
305,242,95006,1,0,3:0:0:0:
392,286,95092,1,0,3:0:0:0:
308,309,95178,6,0,B|327:226|327:226|376:191|376:191|402:109,1,230.000004386902,0|0,3:0|0:0,0:0:0:0:
299,9,95437,2,0,B|216:28|216:28|181:77|181:77|99:103,1,230.000004386902,0|0,3:0|0:0,0:0:0:0:
3,195,95695,1,0,3:0:0:0:
20,207,95781,1,0,3:0:0:0:
117,182,95868,2,0,L|20:193,1,85.0000016212464,8|0,0:0|0:0,0:0:0:0:
238,324,96040,1,0,3:0:0:0:
133,323,96126,2,0,L|218:343,1,85.0000016212464,8|0,0:0|0:0,0:0:0:0:
479,335,96299,1,0,3:0:0:0:
468,317,96385,5,8,0:0:0:0:
359,242,96471,1,8,0:0:0:0:
382,355,96557,6,0,B|353:230|453:275|446:134,1,230.000004386902,0|0,3:0|0:0,0:0:0:0:
349,32,96816,1,0,0:0:0:0:
418,77,96902,1,2,0:0:0:0:
374,27,96988,1,0,0:0:0:0:
307,0,97074,1,0,3:0:0:0:
316,93,97161,1,0,3:0:0:0:
282,8,97247,6,0,B|188:27|188:27|160:69|160:69|57:89,1,230.000004386902,8|0,0:0|0:0,0:0:0:0:
159,227,97506,1,0,0:0:0:0:
104,172,97592,1,2,0:0:0:0:
81,241,97678,1,0,0:0:0:0:
131,293,97764,1,0,3:0:0:0:
68,250,97850,1,0,3:0:0:0:
3,299,97937,6,0,B|62:321|112:376|112:376|162:349|255:342,1,250,0|0,3:0|0:0,0:0:0:0:
354,233,98195,2,0,B|322:179|318:105|318:105|270:131|262:203,1,250,0|0,3:0|0:0,0:0:0:0:
437,328,98454,1,0,3:0:0:0:
431,349,98540,1,0,3:0:0:0:
324,349,98626,2,0,L|410:327,1,85.0000016212464,8|0,0:0|0:0,0:0:0:0:
448,118,98799,1,0,3:0:0:0:
469,226,98885,2,0,L|482:125,1,85.0000016212464,8|0,0:0|0:0,0:0:0:0:
251,12,99057,1,0,3:0:0:0:
351,89,99143,5,8,0:0:0:0:
305,170,99230,1,8,0:0:0:0:
339,62,99316,6,0,B|264:65|200:119|200:119|164:103|108:97|108:97|76:147|-10:153,1,375,0|0,1:0|0:0,0:0:0:0:
100,285,99661,2,0,B|195:275|207:367|326:364,1,225.000008583069,0|0,1:0|0:0,0:0:0:0:
429,363,100006,2,0,P|399:299|354:288,1,110.000003356934,10|0,0:0|0:0,0:0:0:0:
200,181,100178,1,0,0:0:0:0:
304,199,100264,1,0,0:0:0:0:
288,139,100350,1,0,0:0:0:0:
286,214,100437,1,0,0:0:0:0:
272,140,100523,1,0,0:0:0:0:
272,50,100609,1,0,0:0:0:0:
169,15,100695,6,0,P|213:49|266:58,1,110.000003356934,0|0,3:0|0:0,0:0:0:0:
499,173,100868,2,0,P|498:118|479:66,1,110.000003356934,2|0,0:0|3:0,0:0:0:0:
297,299,101040,2,0,B|179:299|216:366|99:380,1,220.000006713867,2|2,0:0|0:0,0:0:0:0:
11,214,101299,1,0,3:0:0:0:
44,311,101385,2,0,L|58:211,1,85.0000016212464,8|0,0:0|0:0,0:0:0:0:
180,63,101557,1,0,3:0:0:0:
155,164,101643,2,0,L|142:67,1,85.0000016212464,8|0,0:0|0:0,0:0:0:0:
451,10,101902,5,8,0:0:0:0:
385,80,101988,1,8,0:0:0:0:
504,137,102074,6,0,B|424:156|424:156|399:200|399:200|307:227,1,220.000006713867,0|0,1:0|0:0,0:0:0:0:
229,288,102333,1,0,0:0:0:0:
312,314,102419,1,2,0:0:0:0:
310,333,102506,1,0,0:0:0:0:
387,373,102592,1,2,0:0:0:0:
389,351,102678,1,0,0:0:0:0:
399,260,102764,6,0,B|347:242|291:238|291:238|255:310|184:318,1,220.000006713867,8|0,0:0|0:0,0:0:0:0:
27,210,103023,1,0,0:0:0:0:
112,234,103109,1,2,0:0:0:0:
101,260,103195,1,0,0:0:0:0:
70,190,103281,1,0,3:0:0:0:
83,108,103368,1,0,3:0:0:0:
126,25,103454,6,0,P|177:26|214:57,1,85.0000016212464,0|0,3:0|0:0,0:0:0:0:
303,125,103626,2,0,P|356:143|412:130,1,85.0000016212464,2|0,0:0|3:0,0:0:0:0:
489,36,103799,1,2,0:0:0:0:
489,36,103971,1,2,0:0:0:0:
502,210,104143,1,2,0:0:0:0:
381,335,104488,5,0,3:0:0:0:
303,361,104574,1,0,3:0:0:0:
220,376,104661,2,0,L|208:317,4,42.5000008106232,0|0|0|0|0,3:0|3:0|3:0|3:0|3:0,0:0:0:0:
196,237,105178,1,0,0:0:0:0:
196,237,105437,1,0,0:0:0:0:
282,238,105523,2,0,L|404:221,2,100,8|0|0,0:0|0:0|0:0,0:0:0:0:
282,238,106212,6,0,P|293:194|311:167,1,75.0000028610231,0|0,1:0|0:0,0:0:0:0:
506,87,106385,1,0,3:0:0:0:
434,44,106471,1,0,3:0:0:0:
506,5,106557,2,0,P|466:88|447:174,1,150.000005722046,0|0,3:0|0:0,0:0:0:0:
433,336,106902,1,8,0:0:0:0:
433,336,107074,5,8,0:0:0:0:
500,366,107160,1,8,0:0:0:0:
502,276,107246,1,8,0:0:0:0:
422,291,107333,1,8,0:0:0:0:
339,310,107419,2,0,P|297:320|235:337,1,100,0|0,3:0|0:0,0:0:0:0:
2,381,107592,6,0,L|54:370,4,37.5000014305115,0|0|0|0|0,3:0|3:0|3:0|3:0|3:0,0:0:0:0:
128,359,107937,1,0,0:0:0:0:
128,359,108195,1,0,3:0:0:0:
137,272,108281,2,0,L|148:156,2,100,8|0|0,0:0|0:0|0:0,0:0:0:0:
137,272,108971,6,0,P|183:249|236:238,1,75.0000028610231,0|0,1:0|0:0,0:0:0:0:
431,235,109143,1,0,3:0:0:0:
438,214,109230,1,0,3:0:0:0:
340,213,109316,1,0,3:0:0:0:
365,284,109402,1,0,3:0:0:0:
434,316,109488,1,0,3:0:0:0:
505,291,109574,1,0,3:0:0:0:
428,332,109661,5,8,0:0:0:0:
446,192,109747,1,8,0:0:0:0:
340,24,110350,6,0,L|384:18,4,25,0|0|0|0|0,3:0|3:0|3:0|3:0|3:0,0:0:0:0:
240,31,110695,1,0,0:0:0:0:
240,31,110954,1,0,3:0:0:0:
239,117,111040,2,0,L|241:217,2,100,8|0|0,0:0|0:0|0:0,0:0:0:0:
239,117,111730,6,0,P|195:134|137:137,1,75.0000028610231,0|0,1:0|0:0,0:0:0:0:
2,94,111902,1,0,3:0:0:0:
77,54,111988,1,0,3:0:0:0:
8,2,112074,2,0,P|36:81|40:179,1,150.000005722046,0|0,3:0|0:0,0:0:0:0:
62,347,112419,1,8,0:0:0:0:
62,347,112592,5,8,0:0:0:0:
137,339,112678,1,8,0:0:0:0:
191,251,112764,1,8,0:0:0:0:
151,334,112850,1,8,0:0:0:0:
231,372,112937,2,0,L|348:355,1,100,0|0,3:0|0:0,0:0:0:0:
506,337,113109,6,0,L|454:346,4,37.5000014305115,0|0|0|0|0,1:0|3:0|3:0|3:0|3:0,0:0:0:0:
396,291,113454,1,0,0:0:0:0:
472,122,113799,1,8,0:0:0:0:
375,96,113971,2,0,L|387:37,10,37.5000014305115,0|0|0|0|0|0|0|0|0|0|0,3:0|3:0|3:0|3:0|3:0|3:0|3:0|3:0|3:0|3:0|3:0,0:0:0:0:
390,181,114488,6,0,L|301:198,1,75.0000028610231,0|0,1:0|0:0,0:0:0:0:
104,147,114661,1,0,3:0:0:0:
62,199,114747,1,0,3:0:0:0:
7,191,114833,1,0,3:0:0:0:
80,170,114919,1,0,3:0:0:0:
154,191,115006,1,0,3:0:0:0:
201,250,115092,1,0,3:0:0:0:
91,260,115178,5,8,0:0:0:0:
214,18,115868,6,0,B|295:70|342:175|342:175|405:129|502:132,1,345.000006580353,0|0,1:0|0:0,0:0:0:0:
505,61,116212,1,0,1:0:0:0:
455,248,116385,2,0,L|390:260,1,47.4999987316132,2|0,0:0|0:0,0:0:0:0:
459,276,116471,2,0,L|394:288,1,47.4999987316132,2|0,0:0|0:0,0:0:0:0:
466,302,116557,6,0,B|350:322|350:322|299:364|299:364|170:381,1,284.999992389679,8|0,0:0|0:0,0:0:0:0:
55,318,116902,1,0,3:0:0:0:
63,337,117074,1,0,0:0:0:0:
186,356,117247,6,0,P|242:263|166:162,1,230.000004386902,0|0,3:0|0:0,0:0:0:0:
15,117,117506,2,0,P|61:182|168:172,1,189.999994926453,0|0,3:0|0:0,0:0:0:0:
241,31,117764,2,0,B|264:29|285:7|285:7|282:34|290:67,1,94.9999974632264,0|0,3:0|0:0,0:0:0:0:
345,270,117937,1,8,0:0:0:0:
361,266,118109,5,8,0:0:0:0:
381,261,118195,1,8,0:0:0:0:
328,345,118281,1,8,0:0:0:0:
264,284,118368,1,8,0:0:0:0:
278,191,118454,1,0,3:0:0:0:
512,53,118626,6,0,B|444:34|389:-17|389:-17|446:95|414:201,1,345.000006580353,0|0,3:0|0:0,0:0:0:0:
476,275,118971,2,0,L|468:349,1,75.0000028610231,2|0,0:0|0:0,0:0:0:0:
439,273,119143,2,0,L|431:347,1,75.0000028610231,2|0,0:0|0:0,0:0:0:0:
217,365,119316,2,0,P|128:318|139:203,1,225.000008583069,8|0,0:0|0:0,0:0:0:0:
241,189,119661,5,2,0:0:0:0:
15,228,119833,1,2,0:0:0:0:
36,62,120006,6,0,L|124:39,1,75.0000028610231,0|0,3:0|0:0,0:0:0:0:
313,65,120178,1,0,3:0:0:0:
276,15,120264,1,0,3:0:0:0:
297,3,120350,2,0,P|284:43|275:82,1,75.0000028610231,0|0,3:0|0:0,0:0:0:0:
225,260,120523,2,0,L|178:252,2,37.5000014305115
310,282,120695,1,2,0:0:0:0:
310,282,120954,2,0,L|350:273,1,29.9999990844727,2|0,0:0|0:0,0:0:0:0:
414,306,121040,2,0,L|407:348,4,29.9999990844727,2|0|0|0|2,0:0|0:0|0:0|0:0|0:0,0:0:0:0:
509,61,121385,6,0,B|330:61|382:158|165:146,1,345.000006580353,0|0,3:0|0:0,0:0:0:0:
81,107,121730,2,0,L|114:145,1,37.5000014305115,2|0,0:0|0:0,0:0:0:0:
156,195,121816,2,0,L|184:153,1,37.5000014305115,2|0,0:0|0:0,0:0:0:0:
213,78,121902,1,2,0:0:0:0:
213,78,122074,6,2,B|259:142|332:157|332:157|253:212|237:299,1,300
153,355,122764,2,2,B|123:310|89:287|89:287|179:312|220:370|297:351,1,300
281,353,123626,5,8,0:0:0:0:
336,286,123712,1,8,0:0:0:0:
409,238,123799,1,8,0:0:0:0:
496,217,123885,1,8,0:0:0:0:
464,327,123971,1,0,3:0:0:0:
464,327,124143,5,0,1:0:0:0:
318,207,124316,1,2,0:0:0:0:
172,255,124488,1,2,0:0:0:0:
32,228,124661,2,0,P|49:149|88:110,1,119.999996337891,2|8,0:0|0:0,0:0:0:0:
261,16,125006,2,0,L|100:37,2,150.000005722046,2|2|2,0:0|0:0|0:0,0:0:0:0:
495,25,125523,6,0,L|478:120,1,75.0000028610231,0|0,3:0|0:0,0:0:0:0:
371,215,125695,1,0,3:0:0:0:
292,177,125781,1,0,3:0:0:0:
272,270,125868,2,0,P|359:231|423:187,1,150.000005722046,0|0,3:0|0:0,0:0:0:0:
90,347,126212,1,8,0:0:0:0:
13,357,126299,1,8,0:0:0:0:
13,357,126471,6,0,L|26:303,2,37.5000014305115,2|0|0,0:0|0:0|0:0,0:0:0:0:
38,143,126730,1,2,3:0:0:0:
183,25,126816,1,2,3:0:0:0:
16,39,126902,6,0,B|105:62|105:62|127:103|127:103|242:134,1,230.000004386902,0|0,1:0|0:0,0:0:0:0:
419,72,127161,1,2,3:0:0:0:
318,123,127247,2,0,L|297:207,1,75.0000028610231,0|0,1:0|0:0,0:0:0:0:
425,331,127419,2,0,L|503:286,1,75.0000028610231,2|0,3:0|0:0,0:0:0:0:
284,384,127592,2,2,P|253:293|104:256,1,239.999992675781,2|2,3:0|0:0,0:0:0:0:
125,249,128281,6,0,L|244:232,1,75.0000028610231,0|0,1:0|0:0,0:0:0:0:
464,146,128454,1,0,3:0:0:0:
372,125,128540,1,0,3:0:0:0:
451,221,128626,2,0,P|448:128|416:38,1,150.000005722046,0|0,3:0|0:0,0:0:0:0:
211,0,128971,1,8,0:0:0:0:
219,18,129143,5,8,0:0:0:0:
225,99,129230,1,8,0:0:0:0:
156,159,129316,1,8,0:0:0:0:
236,114,129402,1,8,0:0:0:0:
137,73,129488,2,0,L|50:93,1,75.0000028610231,0|0,3:0|0:0,0:0:0:0:
0,246,129661,6,0,B|85:230|85:230|156:281|156:281|227:267|320:315,1,345.000006580353,0|0,1:0|0:0,0:0:0:0:
492,287,130006,2,0,B|538:255|484:145|484:145|386:200|403:283,1,284.999992389679,0|0,1:0|0:0,0:0:0:0:
414,381,130350,2,0,L|404:325,16,47.4999987316132,0|0|0|0|0|0|0|0|0|0|0|0|0|0|0|0|0,3:0|3:0|3:0|3:0|3:0|3:0|3:0|3:0|3:0|3:0|3:0|3:0|3:0|3:0|3:0|3:0|3:0,3:0:0:0:
247,245,132419,6,0,B|258:141|209:87|99:95|60:198|-1:147,1,345.000006580353,0|0,1:0|0:0,0:0:0:0:
206,8,132764,2,0,B|201:159|108:106|110:289,1,284.999992389679,0|0,1:0|0:0,0:0:0:0:
171,358,133109,1,8,0:0:0:0:
185,377,133281,1,0,0:0:0:0:
301,343,133454,2,0,P|348:324|401:318,1,100,2|2,0:0|0:0,0:0:0:0:
496,361,133799,6,0,L|470:266,1,75.0000028610231,0|0,1:0|0:0,0:0:0:0:
364,63,133971,1,0,3:0:0:0:
356,84,134057,1,0,3:0:0:0:
460,134,134143,2,0,P|376:125|301:83,1,150.000005722046,0|0,3:0|0:0,0:0:0:0:
113,0,134488,1,8,0:0:0:0:
119,12,134661,5,8,0:0:0:0:
145,92,134747,1,8,0:0:0:0:
61,68,134833,1,8,0:0:0:0:
151,77,134919,1,8,0:0:0:0:
243,102,135006,2,0,L|255:187,1,75.0000028610231,0|0,3:0|0:0,0:0:0:0:
251,301,135178,6,0,B|156:288|57:374|57:374|81:317|57:245,1,345.000006580353,0|0,1:0|0:0,0:0:0:0:
385,183,135523,2,0,L|343:376,2,179.999994506836,0|0|8,1:0|0:0|0:0,0:0:0:0:
512,357,136212,2,0,L|473:181,1,179.999994506836,2|0,0:0|0:0,0:0:0:0:
398,27,136902,6,2,B|325:65|249:27|249:27|191:64|191:64|127:30|51:62|51:62|109:99|130:162,1,494.999984893799
49,351,137937,6,0,P|107:312|158:319,1,100,4|0,0:0|0:0,0:0:0:0:
332,308,138109,2,0,P|382:289|413:249,1,100,2|0,0:0|0:0,0:0:0:0:
229,223,138282,2,0,B|319:205|356:254|363:260|373:268|427:314|527:302,1,300,4|0,1:0|0:0,0:0:0:0:
468,384,138626,6,0,P|476:289|519:173,1,200,8|0,0:0|0:0,0:0:0:0:
272,113,138971,1,2,0:0:0:0:
261,9,139057,1,0,0:0:0:0:
331,48,139143,1,2,0:0:0:0:
361,119,139230,1,0,0:0:0:0:
257,23,139316,6,0,B|340:34|379:94|379:94|422:64|495:60,1,250,0|0,3:0|0:0,0:0:0:0:
115,139,139574,2,0,B|136:79|178:23|178:23|113:43|36:53,1,250,0|0,3:0|0:0,0:0:0:0:
29,218,139833,1,0,3:0:0:0:
36,241,139919,1,0,3:0:0:0:
146,246,140006,2,0,L|31:218,1,85.0000016212464,8|0,0:0|0:0,0:0:0:0:
288,352,140178,1,0,3:0:0:0:
174,345,140264,2,0,L|277:330,1,85.0000016212464,8|0,0:0|0:0,0:0:0:0:
464,328,140437,1,0,3:0:0:0:
477,310,140523,5,8,0:0:0:0:
385,195,140609,1,8,0:0:0:0:
494,211,140695,6,0,B|402:227|402:227|366:278|366:278|251:295,1,250,0|0,1:0|0:0,0:0:0:0:
162,299,140954,1,0,0:0:0:0:
234,333,141040,1,2,0:0:0:0:
168,279,141126,1,0,0:0:0:0:
90,266,141212,1,2,0:0:0:0:
108,357,141299,1,0,0:0:0:0:
196,374,141385,6,0,P|194:267|119:148,1,239.999992675781,8|0,0:0|0:0,0:0:0:0:
12,0,141643,1,0,0:0:0:0:
74,57,141730,1,2,0:0:0:0:
166,62,141816,1,0,0:0:0:0:
149,28,141902,1,2,0:0:0:0:
110,17,141988,1,0,0:0:0:0:
127,155,142074,6,0,B|207:171|207:171|245:221|245:221|356:247,1,250,0|0,3:0|0:0,0:0:0:0:
512,340,142333,2,0,B|496:260|496:260|446:222|446:222|425:117,1,250,0|0,3:0|0:0,0:0:0:0:
287,10,142592,1,0,3:0:0:0:
300,33,142678,1,0,3:0:0:0:
403,34,142764,2,0,L|283:50,1,89.9999972534181,8|0,0:0|0:0,0:0:0:0:
208,195,142937,1,0,0:0:0:0:
191,81,143023,2,0,L|177:178,1,89.9999972534181,8|0,0:0|0:0,0:0:0:0:
4,252,143281,5,8,0:0:0:0:
71,301,143368,1,8,0:0:0:0:
150,344,143454,2,0,B|239:306|334:364|334:364|376:274|316:205,1,359.999989013672,0|0,1:0|0:0,0:0:0:0:
205,39,143799,2,0,B|177:51|138:55|138:55|177:61|211:93,1,119.999996337891,0|0,1:0|0:0,0:0:0:0:
412,19,143971,1,0,3:0:0:0:
422,28,144143,6,0,L|410:144,1,85.0000016212464,8|0,0:0|0:0,0:0:0:0:
375,192,144316,1,0,0:0:0:0:
421,199,144402,1,0,0:0:0:0:
362,164,144488,1,2,0:0:0:0:
283,168,144574,1,0,0:0:0:0:
228,221,144661,1,0,3:0:0:0:
304,242,144747,1,0,3:0:0:0:
293,100,144833,6,0,B|310:170|368:225|368:225|314:238|272:296,1,239.999992675781,0|0,3:0|0:0,0:0:0:0:
65,361,145092,2,0,B|135:344|190:285|190:285|203:340|261:382,1,239.999992675781,0|0,3:0|0:0,0:0:0:0:
469,276,145350,1,0,3:0:0:0:
457,282,145437,1,0,3:0:0:0:
442,374,145523,2,0,L|425:275,1,89.9999972534181,8|0,0:0|0:0,0:0:0:0:
394,85,145695,1,0,3:0:0:0:
490,91,145781,2,0,L|379:122,1,89.9999972534181,8|0,0:0|0:0,0:0:0:0:
153,20,145954,1,0,3:0:0:0:
157,4,146040,5,8,0:0:0:0:
274,119,146127,1,8,0:0:0:0:
243,22,146212,6,0,B|247:180|147:100|160:268,1,269.999991760254,0|0,3:0|0:0,0:0:0:0:
83,352,146557,1,2,0:0:0:0:
81,344,146643,1,2,0:0:0:0:
73,243,146730,2,0,P|125:249|181:279,1,89.9999972534181,2|0,0:0|0:0,0:0:0:0:
442,349,146902,6,0,B|442:309|501:253|501:253|412:224|339:234|306:350,1,359.999989013672,8|0,0:0|0:0,0:0:0:0:
209,321,147247,1,2,0:0:0:0:
209,301,147333,1,2,0:0:0:0:
155,380,147419,1,0,3:0:0:0:
120,295,147506,1,0,3:0:0:0:
185,212,147592,6,0,B|266:226|321:265|321:265|375:241|414:187,1,259.999988098145,0|0,3:0|0:0,0:0:0:0:
508,93,147850,2,0,B|466:50|405:19|405:19|384:64|279:90,1,259.999988098145,0|0,3:0|0:0,0:0:0:0:
87,113,148109,1,0,3:0:0:0:
100,124,148195,1,0,3:0:0:0:
125,9,148281,2,0,L|134:127,1,89.9999972534181,8|0,0:0|0:0,0:0:0:0:
99,334,148454,1,0,3:0:0:0:
77,217,148540,2,0,L|54:332,1,89.9999972534181,8|0,0:0|0:0,0:0:0:0:
268,351,148712,1,0,3:0:0:0:
257,354,148799,5,8,0:0:0:0:
287,235,148885,1,8,0:0:0:0:
189,256,148971,6,0,B|324:279|324:279|371:326|371:326|455:312|455:312|533:351,1,345.000006580353,4|0,0:0|0:0,0:0:0:0:
312,164,149316,2,0,B|245:178|187:141|220:78|125:18|5:47|9:201,1,419.999987182618,4|0,1:0|0:0,0:0:0:0:
299,46,149661,2,0,B|418:43|376:117|500:117,1,209.999993591309,4|0,0:0|0:0,0:0:0:0:
496,203,150006,1,2,0:0:0:0:
501,217,150092,1,2,0:0:0:0:
466,124,150178,1,0,3:0:0:0:
402,201,150264,1,0,3:0:0:0:
445,285,150350,6,0,B|345:292|318:374|318:374|252:343|102:379,1,359.999989013672,0|0,3:0|0:0,0:0:0:0:
11,295,150695,2,0,P|55:248|107:245,1,110.000003356934,2|0,0:0|0:0,0:0:0:0:
233,149,150868,1,0,3:0:0:0:
233,164,150954,1,0,3:0:0:0:
340,146,151040,2,0,L|240:174,1,89.9999972534181,8|0,0:0|0:0,0:0:0:0:
155,34,151212,1,0,3:0:0:0:
45,38,151299,2,0,L|155:58,1,89.9999972534181,8|0,0:0|0:0,0:0:0:0:
351,51,151471,1,0,3:0:0:0:
342,34,151557,5,8,0:0:0:0:
468,121,151643,1,8,0:0:0:0:
444,30,151730,6,0,B|450:159|350:114|379:312,1,239.999992675781,0|0,3:0|0:0,0:0:0:0:
259,341,151988,1,0,0:0:0:0:
156,280,152074,5,2,0:0:0:0:
225,320,152161,1,0,0:0:0:0:
302,327,152247,1,0,3:0:0:0:
211,340,152333,1,0,3:0:0:0:
124,356,152419,6,0,B|102:297|47:247|47:247|74:197|80:111,1,239.999992675781,8|0,0:0|0:0,0:0:0:0:
0,19,152678,1,0,0:0:0:0:
106,34,152764,1,2,0:0:0:0:
44,46,152850,1,0,0:0:0:0:
6,98,152937,1,0,3:0:0:0:
95,73,153023,1,0,3:0:0:0:
183,51,153109,6,0,B|275:73|275:73|315:121|315:121|439:150,1,259.999988098145,0|0,3:0|0:0,0:0:0:0:
234,194,153368,2,0,B|142:216|142:216|102:264|102:264|-22:293,1,259.999988098145,0|0,3:0|0:0,0:0:0:0:
240,356,153626,1,0,3:0:0:0:
244,335,153712,1,0,3:0:0:0:
129,358,153799,2,0,L|240:330,1,89.9999972534181,8|0,0:0|0:0,0:0:0:0:
417,255,153971,1,0,3:0:0:0:
401,358,154057,2,0,L|386:260,1,89.9999972534181,8|0,0:0|0:0,0:0:0:0:
311,15,154230,1,0,3:0:0:0:
357,115,154316,5,8,0:0:0:0:
251,94,154402,1,8,0:0:0:0:
360,88,154488,6,0,B|286:63|214:59|214:59|157:168|7:181,1,375,0|0,1:0|0:0,0:0:0:0:
272,227,154833,2,0,B|401:222|360:296|507:304,1,225.000008583069,0|0,1:0|0:0,0:0:0:0:
230,372,155178,2,0,P|175:349|156:290,1,110.000003356934,8|0,0:0|0:0,0:0:0:0:
0,211,155350,1,0,0:0:0:0:
83,226,155437,1,0,0:0:0:0:
101,272,155523,1,0,0:0:0:0:
75,201,155609,1,0,0:0:0:0:
83,138,155695,1,0,0:0:0:0:
6,188,155781,1,0,0:0:0:0:
0,73,155868,6,0,P|73:113|127:105,1,110.000003356934,0|0,3:0|0:0,0:0:0:0:
232,25,156040,2,0,P|283:5|338:6,1,110.000003356934,2|0,0:0|0:0,0:0:0:0:
512,141,156212,6,0,P|441:220|334:215,1,220.000006713867,2|0,0:0|0:0,0:0:0:0:
178,255,156471,1,0,3:0:0:0:
207,358,156557,2,0,L|221:246,1,89.9999972534181,8|0,0:0|0:0,0:0:0:0:
391,277,156730,1,0,3:0:0:0:
496,292,156816,2,0,L|391:306,1,89.9999972534181,8|0,0:0|0:0,0:0:0:0:
3,141,157074,5,8,0:0:0:0:
103,154,157161,1,8,0:0:0:0:
214,170,157247,6,0,B|122:184|122:184|92:231|92:231|-6:251,1,239.999992675781,0|0,1:0|0:0,0:0:0:0:
134,7,157506,1,0,0:0:0:0:
177,70,157592,5,2,0:0:0:0:
168,24,157678,1,0,0:0:0:0:
245,49,157764,1,2,0:0:0:0:
326,29,157850,1,0,0:0:0:0:
257,63,157937,6,0,P|322:159|457:166,1,239.999992675781,8|0,0:0|0:0,0:0:0:0:
512,269,158195,1,0,0:0:0:0:
466,349,158281,1,2,0:0:0:0:
439,300,158368,1,0,0:0:0:0:
373,282,158454,1,0,3:0:0:0:
387,364,158540,1,0,3:0:0:0:
364,271,158626,6,0,P|322:238|251:227,1,119.999996337891,0|0,3:0|0:0,0:0:0:0:
128,345,158799,2,0,P|71:294|62:232,1,119.999996337891,2|0,0:0|3:0,0:0:0:0:
18,76,158971,2,0,B|106:90|106:90|142:133|142:133|265:161,1,239.999992675781,2|0,0:0|0:0,0:0:0:0:
343,53,159230,1,0,3:0:0:0:
331,161,159316,2,0,L|311:71,1,89.9999972534181,8|0,0:0|0:0,0:0:0:0:
151,246,159488,1,0,3:0:0:0:
267,255,159574,2,0,L|150:271,1,89.9999972534181,8|0,0:0|0:0,0:0:0:0:
6,318,159747,1,0,3:0:0:0:
104,367,159833,1,8,0:0:0:0:
60,253,159919,1,8,3:0:0:0:
