osu file format v14

[General]
AudioFilename: audio.mp3
AudioLeadIn: 0
PreviewTime: 33023
Countdown: 0
SampleSet: Soft
StackLeniency: 0.4
Mode: 0
LetterboxInBreaks: 0
WidescreenStoryboard: 1

[Editor]
Bookmarks: 11040,55178,60695,82764,104833,107764,115868,137937,149316,160006
DistanceSpacing: 0.8
BeatDivisor: 4
GridSize: 32
TimelineZoom: 2.3

[Metadata]
Title:Alone
TitleUnicode:Alone
Artist:Slayyyter
ArtistUnicode:Slayyyter
Creator:defiance
Version:Normal
Source:
Tags:hyperpop electropop pop english co23 ko1b nm4 corsace quanhitter39 osuskrub yaspo risen ayesha erotica nicole smith
BeatmapID:4452635
BeatmapSetID:2047520

[Difficulty]
HPDrainRate:3
CircleSize:3
OverallDifficulty:4
ApproachRate:6
SliderMultiplier:1
SliderTickRate:1

[Events]
//Background and Video events
0,0,"omg slay.png",0,0
//Break Periods
2,55523,59316
2,105178,114488
//Storyboard Layer 0 (Background)
//Storyboard Layer 1 (Fail)
//Storyboard Layer 2 (Pass)
//Storyboard Layer 3 (Foreground)
//Storyboard Layer 4 (Overlay)
//Storyboard Sound Samples

[TimingPoints]
6,344.827586206897,4,2,1,90,1,0
11040,-90.9090909090909,4,2,1,90,0,0
12074,-90.9090909090909,4,2,1,90,0,0
22074,-90.9090909090909,4,2,1,80,0,0
33109,-83.3333333333333,4,2,1,100,0,0
55178,-83.3333333333333,4,2,1,70,0,0
60695,-90.9090909090909,4,2,1,70,0,0
71730,-90.9090909090909,4,2,1,80,0,0
82764,-83.3333333333333,4,2,1,100,0,0
105178,-83.3333333333333,4,2,1,70,0,0
115868,-90.9090909090909,4,2,1,70,0,0
126902,-90.9090909090909,4,2,1,80,0,0
130350,-90.9090909090909,4,2,1,50,0,0
132419,-90.9090909090909,4,2,1,80,0,0
137937,-83.3333333333333,4,2,1,100,0,0

[Colours]
Combo1 : 198,89,238
Combo2 : 207,115,227
Combo3 : 249,157,231

[HitObjects]
487,31,6,5,0,3:0:0:0:
382,63,350,1,0,0:0:0:0:
464,120,695,2,0,L|448:255,1,100,8|0,0:0|3:0,0:0:0:0:
478,316,1385,2,0,L|383:330,1,50,0|0,1:0|3:0,0:0:0:0:
378,326,1730,1,0,3:0:0:0:
278,331,2074,1,8,0:0:0:0:
278,331,2247,2,0,P|260:267|212:245,1,100,8|0,0:0|3:0,0:0:0:0:
184,250,2764,5,0,3:0:0:0:
115,323,3109,1,0,0:0:0:0:
30,269,3454,1,8,0:0:0:0:
29,69,4143,2,0,L|83:74,1,50,0|0,1:0|3:0,0:0:0:0:
128,78,4488,2,0,L|201:84,1,50,0|0,3:0|3:0,0:0:0:0:
227,85,4833,1,8,0:0:0:0:
414,16,5523,5,0,3:0:0:0:
491,79,5868,1,0,0:0:0:0:
434,161,6212,2,0,L|306:177,1,100,8|0,0:0|0:0,0:0:0:0:
235,160,6902,2,0,L|249:255,1,50,0|0,1:0|3:0,0:0:0:0:
254,258,7247,1,0,3:0:0:0:
321,338,7592,1,8,0:0:0:0:
321,338,7764,2,0,L|446:353,1,100,8|0,0:0|3:0,0:0:0:0:
470,350,8281,5,0,3:0:0:0:
467,249,8626,1,0,0:0:0:0:
387,188,8971,1,8,0:0:0:0:
199,117,9661,2,0,L|136:123,1,50,0|8,1:0|0:0,0:0:0:0:
99,127,10006,2,0,L|35:134,1,50,0|0,3:0|3:0,0:0:0:0:
0,136,10350,1,10,0:0:0:0:
223,377,11040,6,0,P|231:307|260:270,1,110.000003356934,0|0,1:0|1:0,0:0:0:0:
362,261,11730,1,8,0:0:0:0:
286,181,12074,1,2,0:0:0:0:
292,72,12419,2,0,P|345:91|389:96,2,82.5000025177003,0|0|0,3:0|3:0|3:0,0:0:0:0:
242,47,13109,1,8,0:0:0:0:
242,47,13281,2,0,P|184:26|125:22,1,110.000003356934,8|0,0:0|3:0,0:0:0:0:
75,30,13799,5,0,1:0:0:0:
20,125,14143,1,0,1:0:0:0:
57,228,14488,1,8,0:0:0:0:
162,259,14833,2,0,P|172:298|171:324,1,55.0000016784668,2|2,0:0|0:0,0:0:0:0:
171,367,15178,2,0,P|233:345|284:348,1,110.000003356934,0|0,3:0|0:0,0:0:0:0:
381,379,15868,1,2,0:0:0:0:
401,271,16212,1,2,0:0:0:0:
295,239,16557,6,0,P|241:252|186:256,1,110.000003356934,0|0,1:0|1:0,0:0:0:0:
76,248,17247,1,8,0:0:0:0:
20,153,17591,1,2,0:0:0:0:
127,129,17936,2,0,P|108:182|103:226,2,82.5000025177003,0|0|0,3:0|3:0|3:0,0:0:0:0:
177,107,18626,1,8,0:0:0:0:
177,107,18798,2,0,P|231:112|282:132,1,110.000003356934,8|0,0:0|3:0,0:0:0:0:
338,131,19316,5,0,1:0:0:0:
412,50,19660,1,0,1:0:0:0:
512,15,20005,1,8,0:0:0:0:
485,121,20350,2,0,P|471:164|471:188,1,55.0000016784668,2|2,0:0|0:0,0:0:0:0:
489,225,20695,5,0,3:0:0:0:
489,225,20868,2,0,P|437:219|359:207,1,110.000003356934,0|2,3:0|0:0,0:0:0:0:
326,223,21385,1,8,0:0:0:0:
354,329,21730,1,0,0:0:0:0:
248,299,22074,6,0,L|190:305,1,55.0000016784668,0|0,1:0|0:0,0:0:0:0:
138,308,22419,2,0,L|71:316,1,55.0000016784668,0|0,1:0|0:0,0:0:0:0:
28,319,22764,1,8,0:0:0:0:
68,216,23109,1,2,0:0:0:0:
43,108,23454,2,0,P|27:63|27:19,2,82.5000025177003,0|0|0,1:0|3:0|0:0,0:0:0:0:
90,135,24143,1,8,0:0:0:0:
90,135,24316,2,0,P|149:120|213:124,1,110.000003356934,8|0,0:0|3:0,0:0:0:0:
252,119,24833,5,0,1:0:0:0:
351,72,25178,1,0,1:0:0:0:
267,0,25523,1,0,3:0:0:0:
256,219,26212,6,0,L|268:343,1,110.000003356934,0|0,3:0|3:0,0:0:0:0:
374,349,26902,1,2,0:0:0:0:
374,349,27074,1,2,0:0:0:0:
374,349,27247,1,2,0:0:0:0:
475,306,27592,2,0,P|493:241|471:190,1,110.000003356934,0|0,1:0|1:0,0:0:0:0:
413,115,28281,1,8,0:0:0:0:
490,36,28626,1,2,0:0:0:0:
380,26,28971,6,0,P|336:9|286:8,2,82.5000025177003,0|0|0,1:0|3:0|0:0,0:0:0:0:
404,75,29661,1,8,0:0:0:0:
404,75,29833,2,0,L|371:197,1,110.000003356934,8|0,0:0|3:0,0:0:0:0:
339,223,30350,5,0,1:0:0:0:
230,241,30695,1,0,1:0:0:0:
120,255,31040,2,0,P|98:208|119:144,1,110.000003356934,10|2,0:0|0:0,0:0:0:0:
201,90,31730,2,0,P|196:56|179:33,1,55.0000016784668,2|2,0:0|0:0,0:0:0:0:
142,3,32074,1,2,0:0:0:0:
38,34,33109,5,4,0:0:0:0:
83,73,33281,1,2,0:0:0:0:
129,111,33454,2,0,B|157:159|157:159|142:252,1,119.999996337891,4|8,1:2|0:0,0:0:0:0:
78,321,34143,2,0,L|155:307,1,59.9999981689454,2|2,0:0|0:0,0:0:0:0:
196,316,34488,2,0,L|338:365,1,119.999996337891,0|0,3:0|0:0,0:0:0:0:
418,304,35178,2,0,L|518:260,2,89.9999972534181,8|8|8,0:0|0:0|0:0,0:0:0:0:
366,272,35868,6,0,P|370:212|418:149,1,119.999996337891,0|2,1:0|0:0,0:0:0:0:
447,123,36385,1,2,0:0:0:0:
506,122,36557,1,8,0:0:0:0:
460,10,36902,1,2,0:0:0:0:
404,33,37074,1,2,0:0:0:0:
345,48,37247,2,0,B|284:69|205:79,1,119.999996337891,0|0,3:0|0:0,0:0:0:0:
110,53,37937,2,0,L|14:28,2,89.9999972534181,8|8|8,0:0|0:0|0:0,0:0:0:0:
148,100,38626,5,4,1:0:0:0:
62,183,38971,1,0,1:0:0:0:
10,291,39316,2,0,B|73:300|73:300|139:350,1,119.999996337891,8|2,0:0|0:0,0:0:0:0:
170,357,39833,1,0,3:0:0:0:
229,347,40006,2,0,L|253:222,1,119.999996337891,0|2,3:0|0:0,0:0:0:0:
247,109,40695,2,0,P|230:54|193:20,2,89.9999972534181,8|8|8,0:0|0:0|0:0,0:0:0:0:
289,151,41385,5,0,3:0:0:0:
407,129,41730,1,2,0:0:0:0:
462,152,41902,1,2,0:0:0:0:
507,191,42074,2,0,P|524:255|502:322,1,119.999996337891,8|2,0:0|0:0,0:0:0:0:
400,351,42764,6,0,P|336:314|271:322,1,119.999996337891,0|0,3:0|0:0,0:0:0:0:
238,336,43281,1,0,3:0:0:0:
238,336,43454,2,0,P|195:374|156:386,2,89.9999972534181,8|8|8,0:0|0:0|0:0,0:0:0:0:
260,280,44143,5,4,0:0:0:0:
181,189,44488,1,4,1:0:0:0:
299,170,44833,2,0,B|326:114|326:114|304:58,1,119.999996337891,14|2,0:0|0:0,0:0:0:0:
263,16,45350,1,0,3:0:0:0:
320,33,45523,6,0,L|445:15,1,119.999996337891,0|2,3:0|0:0,0:0:0:0:
493,122,46212,2,0,L|466:223,2,89.9999972534181,8|8|8,0:0|0:0|0:0,0:0:0:0:
434,106,46902,6,0,P|369:143|323:190,1,119.999996337891,0|0,1:0|0:0,0:0:0:0:
290,209,47419,1,0,3:0:0:0:
229,212,47592,2,0,P|181:154|155:93,1,119.999996337891,8|0,0:0|0:0,0:0:0:0:
59,50,48281,1,0,3:0:0:0:
47,169,48626,1,0,0:0:0:0:
47,289,48971,2,0,L|154:265,2,89.9999972534181,8|8|8,0:0|0:0|0:0,0:0:0:0:
2,330,49661,5,4,0:0:0:0:
115,369,50006,1,4,1:0:0:0:
222,316,50350,2,0,L|354:347,1,119.999996337891,8|0,0:0|0:0,0:0:0:0:
464,323,51040,1,2,0:0:0:0:
464,323,51212,1,2,0:0:0:0:
464,323,51385,1,2,0:0:0:0:
427,208,51730,2,0,P|476:185|520:203,2,89.9999972534181,8|8|8,0:0|0:0|0:0,0:0:0:0:
367,214,52419,6,0,L|388:83,1,119.999996337891,4|2,1:0|0:0,0:0:0:0:
394,35,52937,1,2,0:0:0:0:
334,44,53109,2,0,L|198:55,1,119.999996337891,8|2,0:0|0:0,0:0:0:0:
107,26,53799,5,0,3:0:0:0:
107,26,53971,1,2,0:0:0:0:
107,26,54143,2,0,L|90:161,1,119.999996337891,2|8,0:0|0:0,0:0:0:0:
136,256,54833,2,0,L|132:328,1,59.9999981689454,0|0,0:0|3:0,0:0:0:0:
128,375,55178,5,0,3:0:0:0:
66,0,60695,6,0,P|58:70|48:126,1,110.000003356934,0|0,1:0|1:0,0:0:0:0:
128,188,61385,1,8,0:0:0:0:
27,232,61729,1,2,0:0:0:0:
121,288,62074,2,0,P|68:269|24:264,2,82.5000025177003,0|0|0,3:0|3:0|3:0,0:0:0:0:
167,318,62764,1,8,0:0:0:0:
167,318,62936,2,0,P|225:339|284:343,1,110.000003356934,8|0,0:0|3:0,0:0:0:0:
327,350,63454,5,0,1:0:0:0:
304,242,63798,1,0,1:0:0:0:
408,207,64143,1,8,0:0:0:0:
497,142,64488,2,0,P|487:103|488:77,1,55.0000016784668,2|2,0:0|0:0,0:0:0:0:
480,33,64833,2,0,L|357:37,1,110.000003356934,0|0,3:0|3:0,0:0:0:0:
264,4,65523,1,2,0:0:0:0:
292,109,65867,1,2,0:0:0:0:
313,216,66212,6,0,P|259:229|204:233,1,110.000003356934,0|0,1:0|1:0,0:0:0:0:
94,222,66902,1,8,0:0:0:0:
26,135,67246,1,2,0:0:0:0:
120,78,67591,2,0,P|139:25|144:-19,2,82.5000025177003,0|0|0,3:0|3:0|3:0,0:0:0:0:
145,127,68281,1,8,0:0:0:0:
145,127,68454,2,0,P|195:147|250:152,1,110.000003356934,8|0,0:0|3:0,0:0:0:0:
304,138,68971,5,0,1:0:0:0:
331,246,69315,1,0,1:0:0:0:
352,354,69660,1,8,0:0:0:0:
461,367,70005,2,0,P|475:324|475:300,1,55.0000016784668,2|2,0:0|0:0,0:0:0:0:
483,259,70350,5,0,3:0:0:0:
483,259,70523,2,0,P|442:223|388:220,1,110.000003356934,0|2,3:0|0:0,0:0:0:0:
337,241,71040,1,8,0:0:0:0:
232,274,71385,1,2,0:0:0:0:
144,208,71729,6,0,L|138:150,1,55.0000016784668,0|0,1:0|0:0,0:0:0:0:
132,98,72074,2,0,L|124:31,1,55.0000016784668,0|0,1:0|0:0,0:0:0:0:
177,26,72419,1,8,0:0:0:0:
287,28,72764,1,2,0:0:0:0:
355,113,73109,2,0,P|371:158|371:202,2,82.5000025177003,0|0|0,1:0|3:0|0:0,0:0:0:0:
379,63,73798,1,8,0:0:0:0:
379,63,73971,2,0,P|410:32|475:17,1,110.000003356934,8|0,0:0|3:0,0:0:0:0:
511,56,74488,5,0,1:0:0:0:
497,165,74833,1,0,1:0:0:0:
479,273,75178,1,0,3:0:0:0:
275,355,75867,6,0,L|151:367,1,110.000003356934,0|0,3:0|3:0,0:0:0:0:
67,343,76557,1,2,0:0:0:0:
67,343,76729,1,2,0:0:0:0:
67,343,76902,1,2,0:0:0:0:
157,280,77247,2,0,P|175:215|153:164,1,110.000003356934,0|0,1:3|1:0,0:0:0:0:
74,111,77937,1,8,0:0:0:0:
173,64,78281,1,2,0:0:0:0:
280,86,78626,6,0,P|297:42|298:-8,2,82.5000025177003,0|0|0,1:0|3:0|0:0,0:0:0:0:
248,131,79316,1,8,0:0:0:0:
248,131,79488,2,0,L|370:164,1,110.000003356934,8|0,0:0|3:0,0:0:0:0:
407,174,80005,5,0,1:0:0:0:
387,282,80350,1,0,1:0:0:0:
301,351,80695,2,0,P|254:373|190:352,1,110.000003356934,10|2,0:0|0:0,0:0:0:0:
99,312,81385,2,0,P|104:278|121:255,1,55.0000016784668,2|2,0:0|0:0,0:0:0:0:
159,229,81729,5,2,0:0:0:0:
474,34,82764,5,4,0:0:0:0:
480,93,82937,1,2,0:0:0:0:
486,152,83109,2,0,B|488:235|488:235|461:281,1,119.999996337891,4|8,1:0|0:0,0:0:0:0:
383,350,83798,2,0,P|340:349|312:316,1,59.9999981689454,2|2,0:0|0:0,0:0:0:0:
303,284,84143,2,0,P|230:304|197:340,1,119.999996337891,0|0,3:0|0:0,0:0:0:0:
96,273,84833,2,0,P|48:264|-4:229,2,89.9999972534181,8|8|8,0:0|0:0|0:0,0:0:0:0:
148,242,85523,6,0,P|144:182|96:119,1,119.999996337891,0|2,1:0|0:0,0:0:0:0:
56,111,86040,1,2,0:0:0:0:
0,132,86212,1,8,0:0:0:0:
47,21,86557,1,2,0:0:0:0:
106,29,86729,1,2,0:0:0:0:
165,38,86902,2,0,B|307:65,1,119.999996337891,0|0,3:0|0:0,0:0:0:0:
400,86,87592,2,0,L|375:-10,2,89.9999972534181,8|8|8,0:0|0:0|0:0,0:0:0:0:
452,114,88281,5,0,1:0:0:0:
454,234,88626,1,0,1:0:0:0:
367,316,88971,2,0,B|304:325|304:325|238:375,1,119.999996337891,10|2,0:0|0:0,0:0:0:0:
201,375,89488,1,0,3:0:0:0:
148,346,89661,2,0,L|172:221,1,119.999996337891,0|0,3:0|0:0,0:0:0:0:
263,152,90350,2,0,P|318:169|352:206,2,89.9999972534181,8|8|8,0:0|0:0|0:0,0:0:0:0:
208,126,91040,5,0,1:0:0:0:
108,58,91385,1,2,0:0:0:0:
57,90,91557,1,2,0:0:0:0:
17,134,91729,2,0,L|-4:272,1,119.999996337891,8|2,0:0|0:0,0:0:0:0:
97,321,92419,6,0,P|162:303|226:292,1,119.999996337891,0|0,3:0|0:0,0:0:0:0:
271,309,92936,1,0,3:0:0:0:
271,309,93109,2,0,P|314:347|353:359,2,89.9999972534181,8|8|8,0:0|0:0|0:0,0:0:0:0:
251,252,93798,5,4,0:0:0:0:
361,205,94143,1,4,1:0:0:0:
261,138,94488,2,0,L|247:11,1,119.999996337891,12|2,0:0|0:0,0:0:0:0:
187,10,95006,1,0,3:0:0:0:
127,16,95178,6,0,L|-12:40,1,119.999996337891,0|0,3:0|0:0,0:0:0:0:
51,149,95867,2,0,P|60:198|39:249,2,89.9999972534181,8|8|8,0:0|0:0|0:0,0:0:0:0:
98,112,96557,6,0,L|222:139,1,119.999996337891,0|2,3:0|0:0,0:0:0:0:
270,161,97074,1,0,3:0:0:0:
223,199,97247,2,0,P|186:264|171:328,1,119.999996337891,8|2,0:0|0:0,0:0:0:0:
280,363,97936,1,0,3:0:0:0:
385,305,98281,1,0,0:0:0:0:
478,229,98626,2,0,L|458:142,2,89.9999972534181,8|8|8,0:0|0:0|0:0,0:0:0:0:
494,286,99316,5,0,1:0:0:0:
389,227,99661,1,0,1:0:0:0:
358,111,100005,2,0,L|226:142,1,119.999996337891,10|0,0:0|0:0,0:0:0:0:
177,49,100695,1,0,3:0:0:0:
177,49,100867,1,2,0:0:0:0:
177,49,101040,1,2,0:0:0:0:
94,136,101385,2,0,P|45:113|1:131,2,89.9999972534181,8|8|8,0:0|0:0|0:0,0:0:0:0:
152,149,102074,6,0,L|173:280,1,119.999996337891,0|2,1:0|0:0,0:0:0:0:
174,327,102592,1,2,0:0:0:0:
232,339,102764,2,0,L|368:350,1,119.999996337891,8|2,0:0|0:0,0:0:0:0:
469,306,103454,5,0,3:0:0:0:
469,306,103626,1,2,0:0:0:0:
469,306,103798,2,0,B|485:242|485:242|452:171,1,119.999996337891,2|2,0:0|0:0,0:0:0:0:
346,158,104488,2,0,L|342:230,1,59.9999981689454,0|0,3:0|3:0,0:0:0:0:
337,277,104833,5,0,3:0:0:0:
11,211,115868,6,0,P|70:196|120:213,1,110.000003356934,0|0,1:0|1:0,0:0:0:0:
154,248,116385,1,2,0:0:0:0:
154,248,116557,2,0,L|264:227,1,110.000003356934,8|0,0:0|3:0,0:0:0:0:
368,255,117247,2,0,P|351:305|316:334,2,82.5000025177003,0|0|0,3:0|3:0|3:0,0:0:0:0:
356,201,117937,1,8,0:0:0:0:
356,201,118109,2,0,P|362:123|393:93,1,110.000003356934,8|0,0:0|3:0,0:0:0:0:
428,74,118626,5,0,3:0:0:0:
344,1,118971,1,2,0:0:0:0:
344,1,119143,1,2,0:0:0:0:
344,1,119316,2,0,P|284:31|226:35,1,110.000003356934,8|2,0:0|0:0,0:0:0:0:
135,8,120006,2,0,L|73:25,1,55.0000016784668,0|0,3:0|3:0,0:0:0:0:
28,34,120350,1,0,3:0:0:0:
283,243,121385,6,0,P|227:208|162:204,1,110.000003356934,0|2,3:0|0:0,0:0:0:0:
77,232,122074,1,2,0:0:0:0:
160,374,122592,1,2,0:0:0:0:
160,374,122764,2,0,L|271:361,1,110.000003356934,2|0,0:0|0:0,0:0:0:0:
493,118,124143,6,0,L|431:105,1,55.0000016784668,0|2,1:0|0:0,0:0:0:0:
384,100,124488,1,2,0:0:0:0:
384,100,124661,2,0,P|399:175|408:219,1,110.000003356934,2|2,0:0|0:0,0:0:0:0:
418,261,125178,1,2,0:0:0:0:
318,308,125523,2,0,L|196:318,1,110.000003356934,0|0,3:0|3:0,0:0:0:0:
154,304,126040,1,0,0:0:0:0:
154,304,126212,1,8,0:0:0:0:
19,129,126902,6,0,P|79:117|114:63,1,110.000003356934,0|0,1:0|1:0,0:0:0:0:
124,28,127419,1,2,3:0:0:0:
124,28,127592,2,0,L|241:15,1,110.000003356934,2|2,3:0|0:0,0:0:0:0:
318,85,128281,2,0,P|301:141|265:167,2,82.5000025177003,0|0|0,1:0|3:0|0:0,0:0:0:0:
317,29,128971,1,8,0:0:0:0:
317,29,129143,2,0,P|383:49|416:83,1,110.000003356934,8|0,0:0|3:0,0:0:0:0:
431,128,129661,5,0,1:0:0:0:
433,238,130006,1,0,1:0:0:0:
437,347,130350,1,0,3:0:0:0:
39,360,132419,6,0,P|73:309|63:244,1,110.000003356934,0|0,1:0|1:0,0:0:0:0:
39,156,133109,1,8,0:0:0:0:
144,187,133454,1,2,0:0:0:0:
251,210,133799,2,0,L|235:116,2,82.5000025177003,0|0|0,1:0|3:0|0:0,0:0:0:0:
268,261,134488,1,8,0:0:0:0:
268,261,134661,2,0,L|379:291,1,110.000003356934,8|0,0:0|3:0,0:0:0:0:
428,299,135178,5,0,1:0:0:0:
428,188,135523,1,0,1:0:0:0:
257,49,136212,1,2,0:0:0:0:
88,190,136902,1,2,0:0:0:0:
40,349,137937,5,4,0:0:0:0:
90,316,138109,1,2,0:0:0:0:
137,279,138281,2,0,B|173:220|173:220|142:169,1,119.999996337891,4|8,1:0|0:0,0:0:0:0:
78,76,138971,2,0,L|155:90,1,59.9999981689454,2|2,0:0|0:0,0:0:0:0:
197,82,139316,2,0,L|264:189,1,119.999996337891,0|0,3:0|0:0,0:0:0:0:
376,215,140006,2,0,L|467:196,2,89.9999972534181,8|8|8,0:0|0:0|0:0,0:0:0:0:
343,164,140695,6,0,L|387:45,1,119.999996337891,0|2,1:0|0:0,0:0:0:0:
426,8,141213,1,2,0:0:0:0:
465,52,141385,1,8,0:0:0:0:
491,169,141730,1,2,0:0:0:0:
445,208,141902,1,2,0:0:0:0:
398,246,142075,2,0,B|377:307|367:386,1,119.999996337891,0|0,3:0|0:0,0:0:0:0:
251,344,142765,2,0,P|216:371|155:369,2,89.9999972534181,8|8|0,0:0|0:0|0:0,0:0:0:0:
272,287,143454,5,0,1:0:0:0:
251,168,143799,1,0,1:0:0:0:
165,252,144144,2,0,B|128:211|128:211|121:146,1,119.999996337891,8|2,0:0|0:0,0:0:0:0:
168,108,144661,1,0,3:0:0:0:
116,76,144834,2,0,L|-10:112,1,119.999996337891,0|0,3:0|0:0,0:0:0:0:
13,228,145523,2,0,P|30:283|67:317,2,89.9999972534181,8|8|8,0:0|0:0|0:0,0:0:0:0:
60,191,146213,5,0,3:0:0:0:
152,267,146558,1,2,0:0:0:0:
206,291,146730,1,2,0:0:0:0:
265,298,146902,2,0,L|389:278,1,119.999996337891,8|2,0:0|0:0,0:0:0:0:
466,191,147592,6,0,L|504:63,1,119.999996337891,0|0,3:0|0:0,0:0:0:0:
480,19,148109,1,0,3:0:0:0:
480,19,148281,2,0,P|405:8|364:6,2,89.9999972534181,8|8|8,0:0|0:0|0:0,0:0:0:0:
444,67,148971,5,4,0:0:0:0:
353,145,149316,1,4,1:0:0:0:
249,206,149661,2,0,B|233:122|233:122|254:94,1,119.999996337891,4|2,0:0|0:0,0:0:0:0:
288,45,150178,1,0,3:0:0:0:
230,63,150351,6,0,L|111:45,1,119.999996337891,0|2,3:0|0:0,0:0:0:0:
36,138,151040,2,0,P|32:186|63:239,2,89.9999972534181,8|8|8,0:0|0:0|0:0,0:0:0:0:
91,114,151730,6,0,P|156:151|202:198,1,119.999996337891,0|2,3:0|0:0,0:0:0:0:
223,230,152247,1,0,3:0:0:0:
262,275,152420,2,0,P|327:238|373:191,1,119.999996337891,8|2,0:0|0:0,0:0:0:0:
406,96,153109,1,0,3:0:0:0:
507,159,153454,1,0,0:0:0:0:
498,278,153799,2,0,P|492:338|468:362,2,89.9999972534181,8|8|8,0:0|0:0|0:0,0:0:0:0:
465,227,154489,5,0,1:0:0:0:
410,119,154834,1,0,1:0:0:0:
318,42,155178,2,0,L|181:31,1,119.999996337891,8|0,0:0|0:0,0:0:0:0:
88,42,155868,1,0,3:0:0:0:
88,42,156040,1,2,0:0:0:0:
88,42,156213,1,2,0:0:0:0:
97,161,156558,2,0,P|120:210|102:254,2,89.9999972534181,8|8|0,0:0|0:0|0:0,0:0:0:0:
152,137,157247,6,0,L|283:116,1,119.999996337891,0|2,1:0|0:0,0:0:0:0:
316,156,157764,1,2,0:0:0:0:
317,216,157937,2,0,L|292:345,1,119.999996337891,8|2,0:0|0:0,0:0:0:0:
182,352,158626,5,0,3:0:0:0:
182,352,158799,1,2,0:0:0:0:
182,352,158971,2,0,L|47:369,1,119.999996337891,2|8,0:0|0:0,0:0:0:0:
14,256,159661,2,0,L|111:262,1,89.9999972534181,0|8,0:0|0:0,0:0:0:0:
