osu file format v14

[General]
AudioFilename: audio.mp3
AudioLeadIn: 0
PreviewTime: 33023
Countdown: 0
SampleSet: Soft
StackLeniency: 0.7
Mode: 0
LetterboxInBreaks: 0
WidescreenStoryboard: 1

[Editor]
Bookmarks: 11040,55178,60695,82764,104833,107764,115868,137937,160006
DistanceSpacing: 2.7
BeatDivisor: 4
GridSize: 32
TimelineZoom: 2.3

[Metadata]
Title:Alone
TitleUnicode:Alone
Artist:Slayyyter
ArtistUnicode:Slayyyter
Creator:defiance
Version:Insane
Source:
Tags:hyperpop electropop pop english co23 ko1b nm4 corsace quanhitter39 osuskrub yaspo risen ayesha erotica nicole smith
BeatmapID:4457096
BeatmapSetID:2047520

[Difficulty]
HPDrainRate:5
CircleSize:4
OverallDifficulty:8
ApproachRate:9
SliderMultiplier:1.7
SliderTickRate:1

[Events]
//Background and Video events
0,0,"omg slay.png",0,0
//Break Periods
//Storyboard Layer 0 (Background)
//Storyboard Layer 1 (Fail)
//Storyboard Layer 2 (Pass)
//Storyboard Layer 3 (Foreground)
//Storyboard Layer 4 (Overlay)
//Storyboard Sound Samples

[TimingPoints]
6,344.827586206897,4,2,1,90,1,0
6,-90.9090909090909,4,2,1,90,0,0
11040,-90.9090909090909,4,2,1,90,0,0
12074,-90.9090909090909,4,2,1,90,0,0
12419,-76.9230769230769,4,2,1,90,0,0
13799,-90.9090909090909,4,2,1,90,0,0
17937,-76.9230769230769,4,2,1,90,0,0
19316,-90.9090909090909,4,2,1,90,0,0
21730,-66.6666666666667,4,2,1,90,0,0
22074,-76.9230769230769,4,2,1,80,0,0
31040,-90.9090909090909,4,2,1,80,0,0
31730,-142.857142857143,4,2,1,80,0,0
33109,-66.6666666666667,4,2,1,100,0,0
38626,-55.5555555555556,4,2,1,100,0,0
39316,-66.6666666666667,4,2,1,100,0,0
44143,-66.6666666666667,4,2,1,100,0,0
44488,-52.6315789473684,4,2,1,100,0,0
44833,-76.9230769230769,4,2,1,100,0,0
45523,-66.6666666666667,4,2,1,100,0,0
49661,-55.5555555555556,4,2,1,100,0,0
51040,-66.6666666666667,4,2,1,100,0,0
54143,-76.9230769230769,4,2,1,100,0,0
55178,-90.9090909090909,4,2,1,70,0,0
62074,-76.9230769230769,4,2,1,70,0,0
63454,-90.9090909090909,4,2,1,70,0,0
67592,-76.9230769230769,4,2,1,70,0,0
71385,-66.6666666666667,4,2,1,70,0,0
71730,-76.9230769230769,4,2,1,80,0,0
81385,-142.857142857143,4,2,1,80,0,0
82764,-66.6666666666667,4,2,1,100,0,0
88281,-55.5555555555556,4,2,1,100,0,0
88971,-66.6666666666667,4,2,1,100,0,0
93799,-66.6666666666667,4,2,1,100,0,0
94143,-52.6315789473684,4,2,1,100,0,0
94488,-76.9230769230769,4,2,1,100,0,0
95178,-66.6666666666667,4,2,1,100,0,0
99316,-55.5555555555556,4,2,1,100,0,0
100695,-66.6666666666667,4,2,1,100,0,0
103799,-76.9230769230769,4,2,1,100,0,0
105178,-76.9230769230769,4,2,1,70,0,0
105523,-100,4,2,1,70,0,0
115868,-90.9090909090909,4,2,1,70,0,0
117247,-76.9230769230769,4,2,1,70,0,0
118626,-90.9090909090909,4,2,1,70,0,0
120006,-76.9230769230769,4,2,1,70,0,0
121385,-90.9090909090909,4,2,1,70,0,0
126902,-71.4285714285714,4,2,1,80,0,0
127592,-90.9090909090909,4,2,1,80,0,0
128281,-76.9230769230769,4,2,1,80,0,0
129661,-76.9230769230769,4,2,1,80,0,0
130350,-76.9230769230769,4,2,1,30,0,0
132419,-76.9230769230769,4,2,1,80,0,0
133454,-90.9090909090909,4,2,1,80,0,0
135178,-76.9230769230769,4,2,1,80,0,0
136902,-125,4,2,1,80,0,0
137937,-66.6666666666667,4,2,1,100,0,0
143454,-55.5555555555556,4,2,1,100,0,0
144143,-66.6666666666667,4,2,1,100,0,0
148971,-66.6666666666667,4,2,1,100,0,0
149316,-52.6315789473684,4,2,1,100,0,0
149661,-76.9230769230769,4,2,1,100,0,0
150350,-66.6666666666667,4,2,1,100,0,0
154488,-55.5555555555556,4,2,1,100,0,0
155868,-66.6666666666667,4,2,1,100,0,0
158971,-76.9230769230769,4,2,1,100,0,0

[Colours]
Combo1 : 198,89,238
Combo2 : 207,115,227
Combo3 : 249,157,231

[HitObjects]
36,23,6,6,0,L|29:61,4,23.3750007133484,0|0|0|0|0,3:0|3:0|3:0|3:0|3:0,0:0:0:0:
47,135,350,1,0,0:0:0:0:
47,135,609,1,0,3:0:0:0:
84,139,695,2,0,L|183:149,2,93.5000028533936,8|0|0,0:0|3:0|3:0,0:0:0:0:
9,312,1385,6,0,L|56:300,1,46.7500014266968,0|0,1:0|0:0,0:0:0:0:
131,272,1557,2,0,L|189:287,2,46.7500014266968,0|0|0,3:0|3:0|3:0,0:0:0:0:
257,339,1902,1,0,0:0:0:0:
482,241,2074,1,8,0:0:0:0:
481,235,2247,5,8,0:0:0:0:
447,203,2333,1,8,0:0:0:0:
407,168,2419,2,0,L|423:116,2,46.7500014266968,8|8|0,0:0|0:0|3:0,0:0:0:0:
321,0,2764,6,0,L|325:30,4,23.3750007133484,0|0|0|0|0,3:0|3:0|3:0|3:0|3:0,0:0:0:0:
336,99,3109,1,0,0:0:0:0:
368,273,3454,1,8,0:0:0:0:
298,352,3626,2,0,L|297:316,10,23.3750007133484,0|0|0|0|0|0|0|0|0|0|0,3:0|3:0|3:0|3:0|3:0|3:0|3:0|3:0|3:0|3:0|3:0,0:0:0:0:
278,357,4143,6,0,P|261:308|272:252,1,93.5000028533936,0|0,1:0|3:0,0:0:0:0:
313,166,4488,1,0,3:0:0:0:
332,150,4574,1,0,3:0:0:0:
361,148,4661,1,0,3:0:0:0:
224,36,4833,1,8,0:0:0:0:
191,29,4919,1,8,0:0:0:0:
493,0,5523,6,0,L|489:44,4,23.3750007133484,0|0|0|0|0,3:0|3:0|3:0|3:0|3:0,0:0:0:0:
481,152,5868,1,0,0:0:0:0:
481,152,6126,1,0,0:0:0:0:
482,183,6212,2,0,L|487:301,2,93.5000028533936,8|0|0,0:0|0:0|0:0,0:0:0:0:
247,107,6902,6,0,L|181:118,1,46.7500014266968,0|0,1:0|0:0,0:0:0:0:
65,131,7074,2,0,L|138:151,2,46.7500014266968,0|0|0,3:0|3:0|3:0,0:0:0:0:
164,16,7419,1,0,3:0:0:0:
223,212,7592,1,8,0:0:0:0:
223,212,7764,5,8,0:0:0:0:
176,207,7850,1,8,0:0:0:0:
128,221,7937,2,0,P|99:241|84:263,2,46.7500014266968,8|8|0,0:0|0:0|3:0,0:0:0:0:
253,359,8281,6,0,L|247:326,4,23.3750007133484,0|0|0|0|0,3:0|3:0|3:0|3:0|3:0,0:0:0:0:
165,358,8626,1,0,0:0:0:0:
396,183,8971,1,8,0:0:0:0:
486,187,9143,2,0,L|481:227,10,23.3750007133484,0|0|0|0|0|0|0|0|0|0|0,3:0|3:0|3:0|3:0|3:0|3:0|3:0|3:0|3:0|3:0|3:0,0:0:0:0:
482,242,9661,6,0,L|433:248,1,46.7500014266968,0|0,1:0|0:0,0:0:0:0:
296,273,9833,1,8,0:0:0:0:
296,273,9919,1,0,3:0:0:0:
296,273,10006,2,0,L|282:222,1,46.7500014266968,0|0,3:0|3:0,0:0:0:0:
265,46,10178,1,0,3:0:0:0:
401,36,10350,6,2,B|304:64|304:64|255:152|255:152|126:113,1,327.250009986878,10|2,0:0|0:0,0:0:0:0:
74,66,11040,6,0,P|123:146|98:251,2,187.000005706787,0|0|8,1:0|1:0|0:0,0:0:0:0:
307,367,12074,2,0,P|346:341|406:326,1,93.5000028533936,2|2,0:0|0:0,0:0:0:0:
506,291,12419,6,0,P|485:230|438:196,1,110.499994941712,0|0,3:0|0:0,0:0:0:0:
379,195,12678,2,0,P|443:181|479:121,1,110.499994941712,0|0,3:0|0:0,0:0:0:0:
476,112,12937,1,0,3:0:0:0:
372,20,13109,1,8,0:0:0:0:
372,20,13281,5,8,0:0:0:0:
344,22,13368,1,8,0:0:0:0:
316,24,13454,1,8,0:0:0:0:
288,26,13540,1,8,0:0:0:0:
260,30,13626,1,0,3:0:0:0:
64,168,13799,6,0,P|109:127|69:-4,2,187.000005706787,0|0|8,1:0|1:0|0:0,0:0:0:0:
221,364,14833,1,2,0:0:0:0:
221,364,15006,1,2,0:0:0:0:
150,307,15178,6,0,L|97:318,1,46.7500014266968,0|0,3:0|0:0,0:0:0:0:
26,309,15350,1,0,3:0:0:0:
26,309,15437,1,0,3:0:0:0:
26,309,15523,1,0,0:0:0:0:
96,230,15695,1,0,0:0:0:0:
198,242,15868,1,2,0:0:0:0:
454,371,16212,1,2,0:0:0:0:
454,371,16557,6,0,P|434:298|453:182,2,187.000005706787,0|0|8,1:0|1:0|0:0,0:0:0:0:
452,61,17592,2,0,P|405:87|356:106,1,93.5000028533936,2|2,0:0|0:0,0:0:0:0:
243,107,17937,6,0,L|140:49,1,110.499994941712,0|0,3:0|0:0,0:0:0:0:
111,53,18195,2,0,L|133:186,1,110.499994941712,0|0,3:0|0:0,0:0:0:0:
136,194,18454,1,0,3:0:0:0:
255,347,18626,1,8,0:0:0:0:
255,347,18799,1,8,0:0:0:0:
278,333,18885,1,8,0:0:0:0:
304,323,18971,1,8,0:0:0:0:
329,312,19057,1,8,0:0:0:0:
354,301,19143,1,0,3:0:0:0:
147,366,19316,6,0,P|119:304|55:270,1,140.25000428009,0|0,1:0|0:0,0:0:0:0:
1,314,19661,2,0,P|57:276|67:203,1,140.25000428009,0|0,1:0|0:0,0:0:0:0:
46,169,20006,1,8,0:0:0:0:
373,33,20350,1,2,0:0:0:0:
373,33,20523,1,2,0:0:0:0:
309,106,20695,6,0,L|241:93,1,46.7500014266968,0|0,3:0|0:0,0:0:0:0:
171,81,20868,1,0,3:0:0:0:
171,81,20954,1,0,3:0:0:0:
171,81,21040,1,2,0:0:0:0:
194,187,21212,1,2,0:0:0:0:
281,249,21385,1,8,0:0:0:0:
297,245,21471,1,8,0:0:0:0:
311,243,21730,2,0,B|414:253|363:328|477:331,1,191.250007295609,0|0,0:0|0:0,0:0:0:0:
471,378,22074,6,0,P|457:297|422:197,1,165.749992412568,0|0,1:0|0:0,0:0:0:0:
490,161,22419,2,0,P|436:198|372:130,1,165.749992412568,0|0,1:0|0:0,0:0:0:0:
383,108,22764,1,8,0:0:0:0:
134,0,23109,2,0,P|81:48|58:85,1,110.499994941712,2|2,0:0|0:0,0:0:0:0:
31,187,23454,6,0,P|97:160|167:151,1,110.499994941712,0|0,1:0|3:0,0:0:0:0:
172,160,23712,1,0,3:0:0:0:
172,160,23799,1,0,3:0:0:0:
267,199,23971,1,0,0:0:0:0:
380,355,24143,1,8,0:0:0:0:
380,355,24316,1,8,0:0:0:0:
400,336,24402,1,8,0:0:0:0:
424,323,24488,1,8,0:0:0:0:
449,312,24574,1,8,0:0:0:0:
482,306,24661,1,0,3:0:0:0:
270,372,24833,6,0,P|256:310|162:238,1,165.749992412568,0|0,1:0|0:0,0:0:0:0:
109,252,25178,2,0,P|181:261|172:163,1,165.749992412568,0|0,1:0|0:0,0:0:0:0:
181,154,25523,1,0,3:0:0:0:
271,20,25868,1,2,0:0:0:0:
271,20,26040,1,2,0:0:0:0:
350,70,26212,6,0,L|426:85,1,55.2499974708558,0|0,3:0|0:0,0:0:0:0:
494,58,26385,1,0,3:0:0:0:
494,58,26471,1,0,3:0:0:0:
494,58,26557,1,0,3:0:0:0:
408,161,26730,1,0,0:0:0:0:
338,229,26902,1,2,0:0:0:0:
276,295,27074,1,2,0:0:0:0:
65,191,27247,1,2,0:0:0:0:
65,191,27592,6,0,P|26:144|73:53,1,165.749992412568,0|0,1:0|0:0,0:0:0:0:
82,34,27937,2,0,P|161:69|238:19,1,165.749992412568,0|0,1:0|0:0,0:0:0:0:
255,10,28281,1,8,0:0:0:0:
512,170,28626,2,0,P|457:198|433:242,1,110.499994941712,2|2,0:0|0:0,0:0:0:0:
405,360,28971,6,0,P|370:303|311:283,1,110.499994941712,0|0,1:0|3:0,0:0:0:0:
298,285,29230,1,0,3:0:0:0:
298,285,29316,1,0,3:0:0:0:
242,358,29488,1,0,0:0:0:0:
248,141,29661,1,8,0:0:0:0:
248,141,29833,1,8,0:0:0:0:
273,152,29919,1,8,0:0:0:0:
298,164,30006,1,8,0:0:0:0:
321,177,30092,1,8,0:0:0:0:
345,190,30178,1,0,3:0:0:0:
138,224,30350,6,0,P|71:232|14:315,1,165.749992412568,0|0,1:0|0:0,0:0:0:0:
3,338,30695,2,0,P|77:333|166:378,1,165.749992412568,0|0,1:0|0:0,0:0:0:0:
188,379,31040,5,10,0:0:0:0:
269,326,31212,1,2,0:0:0:0:
344,318,31385,1,2,0:0:0:0:
385,325,31557,1,2,0:0:0:0:
423,338,31730,2,0,L|492:325,2,59.4999981842042,2|2|2,0:0|0:0|0:0,0:0:0:0:
23,3,33109,5,4,0:0:0:0:
23,3,33281,1,2,0:0:0:0:
154,45,33454,2,0,B|78:89|78:89|57:222,1,191.250007295609,4|0,1:2|0:0,0:0:0:0:
72,203,33799,2,0,B|96:262|96:262|56:343,1,127.500004863739,8|0,0:0|0:0,0:0:0:0:
211,372,34143,5,2,0:0:0:0:
243,350,34230,1,0,0:0:0:0:
289,343,34316,1,2,0:0:0:0:
333,359,34402,1,0,0:0:0:0:
273,369,34488,2,0,P|285:290|360:196,1,191.250007295609,0|0,3:0|3:0,0:0:0:0:
385,188,34833,1,0,0:0:0:0:
506,204,35006,1,0,3:0:0:0:
475,75,35178,6,0,L|393:86,1,63.7500024318696,8|0,0:0|0:0,0:0:0:0:
269,66,35350,1,0,3:0:0:0:
269,66,35437,2,0,L|384:-4,1,127.500004863739,8|0,0:0|3:0,0:0:0:0:
235,147,35695,1,8,0:0:0:0:
183,127,35781,1,8,0:0:0:0:
128,140,35868,6,0,B|166:253|101:228|132:347,1,191.250007295609,0|0,1:0|0:0,0:0:0:0:
142,356,36212,1,2,0:0:0:0:
240,277,36385,1,2,0:0:0:0:
35,272,36557,2,0,L|14:131,1,127.500004863739,8|0,0:0|0:0,0:0:0:0:
24,23,36902,1,2,0:0:0:0:
123,72,37074,2,0,L|191:49,1,63.7500024318696,2|0,0:0|0:0,0:0:0:0:
268,0,37247,6,0,B|336:25|336:25|374:69|374:69|440:93,1,191.250007295609,0|0,3:0|3:0,0:0:0:0:
512,137,37592,2,0,B|444:162|444:162|406:206|406:206|340:230,1,191.250007295609,0|0,0:0|3:0,0:0:0:0:
226,277,37937,2,0,L|325:318,1,63.7500024318696,8|0,0:0|0:0,0:0:0:0:
416,362,38109,1,0,3:0:0:0:
402,373,38195,2,0,P|341:310|283:335,1,127.500004863739,8|0,0:0|0:0,0:0:0:0:
194,367,38454,1,8,0:0:0:0:
141,358,38540,1,8,0:0:0:0:
84,346,38626,6,0,P|159:304|161:149,1,229.499992996216,4|0,1:0|0:0,0:0:0:0:
94,112,38971,2,0,P|152:184|281:159,1,229.499992996216,0|0,1:0|0:0,0:0:0:0:
265,139,39316,2,0,P|322:115|371:153,1,127.500004863739,8|0,0:0|0:0,0:0:0:0:
512,232,39661,1,2,0:0:0:0:
487,252,39747,1,0,0:0:0:0:
471,279,39833,1,0,3:0:0:0:
466,311,39919,1,0,3:0:0:0:
474,348,40006,6,0,P|428:288|292:277,1,191.250007295609,0|0,3:0|3:0,0:0:0:0:
292,283,40350,1,2,0:0:0:0:
359,360,40523,1,0,3:0:0:0:
447,182,40695,2,0,L|440:104,1,63.7500024318696,8|0,0:0|0:0,0:0:0:0:
363,4,40868,1,0,3:0:0:0:
363,4,40954,2,0,L|322:131,1,127.500004863739,8|0,0:0|3:0,0:0:0:0:
200,168,41212,1,8,0:0:0:0:
143,181,41299,1,8,0:0:0:0:
84,190,41385,6,0,B|190:210|145:268|250:285,1,191.250007295609,0|0,3:0|0:0,0:0:0:0:
357,240,41730,1,2,0:0:0:0:
357,240,41816,1,2,0:0:0:0:
357,240,41902,2,0,P|359:283|336:316,1,63.7500024318696,2|0,0:0|0:0,0:0:0:0:
242,366,42074,2,0,P|182:348|101:353,1,127.500004863739,8|0,0:0|0:0,0:0:0:0:
24,293,42419,1,2,0:0:0:0:
10,132,42592,1,0,3:0:0:0:
10,132,42678,1,0,3:0:0:0:
10,132,42764,6,0,P|103:149|194:194,1,191.250007295609,0|0,3:0|3:0,0:0:0:0:
235,210,43109,1,0,0:0:0:0:
132,259,43281,1,0,3:0:0:0:
178,94,43454,2,0,L|215:27,1,63.7500024318696,8|0,0:0|0:0,0:0:0:0:
317,0,43626,1,0,3:0:0:0:
317,0,43712,2,0,L|462:32,1,127.500004863739,8|0,0:0|3:0,0:0:0:0:
499,115,43971,1,8,0:0:0:0:
498,163,44057,1,8,0:0:0:0:
496,214,44143,6,0,B|426:234|426:234|401:276|401:276|320:284,1,191.250007295609,4|0,0:0|0:0,0:0:0:0:
264,366,44488,2,0,P|329:287|230:209,1,242.249993531227,4|0,1:0|0:0,0:0:0:0:
163,195,44833,6,0,B|71:197|111:263|17:255,1,165.749992412568,14|0,0:0|0:0,0:0:0:0:
9,180,45178,1,2,0:0:0:0:
111,19,45350,1,0,3:0:0:0:
111,19,45437,1,0,3:0:0:0:
111,19,45523,6,0,P|145:104|244:128,1,191.250007295609,0|0,3:0|0:0,0:0:0:0:
271,105,45868,1,2,0:0:0:0:
373,153,46040,1,0,3:0:0:0:
237,273,46212,2,0,L|227:335,1,63.7500024318696,8|0,0:0|0:0,0:0:0:0:
145,348,46385,1,0,3:0:0:0:
145,348,46471,2,0,P|105:283|131:216,1,127.500004863739,8|0,0:0|3:0,0:0:0:0:
223,188,46730,1,8,0:0:0:0:
223,188,46816,1,8,0:0:0:0:
223,188,46902,6,0,B|293:204|293:204|346:243|371:311,1,191.250007295609,0|0,1:0|0:0,0:0:0:0:
361,331,47247,1,0,0:0:0:0:
498,238,47419,1,0,3:0:0:0:
498,238,47506,1,0,3:0:0:0:
498,238,47592,2,0,P|445:182|470:69,1,191.250007295609,8|0,0:0|0:0,0:0:0:0:
484,48,47937,1,0,0:0:0:0:
358,79,48109,2,0,L|289:45,1,63.7500024318696,0|0,3:0|3:0,0:0:0:0:
198,30,48281,6,0,B|125:49|125:49|104:85|104:85|7:106,1,191.250007295609,0|0,3:0|3:0,0:0:0:0:
85,168,48626,2,0,B|158:187|158:187|179:223|179:223|251:238,1,191.250007295609,0|0,0:0|3:0,0:0:0:0:
231,326,48971,2,0,L|172:348,1,63.7500024318696,8|0,0:0|0:0,0:0:0:0:
328,351,49143,1,0,3:0:0:0:
332,345,49230,2,0,L|489:366,1,127.500004863739,8|0,0:0|3:0,0:0:0:0:
465,255,49488,1,8,0:0:0:0:
435,241,49574,1,8,0:0:0:0:
397,223,49661,6,0,B|322:184|322:184|329:101|405:47,1,229.499992996216,4|0,0:0|0:0,0:0:0:0:
454,13,50006,2,0,P|384:90|262:50,1,229.499992996216,4|0,1:0|0:0,0:0:0:0:
250,42,50350,1,8,0:0:0:0:
0,277,50695,1,0,0:0:0:0:
91,217,50868,1,2,0:0:0:0:
91,217,50954,1,2,0:0:0:0:
91,217,51040,6,0,P|103:300|78:335,2,127.500004863739,2|2|2,0:0|0:0|0:0,0:0:0:0:
6,165,51557,1,0,0:0:0:0:
103,125,51730,2,0,L|171:146,1,63.7500024318696,8|0,0:0|0:0,0:0:0:0:
270,196,51902,1,0,3:0:0:0:
270,196,51988,2,0,L|399:171,1,127.500004863739,8|0,0:0|0:0,0:0:0:0:
496,74,52247,1,8,0:0:0:0:
459,110,52333,1,8,0:0:0:0:
444,152,52419,6,0,P|439:219|451:296,1,127.500004863739,4|0,1:0|0:0,0:0:0:0:
302,368,52764,1,2,0:0:0:0:
278,346,52850,1,0,0:0:0:0:
249,327,52937,1,2,0:0:0:0:
212,321,53023,1,0,0:0:0:0:
172,329,53109,1,8,0:0:0:0:
5,207,53281,6,0,L|12:134,1,63.7500024318696,0|0,0:0|0:0,0:0:0:0:
94,103,53454,1,2,0:0:0:0:
94,103,53540,1,0,0:0:0:0:
94,103,53626,2,0,L|103:178,1,63.7500024318696,0|0,3:0|3:0,0:0:0:0:
183,0,53799,5,0,3:0:0:0:
286,20,53971,1,2,0:0:0:0:
380,38,54143,2,0,P|397:98|389:149,1,110.499994941712,2|0,0:0|3:0,0:0:0:0:
382,252,54488,2,0,L|311:272,1,55.2499974708558,8|0,0:0|0:0,0:0:0:0:
222,320,54661,1,0,3:0:0:0:
222,320,54747,2,0,L|335:351,1,110.499994941712,8|0,0:0|3:0,0:0:0:0:
452,356,55006,5,0,3:0:0:0:
452,356,55092,1,0,3:0:0:0:
452,356,55178,2,0,L|462:318,4,23.3750007133484,0|0|0|0|0,3:0|3:0|3:0|3:0|3:0,0:0:0:0:
485,251,55523,1,0,0:0:0:0:
485,251,55781,1,0,3:0:0:0:
478,220,55868,2,0,L|477:110,2,93.5000028533936,8|0|0,0:0|0:0|0:0,0:0:0:0:
291,12,56557,6,0,L|226:25,1,46.7500014266968,0|0,1:0|0:0,0:0:0:0:
144,47,56730,2,0,L|85:33,2,46.7500014266968,0|0|0,3:0|3:0|3:0,0:0:0:0:
214,108,57074,1,0,0:0:0:0:
215,254,57247,1,8,0:0:0:0:
215,254,57419,1,8,0:0:0:0:
177,261,57506,1,8,0:0:0:0:
134,274,57592,2,0,L|108:333,2,46.7500014266968,8|8|0,0:0|0:0|3:0,0:0:0:0:
43,85,57937,6,0,L|40:53,4,23.3750007133484,0|0|0|0|0,3:0|3:0|3:0|3:0|3:0,0:0:0:0:
56,171,58281,1,0,0:0:0:0:
277,15,58626,1,8,0:0:0:0:
318,88,58799,2,0,L|311:126,10,23.3750007133484,0|0|0|0|0|0|0|0|0|0|0,3:0|3:0|3:0|3:0|3:0|3:0|3:0|3:0|3:0|3:0|3:0,0:0:0:0:
334,67,59316,6,0,L|396:78,1,46.7500014266968,0|0,1:0|0:0,0:0:0:0:
481,133,59488,1,0,3:0:0:0:
481,133,59574,1,0,3:0:0:0:
481,133,59661,2,0,L|470:193,1,46.7500014266968,0|0,3:0|3:0,0:0:0:0:
451,294,59833,1,0,3:0:0:0:
330,360,60006,1,8,0:0:0:0:
301,348,60092,1,8,0:0:0:0:
71,359,60695,6,0,P|22:279|47:174,2,187.000005706787,0|0|8,1:0|1:0|0:0,0:0:0:0:
144,62,61729,2,0,P|183:36|243:21,1,93.5000028533936,2|2,0:0|0:0,0:0:0:0:
364,15,62074,6,0,P|351:89|314:123,1,110.499994941712,0|0,3:0|0:0,0:0:0:0:
271,152,62333,2,0,P|333:146|382:170,1,110.499994941712,0|0,3:0|0:0,0:0:0:0:
407,181,62592,1,0,3:0:0:0:
406,350,62764,1,8,0:0:0:0:
406,350,62936,5,8,0:0:0:0:
378,352,63023,1,8,0:0:0:0:
350,354,63109,1,8,0:0:0:0:
322,356,63195,1,8,0:0:0:0:
294,360,63281,1,0,3:0:0:0:
200,156,63454,6,0,P|155:197|195:328,2,187.000005706787,0|0|8,1:0|1:0|0:0,0:0:0:0:
0,20,64488,1,2,0:0:0:0:
0,20,64661,1,2,0:0:0:0:
71,67,64833,6,0,L|82:120,1,46.7500014266968,0|0,3:0|0:0,0:0:0:0:
0,199,65005,1,0,3:0:0:0:
0,199,65092,1,0,3:0:0:0:
0,199,65178,1,0,3:0:0:0:
96,230,65350,1,0,0:0:0:0:
198,252,65523,1,2,0:0:0:0:
60,358,65867,1,2,0:0:0:0:
60,358,66212,6,0,P|106:292|222:264,2,187.000005706787,0|0|8,1:0|1:0|0:0,0:0:0:0:
468,358,67247,2,0,P|468:295|446:258,1,93.5000028533936,2|2,0:0|0:0,0:0:0:0:
362,195,67592,6,0,P|425:181|464:123,1,110.499994941712,0|0,3:0|0:0,0:0:0:0:
495,126,67850,2,0,P|442:92|412:48,1,110.499994941712,0|0,3:0|0:0,0:0:0:0:
400,14,68109,1,0,3:0:0:0:
246,73,68281,1,8,0:0:0:0:
246,73,68454,1,8,0:0:0:0:
219,77,68540,1,8,0:0:0:0:
191,77,68626,1,8,0:0:0:0:
164,79,68712,1,8,0:0:0:0:
137,80,68798,1,0,3:0:0:0:
0,140,68971,6,0,P|28:202|121:237,1,165.749992412568,0|0,1:0|0:0,0:0:0:0:
121,244,69316,2,0,P|109:311|23:360,1,165.749992412568,0|0,1:0|0:0,0:0:0:0:
18,355,69661,1,8,0:0:0:0:
287,369,70005,1,2,0:0:0:0:
287,369,70178,1,2,0:0:0:0:
372,344,70350,6,0,L|384:269,1,55.2499974708558,0|0,3:0|0:0,0:0:0:0:
400,213,70523,1,0,3:0:0:0:
400,213,70609,1,0,3:0:0:0:
400,213,70695,1,0,3:0:0:0:
267,183,70867,1,2,0:0:0:0:
150,179,71040,1,8,0:0:0:0:
121,195,71126,1,8,0:0:0:0:
93,211,71385,6,0,P|128:141|103:27,1,191.250007295609,2|0,0:0|0:0,0:0:0:0:
42,72,71730,6,0,P|123:58|223:13,1,165.749992412568,0|0,1:0|0:0,0:0:0:0:
253,5,72074,2,0,P|255:94|319:122,1,165.749992412568,0|0,1:0|0:0,0:0:0:0:
359,118,72419,1,8,0:0:0:0:
488,265,72764,2,0,P|435:313|412:350,1,110.499994941712,2|2,0:0|0:0,0:0:0:0:
292,365,73109,6,0,P|265:299|256:229,1,110.499994941712,0|0,1:0|3:0,0:0:0:0:
255,235,73367,1,0,3:0:0:0:
255,235,73454,1,0,3:0:0:0:
143,246,73626,1,0,0:0:0:0:
72,365,73798,1,8,0:0:0:0:
72,365,73971,1,8,0:0:0:0:
53,345,74057,1,8,0:0:0:0:
40,321,74143,1,8,0:0:0:0:
29,296,74229,1,8,0:0:0:0:
23,263,74316,1,0,3:0:0:0:
133,180,74488,6,0,P|195:166|267:72,1,165.749992412568,0|0,1:0|0:0,0:0:0:0:
261,50,74833,2,0,P|307:110|397:123,1,165.749992412568,0|0,1:0|0:0,0:0:0:0:
418,116,75178,1,0,3:0:0:0:
487,8,75523,1,2,0:0:0:0:
487,8,75695,1,2,0:0:0:0:
499,100,75867,6,0,L|484:176,1,55.2499974708558,0|0,3:0|0:0,0:0:0:0:
471,244,76040,1,0,3:0:0:0:
471,244,76126,1,0,3:0:0:0:
471,244,76212,1,0,3:0:0:0:
372,211,76385,1,0,0:0:0:0:
303,309,76557,1,2,0:0:0:0:
219,355,76729,1,2,0:0:0:0:
218,200,76902,1,2,0:0:0:0:
218,200,77247,6,0,P|259:133|218:65,1,165.749992412568,0|0,1:3|0:3,0:0:0:0:
216,30,77592,2,0,P|172:74|62:69,1,165.749992412568,0|0,1:0|0:0,0:0:0:0:
49,58,77936,1,8,0:0:0:0:
0,322,78281,2,0,P|28:275|78:252,1,110.499994941712,2|2,0:0|0:0,0:0:0:0:
178,253,78626,6,0,P|225:279|250:327,1,110.499994941712,0|0,1:0|3:0,0:0:0:0:
257,367,78885,1,0,3:0:0:0:
257,367,78971,1,0,3:0:0:0:
346,362,79143,1,0,0:0:0:0:
443,352,79316,1,8,0:0:0:0:
443,352,79488,1,8,0:0:0:0:
432,327,79574,1,8,0:0:0:0:
420,302,79661,1,8,0:0:0:0:
407,279,79747,1,8,0:0:0:0:
394,255,79833,1,0,3:0:0:0:
317,141,80005,6,0,P|250:149|193:232,1,165.749992412568,0|0,1:0|0:0,0:0:0:0:
176,233,80350,2,0,P|142:151|71:109,1,165.749992412568,0|0,1:0|0:0,0:0:0:0:
27,104,80695,5,10,0:0:0:0:
107,27,80867,1,2,0:0:0:0:
198,19,81040,1,2,0:0:0:0:
239,34,81212,1,2,0:0:0:0:
261,45,81385,2,0,L|336:26,2,59.4999981842042,2|2|2,0:0|0:0|0:0,0:0:0:0:
13,367,82764,5,4,0:0:0:0:
156,230,82936,1,2,0:0:0:0:
92,303,83109,2,0,B|16:259|16:259|-5:126,1,191.250007295609,4|0,1:0|0:0,0:0:0:0:
1,122,83454,2,0,P|49:91|126:128,1,127.500004863739,8|0,0:0|0:0,0:0:0:0:
253,163,83798,5,2,0:0:0:0:
231,131,83885,1,0,0:0:0:0:
224,85,83971,1,2,0:0:0:0:
240,41,84057,1,0,0:0:0:0:
276,13,84143,6,0,P|267:81|184:192,1,191.250007295609,0|0,3:0|3:0,0:0:0:0:
165,193,84488,1,0,0:0:0:0:
203,301,84661,1,0,3:0:0:0:
298,342,84833,6,0,L|380:353,1,63.7500024318696,8|0,0:0|0:0,0:0:0:0:
460,358,85006,1,0,3:0:0:0:
460,358,85092,2,0,L|499:231,1,127.500004863739,8|0,0:0|3:0,0:0:0:0:
472,108,85350,1,8,0:0:0:0:
444,131,85436,1,8,0:0:0:0:
413,152,85523,6,0,B|308:131|349:218|220:199,1,191.250007295609,0|0,1:0|0:0,0:0:0:0:
203,193,85867,1,2,0:0:0:0:
222,95,86040,1,2,0:0:0:0:
59,148,86212,2,0,P|39:219|32:275,1,127.500004863739,8|0,0:0|0:0,0:0:0:0:
115,359,86557,1,2,0:0:0:0:
224,372,86729,2,0,L|292:349,1,63.7500024318696,2|0,0:0|0:0,0:0:0:0:
386,284,86902,6,0,B|318:259|318:259|280:215|280:215|214:191,1,191.250007295609,0|0,3:0|3:0,0:0:0:0:
107,159,87247,2,0,B|164:138|164:138|202:94|202:94|270:69,1,191.250007295609,0|0,0:0|3:0,0:0:0:0:
358,60,87592,2,0,L|337:-4,1,63.7500024318696,8|0,0:0|0:0,0:0:0:0:
497,44,87764,1,0,3:0:0:0:
497,44,87850,2,0,L|462:204,1,127.500004863739,8|0,0:0|0:0,0:0:0:0:
457,270,88109,1,8,0:0:0:0:
422,312,88195,1,8,0:0:0:0:
454,372,88281,6,0,P|412:297|257:295,1,229.499992996216,0|0,1:0|0:0,0:0:0:0:
245,216,88626,2,0,P|279:322|153:362,1,229.499992996216,0|0,1:0|0:0,0:0:0:0:
169,374,88971,2,0,P|136:313|86:281,1,127.500004863739,10|0,0:0|0:0,0:0:0:0:
17,149,89316,1,2,0:0:0:0:
48,143,89402,1,2,0:0:0:0:
79,149,89488,1,0,3:0:0:0:
106,167,89574,1,0,3:0:0:0:
124,196,89661,6,0,P|91:133|168:43,1,191.250007295609,0|0,3:0|3:0,0:0:0:0:
185,40,90005,1,0,0:0:0:0:
300,77,90178,1,0,3:0:0:0:
414,99,90350,2,0,L|490:80,1,63.7500024318696,8|0,0:0|0:0,0:0:0:0:
324,0,90523,1,0,3:0:0:0:
324,0,90609,2,0,L|283:127,1,127.500004863739,8|0,0:0|3:0,0:0:0:0:
338,243,90867,1,8,0:0:0:0:
359,265,90954,1,8,0:0:0:0:
390,283,91040,6,0,P|474:258|466:158,1,191.250007295609,0|0,1:0|0:0,0:0:0:0:
356,140,91385,1,2,0:0:0:0:
356,140,91471,1,2,0:0:0:0:
356,140,91557,2,0,L|280:160,1,63.7500024318696,2|0,0:0|0:0,0:0:0:0:
168,176,91730,2,0,B|114:139|114:139|166:13,1,191.250007295609,8|0,0:0|0:0,0:0:0:0:
193,2,92074,1,2,0:0:0:0:
10,132,92247,1,0,3:0:0:0:
10,132,92333,1,0,3:0:0:0:
10,132,92419,6,0,P|46:218|61:321,1,191.250007295609,0|0,3:0|3:0,0:0:0:0:
39,343,92764,1,0,0:0:0:0:
167,339,92936,1,0,3:0:0:0:
316,332,93109,2,0,L|248:299,1,63.7500024318696,8|0,0:0|0:0,0:0:0:0:
134,246,93281,1,0,3:0:0:0:
134,246,93367,2,0,L|273:207,1,127.500004863739,8|0,0:0|3:0,0:0:0:0:
368,185,93626,1,8,0:0:0:0:
401,157,93712,1,8,0:0:0:0:
432,127,93799,6,0,P|432:47|329:11,1,191.250007295609,4|0,0:0|0:0,0:0:0:0:
280,58,94143,2,0,B|199:85|199:85|153:133|153:133|46:158,1,242.249993531227,4|0,1:0|0:0,0:0:0:0:
15,78,94488,2,0,P|69:136|79:233,1,165.749992412568,12|0,0:0|0:0,0:0:0:0:
58,247,94833,1,2,0:0:0:0:
191,361,95006,1,0,3:0:0:0:
191,361,95092,1,0,3:0:0:0:
191,361,95178,6,0,P|281:326|401:319,1,191.250007295609,0|0,3:0|3:0,0:0:0:0:
400,338,95523,1,0,0:0:0:0:
476,247,95695,1,0,3:0:0:0:
396,161,95867,2,0,L|382:89,1,63.7500024318696,8|0,0:0|0:0,0:0:0:0:
504,17,96040,1,0,3:0:0:0:
504,17,96126,2,0,L|473:149,1,127.500004863739,8|0,0:0|3:0,0:0:0:0:
395,236,96385,1,8,0:0:0:0:
371,248,96471,1,8,0:0:0:0:
344,262,96557,6,0,B|230:258|269:325|154:323,1,191.250007295609,0|0,3:0|0:0,0:0:0:0:
138,308,96902,1,2,0:0:0:0:
28,226,97074,1,0,3:0:0:0:
28,226,97161,1,0,3:0:0:0:
28,226,97247,2,0,P|79:173|39:51,1,191.250007295609,8|0,0:0|0:0,0:0:0:0:
36,30,97592,1,2,0:0:0:0:
164,11,97764,2,0,L|231:27,1,63.7500024318696,0|0,3:0|3:0,0:0:0:0:
376,54,97936,6,0,B|303:73|303:73|282:109|282:109|185:130,1,191.250007295609,0|0,3:0|3:0,0:0:0:0:
139,184,98281,2,0,B|212:203|212:203|233:239|233:239|305:254,1,191.250007295609,0|0,0:0|3:0,0:0:0:0:
405,236,98626,2,0,L|464:214,1,63.7500024318696,8|0,0:0|0:0,0:0:0:0:
372,332,98798,1,0,3:0:0:0:
368,326,98885,2,0,L|211:347,1,127.500004863739,8|0,0:0|3:0,0:0:0:0:
46,328,99143,1,8,0:0:0:0:
83,341,99229,1,8,0:0:0:0:
125,349,99316,6,0,B|168:199|168:199|107:110,1,229.499992996216,0|0,1:0|0:0,0:0:0:0:
43,147,99661,2,0,P|124:146|141:10,1,229.499992996216,0|0,1:0|0:0,0:0:0:0:
112,0,100005,1,10,0:0:0:0:
465,105,100350,1,0,0:0:0:0:
387,181,100523,1,0,0:0:0:0:
387,181,100609,1,0,0:0:0:0:
387,181,100695,6,0,P|355:122|390:58,2,127.500004863739,0|2|2,3:0|0:0|0:0,0:0:0:0:
482,229,101212,1,2,0:0:0:0:
387,280,101385,2,0,L|326:298,1,63.7500024318696,8|0,0:0|0:0,0:0:0:0:
187,350,101557,1,0,3:0:0:0:
187,350,101643,2,0,L|312:374,1,127.500004863739,8|0,0:0|0:0,0:0:0:0:
267,248,101902,1,8,0:0:0:0:
254,212,101988,1,8,0:0:0:0:
234,180,102074,6,0,P|243:80|295:29,1,127.500004863739,0|0,1:0|0:0,0:0:0:0:
379,55,102419,1,2,0:0:0:0:
334,60,102505,1,0,0:0:0:0:
286,45,102591,1,2,0:0:0:0:
257,26,102678,1,0,0:0:0:0:
233,4,102764,1,8,0:0:0:0:
64,3,102936,6,0,L|57:66,1,63.7500024318696,0|0,0:0|0:0,0:0:0:0:
33,174,103109,1,2,0:0:0:0:
33,174,103195,1,0,0:0:0:0:
33,174,103281,2,0,L|42:249,1,63.7500024318696,0|0,3:0|3:0,0:0:0:0:
91,345,103454,5,0,3:0:0:0:
196,360,103626,1,2,0:0:0:0:
302,366,103799,2,0,P|324:300|365:245,2,110.499994941712,2|2|2,0:0|0:0|0:0,0:0:0:0:
479,206,104488,5,0,3:0:0:0:
471,160,104574,1,0,3:0:0:0:
462,118,104661,2,0,L|492:73,4,27.6249987354279,0|0|0|0|0,3:0|3:0|3:0|3:0|3:0,0:0:0:0:
352,139,105178,1,0,0:0:0:0:
352,139,105437,1,0,0:0:0:0:
299,132,105523,2,0,L|198:116,2,85,8|0|0,0:0|0:0|0:0,0:0:0:0:
122,17,106212,6,0,P|121:69|104:114,1,85,0|0,1:0|3:0,0:0:0:0:
96,122,106471,1,0,3:0:0:0:
96,122,106557,1,0,3:0:0:0:
20,198,106730,1,0,0:0:0:0:
62,296,106902,1,8,0:0:0:0:
62,296,107074,1,8,0:0:0:0:
120,284,107161,1,8,0:0:0:0:
172,273,107247,2,0,P|179:309|173:325,2,42.5,8|8|0,0:0|0:0|3:0,0:0:0:0:
240,126,107592,6,0,L|248:89,4,21.25,0|0|0|0|0,3:0|3:0|3:0|3:0|3:0,0:0:0:0:
287,206,107937,1,0,0:0:0:0:
287,206,108195,1,0,3:0:0:0:
321,207,108281,2,0,L|415:187,2,85,8|0|0,0:0|0:0|0:0,0:0:0:0:
475,0,108971,5,0,1:0:0:0:
402,87,109143,1,0,3:0:0:0:
402,87,109230,1,0,3:0:0:0:
402,87,109316,2,0,L|463:78,2,42.5,0|0|0,3:0|3:0|3:0,0:0:0:0:
298,15,109661,1,8,0:0:0:0:
246,21,109747,1,8,0:0:0:0:
391,367,110350,6,0,L|387:328,4,21.25,0|0|0|0|0,3:0|3:0|3:0|3:0|3:0,0:0:0:0:
381,264,110695,1,0,0:0:0:0:
381,264,110954,1,0,3:0:0:0:
344,268,111040,2,0,L|251:278,2,85,8|0|0,0:0|0:0|0:0,0:0:0:0:
171,362,111730,6,0,P|163:318|136:280,1,85,0|0,1:0|3:0,0:0:0:0:
115,262,111988,1,0,3:0:0:0:
115,262,112074,1,0,3:0:0:0:
19,208,112247,1,0,0:0:0:0:
137,155,112419,1,8,0:0:0:0:
137,155,112592,1,8,0:0:0:0:
185,141,112678,1,8,0:0:0:0:
238,142,112764,2,0,L|234:192,2,42.5,8|8|0,0:0|0:0|3:0,0:0:0:0:
102,38,113109,6,0,L|98:2,4,21.25,0|0|0|0|0,1:0|3:0|3:0|3:0|3:0,0:0:0:0:
27,88,113454,1,0,0:0:0:0:
323,43,113799,1,8,0:0:0:0:
408,67,113971,2,0,L|403:101,10,21.25,0|0|0|0|0|0|0|0|0|0|0,3:0|3:0|3:0|3:0|3:0|3:0|3:0|3:0|3:0|3:0|3:0,0:0:0:0:
417,40,114488,6,0,L|476:27,1,42.5,0|0,1:0|0:0,0:0:0:0:
484,162,114661,1,0,3:0:0:0:
484,162,114747,1,0,3:0:0:0:
484,162,114833,2,0,L|427:149,1,42.5,0|0,3:0|3:0,0:0:0:0:
289,134,115006,1,0,3:0:0:0:
306,262,115178,1,8,0:0:0:0:
3,5,115868,6,0,P|62:36|68:122,1,140.25000428009,0|0,1:0|0:0,0:0:0:0:
64,134,116212,1,0,1:0:0:0:
169,210,116385,1,2,0:0:0:0:
169,210,116471,1,2,0:0:0:0:
169,210,116557,2,0,L|274:223,2,93.5000028533936,8|0|0,0:0|0:0|3:0,0:0:0:0:
469,372,117247,6,0,P|468:320|412:273,1,110.499994941712,0|0,3:0|0:0,0:0:0:0:
360,272,117506,2,0,P|426:253|444:197,1,110.499994941712,0|0,3:0|0:0,0:0:0:0:
455,183,117764,1,0,3:0:0:0:
409,23,117937,1,8,0:0:0:0:
409,23,118109,1,8,0:0:0:0:
381,26,118195,1,8,0:0:0:0:
353,30,118281,1,8,0:0:0:0:
325,35,118368,1,8,0:0:0:0:
298,41,118454,1,0,3:0:0:0:
143,8,118626,6,0,P|127:62|95:102,1,93.5000028533936,0|0,3:0|0:0,0:0:0:0:
6,170,118971,2,0,L|50:183,1,46.7500014266968,2|0,0:0|0:0,0:0:0:0:
93,203,119143,2,0,L|43:225,1,46.7500014266968,2|0,0:0|0:0,0:0:0:0:
7,245,119316,2,0,P|52:273|74:324,1,93.5000028533936,8|0,0:0|0:0,0:0:0:0:
145,364,119661,1,2,0:0:0:0:
242,356,119833,1,2,0:0:0:0:
334,345,120006,6,0,L|344:270,1,55.2499974708558,0|0,3:0|0:0,0:0:0:0:
352,192,120178,1,0,3:0:0:0:
352,192,120264,1,0,3:0:0:0:
352,192,120350,2,0,L|411:210,1,55.2499974708558,0|0,3:0|0:0,0:0:0:0:
505,210,120523,2,0,L|489:149,1,55.2499974708558,0|0,0:0|0:0,0:0:0:0:
452,32,120695,1,2,0:0:0:0:
452,32,120954,1,2,0:0:0:0:
451,80,121040,1,2,0:0:0:0:
193,12,121385,6,0,P|117:23|110:86,1,140.25000428009,0|0,3:0|0:0,0:0:0:0:
124,160,121730,1,2,0:0:0:0:
124,160,121816,1,2,0:0:0:0:
124,160,121902,1,2,0:0:0:0:
201,209,122074,6,0,B|286:228|286:228|334:276|334:276|472:298,1,280.500008560181,2|2,0:0|0:0,0:0:0:0:
476,178,122764,2,0,P|422:209|472:385,1,280.500008560181,2|2,0:0|0:0,0:0:0:0:
187,361,123626,1,8,0:0:0:0:
181,324,123712,1,8,0:0:0:0:
175,286,123799,1,8,0:0:0:0:
170,248,123885,1,8,0:0:0:0:
165,210,123971,1,0,3:0:0:0:
73,147,124143,5,0,1:0:0:0:
167,68,124316,1,2,0:0:0:0:
262,149,124488,1,2,0:0:0:0:
370,65,124661,2,0,P|397:124|397:167,1,93.5000028533936,2|8,0:0|0:0,0:0:0:0:
401,259,125006,2,0,L|497:288,2,93.5000028533936,2|2|2,0:0|0:0|0:0,0:0:0:0:
294,284,125523,6,0,L|236:296,1,46.7500014266968,0|0,3:0|0:0,0:0:0:0:
133,350,125695,1,0,3:0:0:0:
133,350,125781,1,0,3:0:0:0:
133,350,125868,2,0,L|150:288,1,46.7500014266968,0|0,3:0|0:0,0:0:0:0:
171,214,126040,1,0,0:0:0:0:
160,94,126212,1,8,0:0:0:0:
147,39,126299,1,8,0:0:0:0:
490,8,126730,5,2,3:0:0:0:
444,26,126816,1,2,3:0:0:0:
398,48,126902,2,0,P|364:94|376:175,1,118.999996368408,0|0,1:0|0:0,0:0:0:0:
459,205,127161,1,2,3:0:0:0:
459,205,127247,2,0,L|394:230,1,59.4999981842042,0|0,1:0|0:0,0:0:0:0:
320,291,127419,2,0,L|258:263,1,59.4999981842042,2|0,3:0|0:0,0:0:0:0:
137,222,127592,6,0,P|166:297|160:344,1,93.5000028533936,2|0,3:0|0:0,0:0:0:0:
98,369,127937,1,2,0:0:0:0:
8,101,128281,6,0,P|63:83|137:98,1,110.499994941712,0|0,1:0|3:0,0:0:0:0:
145,105,128540,1,0,3:0:0:0:
145,105,128626,1,0,3:0:0:0:
261,135,128799,1,0,0:0:0:0:
337,13,128971,1,8,0:0:0:0:
337,13,129143,1,8,0:0:0:0:
358,51,129230,1,8,0:0:0:0:
395,74,129316,1,8,0:0:0:0:
438,70,129402,1,8,0:0:0:0:
478,52,129488,1,0,3:0:0:0:
497,194,129661,6,0,B|393:188|436:255|324:261,1,165.749992412568,0|0,1:0|0:0,0:0:0:0:
266,261,130006,2,0,P|342:281|386:363,1,165.749992412568,0|0,1:0|0:0,0:0:0:0:
414,363,130350,2,0,L|458:348,16,27.6249987354279,0|0|0|0|0|0|0|0|0|0|0|0|0|0|0|0|0,3:0|3:0|3:0|3:0|3:0|3:0|3:0|3:0|3:0|3:0|3:0|3:0|3:0|3:0|3:0|3:0|3:0,0:0:0:0:
33,363,132419,6,0,P|93:309|73:210,1,165.749992412568,0|0,1:0|0:0,0:0:0:0:
22,204,132764,2,0,P|97:226|166:167,1,165.749992412568,0|0,1:0|0:0,0:0:0:0:
170,138,133109,1,8,0:0:0:0:
374,7,133454,2,0,P|421:27|451:55,1,93.5000028533936,2|2,0:0|0:0,0:0:0:0:
501,124,133799,6,0,P|466:164|459:214,1,93.5000028533936,0|0,1:0|3:0,0:0:0:0:
468,236,134057,1,0,3:0:0:0:
468,236,134143,1,0,3:0:0:0:
366,277,134316,1,0,0:0:0:0:
205,359,134488,1,8,0:0:0:0:
205,359,134661,1,8,0:0:0:0:
202,321,134747,1,8,0:0:0:0:
212,285,134833,1,8,0:0:0:0:
235,256,134919,1,8,0:0:0:0:
266,235,135006,1,0,3:0:0:0:
145,194,135178,6,0,P|89:167|80:51,1,165.749992412568,0|0,1:0|0:0,0:0:0:0:
76,37,135523,2,0,L|216:25,2,110.499994941712,0|0|8,1:0|0:0|0:0,0:0:0:0:
511,76,136212,1,2,0:0:0:0:
491,216,136902,6,0,B|438:184|360:239|360:239|373:160|299:101,1,272,2|0,0:0|0:0,0:0:0:0:
487,23,137937,5,4,0:0:0:0:
358,146,138109,1,2,0:0:0:0:
364,45,138282,2,0,B|440:89|440:89|456:191,1,191.250007295609,4|0,1:0|0:0,0:0:0:0:
466,227,138626,2,0,P|384:221|334:249,1,127.500004863739,8|0,0:0|0:0,0:0:0:0:
292,352,138971,5,2,0:0:0:0:
253,350,139058,1,0,0:0:0:0:
211,329,139144,1,2,0:0:0:0:
185,290,139230,1,0,0:0:0:0:
231,284,139316,2,0,P|213:191|123:134,1,191.250007295609,0|0,3:0|3:0,0:0:0:0:
113,142,139661,1,0,0:0:0:0:
32,210,139834,1,0,3:0:0:0:
22,73,140006,6,0,L|85:64,1,63.7500024318696,8|0,0:0|0:0,0:0:0:0:
179,14,140178,1,0,3:0:0:0:
179,14,140265,2,0,L|316:42,1,127.500004863739,8|0,0:0|3:0,0:0:0:0:
409,25,140523,1,8,0:0:0:0:
426,50,140609,1,8,0:0:0:0:
441,78,140695,6,0,B|370:108|370:108|337:150|337:150|244:177,1,191.250007295609,0|0,1:0|0:0,0:0:0:0:
233,163,141040,1,2,0:0:0:0:
332,240,141213,1,2,0:0:0:0:
263,338,141385,2,0,L|119:372,1,127.500004863739,8|0,0:0|0:0,0:0:0:0:
45,321,141730,1,2,0:0:0:0:
124,225,141902,2,0,L|190:251,1,63.7500024318696,2|0,0:0|0:0,0:0:0:0:
261,235,142075,6,0,B|263:162|263:162|235:111|235:111|236:50,1,191.250007295609,0|0,3:0|3:0,0:0:0:0:
306,12,142420,2,0,B|386:33|386:33|412:63|412:63|501:77,1,191.250007295609,0|0,0:0|3:0,0:0:0:0:
471,162,142765,2,0,L|439:233,1,63.7500024318696,8|0,0:0|0:0,0:0:0:0:
465,310,142937,1,0,0:0:0:0:
465,310,143023,2,0,L|337:348,1,127.500004863739,8|0,0:0|0:0,0:0:0:0:
241,324,143282,1,8,0:0:0:0:
229,302,143368,1,8,0:0:0:0:
218,267,143454,6,0,P|179:168|183:20,1,229.499992996216,0|0,1:0|0:0,0:0:0:0:
253,3,143799,2,0,P|191:60|48:90,1,229.499992996216,0|0,1:0|0:0,0:0:0:0:
10,85,144143,2,0,P|56:136|68:195,1,127.500004863739,8|0,0:0|0:0,0:0:0:0:
64,384,144488,1,2,0:0:0:0:
89,364,144575,1,0,0:0:0:0:
105,337,144661,1,0,3:0:0:0:
110,305,144747,1,0,3:0:0:0:
102,268,144834,6,0,P|148:328|284:339,1,191.250007295609,0|0,3:0|3:0,0:0:0:0:
287,313,145178,1,0,0:0:0:0:
382,357,145351,1,0,3:0:0:0:
470,307,145523,2,0,L|463:229,1,63.7500024318696,8|0,0:0|0:0,0:0:0:0:
446,152,145696,1,0,3:0:0:0:
446,152,145782,2,0,L|306:182,1,127.500004863739,8|0,0:0|3:0,0:0:0:0:
224,107,146040,1,8,0:0:0:0:
199,93,146127,1,8,0:0:0:0:
172,70,146212,6,0,P|269:74|340:-12,1,191.250007295609,0|0,3:0|0:0,0:0:0:0:
416,0,146558,1,2,0:0:0:0:
416,0,146644,1,2,0:0:0:0:
416,0,146730,2,0,P|414:43|437:76,1,63.7500024318696,2|0,0:0|0:0,0:0:0:0:
442,174,146902,2,0,P|427:261|325:283,1,191.250007295609,8|0,0:0|0:0,0:0:0:0:
302,280,147247,1,2,0:0:0:0:
171,354,147419,1,0,3:0:0:0:
171,354,147506,1,0,3:0:0:0:
171,354,147592,6,0,P|179:252|111:166,1,191.250007295609,0|0,3:0|3:0,0:0:0:0:
102,173,147937,1,0,0:0:0:0:
26,236,148109,1,0,3:0:0:0:
32,96,148282,2,0,L|106:77,1,63.7500024318696,8|0,0:0|0:0,0:0:0:0:
182,24,148454,1,0,3:0:0:0:
182,24,148540,2,0,L|327:56,1,127.500004863739,8|0,0:0|3:0,0:0:0:0:
416,23,148799,1,8,0:0:0:0:
416,23,148885,1,8,0:0:0:0:
416,23,148971,6,0,B|436:93|436:93|478:118|478:118|486:199,1,191.250007295609,4|0,0:0|0:0,0:0:0:0:
509,263,149316,2,0,P|436:196|283:172,1,242.249993531227,4|0,1:0|0:0,0:0:0:0:
247,123,149661,2,0,P|280:184|283:283,1,165.749992412568,4|0,0:0|0:0,0:0:0:0:
278,311,150006,1,2,0:0:0:0:
133,356,150178,1,0,3:0:0:0:
133,356,150265,1,0,3:0:0:0:
133,356,150350,6,0,P|114:253|27:226,1,191.250007295609,0|0,3:0|0:0,0:0:0:0:
7,239,150696,1,2,0:0:0:0:
149,169,150868,1,0,3:0:0:0:
47,110,151040,2,0,L|66:49,1,63.7500024318696,8|0,0:0|0:0,0:0:0:0:
143,4,151212,1,0,3:0:0:0:
143,4,151299,2,0,L|184:125,1,127.500004863739,8|0,0:0|3:0,0:0:0:0:
235,211,151557,1,8,0:0:0:0:
235,211,151643,1,8,0:0:0:0:
235,211,151730,6,0,B|348:206|298:282|418:280,1,191.250007295609,0|0,3:0|0:0,0:0:0:0:
422,259,152075,1,2,0:0:0:0:
511,108,152247,1,0,3:0:0:0:
511,108,152334,1,0,3:0:0:0:
511,108,152420,2,0,P|455:161|342:136,1,191.250007295609,8|0,0:0|0:0,0:0:0:0:
321,122,152765,1,2,0:0:0:0:
258,3,152937,2,0,L|224:72,1,63.7500024318696,0|0,3:0|3:0,0:0:0:0:
167,146,153109,6,0,B|94:161|94:161|73:197|73:197|0:216,1,191.250007295609,0|0,3:0|3:0,0:0:0:0:
48,286,153454,2,0,B|121:305|121:305|142:341|142:341|214:356,1,191.250007295609,0|0,0:0|3:0,0:0:0:0:
298,263,153799,2,0,L|239:285,1,63.7500024318696,8|0,0:0|0:0,0:0:0:0:
328,351,153971,1,0,3:0:0:0:
332,345,154058,2,0,L|489:366,1,127.500004863739,8|0,0:0|3:0,0:0:0:0:
504,254,154316,1,8,0:0:0:0:
463,239,154402,1,8,0:0:0:0:
425,219,154488,6,0,P|379:149|445:34,1,229.499992996216,0|0,1:0|0:0,0:0:0:0:
452,2,154834,2,0,P|412:80|267:81,1,229.499992996216,0|0,1:0|0:0,0:0:0:0:
251,68,155178,1,8,0:0:0:0:
0,97,155523,1,0,0:0:0:0:
98,25,155696,1,0,0:0:0:0:
98,25,155782,1,0,0:0:0:0:
98,25,155868,6,0,P|110:108|85:143,2,127.500004863739,0|2|2,3:0|0:0|0:0,0:0:0:0:
4,173,156385,1,0,0:0:0:0:
121,221,156558,2,0,L|88:294,1,63.7500024318696,8|0,0:0|0:0,0:0:0:0:
115,371,156730,1,0,3:0:0:0:
115,371,156816,2,0,L|244:346,1,127.500004863739,8|0,0:0|0:0,0:0:0:0:
387,365,157075,1,8,0:0:0:0:
395,346,157161,1,8,0:0:0:0:
410,325,157247,6,0,P|402:261|407:198,1,127.500004863739,0|0,1:0|0:0,0:0:0:0:
433,85,157592,1,2,0:0:0:0:
409,63,157678,1,0,0:0:0:0:
380,44,157765,1,2,0:0:0:0:
350,35,157851,1,0,0:0:0:0:
312,32,157937,1,8,0:0:0:0:
244,101,158109,6,0,L|237:174,1,63.7500024318696,0|0,0:0|0:0,0:0:0:0:
181,254,158282,1,2,0:0:0:0:
181,254,158368,1,0,0:0:0:0:
181,254,158454,2,0,L|190:329,1,63.7500024318696,0|0,3:0|3:0,0:0:0:0:
267,358,158627,5,0,3:0:0:0:
121,351,158799,1,2,0:0:0:0:
10,308,158971,2,0,P|3:253|20:201,1,110.499994941712,2|0,0:0|0:0,0:0:0:0:
74,128,159316,2,0,L|127:113,1,55.2499974708558,8|0,0:0|0:0,0:0:0:0:
204,52,159489,1,0,3:0:0:0:
204,52,159575,2,0,L|317:83,1,110.499994941712,8|0,0:0|3:0,0:0:0:0:
401,37,159834,5,8,0:0:0:0:
401,37,159920,1,8,0:0:0:0:
