osu file format v14

[General]
AudioFilename: audio.mp3
AudioLeadIn: 0
PreviewTime: 33023
Countdown: 0
SampleSet: Soft
StackLeniency: 0.7
Mode: 0
LetterboxInBreaks: 0
WidescreenStoryboard: 1

[Editor]
Bookmarks: 11040,55178,60695,82764,104833,107764,115868,137937,160006
DistanceSpacing: 2.7
BeatDivisor: 4
GridSize: 32
TimelineZoom: 2.7

[Metadata]
Title:Alone
TitleUnicode:Alone
Artist:Slayyyter
ArtistUnicode:Slayyyter
Creator:defiance
Version:Hard
Source:
Tags:hyperpop electropop pop english co23 ko1b nm4 corsace quanhitter39 osuskrub yaspo risen ayesha erotica nicole smith
BeatmapID:4445261
BeatmapSetID:2047520

[Difficulty]
HPDrainRate:4
CircleSize:3.5
OverallDifficulty:6
ApproachRate:8
SliderMultiplier:1.4
SliderTickRate:1

[Events]
//Background and Video events
0,0,"omg slay.png",0,0
//Break Periods
//Storyboard Layer 0 (Background)
//Storyboard Layer 1 (Fail)
//Storyboard Layer 2 (Pass)
//Storyboard Layer 3 (Foreground)
//Storyboard Layer 4 (Overlay)
//Storyboard Sound Samples

[TimingPoints]
6,344.827586206897,4,2,1,90,1,0
11040,-90.9090909090909,4,2,1,90,0,0
12074,-90.9090909090909,4,2,1,90,0,0
22074,-76.9230769230769,4,2,1,80,0,0
31040,-90.9090909090909,4,2,1,80,0,0
33109,-76.9230769230769,4,2,1,100,0,0
44143,-66.6666666666667,4,2,1,100,0,0
44833,-76.9230769230769,4,2,1,100,0,0
55178,-90.9090909090909,4,2,1,70,0,0
71730,-76.9230769230769,4,2,1,80,0,0
82764,-76.9230769230769,4,2,1,100,0,0
93799,-66.6666666666667,4,2,1,100,0,0
94488,-76.9230769230769,4,2,1,100,0,0
105178,-76.9230769230769,4,2,1,70,0,0
105523,-100,4,2,1,70,0,0
115868,-90.9090909090909,4,2,1,70,0,0
126902,-90.9090909090909,4,2,1,80,0,0
129661,-76.9230769230769,4,2,1,80,0,0
130350,-76.9230769230769,4,2,1,50,0,0
132419,-76.9230769230769,4,2,1,80,0,0
137937,-76.9230769230769,4,2,1,100,0,0
148971,-66.6666666666667,4,2,1,100,0,0
149661,-76.9230769230769,4,2,1,100,0,0

[Colours]
Combo1 : 198,89,238
Combo2 : 207,115,227
Combo3 : 249,157,231

[HitObjects]
191,62,6,5,0,3:0:0:0:
339,122,350,1,0,0:0:0:0:
490,29,695,2,0,L|495:103,2,70,8|0|0,0:0|3:0|3:0,0:0:0:0:
426,214,1385,6,0,P|412:261|428:306,1,70,0|0,1:0|3:0,0:0:0:0:
421,310,1643,1,0,3:0:0:0:
421,310,1730,2,0,P|378:303|334:296,1,70,0|0,3:0|0:0,0:0:0:0:
250,351,2074,1,8,0:0:0:0:
165,349,2247,2,0,L|84:340,1,70,8|8,0:0|0:0,0:0:0:0:
63,339,2506,1,8,0:0:0:0:
63,339,2592,1,0,3:0:0:0:
0,230,2764,5,0,3:0:0:0:
146,182,3109,1,0,0:0:0:0:
92,16,3454,1,8,0:0:0:0:
97,18,4143,6,0,L|177:27,1,70,0|0,1:0|3:0,0:0:0:0:
291,36,4488,1,0,3:0:0:0:
291,36,4574,1,0,3:0:0:0:
291,36,4661,1,0,3:0:0:0:
433,31,4833,1,8,0:0:0:0:
412,37,4919,1,8,0:0:0:0:
240,305,5523,5,0,3:0:0:0:
383,243,5868,1,0,0:0:0:0:
502,363,6212,2,0,L|516:293,2,70,8|0|0,0:0|0:0|0:0,0:0:0:0:
408,112,6902,6,0,P|402:70|411:40,1,70,0|0,1:0|3:0,0:0:0:0:
415,24,7161,1,0,3:0:0:0:
415,24,7247,2,0,L|336:31,1,70,0|0,3:0|3:0,0:0:0:0:
218,28,7592,1,8,0:0:0:0:
97,27,7764,2,0,L|81:108,1,70,8|8,0:0|0:0,0:0:0:0:
86,115,8023,1,8,0:0:0:0:
90,132,8109,1,0,3:0:0:0:
5,235,8281,5,0,3:0:0:0:
147,359,8626,1,0,0:0:0:0:
344,270,8971,1,8,0:0:0:0:
331,261,9661,6,0,L|333:168,1,70,0|8,1:0|0:0,0:0:0:0:
350,70,10006,1,0,3:0:0:0:
364,78,10092,1,0,3:0:0:0:
378,89,10178,1,0,3:0:0:0:
255,102,10350,2,2,B|129:104|193:198|22:176,1,245,10|2,0:0|0:0,0:0:0:0:
4,109,11040,6,0,P|45:153|62:235,1,115.50000352478,0|0,1:0|0:0,0:0:0:0:
3,261,11385,2,0,P|51:229|110:232,1,115.50000352478,0|0,1:0|0:0,0:0:0:0:
136,261,11730,1,8,0:0:0:0:
417,364,12074,2,0,P|435:316|458:284,1,77.0000023498536,2|2,0:0|0:0,0:0:0:0:
493,217,12419,6,0,P|490:145|450:90,2,115.50000352478,0|0|0,3:0|3:0|3:0,0:0:0:0:
376,190,13109,1,8,0:0:0:0:
376,190,13281,2,0,L|291:203,1,77.0000023498536,8|8,0:0|0:0,0:0:0:0:
266,190,13540,1,8,0:0:0:0:
248,185,13626,1,0,3:0:0:0:
132,119,13799,6,0,P|142:52|191:13,1,115.50000352478,0|0,1:0|0:0,0:0:0:0:
162,0,14143,2,0,L|41:22,1,115.50000352478,0|0,1:0|0:0,0:0:0:0:
20,27,14488,1,8,0:0:0:0:
129,312,14833,1,2,0:0:0:0:
129,312,15006,1,2,0:0:0:0:
214,251,15178,6,0,P|241:293|251:353,1,77.0000023498536,0|0,3:0|3:0,0:0:0:0:
256,346,15437,1,0,3:0:0:0:
260,360,15523,1,0,0:0:0:0:
364,352,15695,1,0,0:0:0:0:
467,348,15868,1,2,0:0:0:0:
467,348,16212,1,2,0:0:0:0:
259,67,16557,6,0,L|361:147,1,115.50000352478,0|0,1:0|0:0,0:0:0:0:
380,154,16902,2,0,P|390:87|447:54,1,115.50000352478,0|0,1:0|0:0,0:0:0:0:
467,57,17247,1,8,0:0:0:0:
216,245,17592,2,0,P|177:214|152:203,1,77.0000023498536,2|2,0:0|0:0,0:0:0:0:
60,170,17937,6,0,P|40:97|18:37,2,115.50000352478,0|0|0,3:0|3:0|3:0,0:0:0:0:
116,24,18626,1,8,0:0:0:0:
116,24,18799,2,0,L|218:33,1,77.0000023498536,8|8,0:0|0:0,0:0:0:0:
217,32,19057,1,8,0:0:0:0:
229,37,19143,1,0,3:0:0:0:
369,23,19316,6,0,P|392:90|448:140,1,115.50000352478,0|0,1:0|0:0,0:0:0:0:
482,145,19661,2,0,P|425:134|361:159,1,115.50000352478,0|0,1:0|0:0,0:0:0:0:
340,173,20006,1,8,0:0:0:0:
100,362,20350,1,2,0:0:0:0:
100,362,20523,1,2,0:0:0:0:
188,324,20695,6,0,P|202:261|197:223,1,77.0000023498536,0|0,3:0|3:0,0:0:0:0:
188,222,20954,1,0,3:0:0:0:
172,206,21040,1,2,0:0:0:0:
91,158,21212,1,2,0:0:0:0:
13,111,21385,2,0,L|7:63,1,38.5000011749268,8|8,0:0|0:0,0:0:0:0:
8,72,21730,2,0,P|4:188|-3:219,1,115.50000352478,0|0,0:0|0:0,0:0:0:0:
1,234,22074,6,0,P|86:252|121:319,1,136.499993751526,0|0,1:0|0:0,0:0:0:0:
125,353,22419,2,0,P|132:292|223:272,1,136.499993751526,0|0,1:0|0:0,0:0:0:0:
238,271,22764,1,8,0:0:0:0:
462,30,23109,2,0,P|410:12|372:6,1,90.9999958343508,2|2,0:0|0:0,0:0:0:0:
283,10,23454,6,0,P|318:76|326:153,2,136.499993751526,0|0|0,1:0|3:0|0:0,0:0:0:0:
167,13,24143,1,8,0:0:0:0:
167,13,24316,2,0,L|62:25,1,90.9999958343508,8|8,0:0|0:0,0:0:0:0:
47,45,24574,1,8,0:0:0:0:
47,45,24661,1,0,3:0:0:0:
169,107,24833,6,0,P|221:156|237:251,1,136.499993751526,0|0,1:0|0:0,0:0:0:0:
242,251,25178,2,0,P|266:321|353:346,1,136.499993751526,0|0,1:0|0:0,0:0:0:0:
368,353,25523,1,0,3:0:0:0:
505,117,25868,1,2,0:0:0:0:
505,117,26040,1,2,0:0:0:0:
416,168,26212,6,0,P|397:114|417:69,1,90.9999958343508,0|0,3:0|3:0,0:0:0:0:
477,228,26557,2,0,P|443:272|390:282,1,90.9999958343508,0|0,3:0|0:0,0:0:0:0:
326,239,26902,1,2,0:0:0:0:
326,239,27074,1,2,0:0:0:0:
234,367,27247,1,2,0:0:0:0:
234,367,27592,6,0,P|255:294|212:232,1,136.499993751526,0|0,1:0|0:0,0:0:0:0:
195,224,27937,2,0,P|174:151|219:86,1,136.499993751526,0|0,1:0|0:0,0:0:0:0:
224,81,28281,1,8,0:0:0:0:
421,10,28626,2,0,P|423:68|450:108,1,90.9999958343508,2|2,0:0|0:0,0:0:0:0:
501,172,28971,6,0,P|441:197|407:268,2,136.499993751526,0|0|0,1:0|3:0|0:0,0:0:0:0:
413,349,29661,1,8,0:0:0:0:
413,349,29833,2,0,L|323:361,1,90.9999958343508,8|8,0:0|0:0,0:0:0:0:
283,358,30092,1,8,0:0:0:0:
283,358,30178,1,0,3:0:0:0:
174,306,30350,6,0,P|203:252|163:175,1,136.499993751526,0|0,1:0|0:0,0:0:0:0:
148,157,30695,2,0,P|205:197|295:166,1,136.499993751526,0|0,1:0|0:0,0:0:0:0:
312,171,31040,2,0,P|324:124|351:89,1,77.0000023498536,10|2,0:0|0:0,0:0:0:0:
260,12,31385,2,0,P|209:42|170:46,1,77.0000023498536,2|2,0:0|0:0,0:0:0:0:
91,22,31730,1,2,0:0:0:0:
61,15,31902,1,2,0:0:0:0:
24,16,32074,5,2,0:0:0:0:
24,16,33109,5,4,0:0:0:0:
104,84,33281,1,2,0:0:0:0:
185,22,33454,2,0,B|254:27|254:27|319:99,1,136.499993751526,4|0,1:2|0:0,0:0:0:0:
320,95,33799,2,0,P|375:91|425:54,1,90.9999958343508,8|0,0:0|0:0,0:0:0:0:
497,9,34143,1,2,0:0:0:0:
490,27,34230,1,0,0:0:0:0:
490,52,34316,1,2,0:0:0:0:
413,165,34488,6,0,B|428:238|428:238|456:259|456:259|474:359,1,181.999991668702,0|0,3:0|0:0,0:0:0:0:
378,368,35006,1,0,3:0:0:0:
347,243,35178,2,0,L|241:290,1,90.9999958343508,8|0,0:0|3:0,0:0:0:0:
211,291,35437,2,0,L|121:229,1,90.9999958343508,8|0,0:0|3:0,0:0:0:0:
98,217,35695,1,8,0:0:0:0:
98,217,35781,1,8,0:0:0:0:
98,217,35868,6,0,B|111:322|111:322|187:382,1,181.999991668702,0|2,1:0|0:0,0:0:0:0:
277,372,36385,1,2,0:0:0:0:
373,362,36557,2,0,L|401:257,1,90.9999958343508,8|0,0:0|0:0,0:0:0:0:
475,179,36902,1,2,0:0:0:0:
442,102,37074,1,2,0:0:0:0:
382,42,37247,6,0,B|334:82|334:82|236:90,1,136.499993751526,0|0,3:0|3:0,0:0:0:0:
234,84,37592,2,0,P|191:49|125:45,1,90.9999958343508,0|0,0:0|3:0,0:0:0:0:
6,156,37937,2,0,P|55:132|111:148,1,90.9999958343508,8|0,0:0|3:0,0:0:0:0:
113,168,38195,2,0,P|98:226|51:251,1,90.9999958343508,8|0,0:0|0:0,0:0:0:0:
16,250,38454,1,8,0:0:0:0:
16,250,38540,1,8,0:0:0:0:
16,250,38626,6,0,P|80:268|121:343,1,136.499993751526,4|0,1:0|0:0,0:0:0:0:
130,360,38971,1,0,1:0:0:0:
465,185,39316,2,0,L|444:303,1,90.9999958343508,8|0,0:0|0:0,0:0:0:0:
416,363,39661,1,2,0:0:0:0:
510,343,39833,1,0,3:0:0:0:
438,275,40006,6,0,L|297:306,1,136.499993751526,0|0,3:0|3:0,0:0:0:0:
273,305,40350,2,0,P|271:241|295:197,1,90.9999958343508,2|0,0:0|3:0,0:0:0:0:
351,81,40695,2,0,L|416:2,1,90.9999958343508,8|0,0:0|3:0,0:0:0:0:
436,20,40954,2,0,L|496:105,1,90.9999958343508,8|0,0:0|3:0,0:0:0:0:
501,120,41212,1,8,0:0:0:0:
501,120,41299,1,8,0:0:0:0:
501,120,41385,6,0,P|416:153|346:226,1,181.999991668702,0|2,3:0|0:0,0:0:0:0:
282,296,41902,1,2,0:0:0:0:
178,253,42074,2,0,P|170:202|182:145,1,90.9999958343508,8|0,0:0|0:0,0:0:0:0:
169,18,42419,1,2,0:0:0:0:
53,54,42592,1,0,3:0:0:0:
47,72,42678,1,0,3:0:0:0:
40,86,42764,6,0,P|57:121|180:129,1,136.499993751526,0|0,3:0|3:0,0:0:0:0:
185,123,43109,1,0,0:0:0:0:
277,57,43281,1,0,3:0:0:0:
392,101,43454,2,0,L|361:186,1,90.9999958343508,8|0,0:0|3:0,0:0:0:0:
360,211,43712,2,0,L|386:308,1,90.9999958343508,8|0,0:0|3:0,0:0:0:0:
392,324,43971,1,8,0:0:0:0:
371,334,44057,1,8,0:0:0:0:
343,339,44143,6,0,P|305:297|193:284,1,157.500006008148,4|0,0:0|0:0,0:0:0:0:
161,284,44488,2,0,P|243:234|266:152,1,157.500006008148,4|0,1:0|0:0,0:0:0:0:
264,145,44833,2,0,L|249:29,1,90.9999958343508,14|0,0:0|0:0,0:0:0:0:
144,14,45178,1,2,0:0:0:0:
144,14,45350,1,0,3:0:0:0:
30,54,45523,6,0,B|72:110|72:110|36:240,1,181.999991668702,0|2,3:0|0:0,0:0:0:0:
25,314,46040,1,0,3:0:0:0:
111,359,46212,2,0,L|200:325,1,90.9999958343508,8|0,0:0|3:0,0:0:0:0:
229,334,46471,2,0,L|332:374,1,90.9999958343508,8|0,0:0|3:0,0:0:0:0:
366,370,46730,1,8,0:0:0:0:
366,370,46816,1,8,0:0:0:0:
366,370,46902,6,0,P|347:298|424:222,1,181.999991668702,0|0,1:0|0:0,0:0:0:0:
507,204,47419,1,0,3:0:0:0:
399,220,47592,2,0,P|373:164|378:113,1,90.9999958343508,8|0,0:0|0:0,0:0:0:0:
473,75,47937,1,0,0:0:0:0:
362,131,48109,1,0,3:0:0:0:
331,131,48195,1,0,3:0:0:0:
296,131,48281,6,0,P|226:149|142:190,1,136.499993751526,0|0,3:0|3:0,0:0:0:0:
142,187,48626,2,0,P|87:180|32:157,1,90.9999958343508,0|0,0:0|3:0,0:0:0:0:
21,363,48971,2,0,P|93:322|128:298,1,90.9999958343508,8|0,0:0|3:0,0:0:0:0:
145,303,49230,2,0,P|200:337|254:366,1,90.9999958343508,8|0,0:0|3:0,0:0:0:0:
279,365,49488,1,8,0:0:0:0:
279,365,49574,1,8,0:0:0:0:
279,365,49661,6,0,P|245:292|293:192,1,181.999991668702,4|4,0:0|1:0,0:0:0:0:
512,2,50350,2,0,P|464:38|423:42,1,90.9999958343508,8|0,0:0|0:0,0:0:0:0:
333,15,50695,1,0,0:0:0:0:
244,78,50868,1,2,0:0:0:0:
246,104,50954,1,2,0:0:0:0:
248,126,51040,6,0,P|263:165|310:219,2,90.9999958343508,2|2|2,0:0|0:0|0:0,0:0:0:0:
389,227,51557,1,0,0:0:0:0:
268,221,51730,2,0,L|153:249,1,90.9999958343508,8|0,0:0|3:0,0:0:0:0:
141,228,51988,2,0,L|57:164,1,90.9999958343508,8|0,0:0|0:0,0:0:0:0:
35,163,52247,1,8,0:0:0:0:
35,163,52333,1,8,0:0:0:0:
35,163,52419,6,0,B|57:286|57:286|10:349,1,181.999991668702,4|2,1:0|0:0,0:0:0:0:
141,367,52937,1,2,0:0:0:0:
236,315,53109,2,0,P|291:307|330:321,1,90.9999958343508,8|0,0:0|0:0,0:0:0:0:
446,365,53454,1,2,0:0:0:0:
456,345,53540,1,0,0:0:0:0:
479,330,53626,1,0,3:0:0:0:
413,240,53799,6,0,P|422:174|459:138,2,90.9999958343508,0|2|2,3:0|0:0|0:0,0:0:0:0:
504,95,54316,1,0,3:0:0:0:
371,92,54488,2,0,L|267:120,1,90.9999958343508,8|0,0:0|3:0,0:0:0:0:
238,110,54747,2,0,L|169:27,1,90.9999958343508,8|0,0:0|3:0,0:0:0:0:
146,12,55006,5,0,3:0:0:0:
146,12,55092,1,0,3:0:0:0:
146,12,55178,1,0,3:0:0:0:
0,122,55523,1,0,0:0:0:0:
113,215,55868,2,0,L|206:192,2,77.0000023498536,8|0|0,0:0|0:0|0:0,0:0:0:0:
267,358,56557,6,0,P|261:308|278:270,1,77.0000023498536,0|0,1:0|3:0,0:0:0:0:
289,255,56816,1,0,3:0:0:0:
289,255,56902,2,0,L|376:265,1,77.0000023498536,0|0,3:0|0:0,0:0:0:0:
477,260,57247,1,8,0:0:0:0:
452,153,57419,2,0,P|448:101|443:63,1,77.0000023498536,8|8,0:0|0:0,0:0:0:0:
451,52,57678,1,8,0:0:0:0:
451,52,57764,1,0,3:0:0:0:
329,13,57937,5,0,3:0:0:0:
178,121,58281,1,0,0:0:0:0:
27,218,58626,1,8,0:0:0:0:
27,218,59316,6,0,L|107:234,1,77.0000023498536,0|0,1:0|3:0,0:0:0:0:
248,265,59661,1,0,3:0:0:0:
290,276,59747,1,0,3:0:0:0:
331,283,59833,1,0,3:0:0:0:
188,337,60006,1,8,0:0:0:0:
165,341,60092,1,8,0:0:0:0:
420,196,60695,6,0,P|431:138|395:87,1,115.50000352478,0|0,1:0|0:0,0:0:0:0:
364,77,61040,2,0,P|414:80|481:24,1,115.50000352478,0|0,1:0|0:0,0:0:0:0:
488,0,61385,1,8,0:0:0:0:
150,39,61730,2,0,P|100:70|82:98,1,77.0000023498536,2|2,0:0|0:0,0:0:0:0:
6,155,62074,6,0,P|66:180|116:243,2,115.50000352478,0|0|0,3:0|3:0|3:0,0:0:0:0:
116,314,62764,1,8,0:0:0:0:
116,314,62937,2,0,L|207:327,1,77.0000023498536,8|8,0:0|0:0,0:0:0:0:
227,327,63195,1,8,0:0:0:0:
227,327,63281,1,0,3:0:0:0:
277,166,63454,6,0,P|216:187|180:237,1,115.50000352478,0|0,1:0|0:0,0:0:0:0:
150,220,63799,2,0,P|138:157|68:124,1,115.50000352478,0|0,1:0|0:0,0:0:0:0:
52,118,64143,1,8,0:0:0:0:
343,0,64488,1,2,0:0:0:0:
343,0,64661,1,2,0:0:0:0:
448,49,64833,6,0,P|427:97|421:134,1,77.0000023498536,0|0,3:0|3:0,0:0:0:0:
443,148,65092,1,0,3:0:0:0:
443,148,65178,1,0,3:0:0:0:
326,179,65350,1,0,0:0:0:0:
394,261,65523,1,2,0:0:0:0:
394,261,65868,1,2,0:0:0:0:
234,15,66212,6,0,P|164:45|101:50,1,115.50000352478,0|0,1:0|0:0,0:0:0:0:
65,61,66557,2,0,P|142:80|180:126,1,115.50000352478,0|0,1:0|0:0,0:0:0:0:
191,140,66902,1,8,0:0:0:0:
244,301,67247,2,0,P|283:270|310:257,1,77.0000023498536,2|2,0:0|0:0,0:0:0:0:
391,243,67592,6,0,P|412:302|426:359,2,115.50000352478,0|0|0,3:0|3:0|3:0,0:0:0:0:
260,182,68281,1,8,0:0:0:0:
260,182,68454,2,0,L|159:194,1,77.0000023498536,8|8,0:0|0:0,0:0:0:0:
156,189,68712,1,8,0:0:0:0:
156,189,68798,1,0,3:0:0:0:
36,232,68971,6,0,P|2:288|2:353,1,115.50000352478,0|0,1:0|0:0,0:0:0:0:
23,357,69316,2,0,P|77:324|141:334,1,115.50000352478,0|0,1:0|0:0,0:0:0:0:
159,337,69661,1,8,0:0:0:0:
419,247,70005,1,2,0:0:0:0:
419,247,70178,1,2,0:0:0:0:
356,174,70350,6,0,P|395:139|429:135,1,77.0000023498536,0|0,3:0|3:0,0:0:0:0:
463,140,70609,1,0,3:0:0:0:
463,140,70695,1,0,3:0:0:0:
438,39,70867,1,2,0:0:0:0:
348,19,71040,2,0,L|285:31,1,38.5000011749268,8|8,0:0|0:0,0:0:0:0:
297,30,71385,6,0,P|239:19|149:8,1,115.50000352478,2|0,0:0|0:0,0:0:0:0:
127,5,71730,6,0,B|163:93|163:93|129:155,1,136.499993751526,0|0,1:0|0:0,0:0:0:0:
84,164,72074,2,0,P|171:152|202:194,1,136.499993751526,0|0,1:0|0:0,0:0:0:0:
224,218,72419,1,8,0:0:0:0:
374,345,72764,2,0,P|420:306|461:296,1,90.9999958343508,2|2,0:0|0:0,0:0:0:0:
511,226,73109,6,0,P|498:154|464:94,2,136.499993751526,0|0|0,1:0|3:0|0:0,0:0:0:0:
404,247,73798,1,8,0:0:0:0:
404,247,73971,2,0,L|306:232,1,90.9999958343508,8|8,0:0|0:0,0:0:0:0:
287,227,74229,1,8,0:0:0:0:
287,227,74316,1,0,3:0:0:0:
206,313,74488,6,0,P|193:249|112:213,1,136.499993751526,0|0,1:0|0:0,0:0:0:0:
112,207,74833,2,0,P|48:209|0:140,1,136.499993751526,0|0,1:0|0:0,0:0:0:0:
8,115,75178,1,0,3:0:0:0:
295,11,75523,1,2,0:0:0:0:
295,11,75695,1,2,0:0:0:0:
404,0,75867,6,0,P|415:46|393:93,1,90.9999958343508,0|0,3:0|3:0,0:0:0:0:
247,142,76212,2,0,P|285:97|330:95,1,90.9999958343508,0|0,3:0|0:0,0:0:0:0:
371,163,76557,1,2,0:0:0:0:
371,163,76729,1,2,0:0:0:0:
512,233,76902,1,2,0:0:0:0:
512,233,77247,6,0,P|432:256|395:322,1,136.499993751526,0|0,1:3|0:3,0:0:0:0:
387,366,77592,2,0,P|373:299|288:271,1,136.499993751526,0|0,1:0|0:0,0:0:0:0:
277,268,77937,1,8,0:0:0:0:
39,161,78281,2,0,P|26:105|36:65,1,90.9999958343508,2|2,0:0|0:0,0:0:0:0:
132,202,78626,6,0,P|81:243|4:250,2,136.499993751526,0|0|0,1:0|3:0|0:0,0:0:0:0:
237,149,79316,1,8,0:0:0:0:
237,149,79488,2,0,L|252:249,1,90.9999958343508,8|8,0:0|0:0,0:0:0:0:
260,275,79747,1,8,0:0:0:0:
260,275,79833,1,0,3:0:0:0:
416,240,80006,6,0,P|454:166|441:93,1,136.499993751526,0|0,1:0|0:0,0:0:0:0:
371,163,80350,2,0,P|379:237|427:301,1,136.499993751526,0|0,1:0|0:0,0:0:0:0:
456,336,80695,2,0,P|399:322|340:335,1,90.9999958343508,10|2,0:0|0:0,0:0:0:0:
258,352,81040,2,0,P|204:330|180:301,1,90.9999958343508,2|2,0:0|0:0,0:0:0:0:
101,221,81385,5,2,0:0:0:0:
57,244,81557,1,2,0:0:0:0:
8,259,81730,1,2,0:0:0:0:
22,29,82764,5,4,0:0:0:0:
16,107,82936,1,2,0:0:0:0:
9,193,83109,2,0,B|81:207|81:207|134:269,1,136.499993751526,4|0,1:0|0:0,0:0:0:0:
128,283,83454,2,0,P|106:342|70:348,1,90.9999958343508,8|0,0:0|0:0,0:0:0:0:
227,368,83798,1,2,0:0:0:0:
252,360,83885,1,0,0:0:0:0:
273,346,83971,1,2,0:0:0:0:
372,360,84143,6,0,P|369:285|385:179,1,181.999991668702,0|0,3:0|0:0,0:0:0:0:
470,113,84661,1,0,3:0:0:0:
378,39,84833,2,0,L|281:70,1,90.9999958343508,8|0,0:0|3:0,0:0:0:0:
249,77,85092,2,0,L|146:34,1,90.9999958343508,8|0,0:0|3:0,0:0:0:0:
119,28,85350,1,8,0:0:0:0:
119,28,85436,1,8,0:0:0:0:
119,28,85523,6,0,P|121:123|34:155,1,181.999991668702,0|2,1:0|0:0,0:0:0:0:
21,232,86040,1,2,0:0:0:0:
81,291,86212,2,0,L|172:304,1,90.9999958343508,8|0,0:0|0:0,0:0:0:0:
290,310,86557,1,2,0:0:0:0:
290,310,86729,1,2,0:0:0:0:
197,229,86902,6,0,P|191:140|243:84,1,136.499993751526,0|0,3:0|3:0,0:0:0:0:
234,96,87247,2,0,L|350:109,1,90.9999958343508,0|0,0:0|3:0,0:0:0:0:
493,30,87592,2,0,L|456:133,1,90.9999958343508,8|0,0:0|3:0,0:0:0:0:
459,146,87850,2,0,L|480:249,1,90.9999958343508,8|0,0:0|0:0,0:0:0:0:
485,268,88109,1,8,0:0:0:0:
477,279,88195,1,8,0:0:0:0:
468,292,88281,6,0,B|381:302|381:302|326:348,1,136.499993751526,0|0,1:0|0:0,0:0:0:0:
301,369,88626,1,0,1:0:0:0:
0,188,88971,2,0,L|32:95,1,90.9999958343508,10|0,0:0|0:0,0:0:0:0:
98,25,89316,1,2,0:0:0:0:
98,25,89488,1,0,3:0:0:0:
196,62,89661,6,0,P|201:141|105:180,1,181.999991668702,0|0,3:0|0:0,0:0:0:0:
0,218,90178,1,0,3:0:0:0:
13,311,90350,2,0,L|119:353,1,90.9999958343508,8|0,0:0|3:0,0:0:0:0:
134,359,90609,2,0,L|238:321,1,90.9999958343508,8|0,0:0|3:0,0:0:0:0:
275,356,90868,1,8,0:0:0:0:
275,356,90954,1,8,0:0:0:0:
275,356,91040,6,0,P|344:302|349:195,1,181.999991668702,0|2,1:0|0:0,0:0:0:0:
457,159,91557,1,2,0:0:0:0:
364,109,91730,2,0,P|385:52|432:28,1,90.9999958343508,8|0,0:0|0:0,0:0:0:0:
288,6,92074,1,2,0:0:0:0:
210,44,92247,1,0,3:0:0:0:
210,44,92333,1,0,3:0:0:0:
210,44,92419,6,0,P|138:71|44:83,1,136.499993751526,0|0,3:0|3:0,0:0:0:0:
31,88,92764,2,0,P|62:116|97:176,1,90.9999958343508,0|0,0:0|3:0,0:0:0:0:
201,245,93109,2,0,P|265:198|298:190,1,90.9999958343508,8|0,0:0|3:0,0:0:0:0:
311,200,93368,2,0,P|350:256|391:282,1,90.9999958343508,8|0,0:0|3:0,0:0:0:0:
410,284,93626,1,8,0:0:0:0:
410,284,93712,1,8,0:0:0:0:
410,284,93799,6,0,P|314:303|251:359,1,157.500006008148,4|0,0:0|0:0,0:0:0:0:
235,358,94143,2,0,P|158:361|90:284,1,157.500006008148,4|0,1:0|0:0,0:0:0:0:
88,278,94488,2,0,L|103:174,1,90.9999958343508,12|0,0:0|0:0,0:0:0:0:
119,77,94833,1,2,0:0:0:0:
119,77,95006,1,0,3:0:0:0:
196,140,95178,6,0,B|263:164|263:164|387:115,1,181.999991668702,0|0,3:0|0:0,0:0:0:0:
501,121,95695,1,0,3:0:0:0:
422,64,95868,2,0,L|402:172,1,90.9999958343508,8|0,0:0|3:0,0:0:0:0:
416,188,96126,2,0,L|446:293,1,90.9999958343508,8|0,0:0|3:0,0:0:0:0:
457,308,96385,1,8,0:0:0:0:
457,308,96471,1,8,0:0:0:0:
457,308,96557,6,0,P|349:309|294:360,1,181.999991668702,0|2,3:0|0:0,0:0:0:0:
191,349,97074,1,0,3:0:0:0:
285,354,97247,2,0,P|276:280|251:247,1,90.9999958343508,8|0,0:0|0:0,0:0:0:0:
274,157,97592,1,2,0:0:0:0:
191,229,97764,1,0,3:0:0:0:
191,229,97850,1,0,3:0:0:0:
191,229,97937,6,0,P|91:253|25:279,1,136.499993751526,0|0,3:0|3:0,0:0:0:0:
24,283,98281,2,0,P|61:220|63:186,1,90.9999958343508,0|0,0:0|3:0,0:0:0:0:
43,30,98626,2,0,P|74:85|120:93,1,90.9999958343508,8|0,0:0|3:0,0:0:0:0:
142,96,98885,2,0,P|202:64|219:23,1,90.9999958343508,8|0,0:0|3:0,0:0:0:0:
208,2,99143,1,8,0:0:0:0:
208,2,99230,1,8,0:0:0:0:
208,2,99316,6,0,P|303:32|404:75,1,181.999991668702,0|0,1:0|1:0,0:0:0:0:
488,281,100006,2,0,P|436:308|395:344,1,90.9999958343508,10|0,0:0|0:0,0:0:0:0:
325,359,100350,1,0,0:0:0:0:
337,259,100523,1,0,0:0:0:0:
337,259,100609,1,0,0:0:0:0:
337,259,100695,6,0,P|320:200|288:176,2,90.9999958343508,0|2|2,3:0|0:0|0:0,0:0:0:0:
397,140,101212,1,2,0:0:0:0:
327,66,101385,2,0,L|225:88,1,90.9999958343508,8|0,0:0|3:0,0:0:0:0:
199,90,101643,2,0,L|112:42,1,90.9999958343508,8|0,0:0|0:0,0:0:0:0:
78,22,101902,1,8,0:0:0:0:
78,22,101988,1,8,0:0:0:0:
78,22,102074,6,0,B|106:136|106:136|72:215,1,181.999991668702,0|2,1:0|0:0,0:0:0:0:
42,281,102592,1,2,0:0:0:0:
117,349,102764,2,0,P|144:298|177:279,1,90.9999958343508,8|0,0:0|0:0,0:0:0:0:
283,285,103109,1,2,0:0:0:0:
283,285,103195,1,0,0:0:0:0:
283,285,103281,1,0,3:0:0:0:
220,365,103454,5,0,3:0:0:0:
190,247,103626,1,2,0:0:0:0:
171,136,103799,2,0,L|283:174,2,90.9999958343508,2|2|2,0:0|0:0|0:0,0:0:0:0:
391,7,104488,1,0,3:0:0:0:
438,20,104574,1,0,3:0:0:0:
485,36,104661,2,0,L|476:104,2,45.4999979171754,0|0|0,3:0|3:0|3:0,0:0:0:0:
505,187,105178,5,0,0:0:0:0:
401,317,105523,2,0,L|421:391,2,70,8|0|0,0:0|0:0|0:0,0:0:0:0:
204,355,106212,6,0,P|219:320|212:275,1,70,0|0,1:0|3:0,0:0:0:0:
204,262,106471,1,0,3:0:0:0:
204,262,106557,2,0,L|123:265,1,70,0|0,3:0|0:0,0:0:0:0:
14,265,106902,1,8,0:0:0:0:
41,158,107074,2,0,L|26:68,1,70,8|8,0:0|0:0,0:0:0:0:
22,58,107333,1,8,0:0:0:0:
22,58,107419,1,0,3:0:0:0:
121,11,107592,5,0,3:0:0:0:
194,174,107937,1,0,0:0:0:0:
307,17,108281,2,0,L|276:106,2,70,8|0|0,0:0|0:0|0:0,0:0:0:0:
283,214,108971,6,0,L|302:313,1,70,0|0,1:0|3:0,0:0:0:0:
366,364,109316,1,0,3:0:0:0:
390,347,109402,1,0,3:0:0:0:
422,336,109488,1,0,3:0:0:0:
220,320,109661,1,8,0:0:0:0:
195,315,109747,1,8,0:0:0:0:
1,345,110350,5,0,3:0:0:0:
131,221,110695,1,0,0:0:0:0:
68,76,111040,2,0,L|-24:98,2,70,8|0|0,0:0|0:0|0:0,0:0:0:0:
228,72,111730,6,0,P|217:117|220:157,1,70,0|0,1:0|3:0,0:0:0:0:
225,170,111988,1,0,3:0:0:0:
225,170,112074,2,0,P|274:160|314:160,1,70,0|0,3:0|0:0,0:0:0:0:
428,178,112419,1,8,0:0:0:0:
375,91,112592,2,0,P|402:39|432:16,1,70,8|8,0:0|0:0,0:0:0:0:
433,25,112850,1,8,0:0:0:0:
433,25,112937,1,0,3:0:0:0:
512,85,113109,5,0,1:0:0:0:
342,190,113454,1,0,0:0:0:0:
481,297,113799,2,0,L|512:228,2,70,8|0|0,0:0|3:0|3:0,0:0:0:0:
128,247,114488,6,0,P|175:263|217:285,1,70,0|0,1:0|3:0,0:0:0:0:
301,309,114833,1,0,3:0:0:0:
311,340,114919,1,0,3:0:0:0:
306,370,115006,1,0,3:0:0:0:
279,210,115178,1,8,0:0:0:0:
14,12,115868,6,0,P|109:32|151:47,1,115.50000352478,0|0,1:0|0:0,0:0:0:0:
169,38,116212,1,0,1:0:0:0:
77,135,116385,1,2,0:0:0:0:
77,135,116471,1,2,0:0:0:0:
77,135,116557,2,0,B|113:212|113:212|76:287,1,154.000004699707,8|0,0:0|3:0,0:0:0:0:
13,359,117074,1,0,0:0:0:0:
156,357,117247,6,0,P|125:313|46:296,2,115.50000352478,0|0|0,3:0|3:0|3:0,0:0:0:0:
239,364,117937,1,8,0:0:0:0:
309,278,118109,2,0,P|324:241|324:195,1,77.0000023498536,8|8,0:0|0:0,0:0:0:0:
307,174,118368,1,8,0:0:0:0:
307,174,118454,1,0,3:0:0:0:
495,70,118626,6,0,P|449:109|431:168,1,115.50000352478,0|0,3:0|0:0,0:0:0:0:
408,174,118971,2,0,L|378:120,1,38.5000011749268,2|0,0:0|0:0,0:0:0:0:
366,113,119143,2,0,L|338:66,1,38.5000011749268,2|0,0:0|0:0,0:0:0:0:
321,47,119316,2,0,L|213:56,1,77.0000023498536,8|0,0:0|0:0,0:0:0:0:
103,44,119661,1,2,0:0:0:0:
145,117,119833,1,2,0:0:0:0:
91,180,120006,6,0,P|55:193|10:193,1,77.0000023498536,0|0,3:0|3:0,0:0:0:0:
166,224,120350,1,0,3:0:0:0:
210,298,120523,2,0,L|300:325,1,77.0000023498536,0|2,0:0|0:0,0:0:0:0:
482,355,120954,1,2,0:0:0:0:
497,351,121040,1,2,0:0:0:0:
499,76,121385,6,0,P|452:109|375:110,1,115.50000352478,0|0,3:0|0:0,0:0:0:0:
348,96,121730,1,2,0:0:0:0:
348,96,121816,1,2,0:0:0:0:
348,96,121902,1,2,0:0:0:0:
234,218,122074,2,0,B|221:127|221:127|179:110|179:110|156:1,1,231.000007049561,2|2,0:0|0:0,0:0:0:0:
267,2,122764,6,0,P|175:64|54:18,1,231.000007049561,2|2,0:0|0:0,0:0:0:0:
166,228,123626,1,8,0:0:0:0:
89,177,123799,1,8,0:0:0:0:
89,177,123885,1,8,0:0:0:0:
89,177,123971,1,0,3:0:0:0:
9,236,124143,5,0,1:0:0:0:
79,299,124316,1,2,0:0:0:0:
166,253,124488,1,2,0:0:0:0:
231,324,124661,2,0,L|317:285,1,77.0000023498536,2|8,0:0|0:0,0:0:0:0:
406,290,125006,2,0,P|408:340|393:371,2,77.0000023498536,2|2|2,0:0|0:0|0:0,0:0:0:0:
354,196,125523,5,0,3:0:0:0:
251,222,125695,1,0,3:0:0:0:
261,106,125868,1,0,3:0:0:0:
354,173,126040,1,0,0:0:0:0:
361,63,126212,1,8,0:0:0:0:
361,63,126299,1,8,0:0:0:0:
73,12,126730,5,2,3:0:0:0:
73,12,126816,1,2,3:0:0:0:
73,12,126902,2,0,P|116:41|157:62,1,77.0000023498536,0|0,1:0|0:0,0:0:0:0:
173,66,127161,1,2,3:0:0:0:
173,66,127247,2,0,P|128:84|96:112,1,77.0000023498536,0|2,1:0|3:0,0:0:0:0:
15,188,127592,2,0,P|40:260|52:361,1,154.000004699707,2|2,3:0|0:0,0:0:0:0:
295,359,128281,6,0,P|341:338|375:332,1,77.0000023498536,0|0,1:0|3:0,0:0:0:0:
406,343,128540,1,0,3:0:0:0:
406,343,128626,2,0,P|395:287|407:245,1,77.0000023498536,0|0,3:0|0:0,0:0:0:0:
506,209,128971,1,8,0:0:0:0:
406,167,129143,2,0,L|323:147,1,77.0000023498536,8|8,0:0|0:0,0:0:0:0:
307,147,129402,1,8,0:0:0:0:
307,147,129488,1,0,3:0:0:0:
181,86,129661,6,0,P|124:128|26:130,1,136.499993751526,0|0,1:0|0:0,0:0:0:0:
4,110,130006,2,0,P|70:156|100:243,1,136.499993751526,0|0,1:0|0:0,0:0:0:0:
101,249,130350,1,0,3:0:0:0:
469,8,132419,6,0,P|426:56|424:150,1,136.499993751526,0|0,1:0|0:0,0:0:0:0:
465,180,132764,2,0,P|426:141|331:125,1,136.499993751526,0|0,1:0|0:0,0:0:0:0:
313,130,133109,1,8,0:0:0:0:
146,362,133454,2,0,P|208:346|239:342,1,90.9999958343508,2|2,0:0|0:0,0:0:0:0:
337,336,133799,6,0,P|308:288|305:246,1,90.9999958343508,0|0,1:0|3:0,0:0:0:0:
307,227,134057,1,0,3:0:0:0:
307,227,134143,2,0,P|259:246|199:243,1,90.9999958343508,0|0,3:0|0:0,0:0:0:0:
121,238,134488,1,8,0:0:0:0:
88,134,134661,2,0,L|94:20,1,90.9999958343508,8|8,0:0|0:0,0:0:0:0:
96,17,134919,1,8,0:0:0:0:
96,17,135006,1,0,3:0:0:0:
257,32,135178,6,0,B|336:51|336:51|354:79|354:79|439:94,2,181.999991668702,0|0|8,1:0|1:0|0:0,0:0:0:0:
94,194,136212,1,2,0:0:0:0:
254,321,136902,1,2,0:0:0:0:
506,286,137937,5,4,0:0:0:0:
427,356,138109,1,2,0:0:0:0:
370,257,138281,2,0,B|402:203|402:203|494:185,1,136.499993751526,4|0,1:0|0:0,0:0:0:0:
502,178,138626,2,0,P|497:123|474:92,1,90.9999958343508,8|0,0:0|0:0,0:0:0:0:
380,55,138971,1,2,0:0:0:0:
381,30,139057,1,0,0:0:0:0:
395,8,139143,1,2,0:0:0:0:
292,109,139316,6,0,L|93:138,1,181.999991668702,0|0,3:0|0:0,0:0:0:0:
9,102,139833,1,0,3:0:0:0:
83,219,140006,2,0,L|-1:275,1,90.9999958343508,8|0,0:0|3:0,0:0:0:0:
3,302,140264,2,0,L|104:347,1,90.9999958343508,8|0,0:0|3:0,0:0:0:0:
130,361,140523,1,8,0:0:0:0:
130,361,140609,1,8,0:0:0:0:
130,361,140695,6,0,B|251:320|251:320|312:359,1,181.999991668702,0|2,1:0|0:0,0:0:0:0:
402,342,141212,1,2,0:0:0:0:
327,252,141385,2,0,L|354:152,1,90.9999958343508,8|0,0:0|0:0,0:0:0:0:
382,67,141730,1,2,0:0:0:0:
382,67,141902,1,2,0:0:0:0:
289,22,142074,6,0,P|232:52|226:147,1,136.499993751526,0|0,3:0|3:0,0:0:0:0:
213,140,142419,2,0,P|156:156|107:151,1,90.9999958343508,0|0,0:0|3:0,0:0:0:0:
4,10,142764,2,0,L|21:104,1,90.9999958343508,8|0,0:0|0:0,0:0:0:0:
27,124,143023,2,0,L|0:219,1,90.9999958343508,8|0,0:0|0:0,0:0:0:0:
0,259,143281,1,8,0:0:0:0:
0,259,143368,1,8,0:0:0:0:
0,259,143454,6,0,B|87:245|87:245|154:286,1,136.499993751526,0|0,1:0|0:0,0:0:0:0:
161,295,143799,2,0,B|248:309|248:309|319:268,1,136.499993751526,0|0,1:0|0:0,0:0:0:0:
333,304,144143,1,8,0:0:0:0:
207,6,144488,1,2,0:0:0:0:
153,65,144661,1,0,3:0:0:0:
184,144,144833,6,0,P|268:162|363:202,1,181.999991668702,0|0,3:0|0:0,0:0:0:0:
472,168,145350,1,0,3:0:0:0:
358,189,145523,2,0,P|353:128|362:91,1,90.9999958343508,8|0,0:0|3:0,0:0:0:0:
375,64,145781,2,0,P|418:34|473:20,1,90.9999958343508,8|0,0:0|3:0,0:0:0:0:
506,17,146040,1,8,0:0:0:0:
506,17,146126,1,8,0:0:0:0:
506,17,146212,6,0,P|456:98|444:198,1,181.999991668702,0|2,3:0|0:0,0:0:0:0:
508,260,146730,1,2,0:0:0:0:
452,340,146902,2,0,P|410:306|363:299,1,90.9999958343508,8|0,0:0|0:0,0:0:0:0:
276,341,147247,1,2,0:0:0:0:
176,331,147419,1,0,3:0:0:0:
176,331,147506,1,0,3:0:0:0:
176,331,147592,6,0,B|123:279|123:279|131:185,1,136.499993751526,0|0,3:0|3:0,0:0:0:0:
131,176,147937,1,0,0:0:0:0:
242,203,148109,1,0,3:0:0:0:
322,119,148281,2,0,L|366:29,1,90.9999958343508,8|0,0:0|3:0,0:0:0:0:
344,16,148540,2,0,L|214:42,1,90.9999958343508,8|0,0:0|3:0,0:0:0:0:
211,43,148799,1,8,0:0:0:0:
215,58,148885,1,8,0:0:0:0:
219,80,148971,6,0,P|271:141|366:145,1,157.500006008148,4|0,0:0|0:0,0:0:0:0:
374,149,149316,2,0,P|449:157|492:256,1,157.500006008148,4|0,1:0|0:0,0:0:0:0:
480,250,149661,2,0,P|422:290|402:336,1,90.9999958343508,4|0,0:0|0:0,0:0:0:0:
310,361,150006,1,2,0:0:0:0:
310,361,150178,1,0,3:0:0:0:
209,354,150350,6,0,B|164:305|164:305|212:164,1,181.999991668702,0|2,3:0|0:0,0:0:0:0:
119,114,150868,1,0,3:0:0:0:
1,180,151040,2,0,L|95:226,1,90.9999958343508,8|0,0:0|3:0,0:0:0:0:
106,245,151299,2,0,L|15:280,1,90.9999958343508,8|0,0:0|3:0,0:0:0:0:
0,309,151557,1,8,0:0:0:0:
0,309,151643,1,8,0:0:0:0:
0,309,151730,6,0,B|127:321|127:321|180:363,1,181.999991668702,0|2,3:0|0:0,0:0:0:0:
266,334,152247,1,0,3:0:0:0:
204,254,152419,2,0,L|224:142,1,90.9999958343508,8|0,0:0|0:0,0:0:0:0:
255,15,152764,1,2,0:0:0:0:
186,73,152937,1,0,3:0:0:0:
291,108,153109,6,0,B|380:81|380:81|444:108,1,136.499993751526,0|0,3:0|3:0,0:0:0:0:
453,111,153454,2,0,L|490:15,1,90.9999958343508,0|0,0:0|3:0,0:0:0:0:
460,199,153799,2,0,P|445:268|480:303,1,90.9999958343508,8|0,0:0|3:0,0:0:0:0:
479,315,154057,2,0,P|421:316|381:344,1,90.9999958343508,8|0,0:0|3:0,0:0:0:0:
356,355,154316,1,8,0:0:0:0:
356,355,154402,1,8,0:0:0:0:
356,355,154488,6,0,P|289:258|206:232,1,181.999991668702,0|0,1:0|1:0,0:0:0:0:
18,30,155178,2,0,L|123:43,1,90.9999958343508,8|0,0:0|0:0,0:0:0:0:
195,11,155523,1,0,0:0:0:0:
107,119,155695,1,0,0:0:0:0:
114,150,155781,1,0,0:0:0:0:
118,178,155868,6,0,P|102:237|77:266,2,90.9999958343508,0|2|2,3:0|0:0|0:0,0:0:0:0:
0,311,156385,1,0,0:0:0:0:
104,288,156557,2,0,P|158:314|193:351,1,90.9999958343508,8|0,0:0|3:0,0:0:0:0:
210,351,156816,2,0,P|273:325|320:331,1,90.9999958343508,8|0,0:0|0:0,0:0:0:0:
340,349,157074,1,8,0:0:0:0:
340,349,157161,1,8,0:0:0:0:
340,349,157247,6,0,P|385:284|359:163,1,181.999991668702,0|2,1:0|0:0,0:0:0:0:
300,127,157764,1,2,0:0:0:0:
364,35,157937,2,0,L|268:46,1,90.9999958343508,8|0,0:0|0:0,0:0:0:0:
186,26,158281,1,2,0:0:0:0:
181,36,158368,1,0,0:0:0:0:
176,47,158454,1,0,3:0:0:0:
151,147,158626,6,0,P|167:199|204:247,2,90.9999958343508,0|2|2,3:0|0:0|0:0,0:0:0:0:
281,261,159143,1,0,0:0:0:0:
184,253,159316,2,0,P|114:286|92:325,1,90.9999958343508,8|0,0:0|3:0,0:0:0:0:
100,330,159574,2,0,P|156:364|216:360,1,90.9999958343508,8|0,0:0|3:0,0:0:0:0:
212,357,159833,1,8,0:0:0:0:
241,348,159919,1,8,0:0:0:0:
