osu file format v14

[General]
AudioFilename: audio.mp3
AudioLeadIn: 0
PreviewTime: 33023
Countdown: 0
SampleSet: Soft
StackLeniency: 0.4
Mode: 0
LetterboxInBreaks: 0
WidescreenStoryboard: 1

[Editor]
Bookmarks: 11040,55178,60695,82764,104833,107764,115868,137937,149316,160006
DistanceSpacing: 0.8
BeatDivisor: 4
GridSize: 32
TimelineZoom: 2.3

[Metadata]
Title:Alone
TitleUnicode:Alone
Artist:Slayyyter
ArtistUnicode:Slayyyter
Creator:defiance
Version:Advanced
Source:
Tags:hyperpop electropop pop english co23 ko1b nm4 corsace quanhitter39 osuskrub yaspo risen ayesha erotica nicole smith
BeatmapID:4511424
BeatmapSetID:2047520

[Difficulty]
HPDrainRate:4
CircleSize:3.5
OverallDifficulty:5.5
ApproachRate:7
SliderMultiplier:1.2
SliderTickRate:1

[Events]
//Background and Video events
0,0,"omg slay.png",0,0
//Break Periods
//Storyboard Layer 0 (Background)
//Storyboard Layer 1 (Fail)
//Storyboard Layer 2 (Pass)
//Storyboard Layer 3 (Foreground)
//Storyboard Layer 4 (Overlay)
//Storyboard Sound Samples

[TimingPoints]
6,344.827586206897,4,2,1,90,1,0
11040,-90.9090909090909,4,2,1,90,0,0
12074,-90.9090909090909,4,2,1,90,0,0
22074,-90.9090909090909,4,2,1,80,0,0
33109,-83.3333333333333,4,2,1,100,0,0
55178,-83.3333333333333,4,2,1,70,0,0
60695,-90.9090909090909,4,2,1,70,0,0
71730,-90.9090909090909,4,2,1,80,0,0
82764,-83.3333333333333,4,2,1,100,0,0
105178,-100,4,2,1,70,0,0
106212,-90.9090909090909,4,2,1,70,0,0
115868,-90.9090909090909,4,2,1,70,0,0
126902,-90.9090909090909,4,2,1,80,0,0
130350,-90.9090909090909,4,2,1,50,0,0
132419,-90.9090909090909,4,2,1,80,0,0
137937,-83.3333333333333,4,2,1,100,0,0

[Colours]
Combo1 : 198,89,238
Combo2 : 207,115,227
Combo3 : 249,157,231

[HitObjects]
108,295,6,5,0,3:0:0:0:
273,266,350,1,0,0:0:0:0:
439,241,695,2,0,L|519:252,2,60,8|0|0,0:0|3:0|3:0,0:0:0:0:
285,181,1385,5,0,1:0:0:0:
367,169,1557,2,0,L|358:106,1,60,0|0,3:0|3:0,0:0:0:0:
324,32,1902,1,0,0:0:0:0:
242,13,2074,1,8,0:0:0:0:
242,13,2247,2,0,L|119:23,1,120,8|0,0:0|3:0,0:0:0:0:
32,41,2764,5,0,3:0:0:0:
188,102,3109,1,0,0:0:0:0:
347,155,3454,1,8,0:0:0:0:
462,348,4143,6,0,L|388:337,1,60,0|0,1:0|3:0,0:0:0:0:
331,294,4488,2,0,L|259:311,1,60,0|0,3:0|3:0,0:0:0:0:
204,357,4833,1,8,0:0:0:0:
12,183,5523,5,0,3:0:0:0:
179,198,5868,1,0,0:0:0:0:
346,211,6212,2,0,L|389:264,2,60,8|0|0,0:0|0:0|0:0,0:0:0:0:
460,87,6902,5,0,1:0:0:0:
379,64,7074,2,0,L|373:140,1,60,0|0,3:0|3:0,0:0:0:0:
302,167,7419,1,0,3:0:0:0:
218,178,7592,1,8,0:0:0:0:
218,178,7764,2,0,L|241:320,1,120,8|0,0:0|3:0,0:0:0:0:
303,349,8281,5,0,3:0:0:0:
136,325,8626,1,0,0:0:0:0:
11,212,8971,1,8,0:0:0:0:
291,26,9661,6,0,L|216:11,1,60,0|8,1:0|0:0,0:0:0:0:
147,14,10006,2,0,L|135:81,1,60,0|0,3:0|3:0,0:0:0:0:
214,102,10350,1,10,0:0:0:0:
81,289,11040,6,0,L|236:276,2,132.00000402832,0|0|8,1:0|1:0|0:0,0:0:0:0:
12,145,12074,2,0,P|24:94|33:81,1,66.0000020141602,2|2,0:0|0:0,0:0:0:0:
110,86,12419,6,0,P|131:148|137:211,2,99.0000030212403,0|0|0,3:0|3:0|3:0,0:0:0:0:
154,19,13109,1,8,0:0:0:0:
154,19,13281,2,0,L|229:27,1,66.0000020141602,8|8,0:0|0:0,0:0:0:0:
298,32,13626,1,0,3:0:0:0:
377,28,13799,6,0,P|389:94|411:177,2,132.00000402832,0|0|8,1:0|1:0|0:0,0:0:0:0:
265,199,14833,2,0,P|249:237|247:272,1,66.0000020141602,2|2,0:0|0:0,0:0:0:0:
252,340,15178,2,0,P|315:321|399:326,1,132.00000402832,0|0,3:0|0:0,0:0:0:0:
459,330,15695,2,0,L|474:253,1,66.0000020141602,0|2,0:0|0:0,0:0:0:0:
426,113,16212,1,2,0:0:0:0:
295,23,16557,6,0,P|242:44|158:50,2,132.00000402832,0|0|8,1:0|1:0|0:0,0:0:0:0:
44,107,17592,2,0,P|32:172|31:199,1,66.0000020141602,2|2,0:0|0:0,0:0:0:0:
70,241,17937,2,0,P|35:283|-25:301,2,99.0000030212403,0|0|0,3:0|3:0|3:0,0:0:0:0:
137,199,18626,1,8,0:0:0:0:
137,199,18799,2,0,L|218:207,1,66.0000020141602,8|8,0:0|0:0,0:0:0:0:
281,215,19143,1,0,3:0:0:0:
343,264,19316,6,0,P|326:311|251:360,2,132.00000402832,0|0|8,1:0|1:0|0:0,0:0:0:0:
482,189,20350,1,2,0:0:0:0:
482,189,20523,1,2,0:0:0:0:
408,160,20695,6,0,L|394:89,1,66.0000020141602,0|0,3:0|3:0,0:0:0:0:
341,36,21040,2,0,L|270:26,1,66.0000020141602,2|2,0:0|0:0,0:0:0:0:
211,73,21385,1,8,0:0:0:0:
38,0,21730,1,0,0:0:0:0:
8,155,22074,6,0,L|86:170,1,66.0000020141602,0|0,1:0|0:0,0:0:0:0:
146,196,22419,2,0,L|149:282,1,66.0000020141602,0|0,1:0|0:0,0:0:0:0:
181,333,22764,1,8,0:0:0:0:
336,362,23109,2,0,P|376:339|413:333,1,66.0000020141602,2|2,0:0|0:0,0:0:0:0:
444,272,23454,6,0,P|489:335|497:378,2,99.0000030212403,0|0|0,1:0|3:0|0:0,0:0:0:0:
367,254,24143,1,8,0:0:0:0:
367,254,24316,2,0,P|357:202|363:167,1,66.0000020141602,8|8,0:0|0:0,0:0:0:0:
414,133,24661,1,0,3:0:0:0:
340,103,24833,6,0,B|252:121|252:121|213:173,2,132.00000402832,0|0|0,1:0|1:0|3:0,0:0:0:0:
494,6,25868,2,0,L|486:75,1,66.0000020141602,2|2,0:0|0:0,0:0:0:0:
497,149,26212,5,0,3:0:0:0:
497,149,26385,1,0,3:0:0:0:
457,217,26557,2,0,L|381:233,1,66.0000020141602,0|0,3:0|0:0,0:0:0:0:
324,272,26902,2,0,L|310:357,1,66.0000020141602,2|2,0:0|0:0,0:0:0:0:
239,367,27247,1,2,0:0:0:0:
54,237,27592,6,0,L|195:208,2,132.00000402832,0|0|8,1:0|1:0|0:0,0:0:0:0:
12,84,28626,2,0,P|40:48|75:38,1,66.0000020141602,2|2,0:0|0:0,0:0:0:0:
136,48,28971,2,0,P|113:108|102:151,2,99.0000030212403,0|0|0,1:0|3:0|0:0,0:0:0:0:
209,17,29661,1,8,0:0:0:0:
209,17,29833,2,0,L|296:28,1,66.0000020141602,8|8,0:0|0:0,0:0:0:0:
353,26,30178,1,0,3:0:0:0:
311,93,30350,6,0,P|304:157|374:205,1,132.00000402832,0|0,1:0|1:0,0:0:0:0:
507,211,31040,2,0,P|465:228|447:254,1,66.0000020141602,10|2,0:0|0:0,0:0:0:0:
409,310,31385,2,0,P|372:308|339:289,1,66.0000020141602,2|2,0:0|0:0,0:0:0:0:
274,262,31730,1,2,0:0:0:0:
274,262,31902,1,2,0:0:0:0:
274,262,32074,1,2,0:0:0:0:
6,15,33109,5,4,0:0:0:0:
87,43,33281,1,2,0:0:0:0:
168,71,33454,2,0,P|163:138|147:192,1,107.999996704102,4|0,1:2|0:0,0:0:0:0:
128,213,33799,2,0,P|76:231|44:251,1,71.9999978027344,8|0,0:0|0:0,0:0:0:0:
19,314,34143,1,2,0:0:0:0:
94,357,34316,1,2,0:0:0:0:
180,351,34488,6,0,B|242:332|242:332|336:350,1,143.999995605469,0|0,3:0|0:0,0:0:0:0:
404,365,35006,1,0,3:0:0:0:
374,272,35178,2,0,P|418:230|471:227,2,107.999996704102,8|8|8,0:0|0:0|0:0,0:0:0:0:
287,261,35868,6,0,P|280:191|265:104,1,143.999995605469,0|2,1:0|0:0,0:0:0:0:
291,34,36385,1,2,0:0:0:0:
350,95,36557,2,0,P|405:76|506:59,1,143.999995605469,8|2,0:0|0:0,0:0:0:0:
507,144,37074,1,2,0:0:0:0:
430,185,37247,6,0,B|408:239|408:239|437:332,1,143.999995605469,0|0,3:0|0:0,0:0:0:0:
262,351,37937,2,0,P|238:318|163:304,2,107.999996704102,8|8|8,0:0|0:0|0:0,0:0:0:0:
348,347,38626,6,0,P|339:293|316:228,1,107.999996704102,4|0,1:0|0:0,0:0:0:0:
295,208,38971,1,0,1:0:0:0:
132,148,39316,2,0,P|68:132|39:131,1,71.9999978027344,8|0,0:0|0:0,0:0:0:0:
2,193,39661,1,2,0:0:0:0:
79,231,39833,1,0,3:0:0:0:
165,241,40006,6,0,P|170:173|213:79,1,143.999995605469,0|2,3:0|0:0,0:0:0:0:
242,29,40523,1,0,3:0:0:0:
324,52,40695,2,0,L|439:34,2,107.999996704102,8|8|8,0:0|0:0|0:0,0:0:0:0:
279,126,41385,6,0,B|254:191|254:191|289:257,1,143.999995605469,0|2,3:0|0:0,0:0:0:0:
361,304,41902,1,2,0:0:0:0:
288,350,42074,2,0,L|205:360,1,71.9999978027344,8|0,0:0|0:0,0:0:0:0:
130,349,42419,1,2,0:0:0:0:
130,349,42592,1,0,3:0:0:0:
44,335,42764,6,0,P|62:267|48:213,1,107.999996704102,0|0,3:0|3:0,0:0:0:0:
24,200,43109,2,0,P|14:157|23:129,1,71.9999978027344,0|0,0:0|3:0,0:0:0:0:
80,66,43454,2,0,P|57:14|2:-1,2,107.999996704102,8|8|8,0:0|0:0|0:0,0:0:0:0:
152,113,44143,6,0,L|282:78,1,107.999996704102,4|0,0:0|0:0,0:0:0:0:
294,63,44488,2,0,L|419:86,1,107.999996704102,4|0,1:0|0:0,0:0:0:0:
441,68,44833,1,14,0:0:0:0:
352,216,45178,1,2,0:0:0:0:
352,216,45350,1,0,3:0:0:0:
431,251,45523,6,0,P|407:312|391:337,1,71.9999978027344,0|0,3:0|0:0,0:0:0:0:
328,360,45868,1,2,0:0:0:0:
263,303,46040,1,0,3:0:0:0:
186,342,46212,2,0,L|75:359,2,107.999996704102,8|8|8,0:0|0:0|0:0,0:0:0:0:
196,255,46902,6,0,P|156:217|67:196,1,143.999995605469,0|0,1:0|0:0,0:0:0:0:
6,252,47419,1,0,3:0:0:0:
59,184,47592,2,0,L|88:90,1,71.9999978027344,8|0,0:0|0:0,0:0:0:0:
113,34,47937,1,0,0:0:0:0:
113,34,48109,1,0,3:0:0:0:
185,81,48281,6,0,P|261:75|304:13,1,143.999995605469,0|0,3:0|0:0,0:0:0:0:
511,243,48971,2,0,P|471:227|394:225,2,107.999996704102,8|8|8,0:0|0:0|0:0,0:0:0:0:
452,306,49661,6,0,P|401:361|344:363,1,107.999996704102,4|0,0:0|0:0,0:0:0:0:
331,348,50006,2,0,P|300:318|227:310,1,107.999996704102,4|0,1:0|0:0,0:0:0:0:
199,327,50350,1,8,0:0:0:0:
14,86,50868,1,2,0:0:0:0:
94,117,51040,6,0,P|120:59|114:27,2,71.9999978027344,2|2|2,0:0|0:0|0:0,0:0:0:0:
23,167,51557,1,0,0:0:0:0:
92,218,51730,2,0,L|222:187,2,107.999996704102,8|8|8,0:0|0:0|0:0,0:0:0:0:
16,259,52419,6,0,P|73:308|116:372,1,143.999995605469,4|2,1:0|0:0,0:0:0:0:
199,366,52937,1,2,0:0:0:0:
284,358,53109,2,0,P|292:309|315:275,1,71.9999978027344,8|0,0:0|0:0,0:0:0:0:
375,243,53454,1,2,0:0:0:0:
375,243,53626,1,0,3:0:0:0:
297,204,53799,6,0,L|213:197,1,71.9999978027344,0|2,3:0|0:0,0:0:0:0:
139,192,54143,1,2,0:0:0:0:
150,277,54316,1,0,3:0:0:0:
166,361,54488,1,8,0:0:0:0:
28,256,54833,2,0,L|40:169,1,71.9999978027344,0|0,0:0|3:0,0:0:0:0:
51,99,55178,5,0,3:0:0:0:
198,8,55523,1,0,0:0:0:0:
361,63,55868,2,0,L|437:55,2,71.9999978027344,8|0|0,0:0|0:0|0:0,0:0:0:0:
249,194,56557,6,0,L|337:205,1,71.9999978027344,0|0,1:0|3:0,0:0:0:0:
406,212,56902,1,0,3:0:0:0:
406,212,57074,1,0,0:0:0:0:
409,298,57247,1,8,0:0:0:0:
409,298,57419,2,0,L|328:324,1,71.9999978027344,8|8,0:0|0:0,0:0:0:0:
256,340,57764,1,0,3:0:0:0:
171,357,57937,5,0,3:0:0:0:
18,277,58281,1,0,0:0:0:0:
109,130,58626,1,8,0:0:0:0:
433,11,59316,5,0,1:0:0:0:
376,76,59488,1,0,3:0:0:0:
452,116,59661,2,0,L|459:191,1,71.9999978027344,0|0,3:0|3:0,0:0:0:0:
465,274,60006,1,8,0:0:0:0:
121,138,60695,6,0,L|276:125,2,132.00000402832,0|0|8,1:0|1:0|0:0,0:0:0:0:
75,289,61729,2,0,P|106:274|136:269,1,66.0000020141602,2|2,0:0|0:0,0:0:0:0:
215,280,62074,6,0,P|236:342|242:405,2,99.0000030212403,0|0|0,3:0|3:0|3:0,0:0:0:0:
211,200,62764,1,8,0:0:0:0:
211,200,62936,2,0,L|286:208,1,66.0000020141602,8|8,0:0|0:0,0:0:0:0:
356,210,63281,1,0,3:0:0:0:
435,212,63454,6,0,L|469:361,2,132.00000402832,0|0|8,1:0|1:0|0:0,0:0:0:0:
454,54,64488,2,0,P|416:38|381:36,1,66.0000020141602,2|2,0:0|0:0,0:0:0:0:
315,59,64833,2,0,P|256:68|166:86,1,132.00000402832,0|0,3:0|3:0,0:0:0:0:
112,48,65350,2,0,L|100:113,1,66.0000020141602,0|2,0:0|0:0,0:0:0:0:
36,258,65867,1,2,0:0:0:0:
171,339,66212,6,0,P|224:318|308:312,2,132.00000402832,0|0|8,1:0|1:0|0:0,0:0:0:0:
73,213,67247,2,0,P|77:180|84:148,1,66.0000020141602,2|2,0:0|0:0,0:0:0:0:
128,82,67592,2,0,P|166:112|186:157,2,99.0000030212403,0|0|0,3:0|3:0|3:0,0:0:0:0:
64,35,68281,1,8,0:0:0:0:
64,35,68454,2,0,L|32:107,1,66.0000020141602,8|8,0:0|0:0,0:0:0:0:
38,174,68798,1,0,3:0:0:0:
74,244,68971,6,0,L|170:336,2,132.00000402832,0|0|8,1:0|1:0|0:0,0:0:0:0:
232,249,70005,1,2,0:0:0:0:
232,249,70178,1,2,0:0:0:0:
309,234,70350,6,0,L|295:163,1,66.0000020141602,0|0,3:0|3:0,0:0:0:0:
370,140,70695,2,0,L|447:157,1,66.0000020141602,0|2,3:0|0:0,0:0:0:0:
478,221,71040,1,8,0:0:0:0:
444,66,71385,1,2,0:0:0:0:
291,23,71729,6,0,L|226:10,1,66.0000020141602,0|0,1:0|0:0,0:0:0:0:
221,89,72074,2,0,L|302:103,1,66.0000020141602,0|0,1:0|0:0,0:0:0:0:
364,112,72419,1,8,0:0:0:0:
327,266,72764,2,0,P|295:275|268:293,1,66.0000020141602,2|2,0:0|0:0,0:0:0:0:
199,334,73109,6,0,P|140:314|88:290,2,99.0000030212403,0|0|0,1:0|3:0|0:0,0:0:0:0:
227,260,73798,1,8,0:0:0:0:
227,260,73971,2,0,P|221:224|199:192,1,66.0000020141602,8|8,0:0|0:0,0:0:0:0:
126,203,74316,1,0,3:0:0:0:
47,208,74488,6,0,P|27:153|45:81,1,132.00000402832,0|0,1:0|1:0,0:0:0:0:
354,20,75523,2,0,L|419:27,1,66.0000020141602,2|2,0:0|0:0,0:0:0:0:
494,66,75867,5,0,3:0:0:0:
494,66,76040,1,0,3:0:0:0:
503,144,76212,2,0,L|427:160,1,66.0000020141602,0|0,3:0|0:0,0:0:0:0:
385,216,76557,2,0,L|371:301,1,66.0000020141602,2|2,0:0|0:0,0:0:0:0:
433,333,76902,1,2,0:0:0:0:
227,263,77247,6,0,P|181:300|162:372,2,132.00000402832,0|0|8,1:3|1:0|0:0,0:0:0:0:
317,132,78281,2,0,P|320:99|307:69,1,66.0000020141602,2|2,0:0|0:0,0:0:0:0:
237,31,78626,2,0,P|177:8|134:-3,2,99.0000030212403,0|0|0,1:0|3:0|0:0,0:0:0:0:
226,109,79316,1,8,0:0:0:0:
226,109,79488,2,0,L|215:196,1,66.0000020141602,8|8,0:0|0:0,0:0:0:0:
195,250,79833,1,0,3:0:0:0:
131,202,80005,6,0,P|70:214|19:265,1,132.00000402832,0|0,1:0|1:0,0:0:0:0:
21,102,80695,2,0,P|44:79|75:69,1,66.0000020141602,10|2,0:0|0:0,0:0:0:0:
154,59,81040,2,0,P|183:72|216:73,1,66.0000020141602,2|2,0:0|0:0,0:0:0:0:
294,43,81385,1,2,0:0:0:0:
294,43,81557,1,2,0:0:0:0:
294,43,81729,1,2,0:0:0:0:
461,354,82764,5,4,0:0:0:0:
467,268,82936,1,2,0:0:0:0:
467,181,83109,2,0,B|415:163|415:163|343:201,1,107.999996704102,4|0,1:0|0:0,0:0:0:0:
327,202,83454,2,0,L|236:196,1,71.9999978027344,8|0,0:0|0:0,0:0:0:0:
170,180,83798,1,2,0:0:0:0:
170,180,83971,1,2,0:0:0:0:
248,200,84143,6,0,B|269:275|269:275|256:343,1,143.999995605469,0|0,3:0|0:0,0:0:0:0:
175,372,84661,1,0,3:0:0:0:
122,303,84833,2,0,P|69:311|33:349,2,107.999996704102,8|8|8,0:0|0:0|0:0,0:0:0:0:
197,259,85523,6,0,P|188:190|121:146,1,143.999995605469,0|2,1:0|0:0,0:0:0:0:
46,129,86040,1,2,0:0:0:0:
102,63,86212,2,0,P|158:44|263:46,1,143.999995605469,8|2,0:0|0:0,0:0:0:0:
325,15,86730,1,2,0:0:0:0:
323,101,86902,6,0,B|377:123|377:123|470:94,1,143.999995605469,0|0,3:0|0:0,0:0:0:0:
481,269,87592,2,0,P|432:233|380:224,2,107.999996704102,8|8|8,0:0|0:0|0:0,0:0:0:0:
422,331,88281,6,0,L|284:314,1,107.999996704102,0|0,1:0|0:0,0:0:0:0:
273,332,88626,1,0,1:0:0:0:
186,182,88971,2,0,P|191:146|202:112,1,71.9999978027344,10|0,0:0|0:0,0:0:0:0:
183,27,89316,1,2,0:0:0:0:
97,40,89488,1,0,3:0:0:0:
28,93,89661,6,0,B|63:133|63:133|51:240,1,143.999995605469,0|0,3:0|0:0,0:0:0:0:
69,308,90178,1,0,3:0:0:0:
146,345,90350,2,0,L|261:327,2,107.999996704102,8|8|8,0:0|0:0|0:0,0:0:0:0:
136,258,91040,6,0,B|101:192|101:192|126:127,1,143.999995605469,0|2,1:0|0:0,0:0:0:0:
206,95,91557,1,2,0:0:0:0:
271,151,91729,2,0,L|342:142,1,71.9999978027344,8|0,0:0|0:0,0:0:0:0:
429,141,92074,1,2,0:0:0:0:
429,141,92247,1,0,3:0:0:0:
413,225,92419,6,0,P|407:278|424:329,1,107.999996704102,0|0,3:0|3:0,0:0:0:0:
398,364,92764,2,0,P|363:355|329:366,1,71.9999978027344,0|0,0:0|3:0,0:0:0:0:
259,315,93109,2,0,L|227:177,2,107.999996704102,8|8|8,0:0|0:0|0:0,0:0:0:0:
181,352,93799,6,0,B|133:315|133:315|144:243,1,107.999996704102,4|0,0:0|0:0,0:0:0:0:
130,226,94143,2,0,B|144:165|144:165|105:112,1,107.999996704102,4|0,1:0|0:0,0:0:0:0:
81,103,94488,1,12,0:0:0:0:
233,21,94833,1,2,0:0:0:0:
233,21,95005,1,0,3:0:0:0:
309,62,95178,6,0,P|342:48|373:30,1,71.9999978027344,0|0,3:0|0:0,0:0:0:0:
456,7,95523,1,0,0:0:0:0:
500,80,95695,1,0,3:0:0:0:
461,157,95867,2,0,L|478:268,2,107.999996704102,8|8|8,0:0|0:0|0:0,0:0:0:0:
375,145,96557,6,0,P|310:160|227:186,1,143.999995605469,0|2,3:0|0:0,0:0:0:0:
166,233,97074,1,0,3:0:0:0:
233,287,97247,2,0,L|327:316,1,71.9999978027344,8|0,0:0|0:0,0:0:0:0:
382,339,97592,1,2,0:0:0:0:
382,339,97764,1,0,3:0:0:0:
368,253,97937,6,0,P|383:189|466:139,1,143.999995605469,0|0,3:0|0:0,0:0:0:0:
314,27,98626,2,0,P|376:36|425:69,2,107.999996704102,8|8|8,0:0|0:0|0:0,0:0:0:0:
227,16,99316,6,0,L|211:131,1,107.999996704102,0|0,1:0|0:0,0:0:0:0:
171,138,99661,2,0,L|192:272,1,107.999996704102,0|0,1:0|0:0,0:0:0:0:
192,288,100006,1,10,0:0:0:0:
446,239,100523,1,0,0:0:0:0:
395,169,100695,6,0,P|337:143|305:149,2,71.9999978027344,0|2|2,3:0|0:0|0:0,0:0:0:0:
466,119,101212,1,2,0:0:0:0:
406,56,101385,2,0,L|511:30,2,107.999996704102,8|8|8,0:0|0:0|0:0,0:0:0:0:
321,39,102074,6,0,L|161:15,1,143.999995605469,0|2,1:0|0:0,0:0:0:0:
91,24,102592,1,2,0:0:0:0:
140,94,102764,2,0,P|166:136|171:177,1,71.9999978027344,8|0,0:0|0:0,0:0:0:0:
99,207,103109,1,2,0:0:0:0:
99,207,103281,1,0,3:0:0:0:
32,262,103454,6,0,L|65:339,1,71.9999978027344,0|2,3:0|0:0,0:0:0:0:
142,355,103798,1,2,0:0:0:0:
228,346,103971,1,2,0:0:0:0:
312,331,104143,1,2,0:0:0:0:
459,241,104488,2,0,L|471:154,1,71.9999978027344,0|0,3:0|3:0,0:0:0:0:
486,84,104833,5,0,3:0:0:0:
319,63,105178,1,0,0:0:0:0:
152,37,105523,2,0,L|92:27,2,60,8|0|0,0:0|0:0|0:0,0:0:0:0:
201,197,106212,6,0,L|213:285,1,66.0000020141602,0|0,1:0|3:0,0:0:0:0:
222,342,106557,1,0,3:0:0:0:
222,342,106730,1,0,0:0:0:0:
300,330,106902,1,8,0:0:0:0:
300,330,107074,2,0,L|447:355,1,132.00000402832,8|0,0:0|3:0,0:0:0:0:
493,303,107592,5,0,3:0:0:0:
414,165,107937,1,0,0:0:0:0:
310,45,108281,1,8,0:0:0:0:
30,193,108971,6,0,L|120:199,1,66.0000020141602,0|0,1:0|3:0,0:0:0:0:
175,197,109316,2,0,L|198:268,2,66.0000020141602,0|0|8,3:0|3:0|0:0,0:0:0:0:
144,123,109833,1,0,0:0:0:0:
65,362,110350,5,0,3:0:0:0:
221,338,110695,1,0,0:0:0:0:
378,320,111040,2,0,P|423:324|467:336,2,66.0000020141602,8|0|0,0:0|0:0|0:0,0:0:0:0:
324,170,111730,6,0,L|313:88,1,66.0000020141602,0|0,1:0|3:0,0:0:0:0:
303,26,112074,1,0,3:0:0:0:
303,26,112247,1,0,0:0:0:0:
238,71,112419,1,8,0:0:0:0:
238,71,112592,2,0,L|96:82,1,132.00000402832,8|0,0:0|3:0,0:0:0:0:
31,53,113109,5,0,1:0:0:0:
137,170,113454,1,0,0:0:0:0:
247,283,113799,1,8,0:0:0:0:
468,57,114488,6,0,L|481:126,1,66.0000020141602,0|0,1:0|3:0,0:0:0:0:
494,200,114833,2,0,L|418:190,1,66.0000020141602,0|0,3:0|3:0,0:0:0:0:
349,180,115178,1,8,0:0:0:0:
62,43,115868,6,0,L|42:185,1,132.00000402832,0|0,1:0|1:0,0:0:0:0:
63,250,116385,1,2,0:0:0:0:
63,250,116557,2,0,P|124:238|210:237,1,132.00000402832,8|0,0:0|3:0,0:0:0:0:
347,276,117247,6,0,P|340:328|292:363,2,99.0000030212403,0|0|0,3:0|3:0|3:0,0:0:0:0:
332,197,117937,1,8,0:0:0:0:
332,197,118109,2,0,L|406:206,1,66.0000020141602,8|8,0:0|0:0,0:0:0:0:
476,209,118454,1,0,3:0:0:0:
487,130,118626,6,0,P|479:82|395:40,1,132.00000402832,0|2,3:0|0:0,0:0:0:0:
347,84,119143,1,2,0:0:0:0:
282,37,119316,2,0,L|186:52,1,66.0000020141602,8|0,0:0|0:0,0:0:0:0:
137,45,119661,2,0,L|121:115,1,66.0000020141602,2|2,0:0|0:0,0:0:0:0:
112,188,120006,6,0,P|59:213|8:280,1,132.00000402832,0|0,3:0|3:0,0:0:0:0:
20,347,120523,1,0,0:0:0:0:
20,347,120695,1,2,0:0:0:0:
178,354,121040,1,2,0:0:0:0:
336,357,121385,6,0,L|320:218,1,132.00000402832,0|2,3:0|0:0,0:0:0:0:
311,67,122074,2,0,P|278:27|192:47,1,132.00000402832,2|0,0:0|0:0,0:0:0:0:
160,101,122592,1,2,0:0:0:0:
160,101,122764,2,0,B|207:154|196:228|108:253,1,198.000006042481,2|2,0:0|0:0,0:0:0:0:
84,57,123626,2,0,L|6:45,2,66.0000020141602,8|8|0,0:0|0:0|3:0,0:0:0:0:
152,16,124143,5,0,1:0:0:0:
229,35,124316,1,2,0:0:0:0:
306,17,124488,1,2,0:0:0:0:
383,35,124661,2,0,L|366:124,1,66.0000020141602,2|8,0:0|0:0,0:0:0:0:
388,176,125006,2,0,L|470:214,2,66.0000020141602,2|2|2,0:0|0:0|0:0,0:0:0:0:
308,182,125523,5,0,3:0:0:0:
300,260,125695,1,0,3:0:0:0:
298,339,125868,2,0,L|448:318,1,132.00000402832,0|8,3:0|0:0,0:0:0:0:
475,87,126730,1,2,3:0:0:0:
418,32,126902,6,0,P|359:33|322:41,1,66.0000020141602,0|0,1:0|0:0,0:0:0:0:
277,62,127247,2,0,P|286:103|285:139,1,66.0000020141602,0|2,1:0|3:0,0:0:0:0:
229,182,127592,2,0,L|70:174,1,132.00000402832,2|2,3:0|0:0,0:0:0:0:
1,301,128281,5,0,1:0:0:0:
63,349,128454,2,0,L|149:339,1,66.0000020141602,0|0,3:0|3:0,0:0:0:0:
207,332,128799,1,0,0:0:0:0:
207,332,128971,1,8,0:0:0:0:
280,303,129143,1,8,0:0:0:0:
280,303,129316,2,0,L|356:325,1,66.0000020141602,8|0,0:0|3:0,0:0:0:0:
417,351,129661,6,0,P|427:283|426:207,1,132.00000402832,0|0,1:0|1:0,0:0:0:0:
353,79,130350,1,0,3:0:0:0:
44,37,132419,6,0,P|104:40|175:80,2,132.00000402832,0|0|8,1:0|1:0|0:0,0:0:0:0:
18,193,133454,2,0,P|67:199|103:209,1,66.0000020141602,2|2,0:0|0:0,0:0:0:0:
158,228,133799,2,0,P|168:279|154:351,2,99.0000030212403,0|0|0,1:0|3:0|0:0,0:0:0:0:
191,156,134488,1,8,0:0:0:0:
191,156,134661,2,0,L|285:171,1,66.0000020141602,8|8,0:0|0:0,0:0:0:0:
334,176,135006,1,0,3:0:0:0:
412,185,135178,6,0,L|431:326,2,132.00000402832,0|0|8,1:0|1:0|0:0,0:0:0:0:
255,35,136212,1,2,0:0:0:0:
257,194,136902,1,2,0:0:0:0:
142,353,137937,5,4,0:0:0:0:
193,283,138109,1,2,0:0:0:0:
256,224,138281,2,0,P|334:251|370:287,1,107.999996704102,4|0,1:0|0:0,0:0:0:0:
389,289,138626,2,0,P|430:278|464:255,1,71.9999978027344,8|0,0:0|0:0,0:0:0:0:
496,186,138971,1,2,0:0:0:0:
498,99,139144,1,2,0:0:0:0:
500,12,139316,6,0,P|441:33|365:80,1,143.999995605469,0|0,3:0|0:0,0:0:0:0:
323,147,139834,1,0,3:0:0:0:
278,73,140006,2,0,P|244:44|174:20,2,107.999996704102,8|8|8,0:0|0:0|0:0,0:0:0:0:
236,148,140695,6,0,P|181:179|91:183,1,143.999995605469,0|2,1:0|0:0,0:0:0:0:
17,163,141213,1,2,0:0:0:0:
28,248,141385,2,0,P|59:310|120:357,1,143.999995605469,8|2,0:0|0:0,0:0:0:0:
202,346,141902,1,2,0:0:0:0:
164,269,142074,6,0,B|139:216|139:216|184:126,1,143.999995605469,0|0,3:0|0:0,0:0:0:0:
331,59,142764,2,0,P|386:17|441:14,2,107.999996704102,8|8|8,0:0|0:0|0:0,0:0:0:0:
323,145,143454,6,0,P|397:174|442:215,1,107.999996704102,0|0,1:0|0:0,0:0:0:0:
451,220,143799,1,0,1:0:0:0:
349,359,144144,2,0,P|285:343|256:342,1,71.9999978027344,8|0,0:0|0:0,0:0:0:0:
192,350,144489,1,2,0:0:0:0:
236,276,144661,1,0,3:0:0:0:
197,199,144833,6,0,P|155:162|52:144,1,143.999995605469,0|0,3:0|0:0,0:0:0:0:
6,83,145351,1,0,3:0:0:0:
89,62,145523,2,0,P|71:15|-6:0,2,107.999996704102,8|8|8,0:0|0:0|0:0,0:0:0:0:
172,82,146212,6,0,P|285:98|337:119,1,143.999995605469,0|2,3:0|0:0,0:0:0:0:
383,57,146730,1,2,0:0:0:0:
397,141,146902,2,0,L|407:224,1,71.9999978027344,8|0,0:0|0:0,0:0:0:0:
472,268,147247,1,2,0:0:0:0:
472,268,147420,1,0,3:0:0:0:
414,332,147592,6,0,P|379:306|303:295,1,107.999996704102,0|0,3:0|3:0,0:0:0:0:
279,316,147937,2,0,P|238:345|191:354,1,71.9999978027344,0|0,0:0|3:0,0:0:0:0:
141,310,148281,2,0,L|25:282,2,107.999996704102,8|8|8,0:0|0:0|0:0,0:0:0:0:
208,255,148971,6,0,P|199:205|141:156,1,107.999996704102,4|0,0:0|0:0,0:0:0:0:
117,158,149316,2,0,P|182:124|193:75,1,107.999996704102,4|0,1:0|0:0,0:0:0:0:
196,51,149661,1,4,0:0:0:0:
364,12,150006,1,2,0:0:0:0:
364,12,150178,1,0,3:0:0:0:
440,50,150350,6,0,L|441:147,1,71.9999978027344,0|0,3:0|0:0,0:0:0:0:
498,187,150696,1,2,0:0:0:0:
413,201,150868,1,0,3:0:0:0:
337,241,151040,2,0,L|354:352,2,107.999996704102,8|8|8,0:0|0:0|0:0,0:0:0:0:
259,201,151730,6,0,P|292:139|369:119,1,143.999995605469,0|2,3:0|0:0,0:0:0:0:
445,121,152247,1,0,3:0:0:0:
437,34,152420,2,0,L|343:5,1,71.9999978027344,8|0,0:0|0:0,0:0:0:0:
283,30,152765,1,2,0:0:0:0:
283,30,152937,1,0,3:0:0:0:
211,78,153109,6,0,B|254:128|254:128|231:234,1,143.999995605469,0|0,3:0|0:0,0:0:0:0:
120,331,153799,2,0,P|80:315|3:313,2,107.999996704102,8|8|8,0:0|0:0|0:0,0:0:0:0:
201,358,154488,6,0,P|268:322|318:330,1,107.999996704102,0|0,1:0|0:0,0:0:0:0:
334,346,154833,2,0,P|377:368|446:367,1,107.999996704102,0|0,1:0|0:0,0:0:0:0:
475,351,155178,1,8,0:0:0:0:
270,191,155696,1,0,0:0:0:0:
347,152,155868,6,0,L|366:60,2,71.9999978027344,0|2|2,3:0|0:0|0:0,0:0:0:0:
384,230,156385,1,0,0:0:0:0:
324,292,156558,2,0,L|218:317,2,107.999996704102,8|8|0,0:0|0:0|0:0,0:0:0:0:
409,303,157247,6,0,P|491:276|499:204,1,143.999995605469,0|2,1:0|0:0,0:0:0:0:
474,145,157765,1,2,0:0:0:0:
402,97,157937,2,0,L|310:103,1,71.9999978027344,8|0,0:0|0:0,0:0:0:0:
246,80,158282,1,2,0:0:0:0:
246,80,158454,1,0,3:0:0:0:
197,151,158626,6,0,L|206:247,1,71.9999978027344,0|2,3:0|0:0,0:0:0:0:
266,282,158971,1,2,0:0:0:0:
185,314,159144,1,0,0:0:0:0:
101,335,159316,1,8,0:0:0:0:
21,181,159661,2,0,L|35:72,1,107.999996704102,0|8,0:0|0:0,0:0:0:0:
