osu file format v14

[General]
AudioFilename: audio.mp3
AudioLeadIn: 0
PreviewTime: 184724
Countdown: 0
SampleSet: Normal
StackLeniency: 0.7
Mode: 1
LetterboxInBreaks: 0
WidescreenStoryboard: 1

[Editor]
DistanceSpacing: 1.1
BeatDivisor: 8
GridSize: 16
TimelineZoom: 2.799999

[Metadata]
Title:Kazusa
TitleUnicode:Kazusa
Artist:Slax
ArtistUnicode:Slax
Creator:ler1211
Version:Maidenhood
Source:荒ぶる季節の乙女どもよ。
Tags:CHiCO with HoneyWorks Araburu Kisetsu no Otomedomo Otome-domo yo. (Slax Remix) 乙女どもよ。 Night From The Core Lost Frog Productions O Maidens in Your Savage Season japanese electronic jcore j-core hardcore remix bootleg anime opening uk euphoric melodic euphoricore hardtek
BeatmapID:3657215
BeatmapSetID:1785511

[Difficulty]
HPDrainRate:5
CircleSize:5
OverallDifficulty:6.8
ApproachRate:5
SliderMultiplier:1.4
SliderTickRate:1

[Events]
//Background and Video events
0,0,"kazusa bg.jpg",0,100
//Break Periods
2,167503,174912
//Storyboard Layer 0 (Background)
//Storyboard Layer 1 (Fail)
//Storyboard Layer 2 (Pass)
//Storyboard Layer 3 (Foreground)
//Storyboard Layer 4 (Overlay)
//Storyboard Sound Samples

[TimingPoints]
-276,277.777777777778,4,1,0,60,1,0
140,-125,4,1,0,60,0,0
8474,-111.111111111111,4,1,0,80,0,0
13054,-111.111111111111,4,1,0,80,0,0
13123,-110.713667495387,4,1,0,80,0,0
13193,-110.317645532512,4,1,0,80,0,0
13262,-109.923040137244,4,1,0,80,0,0
13332,-109.529846242532,4,1,0,80,0,0
13401,-109.138058799448,4,1,0,80,0,0
13471,-108.747672777127,4,1,0,80,0,0
13540,-108.358683162696,4,1,0,80,0,0
13610,-107.971084961214,4,1,0,80,0,0
13679,-107.584873195608,4,1,0,80,0,0
13748,-107.200042906607,4,1,0,80,0,0
13818,-106.816589152679,4,1,0,80,0,0
13887,-106.43450700997,4,1,0,80,0,0
13957,-106.053791572235,4,1,0,80,0,0
14026,-105.674437950781,4,1,0,80,0,0
14096,-105.296441274402,4,1,0,80,0,0
14165,-104.919796689315,4,1,0,80,0,0
14235,-104.544499359099,4,1,0,80,0,0
14304,-104.170544464635,4,1,0,80,0,0
14373,-103.797927204039,4,1,0,80,0,0
14443,-103.426642792605,4,1,0,80,0,0
14512,-103.056686462741,4,1,0,80,0,0
14582,-102.688053463911,4,1,0,80,0,0
14651,-102.320739062567,4,1,0,80,0,0
14721,-101.954738542097,4,1,0,80,0,0
14790,-101.59004720276,4,1,0,80,0,0
14860,-101.226660361623,4,1,0,80,0,0
14929,-100.864573352507,4,1,0,80,0,0
14998,-100.503781525921,4,1,0,80,0,0
15068,-100.144280249008,4,1,0,80,0,0
15137,-99.7860649054819,4,1,0,80,0,0
15207,-99.4291308955674,4,1,0,80,0,0
15276,-99.0734736359442,4,1,0,80,0,0
15346,-98.719088559686,4,1,0,80,0,0
15415,-98.3659711162025,4,1,0,80,0,0
15485,-98.0141167711805,4,1,0,80,0,0
15554,-97.6635210065264,4,1,0,80,0,0
15623,-97.3141793203075,4,1,0,80,0,0
15693,-96.9660872266947,4,1,0,80,0,0
15762,-96.6192402559045,4,1,0,80,0,0
15832,-96.2736339541419,4,1,0,80,0,0
15901,-95.929263883543,4,1,0,80,0,0
15971,-95.5861256221181,4,1,0,80,0,0
16040,-95.2442147636951,4,1,0,80,0,0
16110,-94.9035269178625,4,1,0,80,0,0
16179,-94.5640577099134,4,1,0,80,0,0
16248,-94.2258027807893,4,1,0,80,0,0
16318,-93.8887577870237,4,1,0,80,0,0
16387,-93.552918400687,4,1,0,80,0,0
16457,-93.2182803093304,4,1,0,80,0,0
16526,-92.8848392159307,4,1,0,80,0,0
16596,-92.5525908388351,4,1,0,80,0,0
16665,-92.2215309117063,4,1,0,80,0,0
16735,-91.8916551834676,4,1,0,80,0,0
16804,-91.5629594182485,4,1,0,80,0,0
16873,-91.23543939533,4,1,0,80,0,0
16946,-83.3333333333333,4,1,0,80,0,0
17154,-90.9090909090909,4,1,0,80,0,0
17501,-100,4,1,0,80,0,0
26390,-100,4,1,0,80,0,0
44307,-111.111111111111,4,1,0,80,0,0
50554,-111.111111111111,4,1,0,80,0,0
50623,-110.527313992281,4,1,0,80,0,0
50693,-109.946584245135,4,1,0,80,0,0
50762,-109.368905753167,4,1,0,80,0,0
50832,-108.794262484553,4,1,0,80,0,0
50901,-108.2226384917,4,1,0,80,0,0
50971,-107.654017910807,4,1,0,80,0,0
51040,-107.088384961426,4,1,0,80,0,0
51110,-106.52572394602,4,1,0,80,0,0
51179,-105.966019249532,4,1,0,80,0,0
51248,-105.409255338946,4,1,0,80,0,0
51318,-104.855416762862,4,1,0,80,0,0
51387,-104.304488151063,4,1,0,80,0,0
51457,-103.756454214091,4,1,0,80,0,0
51526,-103.211299742819,4,1,0,80,0,0
51596,-102.669009608034,4,1,0,80,0,0
51665,-102.129568760013,4,1,0,80,0,0
51735,-101.592962228109,4,1,0,80,0,0
51804,-101.059175120329,4,1,0,80,0,0
51873,-100.52819262293,4,1,0,80,0,0
51943,-83.3333333333333,4,1,0,80,0,0
52640,-100,4,1,0,80,0,0
53057,-90.9090909090909,4,1,0,90,0,1
61043,-76.9230769230769,4,1,0,90,0,1
61182,-90.9090909090909,4,1,0,90,0,1
69724,-90.9090909090909,4,1,0,80,0,0
69862,-111.111111111111,4,1,0,80,0,0
76387,-111.111111111111,4,1,0,80,0,0
76456,-110.381844620402,4,1,0,80,0,0
76526,-109.657364596222,4,1,0,80,0,0
76595,-108.937639623087,4,1,0,80,0,0
76665,-108.2226384917,4,1,0,80,0,0
76734,-107.512330197606,4,1,0,80,0,0
76804,-106.806683939845,4,1,0,80,0,0
76873,-106.105669119615,4,1,0,80,0,0
76943,-105.409255338946,4,1,0,80,0,0
77012,-104.717412399382,4,1,0,80,0,0
77081,-104.030110300672,4,1,0,80,0,0
77151,-103.347319239468,4,1,0,80,0,0
77220,-102.669009608034,4,1,0,80,0,0
77290,-101.995151992961,4,1,0,80,0,0
77359,-101.325717173891,4,1,0,80,0,0
77429,-100.660676122253,4,1,0,80,0,0
77498,-100,4,1,0,80,0,0
77571,-100,4,1,0,50,0,0
78265,-100,4,1,0,80,0,0
114307,-111.111111111111,4,1,0,80,0,0
120554,-111.111111111111,4,1,0,80,0,0
120623,-110.527313992281,4,1,0,80,0,0
120693,-109.946584245135,4,1,0,80,0,0
120762,-109.368905753167,4,1,0,80,0,0
120832,-108.794262484553,4,1,0,80,0,0
120901,-108.2226384917,4,1,0,80,0,0
120971,-107.654017910807,4,1,0,80,0,0
121040,-107.088384961426,4,1,0,80,0,0
121110,-106.52572394602,4,1,0,80,0,0
121179,-105.966019249532,4,1,0,80,0,0
121248,-105.409255338946,4,1,0,80,0,0
121318,-104.855416762862,4,1,0,80,0,0
121387,-104.304488151063,4,1,0,80,0,0
121457,-103.756454214091,4,1,0,80,0,0
121526,-103.211299742819,4,1,0,80,0,0
121596,-102.669009608034,4,1,0,80,0,0
121665,-102.129568760013,4,1,0,80,0,0
121735,-101.592962228109,4,1,0,80,0,0
121804,-101.059175120329,4,1,0,80,0,0
121873,-100.52819262293,4,1,0,80,0,0
121943,-83.3333333333333,4,1,0,80,0,0
122362,-100,4,1,0,50,0,0
122744,-100,4,1,0,80,0,0
123057,-90.9090909090909,4,1,0,90,0,1
131043,-76.9230769230769,4,1,0,90,0,1
131182,-90.9090909090909,4,1,0,90,0,1
139724,-90.9090909090909,4,1,0,80,0,0
139862,-100,4,1,0,80,0,0
146387,-100,4,1,0,80,0,0
146456,-99.4060820831941,4,1,0,80,0,0
146526,-98.8156915513073,4,1,0,80,0,0
146595,-98.2288074545685,4,1,0,80,0,0
146665,-97.6454089676311,4,1,0,80,0,0
146734,-97.0654753888339,4,1,0,80,0,0
146804,-96.4889861394669,4,1,0,80,0,0
146873,-95.9159207630403,4,1,0,80,0,0
146943,-95.3462589245593,4,1,0,80,0,0
147012,-94.7799804098022,4,1,0,80,0,0
147081,-94.2170651246033,4,1,0,80,0,0
147151,-93.6574930941396,4,1,0,80,0,0
147220,-93.1012444622223,4,1,0,80,0,0
147290,-92.5482994905919,4,1,0,80,0,0
147359,-91.9986385582182,4,1,0,80,0,0
147429,-91.4522421606035,4,1,0,80,0,0
147498,-90.909090909091,4,1,0,80,0,0
148890,-90.9090909090909,4,1,0,90,0,1
156807,-100,4,1,0,80,0,1
157085,-105.263157894737,4,1,0,80,0,1
157501,-111.111111111111,4,1,0,70,0,0
165276,-111.111111111111,4,1,0,70,0,0
165415,-109.657364596222,4,1,0,70,0,0
165554,-108.2226384917,4,1,0,70,0,0
165693,-106.806683939845,4,1,0,70,0,0
165832,-105.409255338946,4,1,0,70,0,0
165970,-104.030110300672,4,1,0,70,0,0
166109,-102.669009608034,4,1,0,70,0,0
166248,-101.325717173891,4,1,0,70,0,0
166387,-100,4,1,0,70,0,0
167501,-142.857142857143,4,1,0,60,0,0
175835,-125,4,1,0,80,0,0
180696,-111.111111111111,4,1,0,80,0,0
183054,-111.111111111111,4,1,0,80,0,0
183123,-110.381844620402,4,1,0,80,0,0
183193,-109.657364596222,4,1,0,80,0,0
183262,-108.937639623087,4,1,0,80,0,0
183332,-108.2226384917,4,1,0,80,0,0
183401,-107.512330197606,4,1,0,80,0,0
183471,-106.806683939845,4,1,0,80,0,0
183540,-106.105669119615,4,1,0,80,0,0
183610,-105.409255338946,4,1,0,80,0,0
183679,-104.717412399382,4,1,0,80,0,0
183748,-104.030110300672,4,1,0,80,0,0
183818,-103.347319239468,4,1,0,80,0,0
183887,-102.669009608034,4,1,0,80,0,0
183957,-101.995151992961,4,1,0,80,0,0
184026,-101.325717173891,4,1,0,80,0,0
184096,-100.660676122253,4,1,0,80,0,0
184165,-83.3333333333333,4,1,0,80,0,0
184585,-100,4,1,0,50,0,0
184967,-100,4,1,0,80,0,0
185279,-90.9090909090909,4,1,0,90,0,1
193821,-76.9230769230769,4,1,0,90,0,1
193960,-90.9090909090909,4,1,0,90,0,1
201946,-90.9090909090909,4,1,0,80,0,0
202085,-117.647058823529,4,1,0,60,0,0
205001,-100,4,1,0,80,0,0
213126,-100,4,1,0,50,0,0
213821,-100,4,1,0,80,0,0
214168,-100,4,1,0,80,0,0
249724,-111.111111111111,4,1,0,80,0,0
263054,-111.111111111111,4,1,0,80,0,0
263193,-110.185953254953,4,1,0,80,0,0
263332,-109.268498652325,4,1,0,80,0,0
263471,-108.358683162696,4,1,0,80,0,0
263610,-107.456443179598,4,1,0,80,0,0
263748,-106.561715626176,4,1,0,80,0,0
263887,-105.674437950781,4,1,0,80,0,0
264026,-104.794548122594,4,1,0,80,0,0
264165,-103.921984627291,4,1,0,80,0,0
264304,-103.056686462742,4,1,0,80,0,0
264443,-102.198593134746,4,1,0,80,0,0
264582,-101.347644652804,4,1,0,80,0,0
264721,-100.503781525921,4,1,0,80,0,0
264860,-99.6669447584507,4,1,0,80,0,0
264998,-98.8370758459678,4,1,0,80,0,0
265137,-98.0141167711807,4,1,0,80,0,0
265276,-97.1980099998736,4,1,0,80,0,0
265415,-96.3886984768849,4,1,0,80,0,0
265554,-95.5861256221184,4,1,0,80,0,0
265693,-94.7902353265874,4,1,0,80,0,0
265832,-94.0009719484923,4,1,0,80,0,0
265971,-93.2182803093307,4,1,0,80,0,0
266110,-92.4421056900393,4,1,0,80,0,0
266248,-91.672393827169,4,1,0,80,0,0
266387,-76.9230769230769,4,1,0,80,0,0
267501,-100,4,1,0,80,0,0

[HitObjects]
256,192,279,5,0,0:0:0:0:
256,192,557,1,0,0:0:0:0:
256,192,835,1,8,0:0:0:0:
256,192,1390,1,0,0:0:0:0:
256,192,1529,1,8,0:0:0:0:
256,192,1668,1,0,0:0:0:0:
256,192,1946,1,8,0:0:0:0:
256,192,2501,1,0,0:0:0:0:
256,192,2779,1,8,0:0:0:0:
256,192,3057,1,0,0:0:0:0:
256,192,3335,1,0,0:0:0:0:
256,192,3612,1,8,0:0:0:0:
256,192,3890,1,0,0:0:0:0:
256,192,4168,1,8,0:0:0:0:
256,192,4724,1,8,0:0:0:0:
256,192,4862,1,8,0:0:0:0:
256,192,5001,1,0,0:0:0:0:
256,192,5279,1,0,0:0:0:0:
256,192,5557,1,8,0:0:0:0:
256,192,5835,1,0,0:0:0:0:
256,192,5974,1,0,0:0:0:0:
256,192,6112,1,8,0:0:0:0:
256,192,6390,1,0,0:0:0:0:
256,192,6946,1,8,0:0:0:0:
256,192,7085,1,0,0:0:0:0:
256,192,7224,1,8,0:0:0:0:
256,192,7501,1,8,0:0:0:0:
256,192,7779,1,0,0:0:0:0:
256,192,8057,1,8,0:0:0:0:
256,192,8335,1,8,0:0:0:0:
256,192,8612,1,4,0:0:0:0:
256,192,9446,1,0,0:0:0:0:
256,192,9585,1,0,0:0:0:0:
256,192,9724,1,4,0:0:0:0:
256,192,10557,1,0,0:0:0:0:
256,192,10835,1,4,0:0:0:0:
256,192,11112,1,8,0:0:0:0:
256,192,11251,1,0,0:0:0:0:
256,192,11529,1,0,0:0:0:0:
256,192,11668,1,8,0:0:0:0:
256,192,11946,1,4,0:0:0:0:
256,192,12224,1,8,0:0:0:0:
256,192,12362,1,0,0:0:0:0:
256,192,12640,1,0,0:0:0:0:
256,192,12779,1,8,0:0:0:0:
256,192,12918,1,8,0:0:0:0:
256,192,13057,1,4,0:0:0:0:
256,192,13335,1,8,0:0:0:0:
256,192,13612,1,0,0:0:0:0:
256,192,13751,1,0,0:0:0:0:
256,192,13890,1,8,0:0:0:0:
256,192,14168,1,0,0:0:0:0:
256,192,14307,1,8,0:0:0:0:
256,192,14446,1,0,0:0:0:0:
256,192,14585,1,0,0:0:0:0:
256,192,14724,1,8,0:0:0:0:
256,192,15001,1,8,0:0:0:0:
256,192,15140,1,8,0:0:0:0:
256,192,15279,1,0,0:0:0:0:
256,192,15418,1,0,0:0:0:0:
256,192,15557,1,8,0:0:0:0:
256,192,15696,1,0,0:0:0:0:
256,192,15835,1,8,0:0:0:0:
256,192,15904,1,8,0:0:0:0:
256,192,15974,1,0,0:0:0:0:
256,192,16043,1,0,0:0:0:0:
256,192,16112,1,8,0:0:0:0:
256,192,16182,1,0,0:0:0:0:
256,192,16251,1,0,0:0:0:0:
256,192,16321,1,0,0:0:0:0:
256,192,16390,1,8,0:0:0:0:
256,192,16529,1,0,0:0:0:0:
256,192,16668,1,8,0:0:0:0:
256,192,16737,1,8,0:0:0:0:
256,192,16807,1,0,0:0:0:0:
256,192,16946,1,12,0:0:0:0:
256,192,17224,1,12,0:0:0:0:
256,192,17501,1,4,0:0:0:0:
256,192,17779,1,0,0:0:0:0:
256,192,17918,1,8,0:0:0:0:
256,192,17987,1,8,0:0:0:0:
256,192,18057,1,0,0:0:0:0:
256,192,18196,1,8,0:0:0:0:
256,192,18335,1,0,0:0:0:0:
256,192,18404,1,0,0:0:0:0:
256,192,18474,1,8,0:0:0:0:
256,192,18543,1,8,0:0:0:0:
256,192,18612,1,0,0:0:0:0:
256,192,18682,1,8,0:0:0:0:
256,192,18751,1,0,0:0:0:0:
256,192,18890,1,8,0:0:0:0:
256,192,19029,1,0,0:0:0:0:
256,192,19168,1,8,0:0:0:0:
256,192,19237,1,0,0:0:0:0:
256,192,19307,1,8,0:0:0:0:
256,192,19376,1,8,0:0:0:0:
256,192,19446,1,0,0:0:0:0:
256,192,19585,1,0,0:0:0:0:
256,192,19724,1,12,0:0:0:0:
256,192,20001,1,0,0:0:0:0:
256,192,20140,1,8,0:0:0:0:
256,192,20210,1,8,0:0:0:0:
256,192,20279,1,0,0:0:0:0:
256,192,20418,1,0,0:0:0:0:
256,192,20557,1,8,0:0:0:0:
256,192,20626,1,8,0:0:0:0:
256,192,20696,1,8,0:0:0:0:
256,192,20835,1,0,0:0:0:0:
256,192,20974,1,0,0:0:0:0:
256,192,21043,1,0,0:0:0:0:
256,192,21112,1,8,0:0:0:0:
256,192,21251,1,0,0:0:0:0:
256,192,21390,1,8,0:0:0:0:
256,192,21460,1,8,0:0:0:0:
256,192,21529,1,0,0:0:0:0:
256,192,21599,1,0,0:0:0:0:
256,192,21668,1,8,0:0:0:0:
256,192,21807,1,8,0:0:0:0:
256,192,21946,1,4,0:0:0:0:
256,192,22154,1,8,0:0:0:0:
256,192,22224,1,0,0:0:0:0:
256,192,22362,1,8,0:0:0:0:
256,192,22501,1,4,0:0:0:0:
256,192,22710,1,0,0:0:0:0:
256,192,22779,1,8,0:0:0:0:
256,192,22918,1,8,0:0:0:0:
256,192,23057,1,4,0:0:0:0:
256,192,23265,1,0,0:0:0:0:
256,192,23335,1,8,0:0:0:0:
256,192,23474,1,0,0:0:0:0:
256,192,23612,1,8,0:0:0:0:
256,192,23682,1,0,0:0:0:0:
256,192,23751,1,0,0:0:0:0:
256,192,23821,1,0,0:0:0:0:
256,192,23890,1,8,0:0:0:0:
256,192,24029,1,8,0:0:0:0:
256,192,24168,1,4,0:0:0:0:
256,192,24446,1,8,0:0:0:0:
256,192,24585,1,8,0:0:0:0:
256,192,24724,1,4,0:0:0:0:
256,192,24862,1,8,0:0:0:0:
256,192,25001,1,0,0:0:0:0:
256,192,25071,1,0,0:0:0:0:
256,192,25140,1,0,0:0:0:0:
256,192,25279,1,12,0:0:0:0:
256,192,25557,1,8,0:0:0:0:
256,192,25696,1,0,0:0:0:0:
256,192,25765,1,0,0:0:0:0:
256,192,25835,1,8,0:0:0:0:
256,192,25974,1,0,0:0:0:0:
256,192,26043,1,8,0:0:0:0:
256,192,26112,1,0,0:0:0:0:
256,192,26390,1,4,0:0:0:0:
256,192,26668,1,8,0:0:0:0:
256,192,26807,1,0,0:0:0:0:
256,192,26946,1,0,0:0:0:0:
256,192,27085,1,8,0:0:0:0:
256,192,27154,1,8,0:0:0:0:
256,192,27224,1,0,0:0:0:0:
256,192,27362,1,0,0:0:0:0:
256,192,27501,1,8,0:0:0:0:
256,192,27779,1,0,0:0:0:0:
256,192,27918,1,0,0:0:0:0:
256,192,28057,1,8,0:0:0:0:
256,192,28196,1,0,0:0:0:0:
256,192,28335,1,8,0:0:0:0:
256,192,28404,1,8,0:0:0:0:
256,192,28474,1,8,0:0:0:0:
256,192,28612,1,0,0:0:0:0:
256,192,28890,1,8,0:0:0:0:
256,192,29029,1,0,0:0:0:0:
256,192,29168,1,0,0:0:0:0:
256,192,29307,1,8,0:0:0:0:
256,192,29446,1,0,0:0:0:0:
256,192,29585,1,0,0:0:0:0:
256,192,29724,1,8,0:0:0:0:
256,192,29862,1,0,0:0:0:0:
256,192,30140,1,8,0:0:0:0:
256,192,30279,1,0,0:0:0:0:
256,192,30349,1,0,0:0:0:0:
256,192,30418,1,8,0:0:0:0:
256,192,30557,1,0,0:0:0:0:
256,192,30696,1,0,0:0:0:0:
256,192,30835,1,8,0:0:0:0:
256,192,31112,1,0,0:0:0:0:
256,192,31251,1,8,0:0:0:0:
256,192,31321,1,8,0:0:0:0:
256,192,31390,1,8,0:0:0:0:
256,192,31529,1,0,0:0:0:0:
256,192,31668,1,8,0:0:0:0:
256,192,31807,1,8,0:0:0:0:
256,192,31946,1,0,0:0:0:0:
256,192,32224,1,8,0:0:0:0:
256,192,32362,1,8,0:0:0:0:
256,192,32501,1,0,0:0:0:0:
256,192,32571,1,0,0:0:0:0:
256,192,32640,1,0,0:0:0:0:
256,192,32779,1,8,0:0:0:0:
256,192,32918,1,0,0:0:0:0:
256,192,33057,1,8,0:0:0:0:
256,192,33196,1,0,0:0:0:0:
256,192,33474,1,0,0:0:0:0:
256,192,33612,1,8,0:0:0:0:
256,192,33682,1,8,0:0:0:0:
256,192,33751,1,0,0:0:0:0:
256,192,33890,1,8,0:0:0:0:
256,192,34029,1,0,0:0:0:0:
256,192,34168,1,12,0:0:0:0:
256,192,34446,1,0,0:0:0:0:
256,192,34585,1,8,0:0:0:0:
256,192,34724,1,0,0:0:0:0:
256,192,34862,1,0,0:0:0:0:
256,192,34932,1,0,0:0:0:0:
256,192,35001,1,8,0:0:0:0:
256,192,35140,1,8,0:0:0:0:
256,192,35279,1,4,0:0:0:0:
256,192,35557,1,0,0:0:0:0:
256,192,35696,1,8,0:0:0:0:
256,192,35835,1,0,0:0:0:0:
256,192,35974,1,8,0:0:0:0:
256,192,36043,1,8,0:0:0:0:
256,192,36112,1,0,0:0:0:0:
256,192,36251,1,0,0:0:0:0:
256,192,36390,1,8,0:0:0:0:
256,192,36668,1,0,0:0:0:0:
256,192,36807,1,8,0:0:0:0:
256,192,36876,1,0,0:0:0:0:
256,192,36946,1,8,0:0:0:0:
256,192,37085,1,0,0:0:0:0:
256,192,37224,1,8,0:0:0:0:
256,192,37362,1,8,0:0:0:0:
256,192,37501,1,0,0:0:0:0:
256,192,37779,1,8,0:0:0:0:
256,192,37918,1,0,0:0:0:0:
256,192,37987,1,0,0:0:0:0:
256,192,38057,1,0,0:0:0:0:
256,192,38196,1,8,0:0:0:0:
256,192,38335,1,0,0:0:0:0:
256,192,38474,1,0,0:0:0:0:
256,192,38612,1,8,0:0:0:0:
256,192,38890,1,0,0:0:0:0:
256,192,39029,1,8,0:0:0:0:
256,192,39099,1,8,0:0:0:0:
256,192,39168,1,0,0:0:0:0:
256,192,39307,1,8,0:0:0:0:
256,192,39446,1,0,0:0:0:0:
256,192,39585,1,0,0:0:0:0:
256,192,39724,1,8,0:0:0:0:
256,192,40001,1,0,0:0:0:0:
256,192,40140,1,8,0:0:0:0:
256,192,40210,1,8,0:0:0:0:
256,192,40279,1,8,0:0:0:0:
256,192,40418,1,0,0:0:0:0:
256,192,40557,1,8,0:0:0:0:
256,192,40696,1,8,0:0:0:0:
256,192,40835,1,0,0:0:0:0:
256,192,40904,1,0,0:0:0:0:
256,192,40974,1,8,0:0:0:0:
256,192,41112,1,0,0:0:0:0:
256,192,41251,1,8,0:0:0:0:
256,192,41390,1,0,0:0:0:0:
256,192,41460,1,0,0:0:0:0:
256,192,41529,1,0,0:0:0:0:
256,192,41668,1,8,0:0:0:0:
256,192,41807,1,8,0:0:0:0:
256,192,41946,1,4,0:0:0:0:
256,192,42224,1,0,0:0:0:0:
256,192,42362,1,8,0:0:0:0:
256,192,42501,1,4,0:0:0:0:
256,192,42779,1,4,0:0:0:0:
256,192,43057,1,12,0:0:0:0:
256,192,43335,1,8,0:0:0:0:
256,192,43474,1,0,0:0:0:0:
256,192,43612,1,8,0:0:0:0:
256,192,43751,1,0,0:0:0:0:
256,192,43821,1,0,0:0:0:0:
256,192,43890,1,8,0:0:0:0:
256,192,44029,1,8,0:0:0:0:
256,192,44168,1,4,0:0:0:0:
256,192,44446,1,0,0:0:0:0:
256,192,44724,1,8,0:0:0:0:
256,192,44862,1,8,0:0:0:0:
256,192,45001,1,0,0:0:0:0:
256,192,45279,1,8,0:0:0:0:
256,192,45418,1,0,0:0:0:0:
256,192,45557,1,0,0:0:0:0:
256,192,45696,1,0,0:0:0:0:
256,192,45835,1,8,0:0:0:0:
256,192,46112,1,0,0:0:0:0:
256,192,46251,1,8,0:0:0:0:
256,192,46390,1,0,0:0:0:0:
256,192,46529,1,0,0:0:0:0:
256,192,46807,1,0,0:0:0:0:
256,192,46946,1,8,0:0:0:0:
256,192,47224,1,8,0:0:0:0:
256,192,47362,1,8,0:0:0:0:
256,192,47501,1,0,0:0:0:0:
256,192,47640,1,8,0:0:0:0:
256,192,47918,1,0,0:0:0:0:
256,192,48057,1,8,0:0:0:0:
256,192,48335,1,8,0:0:0:0:
256,192,48474,1,8,0:0:0:0:
256,192,48612,1,4,0:0:0:0:
256,192,48890,1,0,0:0:0:0:
256,192,49168,1,8,0:0:0:0:
256,192,49307,1,0,0:0:0:0:
256,192,49446,1,8,0:0:0:0:
256,192,49724,1,4,0:0:0:0:
256,192,50001,1,0,0:0:0:0:
256,192,50279,1,8,0:0:0:0:
256,192,50557,1,0,0:0:0:0:
256,192,50696,1,0,0:0:0:0:
256,192,50835,1,8,0:0:0:0:
256,192,50974,1,8,0:0:0:0:
256,192,51112,1,0,0:0:0:0:
256,192,51182,1,0,0:0:0:0:
256,192,51251,1,0,0:0:0:0:
256,192,51390,1,8,0:0:0:0:
256,192,51529,1,0,0:0:0:0:
256,192,51668,1,8,0:0:0:0:
256,192,51807,1,0,0:0:0:0:
256,192,51946,1,12,0:0:0:0:
256,192,52779,1,8,0:0:0:0:
256,192,53057,1,4,0:0:0:0:
256,192,53265,1,8,0:0:0:0:
256,192,53335,1,0,0:0:0:0:
256,192,53474,1,8,0:0:0:0:
256,192,53612,1,0,0:0:0:0:
256,192,53682,1,0,0:0:0:0:
256,192,53751,1,8,0:0:0:0:
256,192,53821,1,0,0:0:0:0:
256,192,53890,1,8,0:0:0:0:
256,192,54029,1,0,0:0:0:0:
256,192,54168,1,8,0:0:0:0:
256,192,54237,1,8,0:0:0:0:
256,192,54307,1,0,0:0:0:0:
256,192,54446,1,8,0:0:0:0:
256,192,54585,1,0,0:0:0:0:
256,192,54654,1,0,0:0:0:0:
256,192,54724,1,8,0:0:0:0:
256,192,54793,1,8,0:0:0:0:
256,192,54862,1,0,0:0:0:0:
256,192,54932,1,8,0:0:0:0:
256,192,55001,1,0,0:0:0:0:
256,192,55140,1,8,0:0:0:0:
256,192,55279,1,0,0:0:0:0:
256,192,55349,1,0,0:0:0:0:
256,192,55487,1,0,0:0:0:0:
256,192,55557,1,8,0:0:0:0:
256,192,55696,1,0,0:0:0:0:
256,192,55835,1,8,0:0:0:0:
256,192,55904,1,0,0:0:0:0:
256,192,55974,1,8,0:0:0:0:
256,192,56043,1,8,0:0:0:0:
256,192,56112,1,0,0:0:0:0:
256,192,56251,1,0,0:0:0:0:
256,192,56321,1,0,0:0:0:0:
256,192,56390,1,8,0:0:0:0:
256,192,56529,1,0,0:0:0:0:
256,192,56668,1,8,0:0:0:0:
256,192,56737,1,8,0:0:0:0:
256,192,56807,1,8,0:0:0:0:
256,192,56946,1,0,0:0:0:0:
256,192,57015,1,8,0:0:0:0:
256,192,57085,1,0,0:0:0:0:
256,192,57154,1,0,0:0:0:0:
256,192,57224,1,8,0:0:0:0:
256,192,57362,1,0,0:0:0:0:
256,192,57501,1,8,0:0:0:0:
256,192,57571,1,0,0:0:0:0:
256,192,57710,1,0,0:0:0:0:
256,192,57779,1,8,0:0:0:0:
256,192,57918,1,0,0:0:0:0:
256,192,58057,1,8,0:0:0:0:
256,192,58126,1,8,0:0:0:0:
256,192,58196,1,0,0:0:0:0:
256,192,58265,1,8,0:0:0:0:
256,192,58335,1,0,0:0:0:0:
256,192,58404,1,0,0:0:0:0:
256,192,58474,1,8,0:0:0:0:
256,192,58612,1,0,0:0:0:0:
256,192,58682,1,0,0:0:0:0:
256,192,58751,1,0,0:0:0:0:
256,192,58890,1,8,0:0:0:0:
256,192,59029,1,0,0:0:0:0:
256,192,59099,1,0,0:0:0:0:
256,192,59168,1,8,0:0:0:0:
256,192,59307,1,0,0:0:0:0:
256,192,59446,1,8,0:0:0:0:
256,192,59515,1,0,0:0:0:0:
256,192,59585,1,8,0:0:0:0:
256,192,59654,1,8,0:0:0:0:
256,192,59724,1,0,0:0:0:0:
256,192,59793,1,0,0:0:0:0:
256,192,59862,1,8,0:0:0:0:
256,192,60001,1,0,0:0:0:0:
256,192,60071,1,8,0:0:0:0:
256,192,60140,1,0,0:0:0:0:
256,192,60279,1,8,0:0:0:0:
256,192,60349,1,8,0:0:0:0:
256,192,60418,1,0,0:0:0:0:
256,192,60487,1,0,0:0:0:0:
256,192,60557,1,8,0:0:0:0:
256,192,60626,1,8,0:0:0:0:
256,192,60696,1,8,0:0:0:0:
256,192,60765,1,8,0:0:0:0:
256,192,60835,1,0,0:0:0:0:
256,192,60974,1,0,0:0:0:0:
256,192,61112,1,12,0:0:0:0:
256,192,61390,1,0,0:0:0:0:
256,192,61529,1,0,0:0:0:0:
256,192,61599,1,0,0:0:0:0:
256,192,61668,1,8,0:0:0:0:
256,192,61807,1,8,0:0:0:0:
256,192,61946,1,4,0:0:0:0:
256,192,62154,1,0,0:0:0:0:
256,192,62224,1,8,0:0:0:0:
256,192,62362,1,0,0:0:0:0:
256,192,62501,1,8,0:0:0:0:
256,192,62571,1,8,0:0:0:0:
256,192,62640,1,0,0:0:0:0:
256,192,62710,1,0,0:0:0:0:
256,192,62779,1,8,0:0:0:0:
256,192,62849,1,0,0:0:0:0:
256,192,62918,1,8,0:0:0:0:
256,192,63057,1,0,0:0:0:0:
256,192,63126,1,0,0:0:0:0:
256,192,63196,1,8,0:0:0:0:
256,192,63265,1,8,0:0:0:0:
256,192,63335,1,0,0:0:0:0:
256,192,63474,1,8,0:0:0:0:
256,192,63612,1,0,0:0:0:0:
256,192,63682,1,8,0:0:0:0:
256,192,63751,1,0,0:0:0:0:
256,192,63890,1,8,0:0:0:0:
256,192,64029,1,0,0:0:0:0:
256,192,64099,1,0,0:0:0:0:
256,192,64168,1,8,0:0:0:0:
256,192,64237,1,0,0:0:0:0:
256,192,64376,1,0,0:0:0:0:
256,192,64446,1,8,0:0:0:0:
256,192,64585,1,0,0:0:0:0:
256,192,64724,1,8,0:0:0:0:
256,192,64793,1,8,0:0:0:0:
256,192,64862,1,0,0:0:0:0:
256,192,64932,1,8,0:0:0:0:
256,192,65001,1,0,0:0:0:0:
256,192,65071,1,0,0:0:0:0:
256,192,65140,1,8,0:0:0:0:
256,192,65279,1,0,0:0:0:0:
256,192,65349,1,0,0:0:0:0:
256,192,65418,1,8,0:0:0:0:
256,192,65487,1,8,0:0:0:0:
256,192,65557,1,0,0:0:0:0:
256,192,65696,1,8,0:0:0:0:
256,192,65835,1,0,0:0:0:0:
256,192,65904,1,8,0:0:0:0:
256,192,65974,1,0,0:0:0:0:
256,192,66043,1,0,0:0:0:0:
256,192,66112,1,8,0:0:0:0:
256,192,66251,1,8,0:0:0:0:
256,192,66390,1,4,0:0:0:0:
256,192,66599,1,0,0:0:0:0:
256,192,66668,1,8,0:0:0:0:
256,192,66807,1,0,0:0:0:0:
256,192,66946,1,8,0:0:0:0:
256,192,67015,1,8,0:0:0:0:
256,192,67085,1,0,0:0:0:0:
256,192,67154,1,0,0:0:0:0:
256,192,67224,1,8,0:0:0:0:
256,192,67362,1,8,0:0:0:0:
256,192,67501,1,4,0:0:0:0:
256,192,67779,1,8,0:0:0:0:
256,192,67918,1,0,0:0:0:0:
256,192,67987,1,0,0:0:0:0:
256,192,68057,1,8,0:0:0:0:
256,192,68196,1,0,0:0:0:0:
256,192,68335,1,8,0:0:0:0:
256,192,68474,1,8,0:0:0:0:
256,192,68612,1,0,0:0:0:0:
256,192,68682,1,0,0:0:0:0:
256,192,68751,1,8,0:0:0:0:
256,192,68821,1,8,0:0:0:0:
256,192,68890,1,0,0:0:0:0:
256,192,68960,1,8,0:0:0:0:
256,192,69029,1,0,0:0:0:0:
256,192,69099,1,0,0:0:0:0:
256,192,69168,1,8,0:0:0:0:
256,192,69237,1,0,0:0:0:0:
256,192,69307,1,8,0:0:0:0:
256,192,69376,1,8,0:0:0:0:
256,192,69446,1,0,0:0:0:0:
256,192,69515,1,0,0:0:0:0:
256,192,69585,1,8,0:0:0:0:
256,192,69724,1,4,0:0:0:0:
256,192,70001,1,8,0:0:0:0:
256,192,70140,1,8,0:0:0:0:
256,192,70418,1,0,0:0:0:0:
256,192,70557,1,8,0:0:0:0:
256,192,70696,1,8,0:0:0:0:
256,192,70835,1,0,0:0:0:0:
256,192,71112,1,0,0:0:0:0:
256,192,71251,1,8,0:0:0:0:
256,192,71529,1,8,0:0:0:0:
256,192,71807,1,0,0:0:0:0:
256,192,71946,1,8,0:0:0:0:
256,192,72085,1,8,0:0:0:0:
256,192,72224,1,0,0:0:0:0:
256,192,72362,1,8,0:0:0:0:
256,192,72640,1,8,0:0:0:0:
256,192,72918,1,0,0:0:0:0:
256,192,73057,1,8,0:0:0:0:
256,192,73335,1,8,0:0:0:0:
256,192,73474,1,0,0:0:0:0:
256,192,73751,1,0,0:0:0:0:
256,192,73890,1,8,0:0:0:0:
256,192,74029,1,8,0:0:0:0:
256,192,74168,1,4,0:0:0:0:
256,192,74446,1,8,0:0:0:0:
256,192,74585,1,8,0:0:0:0:
256,192,74724,1,0,0:0:0:0:
256,192,74862,1,8,0:0:0:0:
256,192,75001,1,0,0:0:0:0:
256,192,75140,1,8,0:0:0:0:
256,192,75279,1,4,0:0:0:0:
256,192,75557,1,0,0:0:0:0:
256,192,75696,1,0,0:0:0:0:
256,192,75835,1,8,0:0:0:0:
256,192,75974,1,0,0:0:0:0:
256,192,76112,1,8,0:0:0:0:
256,192,76390,1,4,0:0:0:0:
256,192,76529,1,0,0:0:0:0:
256,192,76668,1,8,0:0:0:0:
256,192,76807,1,8,0:0:0:0:
256,192,76946,1,0,0:0:0:0:
256,192,77015,1,0,0:0:0:0:
256,192,77085,1,8,0:0:0:0:
256,192,77154,1,8,0:0:0:0:
256,192,77224,1,0,0:0:0:0:
256,192,77293,1,0,0:0:0:0:
256,192,77362,1,8,0:0:0:0:
256,192,77432,1,0,0:0:0:0:
256,192,77501,1,8,0:0:0:0:
256,192,77640,1,0,0:0:0:0:
256,192,77779,1,8,0:0:0:0:
256,192,77849,1,8,0:0:0:0:
256,192,77918,1,0,0:0:0:0:
256,192,78057,1,8,0:0:0:0:
256,192,78196,1,0,0:0:0:0:
256,192,78335,1,8,0:0:0:0:
256,192,78612,1,4,0:0:0:0:
256,192,78890,1,0,0:0:0:0:
256,192,79029,1,8,0:0:0:0:
256,192,79099,1,8,0:0:0:0:
256,192,79168,1,0,0:0:0:0:
256,192,79307,1,8,0:0:0:0:
256,192,79376,1,8,0:0:0:0:
256,192,79446,1,0,0:0:0:0:
256,192,79585,1,0,0:0:0:0:
256,192,79724,1,8,0:0:0:0:
256,192,79862,1,0,0:0:0:0:
256,192,80001,1,8,0:0:0:0:
256,192,80140,1,0,0:0:0:0:
256,192,80210,1,0,0:0:0:0:
256,192,80279,1,8,0:0:0:0:
256,192,80418,1,0,0:0:0:0:
256,192,80487,1,0,0:0:0:0:
256,192,80557,1,8,0:0:0:0:
256,192,80696,1,8,0:0:0:0:
256,192,80835,1,0,0:0:0:0:
256,192,80974,1,8,0:0:0:0:
256,192,81112,1,0,0:0:0:0:
256,192,81251,1,8,0:0:0:0:
256,192,81321,1,0,0:0:0:0:
256,192,81390,1,0,0:0:0:0:
256,192,81529,1,8,0:0:0:0:
256,192,81599,1,0,0:0:0:0:
256,192,81668,1,0,0:0:0:0:
256,192,81807,1,0,0:0:0:0:
256,192,81946,1,8,0:0:0:0:
256,192,82085,1,0,0:0:0:0:
256,192,82224,1,8,0:0:0:0:
256,192,82362,1,0,0:0:0:0:
256,192,82432,1,8,0:0:0:0:
256,192,82501,1,8,0:0:0:0:
256,192,82640,1,0,0:0:0:0:
256,192,82710,1,8,0:0:0:0:
256,192,82779,1,8,0:0:0:0:
256,192,82918,1,8,0:0:0:0:
256,192,83057,1,0,0:0:0:0:
256,192,83196,1,0,0:0:0:0:
256,192,83335,1,8,0:0:0:0:
256,192,83474,1,0,0:0:0:0:
256,192,83543,1,0,0:0:0:0:
256,192,83612,1,0,0:0:0:0:
256,192,83751,1,8,0:0:0:0:
256,192,83821,1,8,0:0:0:0:
256,192,83890,1,8,0:0:0:0:
256,192,84029,1,0,0:0:0:0:
256,192,84168,1,8,0:0:0:0:
256,192,84237,1,8,0:0:0:0:
256,192,84307,1,0,0:0:0:0:
256,192,84376,1,0,0:0:0:0:
256,192,84446,1,8,0:0:0:0:
256,192,84585,1,0,0:0:0:0:
256,192,84724,1,8,0:0:0:0:
256,192,84793,1,8,0:0:0:0:
256,192,84862,1,0,0:0:0:0:
256,192,84932,1,8,0:0:0:0:
256,192,85001,1,0,0:0:0:0:
256,192,85140,1,8,0:0:0:0:
256,192,85279,1,0,0:0:0:0:
256,192,85349,1,0,0:0:0:0:
256,192,85418,1,8,0:0:0:0:
256,192,85557,1,0,0:0:0:0:
256,192,85696,1,8,0:0:0:0:
256,192,85765,1,8,0:0:0:0:
256,192,85835,1,0,0:0:0:0:
256,192,85974,1,8,0:0:0:0:
256,192,86112,1,0,0:0:0:0:
256,192,86182,1,0,0:0:0:0:
256,192,86251,1,8,0:0:0:0:
256,192,86321,1,0,0:0:0:0:
256,192,86390,1,8,0:0:0:0:
256,192,86529,1,0,0:0:0:0:
256,192,86668,1,8,0:0:0:0:
256,192,86807,1,0,0:0:0:0:
256,192,86946,1,8,0:0:0:0:
256,192,87015,1,8,0:0:0:0:
256,192,87085,1,0,0:0:0:0:
256,192,87154,1,0,0:0:0:0:
256,192,87224,1,8,0:0:0:0:
256,192,87293,1,8,0:0:0:0:
256,192,87362,1,8,0:0:0:0:
256,192,87501,1,4,0:0:0:0:
256,192,87779,1,0,0:0:0:0:
256,192,87918,1,8,0:0:0:0:
256,192,87987,1,8,0:0:0:0:
256,192,88057,1,0,0:0:0:0:
256,192,88196,1,8,0:0:0:0:
256,192,88265,1,8,0:0:0:0:
256,192,88335,1,0,0:0:0:0:
256,192,88474,1,0,0:0:0:0:
256,192,88612,1,8,0:0:0:0:
256,192,88751,1,0,0:0:0:0:
256,192,88890,1,8,0:0:0:0:
256,192,89029,1,0,0:0:0:0:
256,192,89099,1,0,0:0:0:0:
256,192,89168,1,8,0:0:0:0:
256,192,89307,1,0,0:0:0:0:
256,192,89376,1,0,0:0:0:0:
256,192,89446,1,8,0:0:0:0:
256,192,89585,1,8,0:0:0:0:
256,192,89724,1,0,0:0:0:0:
256,192,89862,1,8,0:0:0:0:
256,192,90001,1,0,0:0:0:0:
256,192,90140,1,8,0:0:0:0:
256,192,90210,1,0,0:0:0:0:
256,192,90279,1,0,0:0:0:0:
256,192,90418,1,8,0:0:0:0:
256,192,90487,1,0,0:0:0:0:
256,192,90557,1,0,0:0:0:0:
256,192,90696,1,0,0:0:0:0:
256,192,90835,1,8,0:0:0:0:
256,192,90974,1,0,0:0:0:0:
256,192,91112,1,8,0:0:0:0:
256,192,91251,1,0,0:0:0:0:
256,192,91321,1,8,0:0:0:0:
256,192,91390,1,8,0:0:0:0:
256,192,91529,1,0,0:0:0:0:
256,192,91599,1,8,0:0:0:0:
256,192,91668,1,8,0:0:0:0:
256,192,91807,1,8,0:0:0:0:
256,192,91946,1,0,0:0:0:0:
256,192,92085,1,0,0:0:0:0:
256,192,92224,1,8,0:0:0:0:
256,192,92362,1,0,0:0:0:0:
256,192,92432,1,0,0:0:0:0:
256,192,92501,1,0,0:0:0:0:
256,192,92640,1,8,0:0:0:0:
256,192,92710,1,8,0:0:0:0:
256,192,92779,1,8,0:0:0:0:
256,192,92918,1,0,0:0:0:0:
256,192,93057,1,8,0:0:0:0:
256,192,93126,1,8,0:0:0:0:
256,192,93196,1,8,0:0:0:0:
256,192,93265,1,8,0:0:0:0:
256,192,93335,1,0,0:0:0:0:
256,192,93474,1,0,0:0:0:0:
256,192,93612,1,8,0:0:0:0:
256,192,93751,1,8,0:0:0:0:
256,192,93890,1,0,0:0:0:0:
256,192,94029,1,8,0:0:0:0:
256,192,94168,1,0,0:0:0:0:
256,192,94237,1,0,0:0:0:0:
256,192,94307,1,8,0:0:0:0:
256,192,94446,1,0,0:0:0:0:
256,192,94585,1,8,0:0:0:0:
256,192,94654,1,8,0:0:0:0:
256,192,94724,1,0,0:0:0:0:
256,192,94862,1,8,0:0:0:0:
256,192,95001,1,0,0:0:0:0:
256,192,95071,1,0,0:0:0:0:
256,192,95140,1,8,0:0:0:0:
256,192,95210,1,0,0:0:0:0:
256,192,95279,1,8,0:0:0:0:
256,192,95349,1,8,0:0:0:0:
256,192,95418,1,0,0:0:0:0:
256,192,95487,1,0,0:0:0:0:
256,192,95557,1,8,0:0:0:0:
256,192,95626,1,8,0:0:0:0:
256,192,95696,1,0,0:0:0:0:
256,192,95765,1,8,0:0:0:0:
256,192,95835,1,0,0:0:0:0:
256,192,95904,1,0,0:0:0:0:
256,192,95974,1,8,0:0:0:0:
256,192,96043,1,8,0:0:0:0:
256,192,96112,1,0,0:0:0:0:
256,192,96182,1,0,0:0:0:0:
256,192,96251,1,8,0:0:0:0:
256,192,96390,1,4,0:0:0:0:
256,192,96668,1,8,0:0:0:0:
256,192,96807,1,0,0:0:0:0:
256,192,96946,1,0,0:0:0:0:
256,192,97085,1,8,0:0:0:0:
256,192,97154,1,8,0:0:0:0:
256,192,97224,1,0,0:0:0:0:
256,192,97362,1,0,0:0:0:0:
256,192,97501,1,8,0:0:0:0:
256,192,97640,1,0,0:0:0:0:
256,192,97710,1,0,0:0:0:0:
256,192,97779,1,8,0:0:0:0:
256,192,97918,1,0,0:0:0:0:
256,192,98057,1,8,0:0:0:0:
256,192,98196,1,0,0:0:0:0:
256,192,98335,1,8,0:0:0:0:
256,192,98404,1,8,0:0:0:0:
256,192,98474,1,8,0:0:0:0:
256,192,98612,1,0,0:0:0:0:
256,192,98890,1,8,0:0:0:0:
256,192,99029,1,0,0:0:0:0:
256,192,99099,1,0,0:0:0:0:
256,192,99168,1,0,0:0:0:0:
256,192,99307,1,8,0:0:0:0:
256,192,99446,1,0,0:0:0:0:
256,192,99585,1,8,0:0:0:0:
256,192,99724,1,0,0:0:0:0:
256,192,99793,1,0,0:0:0:0:
256,192,99862,1,0,0:0:0:0:
256,192,99932,1,0,0:0:0:0:
256,192,100001,1,8,0:0:0:0:
256,192,100140,1,0,0:0:0:0:
256,192,100279,1,8,0:0:0:0:
256,192,100349,1,8,0:0:0:0:
256,192,100418,1,0,0:0:0:0:
256,192,100557,1,8,0:0:0:0:
256,192,100696,1,8,0:0:0:0:
256,192,100835,1,0,0:0:0:0:
256,192,101112,1,0,0:0:0:0:
256,192,101251,1,8,0:0:0:0:
256,192,101321,1,8,0:0:0:0:
256,192,101390,1,8,0:0:0:0:
256,192,101529,1,0,0:0:0:0:
256,192,101668,1,8,0:0:0:0:
256,192,101807,1,8,0:0:0:0:
256,192,101946,1,0,0:0:0:0:
256,192,102015,1,0,0:0:0:0:
256,192,102085,1,0,0:0:0:0:
256,192,102224,1,8,0:0:0:0:
256,192,102362,1,0,0:0:0:0:
256,192,102501,1,8,0:0:0:0:
256,192,102571,1,8,0:0:0:0:
256,192,102640,1,0,0:0:0:0:
256,192,102710,1,0,0:0:0:0:
256,192,102779,1,8,0:0:0:0:
256,192,102918,1,0,0:0:0:0:
256,192,103057,1,8,0:0:0:0:
256,192,103335,1,8,0:0:0:0:
256,192,103474,1,0,0:0:0:0:
256,192,103543,1,0,0:0:0:0:
256,192,103612,1,8,0:0:0:0:
256,192,103751,1,0,0:0:0:0:
256,192,103890,1,8,0:0:0:0:
256,192,104029,1,8,0:0:0:0:
256,192,104168,1,0,0:0:0:0:
256,192,104237,1,8,0:0:0:0:
256,192,104307,1,0,0:0:0:0:
256,192,104376,1,0,0:0:0:0:
256,192,104446,1,8,0:0:0:0:
256,192,104585,1,8,0:0:0:0:
256,192,104724,1,0,0:0:0:0:
256,192,104862,1,0,0:0:0:0:
256,192,104932,1,0,0:0:0:0:
256,192,105001,1,8,0:0:0:0:
256,192,105140,1,8,0:0:0:0:
256,192,105279,1,4,0:0:0:0:
256,192,105557,1,0,0:0:0:0:
256,192,105696,1,8,0:0:0:0:
256,192,105835,1,0,0:0:0:0:
256,192,105974,1,8,0:0:0:0:
256,192,106043,1,8,0:0:0:0:
256,192,106112,1,0,0:0:0:0:
256,192,106251,1,0,0:0:0:0:
256,192,106390,1,8,0:0:0:0:
256,192,106460,1,8,0:0:0:0:
256,192,106529,1,8,0:0:0:0:
256,192,106668,1,0,0:0:0:0:
256,192,106807,1,8,0:0:0:0:
256,192,106876,1,8,0:0:0:0:
256,192,106946,1,0,0:0:0:0:
256,192,107015,1,8,0:0:0:0:
256,192,107085,1,0,0:0:0:0:
256,192,107154,1,0,0:0:0:0:
256,192,107224,1,8,0:0:0:0:
256,192,107362,1,8,0:0:0:0:
256,192,107501,1,0,0:0:0:0:
256,192,107779,1,8,0:0:0:0:
256,192,107918,1,0,0:0:0:0:
256,192,107987,1,0,0:0:0:0:
256,192,108057,1,0,0:0:0:0:
256,192,108196,1,8,0:0:0:0:
256,192,108335,1,0,0:0:0:0:
256,192,108404,1,0,0:0:0:0:
256,192,108474,1,8,0:0:0:0:
256,192,108543,1,8,0:0:0:0:
256,192,108612,1,0,0:0:0:0:
256,192,108682,1,8,0:0:0:0:
256,192,108751,1,0,0:0:0:0:
256,192,108890,1,8,0:0:0:0:
256,192,109029,1,0,0:0:0:0:
256,192,109099,1,0,0:0:0:0:
256,192,109168,1,8,0:0:0:0:
256,192,109307,1,8,0:0:0:0:
256,192,109446,1,0,0:0:0:0:
256,192,109585,1,0,0:0:0:0:
256,192,109724,1,8,0:0:0:0:
256,192,110001,1,0,0:0:0:0:
256,192,110140,1,8,0:0:0:0:
256,192,110210,1,8,0:0:0:0:
256,192,110279,1,8,0:0:0:0:
256,192,110418,1,0,0:0:0:0:
256,192,110557,1,8,0:0:0:0:
256,192,110626,1,0,0:0:0:0:
256,192,110696,1,8,0:0:0:0:
256,192,110765,1,8,0:0:0:0:
256,192,110835,1,0,0:0:0:0:
256,192,110974,1,0,0:0:0:0:
256,192,111112,1,8,0:0:0:0:
256,192,111182,1,8,0:0:0:0:
256,192,111251,1,8,0:0:0:0:
256,192,111390,1,0,0:0:0:0:
256,192,111529,1,0,0:0:0:0:
256,192,111599,1,0,0:0:0:0:
256,192,111668,1,8,0:0:0:0:
256,192,111807,1,8,0:0:0:0:
256,192,111946,1,0,0:0:0:0:
256,192,112015,1,0,0:0:0:0:
256,192,112085,1,8,0:0:0:0:
256,192,112154,1,8,0:0:0:0:
256,192,112224,1,0,0:0:0:0:
256,192,112362,1,8,0:0:0:0:
256,192,112432,1,0,0:0:0:0:
256,192,112501,1,8,0:0:0:0:
256,192,112571,1,8,0:0:0:0:
256,192,112640,1,0,0:0:0:0:
256,192,112710,1,0,0:0:0:0:
256,192,112779,1,8,0:0:0:0:
256,192,112918,1,0,0:0:0:0:
256,192,113057,1,12,0:0:0:0:
256,192,113335,1,8,0:0:0:0:
256,192,113474,1,0,0:0:0:0:
256,192,113612,1,8,0:0:0:0:
256,192,113751,1,0,0:0:0:0:
256,192,113821,1,0,0:0:0:0:
256,192,113890,1,8,0:0:0:0:
256,192,114029,1,8,0:0:0:0:
256,192,114168,1,4,0:0:0:0:
256,192,114446,1,0,0:0:0:0:
256,192,114724,1,8,0:0:0:0:
256,192,114862,1,8,0:0:0:0:
256,192,115001,1,0,0:0:0:0:
256,192,115279,1,8,0:0:0:0:
256,192,115418,1,0,0:0:0:0:
256,192,115557,1,0,0:0:0:0:
256,192,115696,1,0,0:0:0:0:
256,192,115835,1,8,0:0:0:0:
256,192,116112,1,0,0:0:0:0:
256,192,116251,1,8,0:0:0:0:
256,192,116390,1,0,0:0:0:0:
256,192,116529,1,0,0:0:0:0:
256,192,116807,1,0,0:0:0:0:
256,192,116946,1,8,0:0:0:0:
256,192,117224,1,8,0:0:0:0:
256,192,117362,1,8,0:0:0:0:
256,192,117501,1,0,0:0:0:0:
256,192,117640,1,8,0:0:0:0:
256,192,117918,1,0,0:0:0:0:
256,192,118057,1,8,0:0:0:0:
256,192,118335,1,8,0:0:0:0:
256,192,118474,1,8,0:0:0:0:
256,192,118612,1,4,0:0:0:0:
256,192,118890,1,0,0:0:0:0:
256,192,119168,1,8,0:0:0:0:
256,192,119307,1,0,0:0:0:0:
256,192,119446,1,8,0:0:0:0:
256,192,119724,1,4,0:0:0:0:
256,192,120001,1,0,0:0:0:0:
256,192,120279,1,8,0:0:0:0:
256,192,120557,1,0,0:0:0:0:
256,192,120696,1,0,0:0:0:0:
256,192,120835,1,8,0:0:0:0:
256,192,120974,1,8,0:0:0:0:
256,192,121112,1,0,0:0:0:0:
256,192,121251,1,8,0:0:0:0:
256,192,121390,1,0,0:0:0:0:
256,192,121529,1,0,0:0:0:0:
256,192,121668,1,8,0:0:0:0:
256,192,121737,1,8,0:0:0:0:
256,192,121807,1,0,0:0:0:0:
256,192,121946,1,12,0:0:0:0:
256,192,122501,1,0,0:0:0:0:
256,192,122640,1,0,0:0:0:0:
256,192,122710,1,0,0:0:0:0:
256,192,122779,1,8,0:0:0:0:
256,192,123057,1,4,0:0:0:0:
256,192,123265,1,8,0:0:0:0:
256,192,123335,1,0,0:0:0:0:
256,192,123474,1,8,0:0:0:0:
256,192,123612,1,0,0:0:0:0:
256,192,123682,1,0,0:0:0:0:
256,192,123751,1,8,0:0:0:0:
256,192,123821,1,8,0:0:0:0:
256,192,123890,1,0,0:0:0:0:
256,192,124029,1,0,0:0:0:0:
256,192,124168,1,8,0:0:0:0:
256,192,124237,1,8,0:0:0:0:
256,192,124307,1,0,0:0:0:0:
256,192,124446,1,8,0:0:0:0:
256,192,124585,1,0,0:0:0:0:
256,192,124654,1,0,0:0:0:0:
256,192,124724,1,8,0:0:0:0:
256,192,124793,1,0,0:0:0:0:
256,192,124862,1,8,0:0:0:0:
256,192,124932,1,8,0:0:0:0:
256,192,125001,1,0,0:0:0:0:
256,192,125140,1,0,0:0:0:0:
256,192,125279,1,8,0:0:0:0:
256,192,125349,1,0,0:0:0:0:
256,192,125487,1,0,0:0:0:0:
256,192,125557,1,8,0:0:0:0:
256,192,125626,1,8,0:0:0:0:
256,192,125696,1,0,0:0:0:0:
256,192,125835,1,8,0:0:0:0:
256,192,125974,1,0,0:0:0:0:
256,192,126043,1,0,0:0:0:0:
256,192,126112,1,8,0:0:0:0:
256,192,126182,1,8,0:0:0:0:
256,192,126251,1,0,0:0:0:0:
256,192,126321,1,8,0:0:0:0:
256,192,126390,1,0,0:0:0:0:
256,192,126529,1,8,0:0:0:0:
256,192,126668,1,0,0:0:0:0:
256,192,126737,1,0,0:0:0:0:
256,192,126807,1,0,0:0:0:0:
256,192,126946,1,8,0:0:0:0:
256,192,127015,1,8,0:0:0:0:
256,192,127085,1,0,0:0:0:0:
256,192,127154,1,0,0:0:0:0:
256,192,127224,1,8,0:0:0:0:
256,192,127293,1,8,0:0:0:0:
256,192,127362,1,8,0:0:0:0:
256,192,127432,1,8,0:0:0:0:
256,192,127501,1,0,0:0:0:0:
256,192,127710,1,0,0:0:0:0:
256,192,127779,1,8,0:0:0:0:
256,192,127918,1,0,0:0:0:0:
256,192,128057,1,8,0:0:0:0:
256,192,128126,1,8,0:0:0:0:
256,192,128196,1,0,0:0:0:0:
256,192,128265,1,0,0:0:0:0:
256,192,128335,1,8,0:0:0:0:
256,192,128404,1,0,0:0:0:0:
256,192,128474,1,8,0:0:0:0:
256,192,128612,1,0,0:0:0:0:
256,192,128682,1,0,0:0:0:0:
256,192,128751,1,0,0:0:0:0:
256,192,128890,1,8,0:0:0:0:
256,192,128960,1,8,0:0:0:0:
256,192,129029,1,0,0:0:0:0:
256,192,129099,1,8,0:0:0:0:
256,192,129168,1,0,0:0:0:0:
256,192,129307,1,8,0:0:0:0:
256,192,129446,1,0,0:0:0:0:
256,192,129515,1,0,0:0:0:0:
256,192,129585,1,8,0:0:0:0:
256,192,129724,1,4,0:0:0:0:
256,192,129932,1,0,0:0:0:0:
256,192,130001,1,8,0:0:0:0:
256,192,130140,1,0,0:0:0:0:
256,192,130279,1,8,0:0:0:0:
256,192,130349,1,0,0:0:0:0:
256,192,130418,1,0,0:0:0:0:
256,192,130487,1,0,0:0:0:0:
256,192,130557,1,8,0:0:0:0:
256,192,130626,1,8,0:0:0:0:
256,192,130696,1,0,0:0:0:0:
256,192,130765,1,0,0:0:0:0:
256,192,130835,1,8,0:0:0:0:
256,192,130974,1,0,0:0:0:0:
256,192,131112,1,12,0:0:0:0:
256,192,131390,1,0,0:0:0:0:
256,192,131529,1,0,0:0:0:0:
256,192,131599,1,0,0:0:0:0:
256,192,131668,1,8,0:0:0:0:
256,192,131807,1,8,0:0:0:0:
256,192,131946,1,4,0:0:0:0:
256,192,132154,1,0,0:0:0:0:
256,192,132224,1,8,0:0:0:0:
256,192,132362,1,0,0:0:0:0:
256,192,132501,1,8,0:0:0:0:
256,192,132571,1,8,0:0:0:0:
256,192,132640,1,0,0:0:0:0:
256,192,132710,1,0,0:0:0:0:
256,192,132779,1,8,0:0:0:0:
256,192,132849,1,0,0:0:0:0:
256,192,132918,1,8,0:0:0:0:
256,192,133057,1,0,0:0:0:0:
256,192,133126,1,0,0:0:0:0:
256,192,133196,1,8,0:0:0:0:
256,192,133265,1,8,0:0:0:0:
256,192,133335,1,0,0:0:0:0:
256,192,133474,1,8,0:0:0:0:
256,192,133612,1,0,0:0:0:0:
256,192,133682,1,8,0:0:0:0:
256,192,133751,1,0,0:0:0:0:
256,192,133821,1,0,0:0:0:0:
256,192,133890,1,8,0:0:0:0:
256,192,134029,1,0,0:0:0:0:
256,192,134168,1,8,0:0:0:0:
256,192,134237,1,0,0:0:0:0:
256,192,134376,1,0,0:0:0:0:
256,192,134446,1,8,0:0:0:0:
256,192,134585,1,0,0:0:0:0:
256,192,134724,1,8,0:0:0:0:
256,192,134793,1,8,0:0:0:0:
256,192,134862,1,0,0:0:0:0:
256,192,134932,1,8,0:0:0:0:
256,192,135001,1,0,0:0:0:0:
256,192,135071,1,0,0:0:0:0:
256,192,135140,1,8,0:0:0:0:
256,192,135279,1,0,0:0:0:0:
256,192,135349,1,0,0:0:0:0:
256,192,135418,1,0,0:0:0:0:
256,192,135557,1,8,0:0:0:0:
256,192,135626,1,8,0:0:0:0:
256,192,135696,1,0,0:0:0:0:
256,192,135765,1,0,0:0:0:0:
256,192,135835,1,8,0:0:0:0:
256,192,135974,1,0,0:0:0:0:
256,192,136112,1,8,0:0:0:0:
256,192,136182,1,8,0:0:0:0:
256,192,136251,1,8,0:0:0:0:
256,192,136390,1,4,0:0:0:0:
256,192,136599,1,0,0:0:0:0:
256,192,136668,1,8,0:0:0:0:
256,192,136807,1,0,0:0:0:0:
256,192,136946,1,8,0:0:0:0:
256,192,137015,1,8,0:0:0:0:
256,192,137085,1,0,0:0:0:0:
256,192,137154,1,8,0:0:0:0:
256,192,137224,1,0,0:0:0:0:
256,192,137362,1,8,0:0:0:0:
256,192,137501,1,4,0:0:0:0:
256,192,137779,1,8,0:0:0:0:
256,192,137918,1,0,0:0:0:0:
256,192,137987,1,0,0:0:0:0:
256,192,138057,1,8,0:0:0:0:
256,192,138196,1,0,0:0:0:0:
256,192,138335,1,8,0:0:0:0:
256,192,138474,1,8,0:0:0:0:
256,192,138612,1,0,0:0:0:0:
256,192,138682,1,0,0:0:0:0:
256,192,138751,1,8,0:0:0:0:
256,192,138821,1,0,0:0:0:0:
256,192,138890,1,8,0:0:0:0:
256,192,138960,1,8,0:0:0:0:
256,192,139029,1,0,0:0:0:0:
256,192,139099,1,0,0:0:0:0:
256,192,139168,1,8,0:0:0:0:
256,192,139237,1,8,0:0:0:0:
256,192,139307,1,0,0:0:0:0:
256,192,139376,1,8,0:0:0:0:
256,192,139446,1,0,0:0:0:0:
256,192,139515,1,0,0:0:0:0:
256,192,139585,1,8,0:0:0:0:
256,192,139724,1,4,0:0:0:0:
256,192,140001,1,8,0:0:0:0:
256,192,140140,1,8,0:0:0:0:
256,192,140279,1,0,0:0:0:0:
256,192,140349,1,8,0:0:0:0:
256,192,140418,1,0,0:0:0:0:
256,192,140557,1,8,0:0:0:0:
256,192,140696,1,0,0:0:0:0:
256,192,140835,1,12,0:0:0:0:
256,192,141112,1,0,0:0:0:0:
256,192,141251,1,0,0:0:0:0:
256,192,141390,1,8,0:0:0:0:
256,192,141460,1,8,0:0:0:0:
256,192,141529,1,0,0:0:0:0:
256,192,141599,1,0,0:0:0:0:
256,192,141668,1,8,0:0:0:0:
256,192,141807,1,8,0:0:0:0:
256,192,141946,1,4,0:0:0:0:
256,192,142224,1,8,0:0:0:0:
256,192,142362,1,0,0:0:0:0:
256,192,142432,1,0,0:0:0:0:
256,192,142501,1,8,0:0:0:0:
256,192,142640,1,0,0:0:0:0:
256,192,142779,1,8,0:0:0:0:
256,192,142918,1,8,0:0:0:0:
256,192,143057,1,4,0:0:0:0:
256,192,143335,1,8,0:0:0:0:
256,192,143427,1,0,0:0:0:0:
256,192,143520,1,0,0:0:0:0:
256,192,143612,1,8,0:0:0:0:
256,192,143705,1,0,0:0:0:0:
256,192,143798,1,0,0:0:0:0:
256,192,143890,1,8,0:0:0:0:
256,192,144029,1,0,0:0:0:0:
256,192,144168,1,12,0:0:0:0:
256,192,144446,1,0,0:0:0:0:
256,192,144585,1,0,0:0:0:0:
256,192,144724,1,8,0:0:0:0:
256,192,144862,1,0,0:0:0:0:
256,192,145001,1,8,0:0:0:0:
256,192,145140,1,8,0:0:0:0:
256,192,145279,1,4,0:0:0:0:
256,192,145557,1,8,0:0:0:0:
256,192,145696,1,0,0:0:0:0:
256,192,145835,1,8,0:0:0:0:
256,192,145904,1,0,0:0:0:0:
256,192,145974,1,0,0:0:0:0:
256,192,146043,1,0,0:0:0:0:
256,192,146112,1,8,0:0:0:0:
256,192,146390,1,4,0:0:0:0:
256,192,146529,1,0,0:0:0:0:
256,192,146668,1,8,0:0:0:0:
256,192,146807,1,8,0:0:0:0:
256,192,146946,1,0,0:0:0:0:
256,192,147015,1,0,0:0:0:0:
256,192,147085,1,8,0:0:0:0:
256,192,147154,1,8,0:0:0:0:
256,192,147224,1,0,0:0:0:0:
256,192,147293,1,8,0:0:0:0:
256,192,147362,1,0,0:0:0:0:
256,192,147432,1,0,0:0:0:0:
256,192,147501,1,8,0:0:0:0:
256,192,147710,1,0,0:0:0:0:
256,192,147779,1,8,0:0:0:0:
256,192,147918,1,0,0:0:0:0:
256,192,147987,1,0,0:0:0:0:
256,192,148057,1,8,0:0:0:0:
256,192,148126,1,0,0:0:0:0:
256,192,148196,1,0,0:0:0:0:
256,192,148265,1,0,0:0:0:0:
256,192,148335,1,8,0:0:0:0:
256,192,148612,1,0,0:0:0:0:
256,192,148890,1,12,0:0:0:0:
256,192,149168,1,0,0:0:0:0:
256,192,149307,1,0,0:0:0:0:
256,192,149446,1,8,0:0:0:0:
256,192,149515,1,8,0:0:0:0:
256,192,149585,1,8,0:0:0:0:
256,192,149724,1,0,0:0:0:0:
256,192,149793,1,0,0:0:0:0:
256,192,149862,1,8,0:0:0:0:
256,192,149932,1,0,0:0:0:0:
256,192,150001,1,8,0:0:0:0:
256,192,150140,1,0,0:0:0:0:
256,192,150279,1,8,0:0:0:0:
256,192,150349,1,8,0:0:0:0:
256,192,150418,1,0,0:0:0:0:
256,192,150487,1,0,0:0:0:0:
256,192,150557,1,8,0:0:0:0:
256,192,150696,1,8,0:0:0:0:
256,192,150835,1,0,0:0:0:0:
256,192,150904,1,0,0:0:0:0:
256,192,150974,1,8,0:0:0:0:
256,192,151043,1,0,0:0:0:0:
256,192,151112,1,8,0:0:0:0:
256,192,151182,1,8,0:0:0:0:
256,192,151251,1,0,0:0:0:0:
256,192,151390,1,8,0:0:0:0:
256,192,151460,1,0,0:0:0:0:
256,192,151529,1,0,0:0:0:0:
256,192,151599,1,0,0:0:0:0:
256,192,151668,1,8,0:0:0:0:
256,192,151807,1,0,0:0:0:0:
256,192,151946,1,8,0:0:0:0:
256,192,152015,1,8,0:0:0:0:
256,192,152085,1,0,0:0:0:0:
256,192,152224,1,8,0:0:0:0:
256,192,152293,1,0,0:0:0:0:
256,192,152362,1,8,0:0:0:0:
256,192,152501,1,0,0:0:0:0:
256,192,152571,1,0,0:0:0:0:
256,192,152640,1,0,0:0:0:0:
256,192,152710,1,0,0:0:0:0:
256,192,152779,1,8,0:0:0:0:
256,192,152918,1,0,0:0:0:0:
256,192,153057,1,8,0:0:0:0:
256,192,153126,1,8,0:0:0:0:
256,192,153196,1,0,0:0:0:0:
256,192,153265,1,0,0:0:0:0:
256,192,153335,1,8,0:0:0:0:
256,192,153404,1,0,0:0:0:0:
256,192,153474,1,8,0:0:0:0:
256,192,153543,1,8,0:0:0:0:
256,192,153612,1,0,0:0:0:0:
256,192,153751,1,0,0:0:0:0:
256,192,153821,1,0,0:0:0:0:
256,192,153890,1,8,0:0:0:0:
256,192,154029,1,0,0:0:0:0:
256,192,154168,1,8,0:0:0:0:
256,192,154237,1,8,0:0:0:0:
256,192,154307,1,8,0:0:0:0:
256,192,154446,1,0,0:0:0:0:
256,192,154515,1,0,0:0:0:0:
256,192,154585,1,8,0:0:0:0:
256,192,154654,1,8,0:0:0:0:
256,192,154724,1,0,0:0:0:0:
256,192,154793,1,8,0:0:0:0:
256,192,154862,1,0,0:0:0:0:
256,192,155001,1,8,0:0:0:0:
256,192,155071,1,8,0:0:0:0:
256,192,155140,1,0,0:0:0:0:
256,192,155210,1,8,0:0:0:0:
256,192,155279,1,0,0:0:0:0:
256,192,155349,1,0,0:0:0:0:
256,192,155418,1,8,0:0:0:0:
256,192,155557,1,0,0:0:0:0:
256,192,155626,1,0,0:0:0:0:
256,192,155696,1,8,0:0:0:0:
256,192,155765,1,8,0:0:0:0:
256,192,155835,1,0,0:0:0:0:
256,192,155904,1,0,0:0:0:0:
256,192,155974,1,0,0:0:0:0:
256,192,156112,1,8,0:0:0:0:
256,192,156251,1,8,0:0:0:0:
256,192,156390,1,4,0:0:0:0:
256,192,156946,1,0,0:0:0:0:
256,192,157224,1,0,0:0:0:0:
256,192,157501,1,12,0:0:0:0:
256,192,157779,1,0,0:0:0:0:
256,192,158057,1,8,0:0:0:0:
256,192,158335,1,0,0:0:0:0:
256,192,158612,1,0,0:0:0:0:
256,192,158751,1,8,0:0:0:0:
256,192,158890,1,0,0:0:0:0:
256,192,159029,1,0,0:0:0:0:
256,192,159168,1,8,0:0:0:0:
256,192,159446,1,8,0:0:0:0:
256,192,159585,1,8,0:0:0:0:
256,192,159724,1,0,0:0:0:0:
256,192,160140,1,0,0:0:0:0:
256,192,160279,1,8,0:0:0:0:
256,192,160557,1,0,0:0:0:0:
256,192,160835,1,0,0:0:0:0:
256,192,160974,1,0,0:0:0:0:
256,192,161251,1,0,0:0:0:0:
256,192,161390,1,8,0:0:0:0:
256,192,161668,1,8,0:0:0:0:
256,192,161946,1,0,0:0:0:0:
256,192,162501,1,8,0:0:0:0:
256,192,162779,1,0,0:0:0:0:
256,192,163057,1,0,0:0:0:0:
256,192,163196,1,0,0:0:0:0:
256,192,163474,1,0,0:0:0:0:
256,192,163612,1,8,0:0:0:0:
256,192,163890,1,8,0:0:0:0:
256,192,164168,1,0,0:0:0:0:
256,192,164585,1,0,0:0:0:0:
256,192,165001,1,0,0:0:0:0:
256,192,165279,1,0,0:0:0:0:
256,192,165418,1,0,0:0:0:0:
256,192,165557,1,0,0:0:0:0:
256,192,165696,1,0,0:0:0:0:
256,192,165835,1,0,0:0:0:0:
256,192,165974,1,0,0:0:0:0:
256,192,166112,1,0,0:0:0:0:
256,192,166251,1,0,0:0:0:0:
256,192,166390,1,8,0:0:0:0:
256,192,176112,5,8,0:0:0:0:
256,192,176390,1,4,0:0:0:0:
256,192,177501,1,4,0:0:0:0:
256,192,178057,1,4,0:0:0:0:
256,192,178335,1,8,0:0:0:0:
256,192,178612,1,4,0:0:0:0:
256,192,178890,1,8,0:0:0:0:
256,192,179168,1,0,0:0:0:0:
256,192,179307,1,0,0:0:0:0:
256,192,179446,1,8,0:0:0:0:
256,192,179724,1,4,0:0:0:0:
256,192,180001,1,0,0:0:0:0:
256,192,180279,1,8,0:0:0:0:
256,192,180418,1,0,0:0:0:0:
256,192,180557,1,8,0:0:0:0:
256,192,180835,1,4,0:0:0:0:
256,192,181112,1,8,0:0:0:0:
256,192,181251,1,8,0:0:0:0:
256,192,181390,1,0,0:0:0:0:
256,192,181529,1,8,0:0:0:0:
256,192,181668,1,0,0:0:0:0:
256,192,181807,1,0,0:0:0:0:
256,192,181946,1,8,0:0:0:0:
256,192,182224,1,0,0:0:0:0:
256,192,182501,1,8,0:0:0:0:
256,192,182640,1,0,0:0:0:0:
256,192,182779,1,8,0:0:0:0:
256,192,183057,1,0,0:0:0:0:
256,192,183196,1,0,0:0:0:0:
256,192,183335,1,8,0:0:0:0:
256,192,183474,1,8,0:0:0:0:
256,192,183612,1,0,0:0:0:0:
256,192,183682,1,0,0:0:0:0:
256,192,183751,1,0,0:0:0:0:
256,192,183890,1,8,0:0:0:0:
256,192,184029,1,0,0:0:0:0:
256,192,184168,1,12,0:0:0:0:
256,192,184724,1,0,0:0:0:0:
256,192,184862,1,0,0:0:0:0:
256,192,184932,1,0,0:0:0:0:
256,192,185001,1,8,0:0:0:0:
256,192,185279,1,4,0:0:0:0:
256,192,185487,1,8,0:0:0:0:
256,192,185557,1,0,0:0:0:0:
256,192,185696,1,8,0:0:0:0:
256,192,185835,1,0,0:0:0:0:
256,192,185904,1,0,0:0:0:0:
256,192,185974,1,8,0:0:0:0:
256,192,186043,1,0,0:0:0:0:
256,192,186112,1,8,0:0:0:0:
256,192,186251,1,0,0:0:0:0:
256,192,186390,1,8,0:0:0:0:
256,192,186460,1,8,0:0:0:0:
256,192,186529,1,0,0:0:0:0:
256,192,186668,1,8,0:0:0:0:
256,192,186807,1,0,0:0:0:0:
256,192,186876,1,0,0:0:0:0:
256,192,186946,1,8,0:0:0:0:
256,192,187015,1,8,0:0:0:0:
256,192,187085,1,0,0:0:0:0:
256,192,187154,1,8,0:0:0:0:
256,192,187224,1,0,0:0:0:0:
256,192,187362,1,8,0:0:0:0:
256,192,187501,1,0,0:0:0:0:
256,192,187571,1,0,0:0:0:0:
256,192,187710,1,0,0:0:0:0:
256,192,187779,1,8,0:0:0:0:
256,192,187918,1,0,0:0:0:0:
256,192,188057,1,8,0:0:0:0:
256,192,188126,1,0,0:0:0:0:
256,192,188196,1,8,0:0:0:0:
256,192,188265,1,8,0:0:0:0:
256,192,188335,1,0,0:0:0:0:
256,192,188474,1,0,0:0:0:0:
256,192,188543,1,0,0:0:0:0:
256,192,188612,1,8,0:0:0:0:
256,192,188751,1,0,0:0:0:0:
256,192,188890,1,8,0:0:0:0:
256,192,188960,1,8,0:0:0:0:
256,192,189029,1,8,0:0:0:0:
256,192,189168,1,0,0:0:0:0:
256,192,189237,1,8,0:0:0:0:
256,192,189307,1,0,0:0:0:0:
256,192,189376,1,0,0:0:0:0:
256,192,189446,1,8,0:0:0:0:
256,192,189585,1,0,0:0:0:0:
256,192,189724,1,8,0:0:0:0:
256,192,189793,1,0,0:0:0:0:
256,192,189932,1,0,0:0:0:0:
256,192,190001,1,8,0:0:0:0:
256,192,190140,1,0,0:0:0:0:
256,192,190279,1,8,0:0:0:0:
256,192,190349,1,8,0:0:0:0:
256,192,190418,1,0,0:0:0:0:
256,192,190487,1,8,0:0:0:0:
256,192,190557,1,0,0:0:0:0:
256,192,190626,1,0,0:0:0:0:
256,192,190696,1,8,0:0:0:0:
256,192,190835,1,0,0:0:0:0:
256,192,190904,1,0,0:0:0:0:
256,192,190974,1,0,0:0:0:0:
256,192,191112,1,8,0:0:0:0:
256,192,191251,1,0,0:0:0:0:
256,192,191321,1,0,0:0:0:0:
256,192,191390,1,8,0:0:0:0:
256,192,191529,1,0,0:0:0:0:
256,192,191668,1,8,0:0:0:0:
256,192,191807,1,8,0:0:0:0:
256,192,191876,1,8,0:0:0:0:
256,192,191946,1,0,0:0:0:0:
256,192,192085,1,0,0:0:0:0:
256,192,192224,1,8,0:0:0:0:
256,192,192293,1,8,0:0:0:0:
256,192,192362,1,0,0:0:0:0:
256,192,192432,1,0,0:0:0:0:
256,192,192501,1,8,0:0:0:0:
256,192,192571,1,0,0:0:0:0:
256,192,192640,1,0,0:0:0:0:
256,192,192710,1,0,0:0:0:0:
256,192,192779,1,8,0:0:0:0:
256,192,192849,1,8,0:0:0:0:
256,192,192918,1,0,0:0:0:0:
256,192,192987,1,8,0:0:0:0:
256,192,193057,1,0,0:0:0:0:
256,192,193196,1,8,0:0:0:0:
256,192,193265,1,8,0:0:0:0:
256,192,193335,1,0,0:0:0:0:
256,192,193474,1,8,0:0:0:0:
256,192,193543,1,8,0:0:0:0:
256,192,193612,1,0,0:0:0:0:
256,192,193751,1,0,0:0:0:0:
256,192,193890,1,12,0:0:0:0:
256,192,194168,1,4,0:0:0:0:
256,192,194307,1,0,0:0:0:0:
256,192,194446,1,8,0:0:0:0:
256,192,194585,1,0,0:0:0:0:
256,192,194724,1,8,0:0:0:0:
256,192,194793,1,8,0:0:0:0:
256,192,194862,1,0,0:0:0:0:
256,192,194932,1,0,0:0:0:0:
256,192,195001,1,8,0:0:0:0:
256,192,195071,1,0,0:0:0:0:
256,192,195140,1,8,0:0:0:0:
256,192,195279,1,0,0:0:0:0:
256,192,195349,1,0,0:0:0:0:
256,192,195418,1,8,0:0:0:0:
256,192,195487,1,8,0:0:0:0:
256,192,195557,1,0,0:0:0:0:
256,192,195696,1,8,0:0:0:0:
256,192,195835,1,0,0:0:0:0:
256,192,195904,1,8,0:0:0:0:
256,192,195974,1,0,0:0:0:0:
256,192,196112,1,8,0:0:0:0:
256,192,196251,1,0,0:0:0:0:
256,192,196321,1,0,0:0:0:0:
256,192,196390,1,8,0:0:0:0:
256,192,196460,1,0,0:0:0:0:
256,192,196599,1,0,0:0:0:0:
256,192,196668,1,8,0:0:0:0:
256,192,196807,1,0,0:0:0:0:
256,192,196946,1,8,0:0:0:0:
256,192,197015,1,8,0:0:0:0:
256,192,197085,1,0,0:0:0:0:
256,192,197154,1,8,0:0:0:0:
256,192,197224,1,0,0:0:0:0:
256,192,197293,1,0,0:0:0:0:
256,192,197362,1,8,0:0:0:0:
256,192,197501,1,0,0:0:0:0:
256,192,197571,1,0,0:0:0:0:
256,192,197640,1,8,0:0:0:0:
256,192,197710,1,8,0:0:0:0:
256,192,197779,1,0,0:0:0:0:
256,192,197918,1,8,0:0:0:0:
256,192,198057,1,0,0:0:0:0:
256,192,198126,1,8,0:0:0:0:
256,192,198196,1,0,0:0:0:0:
256,192,198265,1,0,0:0:0:0:
256,192,198335,1,8,0:0:0:0:
256,192,198474,1,8,0:0:0:0:
256,192,198612,1,4,0:0:0:0:
256,192,198821,1,0,0:0:0:0:
256,192,198890,1,8,0:0:0:0:
256,192,199029,1,0,0:0:0:0:
256,192,199168,1,8,0:0:0:0:
256,192,199237,1,8,0:0:0:0:
256,192,199307,1,0,0:0:0:0:
256,192,199376,1,0,0:0:0:0:
256,192,199446,1,8,0:0:0:0:
256,192,199585,1,8,0:0:0:0:
256,192,199724,1,4,0:0:0:0:
256,192,200001,1,8,0:0:0:0:
256,192,200140,1,0,0:0:0:0:
256,192,200279,1,8,0:0:0:0:
256,192,200418,1,0,0:0:0:0:
256,192,200487,1,0,0:0:0:0:
256,192,200557,1,8,0:0:0:0:
256,192,200696,1,8,0:0:0:0:
256,192,200835,1,0,0:0:0:0:
256,192,200904,1,0,0:0:0:0:
256,192,200974,1,8,0:0:0:0:
256,192,201043,1,8,0:0:0:0:
256,192,201112,1,0,0:0:0:0:
256,192,201182,1,8,0:0:0:0:
256,192,201251,1,0,0:0:0:0:
256,192,201321,1,0,0:0:0:0:
256,192,201390,1,8,0:0:0:0:
256,192,201460,1,0,0:0:0:0:
256,192,201529,1,8,0:0:0:0:
256,192,201599,1,8,0:0:0:0:
256,192,201668,1,0,0:0:0:0:
256,192,201737,1,0,0:0:0:0:
256,192,201807,1,8,0:0:0:0:
256,192,201946,1,4,0:0:0:0:
256,192,203057,1,0,0:0:0:0:
256,192,203612,1,0,0:0:0:0:
256,192,204168,1,8,0:0:0:0:
256,192,205279,1,4,0:0:0:0:
256,192,205557,1,0,0:0:0:0:
256,192,205696,1,8,0:0:0:0:
256,192,205835,1,0,0:0:0:0:
256,192,205974,1,8,0:0:0:0:
256,192,206043,1,8,0:0:0:0:
256,192,206112,1,0,0:0:0:0:
256,192,206251,1,8,0:0:0:0:
256,192,206390,1,0,0:0:0:0:
256,192,206529,1,8,0:0:0:0:
256,192,206599,1,0,0:0:0:0:
256,192,206668,1,8,0:0:0:0:
256,192,206807,1,0,0:0:0:0:
256,192,206946,1,8,0:0:0:0:
256,192,207085,1,0,0:0:0:0:
256,192,207154,1,0,0:0:0:0:
256,192,207224,1,8,0:0:0:0:
256,192,207293,1,8,0:0:0:0:
256,192,207362,1,0,0:0:0:0:
256,192,207501,1,8,0:0:0:0:
256,192,207779,1,0,0:0:0:0:
256,192,207918,1,8,0:0:0:0:
256,192,208057,1,8,0:0:0:0:
256,192,208196,1,0,0:0:0:0:
256,192,208265,1,0,0:0:0:0:
256,192,208335,1,8,0:0:0:0:
256,192,208474,1,0,0:0:0:0:
256,192,208612,1,0,0:0:0:0:
256,192,208751,1,8,0:0:0:0:
256,192,208890,1,0,0:0:0:0:
256,192,209029,1,8,0:0:0:0:
256,192,209168,1,0,0:0:0:0:
256,192,209307,1,8,0:0:0:0:
256,192,209446,1,0,0:0:0:0:
256,192,209585,1,8,0:0:0:0:
256,192,209724,1,4,0:0:0:0:
256,192,210001,1,8,0:0:0:0:
256,192,210140,1,0,0:0:0:0:
256,192,210279,1,8,0:0:0:0:
256,192,210418,1,0,0:0:0:0:
256,192,210487,1,0,0:0:0:0:
256,192,210557,1,8,0:0:0:0:
256,192,210696,1,8,0:0:0:0:
256,192,210835,1,4,0:0:0:0:
256,192,211112,1,8,0:0:0:0:
256,192,211251,1,8,0:0:0:0:
256,192,211390,1,0,0:0:0:0:
256,192,211529,1,0,0:0:0:0:
256,192,211668,1,8,0:0:0:0:
256,192,211807,1,0,0:0:0:0:
256,192,211876,1,0,0:0:0:0:
256,192,211946,1,8,0:0:0:0:
256,192,212015,1,0,0:0:0:0:
256,192,212085,1,8,0:0:0:0:
256,192,212154,1,8,0:0:0:0:
256,192,212224,1,0,0:0:0:0:
256,192,212293,1,0,0:0:0:0:
256,192,212362,1,8,0:0:0:0:
256,192,212432,1,8,0:0:0:0:
256,192,212501,1,0,0:0:0:0:
256,192,212571,1,8,0:0:0:0:
256,192,212640,1,0,0:0:0:0:
256,192,212710,1,0,0:0:0:0:
256,192,212779,1,8,0:0:0:0:
256,192,212849,1,8,0:0:0:0:
256,192,212918,1,0,0:0:0:0:
256,192,212987,1,0,0:0:0:0:
256,192,213057,1,8,0:0:0:0:
256,192,213196,1,0,0:0:0:0:
256,192,213335,1,8,0:0:0:0:
256,192,213404,1,8,0:0:0:0:
256,192,213474,1,0,0:0:0:0:
256,192,213612,1,8,0:0:0:0:
256,192,213751,1,0,0:0:0:0:
256,192,213890,1,8,0:0:0:0:
256,192,214168,1,4,0:0:0:0:
256,192,214446,1,0,0:0:0:0:
256,192,214585,1,8,0:0:0:0:
256,192,214654,1,8,0:0:0:0:
256,192,214724,1,0,0:0:0:0:
256,192,214862,1,8,0:0:0:0:
256,192,214932,1,8,0:0:0:0:
256,192,215001,1,0,0:0:0:0:
256,192,215140,1,0,0:0:0:0:
256,192,215279,1,8,0:0:0:0:
256,192,215418,1,0,0:0:0:0:
256,192,215557,1,8,0:0:0:0:
256,192,215696,1,0,0:0:0:0:
256,192,215765,1,0,0:0:0:0:
256,192,215835,1,8,0:0:0:0:
256,192,215974,1,0,0:0:0:0:
256,192,216043,1,0,0:0:0:0:
256,192,216112,1,8,0:0:0:0:
256,192,216251,1,8,0:0:0:0:
256,192,216390,1,0,0:0:0:0:
256,192,216529,1,8,0:0:0:0:
256,192,216668,1,0,0:0:0:0:
256,192,216807,1,8,0:0:0:0:
256,192,216876,1,0,0:0:0:0:
256,192,216946,1,0,0:0:0:0:
256,192,217085,1,8,0:0:0:0:
256,192,217154,1,0,0:0:0:0:
256,192,217224,1,0,0:0:0:0:
256,192,217362,1,0,0:0:0:0:
256,192,217501,1,8,0:0:0:0:
256,192,217640,1,0,0:0:0:0:
256,192,217779,1,8,0:0:0:0:
256,192,217918,1,0,0:0:0:0:
256,192,217987,1,8,0:0:0:0:
256,192,218057,1,8,0:0:0:0:
256,192,218196,1,0,0:0:0:0:
256,192,218265,1,8,0:0:0:0:
256,192,218335,1,8,0:0:0:0:
256,192,218474,1,8,0:0:0:0:
256,192,218612,1,0,0:0:0:0:
256,192,218751,1,0,0:0:0:0:
256,192,218890,1,8,0:0:0:0:
256,192,219029,1,0,0:0:0:0:
256,192,219099,1,0,0:0:0:0:
256,192,219168,1,0,0:0:0:0:
256,192,219307,1,8,0:0:0:0:
256,192,219376,1,8,0:0:0:0:
256,192,219446,1,8,0:0:0:0:
256,192,219585,1,0,0:0:0:0:
256,192,219724,1,8,0:0:0:0:
256,192,219793,1,8,0:0:0:0:
256,192,219862,1,0,0:0:0:0:
256,192,219932,1,0,0:0:0:0:
256,192,220001,1,8,0:0:0:0:
256,192,220140,1,0,0:0:0:0:
256,192,220279,1,8,0:0:0:0:
256,192,220349,1,8,0:0:0:0:
256,192,220418,1,0,0:0:0:0:
256,192,220487,1,8,0:0:0:0:
256,192,220557,1,0,0:0:0:0:
256,192,220696,1,8,0:0:0:0:
256,192,220835,1,0,0:0:0:0:
256,192,220904,1,0,0:0:0:0:
256,192,220974,1,8,0:0:0:0:
256,192,221112,1,0,0:0:0:0:
256,192,221251,1,8,0:0:0:0:
256,192,221321,1,8,0:0:0:0:
256,192,221390,1,0,0:0:0:0:
256,192,221529,1,8,0:0:0:0:
256,192,221668,1,0,0:0:0:0:
256,192,221737,1,0,0:0:0:0:
256,192,221807,1,8,0:0:0:0:
256,192,221876,1,0,0:0:0:0:
256,192,221946,1,8,0:0:0:0:
256,192,222085,1,0,0:0:0:0:
256,192,222224,1,8,0:0:0:0:
256,192,222362,1,0,0:0:0:0:
256,192,222501,1,8,0:0:0:0:
256,192,222571,1,8,0:0:0:0:
256,192,222640,1,0,0:0:0:0:
256,192,222710,1,0,0:0:0:0:
256,192,222779,1,8,0:0:0:0:
256,192,222849,1,8,0:0:0:0:
256,192,222918,1,8,0:0:0:0:
256,192,223057,1,4,0:0:0:0:
256,192,223335,1,0,0:0:0:0:
256,192,223474,1,8,0:0:0:0:
256,192,223543,1,8,0:0:0:0:
256,192,223612,1,0,0:0:0:0:
256,192,223751,1,8,0:0:0:0:
256,192,223821,1,8,0:0:0:0:
256,192,223890,1,0,0:0:0:0:
256,192,224029,1,0,0:0:0:0:
256,192,224168,1,8,0:0:0:0:
256,192,224307,1,0,0:0:0:0:
256,192,224446,1,8,0:0:0:0:
256,192,224585,1,0,0:0:0:0:
256,192,224654,1,0,0:0:0:0:
256,192,224724,1,8,0:0:0:0:
256,192,224862,1,0,0:0:0:0:
256,192,224932,1,0,0:0:0:0:
256,192,225001,1,8,0:0:0:0:
256,192,225140,1,8,0:0:0:0:
256,192,225279,1,0,0:0:0:0:
256,192,225418,1,8,0:0:0:0:
256,192,225557,1,0,0:0:0:0:
256,192,225696,1,8,0:0:0:0:
256,192,225765,1,0,0:0:0:0:
256,192,225835,1,0,0:0:0:0:
256,192,225974,1,8,0:0:0:0:
256,192,226043,1,0,0:0:0:0:
256,192,226112,1,0,0:0:0:0:
256,192,226251,1,0,0:0:0:0:
256,192,226390,1,8,0:0:0:0:
256,192,226529,1,0,0:0:0:0:
256,192,226668,1,8,0:0:0:0:
256,192,226807,1,0,0:0:0:0:
256,192,226876,1,8,0:0:0:0:
256,192,226946,1,8,0:0:0:0:
256,192,227085,1,0,0:0:0:0:
256,192,227154,1,8,0:0:0:0:
256,192,227224,1,8,0:0:0:0:
256,192,227362,1,0,0:0:0:0:
256,192,227432,1,0,0:0:0:0:
256,192,227501,1,8,0:0:0:0:
256,192,227640,1,0,0:0:0:0:
256,192,227779,1,8,0:0:0:0:
256,192,227918,1,0,0:0:0:0:
256,192,227987,1,0,0:0:0:0:
256,192,228057,1,0,0:0:0:0:
256,192,228196,1,8,0:0:0:0:
256,192,228265,1,8,0:0:0:0:
256,192,228335,1,8,0:0:0:0:
256,192,228474,1,0,0:0:0:0:
256,192,228612,1,8,0:0:0:0:
256,192,228682,1,8,0:0:0:0:
256,192,228751,1,8,0:0:0:0:
256,192,228821,1,8,0:0:0:0:
256,192,228890,1,0,0:0:0:0:
256,192,229029,1,0,0:0:0:0:
256,192,229168,1,8,0:0:0:0:
256,192,229307,1,8,0:0:0:0:
256,192,229446,1,0,0:0:0:0:
256,192,229585,1,8,0:0:0:0:
256,192,229724,1,0,0:0:0:0:
256,192,229793,1,0,0:0:0:0:
256,192,229862,1,8,0:0:0:0:
256,192,230001,1,0,0:0:0:0:
256,192,230140,1,8,0:0:0:0:
256,192,230210,1,8,0:0:0:0:
256,192,230279,1,0,0:0:0:0:
256,192,230418,1,8,0:0:0:0:
256,192,230557,1,0,0:0:0:0:
256,192,230626,1,0,0:0:0:0:
256,192,230696,1,8,0:0:0:0:
256,192,230765,1,0,0:0:0:0:
256,192,230835,1,8,0:0:0:0:
256,192,230974,1,0,0:0:0:0:
256,192,231112,1,8,0:0:0:0:
256,192,231251,1,0,0:0:0:0:
256,192,231321,1,0,0:0:0:0:
256,192,231390,1,8,0:0:0:0:
256,192,231529,1,0,0:0:0:0:
256,192,231946,1,4,0:0:0:0:
256,192,232224,1,8,0:0:0:0:
256,192,232362,1,0,0:0:0:0:
256,192,232432,1,0,0:0:0:0:
256,192,232501,1,8,0:0:0:0:
256,192,232640,1,0,0:0:0:0:
256,192,232779,1,8,0:0:0:0:
256,192,232849,1,8,0:0:0:0:
256,192,232918,1,8,0:0:0:0:
256,192,233057,1,0,0:0:0:0:
256,192,233335,1,8,0:0:0:0:
256,192,233474,1,0,0:0:0:0:
256,192,233612,1,8,0:0:0:0:
256,192,233682,1,0,0:0:0:0:
256,192,233751,1,0,0:0:0:0:
256,192,233821,1,0,0:0:0:0:
256,192,233890,1,8,0:0:0:0:
256,192,234029,1,8,0:0:0:0:
256,192,234168,1,0,0:0:0:0:
256,192,234446,1,8,0:0:0:0:
256,192,234585,1,0,0:0:0:0:
256,192,234654,1,0,0:0:0:0:
256,192,234724,1,8,0:0:0:0:
256,192,234862,1,0,0:0:0:0:
256,192,235001,1,8,0:0:0:0:
256,192,235071,1,8,0:0:0:0:
256,192,235140,1,0,0:0:0:0:
256,192,235279,1,8,0:0:0:0:
256,192,235418,1,0,0:0:0:0:
256,192,235557,1,8,0:0:0:0:
256,192,235696,1,0,0:0:0:0:
256,192,235835,1,8,0:0:0:0:
256,192,235904,1,8,0:0:0:0:
256,192,235974,1,0,0:0:0:0:
256,192,236043,1,0,0:0:0:0:
256,192,236112,1,8,0:0:0:0:
256,192,236251,1,8,0:0:0:0:
256,192,236390,1,0,0:0:0:0:
256,192,236668,1,8,0:0:0:0:
256,192,236807,1,0,0:0:0:0:
256,192,236876,1,0,0:0:0:0:
256,192,236946,1,8,0:0:0:0:
256,192,237085,1,0,0:0:0:0:
256,192,237224,1,8,0:0:0:0:
256,192,237293,1,8,0:0:0:0:
256,192,237362,1,8,0:0:0:0:
256,192,237501,1,0,0:0:0:0:
256,192,237640,1,8,0:0:0:0:
256,192,237710,1,0,0:0:0:0:
256,192,237779,1,8,0:0:0:0:
256,192,237918,1,0,0:0:0:0:
256,192,238057,1,8,0:0:0:0:
256,192,238126,1,8,0:0:0:0:
256,192,238196,1,0,0:0:0:0:
256,192,238265,1,0,0:0:0:0:
256,192,238335,1,8,0:0:0:0:
256,192,238474,1,8,0:0:0:0:
256,192,238612,1,0,0:0:0:0:
256,192,238890,1,8,0:0:0:0:
256,192,239029,1,8,0:0:0:0:
256,192,239168,1,0,0:0:0:0:
256,192,239237,1,0,0:0:0:0:
256,192,239307,1,8,0:0:0:0:
256,192,239376,1,0,0:0:0:0:
256,192,239446,1,8,0:0:0:0:
256,192,239585,1,0,0:0:0:0:
256,192,239724,1,8,0:0:0:0:
256,192,239793,1,8,0:0:0:0:
256,192,239862,1,0,0:0:0:0:
256,192,240001,1,8,0:0:0:0:
256,192,240140,1,0,0:0:0:0:
256,192,240210,1,0,0:0:0:0:
256,192,240279,1,8,0:0:0:0:
256,192,240349,1,8,0:0:0:0:
256,192,240418,1,0,0:0:0:0:
256,192,240487,1,0,0:0:0:0:
256,192,240557,1,8,0:0:0:0:
256,192,240696,1,8,0:0:0:0:
256,192,240835,1,4,0:0:0:0:
256,192,241112,1,8,0:0:0:0:
256,192,241251,1,0,0:0:0:0:
256,192,241321,1,0,0:0:0:0:
256,192,241390,1,8,0:0:0:0:
256,192,241529,1,0,0:0:0:0:
256,192,241668,1,8,0:0:0:0:
256,192,241737,1,8,0:0:0:0:
256,192,241807,1,8,0:0:0:0:
256,192,241876,1,8,0:0:0:0:
256,192,241946,1,0,0:0:0:0:
256,192,242085,1,0,0:0:0:0:
256,192,242224,1,8,0:0:0:0:
256,192,242362,1,8,0:0:0:0:
256,192,242501,1,0,0:0:0:0:
256,192,242571,1,8,0:0:0:0:
256,192,242640,1,0,0:0:0:0:
256,192,242710,1,0,0:0:0:0:
256,192,242779,1,8,0:0:0:0:
256,192,242918,1,8,0:0:0:0:
256,192,243057,1,0,0:0:0:0:
256,192,243335,1,8,0:0:0:0:
256,192,243474,1,0,0:0:0:0:
256,192,243543,1,0,0:0:0:0:
256,192,243612,1,8,0:0:0:0:
256,192,243751,1,0,0:0:0:0:
256,192,243890,1,8,0:0:0:0:
256,192,243960,1,8,0:0:0:0:
256,192,244029,1,0,0:0:0:0:
256,192,244099,1,0,0:0:0:0:
256,192,244168,1,8,0:0:0:0:
256,192,244307,1,0,0:0:0:0:
256,192,244446,1,8,0:0:0:0:
256,192,244585,1,0,0:0:0:0:
256,192,244724,1,8,0:0:0:0:
256,192,244793,1,0,0:0:0:0:
256,192,244862,1,0,0:0:0:0:
256,192,244932,1,0,0:0:0:0:
256,192,245001,1,8,0:0:0:0:
256,192,245140,1,8,0:0:0:0:
256,192,245279,1,4,0:0:0:0:
256,192,245557,1,8,0:0:0:0:
256,192,245696,1,0,0:0:0:0:
256,192,245765,1,0,0:0:0:0:
256,192,245835,1,8,0:0:0:0:
256,192,245974,1,0,0:0:0:0:
256,192,246112,1,8,0:0:0:0:
256,192,246182,1,8,0:0:0:0:
256,192,246251,1,8,0:0:0:0:
256,192,246390,1,0,0:0:0:0:
256,192,246529,1,8,0:0:0:0:
256,192,246599,1,0,0:0:0:0:
256,192,246668,1,8,0:0:0:0:
256,192,246807,1,0,0:0:0:0:
256,192,246946,1,8,0:0:0:0:
256,192,247015,1,8,0:0:0:0:
256,192,247085,1,0,0:0:0:0:
256,192,247154,1,0,0:0:0:0:
256,192,247224,1,8,0:0:0:0:
256,192,247362,1,8,0:0:0:0:
256,192,247501,1,4,0:0:0:0:
256,192,247779,1,8,0:0:0:0:
256,192,247918,1,8,0:0:0:0:
256,192,248057,1,0,0:0:0:0:
256,192,248126,1,0,0:0:0:0:
256,192,248196,1,8,0:0:0:0:
256,192,248265,1,0,0:0:0:0:
256,192,248335,1,8,0:0:0:0:
256,192,248474,1,0,0:0:0:0:
256,192,248612,1,12,0:0:0:0:
256,192,248890,1,8,0:0:0:0:
256,192,249029,1,0,0:0:0:0:
256,192,249168,1,8,0:0:0:0:
256,192,249307,1,0,0:0:0:0:
256,192,249724,1,4,0:0:0:0:
256,192,250001,1,8,0:0:0:0:
256,192,250279,1,0,0:0:0:0:
256,192,250418,1,0,0:0:0:0:
256,192,250557,1,8,0:0:0:0:
256,192,250835,1,0,0:0:0:0:
256,192,251112,1,8,0:0:0:0:
256,192,251390,1,0,0:0:0:0:
256,192,251668,1,8,0:0:0:0:
256,192,251807,1,8,0:0:0:0:
256,192,251946,1,0,0:0:0:0:
256,192,252224,1,8,0:0:0:0:
256,192,252501,1,0,0:0:0:0:
256,192,252640,1,0,0:0:0:0:
256,192,252779,1,8,0:0:0:0:
256,192,253057,1,0,0:0:0:0:
256,192,253335,1,8,0:0:0:0:
256,192,253612,1,0,0:0:0:0:
256,192,253890,1,8,0:0:0:0:
256,192,254029,1,0,0:0:0:0:
256,192,254168,1,0,0:0:0:0:
256,192,254446,1,8,0:0:0:0:
256,192,254724,1,0,0:0:0:0:
256,192,254862,1,0,0:0:0:0:
256,192,255001,1,8,0:0:0:0:
256,192,255279,1,0,0:0:0:0:
256,192,255557,1,8,0:0:0:0:
256,192,255696,1,8,0:0:0:0:
256,192,255835,1,0,0:0:0:0:
256,192,255974,1,0,0:0:0:0:
256,192,256112,1,8,0:0:0:0:
256,192,256390,1,0,0:0:0:0:
256,192,256668,1,8,0:0:0:0:
256,192,256946,1,0,0:0:0:0:
256,192,257085,1,0,0:0:0:0:
256,192,257224,1,8,0:0:0:0:
256,192,257501,1,0,0:0:0:0:
256,192,257779,1,8,0:0:0:0:
256,192,258057,1,0,0:0:0:0:
256,192,258196,1,0,0:0:0:0:
256,192,258335,1,8,0:0:0:0:
256,192,258612,1,4,0:0:0:0:
256,192,258890,1,8,0:0:0:0:
256,192,259168,1,0,0:0:0:0:
256,192,259446,1,8,0:0:0:0:
256,192,259724,1,0,0:0:0:0:
256,192,260001,1,8,0:0:0:0:
256,192,260279,1,0,0:0:0:0:
256,192,260557,1,8,0:0:0:0:
256,192,260696,1,0,0:0:0:0:
256,192,260835,1,0,0:0:0:0:
256,192,261112,1,8,0:0:0:0:
256,192,261390,1,0,0:0:0:0:
256,192,261668,1,8,0:0:0:0:
256,192,261946,1,0,0:0:0:0:
256,192,262224,1,8,0:0:0:0:
256,192,262501,1,0,0:0:0:0:
256,192,262779,1,8,0:0:0:0:
256,192,262918,1,0,0:0:0:0:
256,192,263057,1,12,0:0:0:0:
256,192,263335,1,8,0:0:0:0:
256,192,263612,1,8,0:0:0:0:
256,192,263890,1,8,0:0:0:0:
256,192,264168,1,8,0:0:0:0:
256,192,264446,1,8,0:0:0:0:
256,192,264724,1,8,0:0:0:0:
256,192,265001,1,8,0:0:0:0:
256,192,265279,1,12,0:0:0:0:
256,192,265418,1,0,0:0:0:0:
256,192,265557,1,8,0:0:0:0:
256,192,265696,1,0,0:0:0:0:
256,192,265835,1,8,0:0:0:0:
256,192,265974,1,0,0:0:0:0:
256,192,266112,1,8,0:0:0:0:
256,192,266251,1,0,0:0:0:0:
256,192,266390,1,12,0:0:0:0:
256,192,266529,12,12,267501,0:0:0:0:
