osu file format v14

[General]
AudioFilename: audio.mp3
AudioLeadIn: 0
PreviewTime: -1
Countdown: 0
SampleSet: Soft
StackLeniency: 0.2
Mode: 0
LetterboxInBreaks: 0
WidescreenStoryboard: 0

[Editor]
Bookmarks: 798,1178,1748,16589,18678,19627,20197,21336,22665,27397,27587,41828,42397,43157,43347,47334,53030,54549,54739,55119,56068,57967,59106,65562,66701,73157,73536,73726,77334,78853,83979,86448,90245,91954,92524,95942,98030,102397,103157,106574,107714,122904,127461,132017,135055,140372,141131,141701,143030,144169,144739,145688,147587,149106,150245,151005,151764,174549,176068,188220,189739,195815,200562,201891,220119,223157,224676,229138,229233,229328,229423,229517,229612,229707,229802,229897,229992,230087,230182,230277,230372,230467,230562,230657,230752,230847,230942,231036,231131,231226,231321,231416,231511,231606,231701,231796,231891,231986,232081,232176,232271,232366,232461,232555,232650,232745,232840,232935,233030,233125,233220,233315,233410,233505,233600,233695,233790,233885,233979,234074,234169,234264,234359,234454,234549,234644,234739,234834,234929,235024,235119,235214,235309,235404,235498,235593,235688,235783,235878,235973,236068,236163,236258,236353,236448,236543,236638,236733,236828,236923,237017,237112,237207,237302,237397,237492,237587,237682,237777,237872,237967,238062,238157,238252,238347,238442,238536,238631,238726,238821,238916,239011,239106,239201,239296,239391,239486,239581,239676,239771,239866,239961,240055,240150,240245,240340,240435,240530,240625,240720,240815,240910,241005,241100,241195,241290,241385,241479,241574,241669,241764,241859,241954,242049,242144,242239,242334,242429,242524,242619,242714,242809,242904,242998,243093,243188,243283,243378,243473,243568,243663,243758,243853,243948,244043,244138,244233,244328,244423,244517,244612,244707,244802,244897,244992,245087,245182,245277,245372,245467,245562,245657,245752,245847,245942,246036,246131,246226,246321,246416,246511,246606,246701,246796,246891,246986,247081,247176,247271,247366,247461,247555,247650,247745,247840,247935,248030,248125,248220,248315,248410,248505,248600,248695,248790,248885,248979,249074,249169,249264,249359,249454,249549,249644,249739,249834,249929,250024,250119,250214,250309
DistanceSpacing: 0.3
BeatDivisor: 4
GridSize: 4
TimelineZoom: 2

[Metadata]
Title:Milosc w Zakopanem
TitleUnicode:Milosc w Zakopanem
Artist:Slawomir
ArtistUnicode:Slawomir
Creator:-NeBu-
Version:Polewamy sie szampanem
Source:
Tags:disco zakopane slawomir
BeatmapID:1552531
BeatmapSetID:735467

[Difficulty]
HPDrainRate:5
CircleSize:4.2
OverallDifficulty:7.5
ApproachRate:9.4
SliderMultiplier:2.6
SliderTickRate:1

[Events]
//Background and Video events
0,0,"maxresdefault.jpg",0,0
//Break Periods
//Storyboard Layer 0 (Background)
//Storyboard Layer 1 (Fail)
//Storyboard Layer 2 (Pass)
//Storyboard Layer 3 (Foreground)
//Storyboard Sound Samples

[TimingPoints]
404,379.746835443038,4,2,1,5,1,0
404,-50,4,2,1,5,0,0
1163,-100,4,2,1,5,0,0
2279,-50,4,2,1,5,0,0
3038,-100,4,2,1,5,0,0
4201,-100,4,2,1,35,0,0
7461,379.746835443038,4,2,1,60,1,0
18663,-125,4,2,1,60,0,0
20182,-50,4,2,1,60,0,0
22650,-125,4,2,1,60,0,0
23220,-50,4,2,1,60,0,0
25688,-125,4,2,1,60,0,0
26258,-50,4,2,1,60,0,0
31764,-100,4,2,1,60,0,0
32334,-66.6666666666667,4,2,1,60,0,0
32714,-100,4,2,1,60,0,0
36321,-33.3333333333333,4,2,1,60,0,0
36796,-66.6666666666667,4,2,1,60,0,0
42397,-133.333333333333,4,2,1,60,0,0
43347,-66.6666666666667,4,2,1,60,0,0
56068,-58.8235294117647,4,2,1,70,0,1
63378,-58.8235294117647,4,2,1,5,0,1
63473,-58.8235294117647,4,2,1,70,0,1
66701,-50,4,2,1,70,0,1
67081,-58.8235294117647,4,2,1,70,0,1
74296,-100,4,2,1,70,0,1
75055,-80,4,2,1,70,0,1
75815,-66.6666666666667,4,2,1,70,0,1
80372,-66.6666666666667,4,2,1,65,0,0
81226,-66.6666666666667,4,2,1,5,0,0
81321,-66.6666666666667,4,2,1,65,0,0
100214,-66.6666666666667,4,2,1,5,0,0
100309,-66.6666666666667,4,2,1,65,0,0
104676,-58.8235294117647,4,2,1,80,0,1
128979,-66.6666666666667,4,2,1,80,0,1
141701,-50,4,2,1,80,0,1
144169,-66.6666666666667,4,2,1,80,0,1
144739,-50,4,2,1,80,0,1
147207,-66.6666666666667,4,2,1,80,0,1
147587,-50,4,2,1,80,0,1
150245,-66.6666666666667,4,2,1,80,0,1
153283,-66.6666666666667,4,2,1,75,0,0
163916,-133.333333333333,4,2,1,75,0,0
164866,-66.6666666666667,4,2,1,75,0,0
177587,-58.8235294117647,4,2,1,85,0,1
226195,-133.333333333333,4,2,1,45,0,0
229233,-133.333333333333,4,2,1,5,0,0

[Colours]
Combo1 : 111,111,255
Combo2 : 128,0,128
Combo3 : 255,233,210
SliderTrackOverride : 70,15,25

[HitObjects]
93,95,432,6,0,B|36:61|-44:118|-16:194|26:207|90:172|137:133|161:206|155:266|100:282|11:264,1,390,0|0,0:0|0:0,0:0:0:0:
188,132,849,6,0,B|193:191|217:251|217:251|221:215|252:192|252:192|273:215|289:255|289:255|317:195|329:115,1,390,0|0,0:0|0:0,0:0:0:0:
376,254,1268,6,0,B|383:209|411:149|411:149|425:187|444:211|444:211|473:191|483:153|483:153|507:213|515:262,1,357.5,0|0,0:0|0:0,0:0:0:0:
93,95,2302,6,0,B|36:61|-44:118|-16:194|26:207|90:172|137:133|161:206|155:266|100:282|11:264,1,390,0|0,0:0|0:0,0:0:0:0:
188,132,2719,6,0,B|193:191|217:251|217:251|221:215|252:192|252:192|273:215|289:255|289:255|317:195|329:115,1,390,0|0,0:0|0:0,0:0:0:0:
376,254,3138,6,0,B|383:209|411:149|411:149|425:187|444:211|444:211|473:191|483:153|483:153|507:213|515:262,1,357.5,0|0,0:0|0:0,0:0:0:0:
148,72,4201,5,8,0:0:0:0:
156,76,4622,5,8,0:0:0:0:
163,77,5055,5,8,0:0:0:0:
328,52,5910,5,12,0:0:0:0:
316,144,6362,5,12,0:0:0:0:
300,232,6804,5,12,0:0:0:0:
96,128,7239,6,0,P|128:132|160:123,1,65,0|0,0:0|0:0,0:0:0:0:
224,44,7461,6,0,P|255:41|296:60,3,65,0|0|0|0,0:0|0:0|0:0|0:0,0:0:0:0:
322,45,7840,2,0,P|346:64|361:107,3,65,0|0|0|0,0:0|0:0|0:0|0:0,0:0:0:0:
393,111,8220,2,0,P|396:142|377:183,3,65,0|0|0|0,0:0|0:0|0:0|0:0,0:0:0:0:
408,208,8600,2,0,P|388:232|345:247,3,65,0|0|0|0,0:0|0:0|0:0|0:0,0:0:0:0:
305,185,8979,6,0,P|291:155|266:134,3,65,0|0|0|0,0:0|0:0|0:0|0:0,0:0:0:0:
232,158,9359,2,0,P|201:146|169:149,3,65,0|0|0|0,0:0|0:0|0:0|0:0,0:0:0:0:
153,182,9739,2,0,P|123:195|102:220,3,65,0|0|0|0,0:0|0:0|0:0|0:0,0:0:0:0:
111,256,10118,2,0,P|99:286|102:318,3,65,0|0|0|0,0:0|0:0|0:0|0:0,0:0:0:0:
186,332,10498,5,8,0:0:0:0:
212,343,10592,1,0,0:0:0:0:
241,344,10687,1,0,0:0:0:0:
268,334,10782,1,0,0:0:0:0:
289,313,10878,5,8,0:0:0:0:
316,303,10973,1,0,0:0:0:0:
345,304,11068,1,0,0:0:0:0:
372,315,11162,1,0,0:0:0:0:
392,337,11258,5,8,0:0:0:0:
419,347,11353,1,0,0:0:0:0:
448,346,11448,1,0,0:0:0:0:
475,335,11542,1,0,0:0:0:0:
452,315,11638,5,8,0:0:0:0:
442,288,11733,1,0,0:0:0:0:
443,259,11828,1,0,0:0:0:0:
454,232,11922,1,0,0:0:0:0:
477,207,12017,5,8,0:0:0:0:
487,180,12112,1,0,0:0:0:0:
486,151,12207,1,0,0:0:0:0:
475,124,12301,1,0,0:0:0:0:
486,95,12397,5,8,0:0:0:0:
459,84,12491,1,0,0:0:0:0:
430,83,12586,1,0,0:0:0:0:
403,93,12681,1,0,0:0:0:0:
385,118,12777,5,8,0:0:0:0:
358,129,12871,1,0,0:0:0:0:
329,130,12966,1,0,0:0:0:0:
302,120,13061,1,0,0:0:0:0:
284,94,13157,5,8,0:0:0:0:
257,83,13251,1,0,0:0:0:0:
228,82,13346,1,0,0:0:0:0:
201,92,13441,1,0,0:0:0:0:
180,111,13536,6,0,P|148:115|108:95,3,65,0|0|0|0,0:0|0:0|0:0|0:0,0:0:0:0:
239,160,13916,2,0,P|271:164|311:144,3,65,0|0|0|0,0:0|0:0|0:0|0:0,0:0:0:0:
133,218,14296,2,0,P|101:222|61:202,3,65,0|0|0|0,0:0|0:0|0:0|0:0,0:0:0:0:
242,294,14676,2,0,P|274:298|314:278,3,65,0|0|0|0,0:0|0:0|0:0|0:0,0:0:0:0:
321,162,15055,6,0,L|328:96,3,65,0|0|0|0,0:0|0:0|0:0|0:0,0:0:0:0:
420,268,15435,2,0,L|427:334,3,65,0|0|0|0,0:0|0:0|0:0|0:0,0:0:0:0:
492,197,15815,2,0,L|485:132,3,65,0|0|0|0,0:0|0:0|0:0|0:0,0:0:0:0:
320,300,16195,2,0,L|313:364,3,65,0|0|0|0,0:0|0:0|0:0|0:0,0:0:0:0:
265,209,16574,5,8,0:0:0:0:
257,229,16669,1,0,0:0:0:0:
252,190,16764,5,8,0:0:0:0:
245,210,16859,1,0,0:0:0:0:
234,182,16954,5,8,0:0:0:0:
228,202,17049,1,0,0:0:0:0:
214,178,17144,5,8,0:0:0:0:
209,198,17239,1,0,0:0:0:0:
188,200,17334,5,8,0:0:0:0:
152,184,17429,1,0,0:0:0:0:
152,200,17524,5,8,0:0:0:0:
116,212,17619,1,0,0:0:0:0:
80,192,17714,5,8,0:0:0:0:
88,212,17809,1,0,0:0:0:0:
52,196,17904,5,8,0:0:0:0:
48,156,17998,1,0,0:0:0:0:
64,156,18093,5,8,0:0:0:0:
48,120,18188,1,0,0:0:0:0:
28,108,18283,5,8,0:0:0:0:
40,72,18378,1,0,0:0:0:0:
56,64,18473,5,8,0:0:0:0:
96,68,18568,1,0,0:0:0:0:
100,100,18663,6,0,B|46:163|106:165|68:236|68:236|124:165|210:215|211:265|211:318|160:367|86:332,1,468,0|0,0:0|0:0,0:0:0:0:
92,360,19612,6,0,L|155:355,1,52,0|0,0:0|0:0,0:0:0:0:
164,367,19802,2,0,L|227:362,1,52,0|0,0:0|0:0,0:0:0:0:
233,373,19992,2,0,L|296:368,1,52,0|0,0:0|0:0,0:0:0:0:
378,308,20182,6,0,P|379:261|360:304,1,130
352,283,20372,6,0,P|353:236|334:279,1,130
309,273,20562,6,0,P|310:226|291:269,1,130
283,248,20752,6,0,P|284:201|265:244,1,130
247,225,20942,6,0,P|248:178|229:221,1,130
204,216,21131,6,0,P|205:169|186:212,1,130
62,90,21321,6,0,B|103:40|103:40|127:106,1,130
109,73,21511,6,0,B|150:23|150:23|174:89,1,130
150,94,21701,6,0,B|191:44|191:44|215:110,1,130
197,89,21891,6,0,B|238:39|238:39|262:105,1,130
239,106,22081,6,0,B|280:56|280:56|304:122,1,130
282,94,22271,6,0,B|323:44|323:44|347:110,1,130
320,108,22461,6,0,B|361:58|361:58|385:124,1,130
40,244,22650,6,0,L|36:180,1,52,0|0,0:0|0:0,0:0:0:0:
120,266,22840,2,0,L|116:317,1,52,0|0,0:0|0:0,0:0:0:0:
20,225,23030,2,0,L|16:161,1,52,0|0,0:0|0:0,0:0:0:0:
378,76,23220,6,0,P|379:123|360:80,1,130
352,101,23410,6,0,P|353:148|334:105,1,130
309,111,23600,6,0,P|310:158|291:115,1,130
283,136,23790,6,0,P|284:183|265:140,1,130
247,159,23980,6,0,P|248:206|229:163,1,130
102,48,24169,6,0,B|143:-2|143:-2|167:64,1,130
144,68,24359,6,0,B|185:18|185:18|209:84,1,130
191,51,24549,6,0,B|232:1|232:1|256:67,1,130
232,72,24739,6,0,B|273:22|273:22|297:88,1,130
279,67,24929,6,0,B|320:17|320:17|344:83,1,130
321,84,25119,6,0,B|362:34|362:34|386:100,1,130
364,72,25309,6,0,B|405:22|405:22|429:88,1,130
402,86,25499,6,0,B|443:36|443:36|467:102,1,130
414,255,25688,6,0,L|338:259,1,52
232,205,25878,2,0,L|308:209,1,52,0|0,0:0|0:0,0:0:0:0:
436,274,26068,2,0,L|360:278,1,52,0|0,0:0|0:0,0:0:0:0:
130,154,26258,6,0,P|129:107|148:150,1,130
156,129,26448,6,0,P|155:82|174:125,1,130
199,119,26638,6,0,P|198:72|217:115,1,130
225,94,26828,6,0,P|224:47|243:90,1,130
261,71,27017,6,0,P|260:24|279:67,1,130
304,62,27207,6,0,P|303:15|322:58,1,130
341,62,27397,6,0,P|340:15|359:58,1,130
432,224,27587,6,0,B|391:174|391:174|367:240,1,130
385,207,27777,6,0,B|344:157|344:157|320:223,1,130
344,228,27967,6,0,B|303:178|303:178|279:244,1,130
297,223,28157,6,0,B|256:173|256:173|232:239,1,130
255,240,28347,6,0,B|214:190|214:190|190:256,1,130
212,228,28537,6,0,B|171:178|171:178|147:244,1,130
36,264,28726,5,8,0:0:0:0:
51,262,28820,1,0,0:0:0:0:
68,268,28915,1,0,0:0:0:0:
83,277,29010,1,0,0:0:0:0:
100,273,29105,1,8,0:0:0:0:
117,271,29200,1,0,0:0:0:0:
132,278,29295,1,0,0:0:0:0:
147,288,29390,1,0,0:0:0:0:
164,283,29486,5,8,0:0:0:0:
180,288,29581,1,0,0:0:0:0:
186,277,29675,1,0,0:0:0:0:
176,267,29770,1,0,0:0:0:0:
167,259,29865,5,8,0:0:0:0:
173,251,29960,1,0,0:0:0:0:
179,243,30055,1,0,0:0:0:0:
171,235,30150,1,0,0:0:0:0:
163,229,30244,1,8,0:0:0:0:
0,140,30435,5,8,0:0:0:0:
141,102,30625,5,8,0:0:0:0:
109,198,30720,1,0,0:0:0:0:
40,36,30910,5,8,0:0:0:0:
96,228,31005,1,0,0:0:0:0:
211,63,31195,5,8,0:0:0:0:
280,88,31289,1,0,0:0:0:0:
305,158,31384,1,8,0:0:0:0:
267,223,31479,1,0,0:0:0:0:
193,234,31574,1,8,0:0:0:0:
137,184,31669,1,0,0:0:0:0:
140,101,31764,6,0,P|210:146|126:267,1,260,0|0,0:0|0:0,0:0:0:0:
137,184,32334,2,0,P|213:235|186:338,1,195.00000743866,0|0,0:0|0:0,0:0:0:0:
72,384,32714,2,0,L|68:312,1,65,0|0,0:0|0:0,0:0:0:0:
56,176,32904,2,0,L|128:172,2,65,0|0|0,0:0|0:0|0:0,0:0:0:0:
248,84,33283,5,0,0:0:0:0:
112,192,33473,1,0,0:0:0:0:
252,348,33663,1,0,0:0:0:0:
263,103,33853,2,0,B|251:75|281:34|281:34|206:48|206:48|194:55|194:55|180:53|180:53|93:69,1,260,0|0,0:0|0:0,0:0:0:0:
96,92,34296,5,0,0:0:0:0:
104,116,34359,5,0,0:0:0:0:
120,136,34423,6,0,B|144:214|90:193|128:276,1,130,0|0,0:0|0:0,0:0:0:0:
374,326,34802,5,8,0:0:0:0:
193,21,34992,1,0,0:0:0:0:
122,262,35182,5,8,0:0:0:0:
426,82,35372,1,0,0:0:0:0:
212,32,35562,6,0,B|204:41|204:41|214:159,1,130,0|0,0:0|0:0,0:0:0:0:
392,336,35942,2,0,B|399:326|399:326|389:208,1,130,0|0,0:0|0:0,0:0:0:0:
64,51,36321,6,0,P|99:118|131:38,1,195.00000743866,0|0,0:0|0:0,0:0:0:0:
282,30,36511,6,0,B|253:28|219:39|217:71|261:80|283:83|301:122|283:143|249:148|216:132,1,195.00000743866,0|0,0:0|0:0,0:0:0:0:
353,138,36701,6,0,B|405:51|405:51|451:142,1,195.00000743866,0|0,0:0|0:0,0:0:0:0:
434,329,36891,6,0,P|387:336|340:323,1,97.50000371933,0|0,0:0|0:0,0:0:0:0:
175,264,37081,2,0,P|222:252|270:259,1,97.50000371933,0|0,0:0|0:0,0:0:0:0:
332,344,37271,5,0,0:0:0:0:
220,148,37461,1,0,0:0:0:0:
136,384,37650,1,0,0:0:0:0:
154,109,37840,6,0,P|236:70|297:137,1,195.00000743866,0|0,0:0|0:0,0:0:0:0:
277,224,38125,1,0,0:0:0:0:
275,240,38220,1,0,0:0:0:0:
328,149,38410,2,0,B|394:132|454:180|454:180|432:153|440:122,1,195.00000743866,0|0,0:0|0:0,0:0:0:0:
282,41,38790,2,0,L|297:137,1,97.50000371933,0|0,0:0|0:0,0:0:0:0:
176,344,38979,2,0,L|188:247,1,97.50000371933,0|0,0:0|0:0,0:0:0:0:
60,0,39169,6,0,B|71:80|71:80|63:108|63:108|75:192,1,195.00000743866,0|0,0:0|0:0,0:0:0:0:
176,344,39549,2,0,B|188:260|188:260|180:232|180:232|192:149,1,195.00000743866,0|0,0:0|0:0,0:0:0:0:
512,37,39929,2,0,B|412:49|412:49|392:61|392:61|371:52|371:52|323:56,1,195.00000743866,0|0,0:0|0:0,0:0:0:0:
44,92,40309,1,0,0:0:0:0:
392,337,40498,2,0,P|408:290|400:241,1,97.50000371933,0|0,0:0|0:0,0:0:0:0:
180,194,40688,2,0,P|164:241|172:290,1,97.50000371933,0|0,0:0|0:0,0:0:0:0:
412,216,40878,5,8,0:0:0:0:
148,296,41068,1,0,0:0:0:0:
448,205,41258,5,8,0:0:0:0:
117,305,41448,1,0,0:0:0:0:
332,384,41638,1,8,0:0:0:0:
220,92,41828,6,0,P|188:72|204:100,1,97.50000371933,0|0,0:0|0:0,0:0:0:0:
173,114,42017,6,0,P|141:94|157:122,1,97.50000371933,0|0,0:0|0:0,0:0:0:0:
145,154,42207,6,0,P|113:134|129:162,1,97.50000371933,0|0,0:0|0:0,0:0:0:0:
311,143,42397,6,2,P|336:62|331:175,1,390.00001487732
316,268,43252,1,0,0:0:0:0:
296,280,43347,6,0,P|250:295|201:280,1,97.50000371933,0|0,0:0|0:0,0:0:0:0:
26,220,43536,2,0,P|68:197|119:203,1,97.50000371933,0|0,0:0|0:0,0:0:0:0:
297,166,43726,2,0,P|309:119|294:74,1,97.50000371933,0|0,0:0|0:0,0:0:0:0:
191,33,43916,6,0,B|72:7|116:63|0:39,1,195.00000743866,0|0,0:0|0:0,0:0:0:0:
61,150,44296,2,0,P|41:193|49:241,1,97.50000371933,0|0,0:0|0:0,0:0:0:0:
338,354,44486,2,0,B|321:259|321:259|311:249|311:249|296:162,1,195.00000743866,0|0,0:0|0:0,0:0:0:0:
191,130,44866,1,0,0:0:0:0:
171,131,44961,1,0,0:0:0:0:
155,141,45055,2,0,P|105:156|59:149,1,97.50000371933,0|0,0:0|0:0,0:0:0:0:
357,243,45245,2,0,P|407:228|453:235,1,97.50000371933,0|0,0:0|0:0,0:0:0:0:
248,384,45435,6,0,L|232:284,1,97.50000371933,0|0,0:0|0:0,0:0:0:0:
340,262,45625,2,0,L|356:54,1,195.00000743866,0|0,0:0|0:0,0:0:0:0:
78,50,46005,2,0,P|47:136|79:236,1,195.00000743866,0|0,0:0|0:0,0:0:0:0:
248,384,46385,1,0,0:0:0:0:
356,96,46574,1,8,0:0:0:0:
96,196,46764,1,0,0:0:0:0:
372,269,46954,2,0,P|402:187|352:93,1,195.00000743866,0|0,0:0|0:0,0:0:0:0:
116,44,47334,5,8,0:0:0:0:
140,336,47524,2,0,L|132:232,1,97.50000371933,0|0,0:0|0:0,0:0:0:0:
115,30,47714,1,0,0:0:0:0:
140,336,47904,1,0,0:0:0:0:
296,92,48093,5,8,0:0:0:0:
272,384,48283,2,0,L|280:280,1,97.50000371933,0|0,0:0|0:0,0:0:0:0:
297,78,48473,1,0,0:0:0:0:
272,384,48663,1,0,0:0:0:0:
484,16,48853,5,8,0:0:0:0:
508,308,49043,2,0,L|500:204,1,97.50000371933,0|0,0:0|0:0,0:0:0:0:
483,2,49233,1,0,0:0:0:0:
479,323,49423,6,0,P|431:333|375:309,1,97.50000371933,0|0,0:0|0:0,0:0:0:0:
331,224,49612,2,0,P|285:208|238:218,1,97.50000371933,0|0,0:0|0:0,0:0:0:0:
194,314,49802,2,0,P|148:329|101:319,1,97.50000371933,0|0,0:0|0:0,0:0:0:0:
48,92,49992,1,8,0:0:0:0:
104,332,50182,1,0,0:0:0:0:
270,64,50372,2,0,B|330:65|352:25|352:25|388:56|444:52,1,195.00000743866,0|0,0:0|0:0,0:0:0:0:
444,206,50752,2,0,B|415:232|416:278|416:278|368:232|300:242,1,195.00000743866,0|0,0:0|0:0,0:0:0:0:
191,142,51131,2,0,P|142:134|87:154,1,97.50000371933,0|0,0:0|0:0,0:0:0:0:
183,302,51321,6,0,P|231:242|191:142,1,195.00000743866,0|0,0:0|0:0,0:0:0:0:
48,268,51701,1,0,0:0:0:0:
264,368,51891,1,8,0:0:0:0:
184,112,52081,1,0,0:0:0:0:
240,372,52271,1,8,0:0:0:0:
358,106,52461,2,2,B|407:92|407:92|306:83|306:83|290:64|290:64|232:60|232:60|213:75|213:75|127:69|127:69|170:91,1,390.00001487732
376,336,53030,5,8,0:0:0:0:
405,92,53220,1,0,0:0:0:0:
284,285,53410,5,8,0:0:0:0:
288,24,53600,1,0,0:0:0:0:
177,298,53790,5,8,0:0:0:0:
152,0,53980,1,0,0:0:0:0:
36,384,54169,6,0,L|44:276,1,97.50000371933,0|0,0:0|0:0,0:0:0:0:
0,0,54359,2,0,L|7:97,1,97.50000371933,0|0,0:0|0:0,0:0:0:0:
64,296,54549,5,8,0:0:0:0:
184,120,54739,1,8,0:0:0:0:
229,103,54833,1,0,0:0:0:0:
276,112,54928,1,8,0:0:0:0:
312,144,55023,1,0,0:0:0:0:
327,190,55118,1,8,0:0:0:0:
144,194,55310,5,8,0:0:0:0:
103,145,55403,1,0,0:0:0:0:
109,82,55498,1,8,0:0:0:0:
157,40,55593,1,0,0:0:0:0:
184,120,55688,1,8,0:0:0:0:
135,161,55782,1,0,0:0:0:0:
72,155,55877,1,8,0:0:0:0:
30,107,55972,1,0,0:0:0:0:
109,82,56068,6,2,B|95:126|117:166|117:166|103:196|103:196|136:237|116:299,1,221.000004215241
42,259,56353,1,0,0:0:0:0:
34,267,56448,2,2,B|76:219|135:244|135:244|168:193|245:200,1,221.000004215241
319,273,56733,1,0,0:0:0:0:
333,272,56828,6,2,B|454:133|368:18|368:18|283:32|271:132,1,442.000008430481
193,356,57397,2,2,B|108:256|119:120|194:65|194:65|149:126|186:187,1,442.000008430481
208,184,57872,1,0,0:0:0:0:
236,172,57967,6,0,P|280:142|336:146,1,110.50000210762,0|0,0:0|0:0,0:0:0:0:
419,295,58157,2,0,P|364:298|319:268,1,110.50000210762,0|0,0:0|0:0,0:0:0:0:
424,0,58347,6,0,L|453:116,1,110.50000210762,0|0,0:0|0:0,0:0:0:0:
360,93,58536,2,0,L|337:210,1,110.50000210762,0|0,0:0|0:0,0:0:0:0:
236,384,58726,6,0,L|214:275,1,110.50000210762,0|0,0:0|0:0,0:0:0:0:
155,0,58916,2,0,L|176:108,1,110.50000210762,0|0,0:0|0:0,0:0:0:0:
109,349,59106,6,2,B|74:321|35:334|35:334|85:277|87:200,1,221.000004215241
192,112,59391,1,0,0:0:0:0:
200,100,59486,2,2,P|276:88|302:207,1,221.000004215241
108,216,59771,1,0,0:0:0:0:
88,204,59866,2,2,P|56:92|104:0,1,221.000004215241
346,41,60245,2,0,P|368:94|350:153,1,110.50000210762,0|0,0:0|0:0,0:0:0:0:
303,204,60435,2,2,B|259:193|252:155|252:155|213:201|213:252|250:291|305:310|341:295|399:261|404:197|353:139,1,442.000008430481
264,55,60910,1,0,0:3:0:0:
277,43,61005,6,2,B|194:-12|116:89|81:95|46:72|46:72|73:38|118:34|169:75|177:113|177:113|161:131|133:134,1,442.000008430481,2|2,0:3|0:3,0:3:0:0:
78,193,61574,2,0,P|61:244|83:311,1,110.50000210762,0|0,0:0|0:0,0:0:0:0:
168,222,61764,2,0,P|220:240|273:227,1,110.50000210762,0|0,0:0|0:0,0:0:0:0:
154,128,61954,2,0,P|172:76|159:23,1,110.50000210762,0|0,0:0|0:0,0:0:0:0:
168,222,62144,6,2,P|223:316|326:321,1,221.000004215241
451,185,62429,1,0,0:0:0:0:
466,174,62524,2,0,P|425:137|365:135,1,110.50000210762
310,57,62714,6,2,P|204:40|162:157,1,221.000004215241
334,233,63093,2,2,P|442:169|318:53,1,331.500006322861
240,112,63473,6,2,B|196:86|139:105|139:105|114:160|120:191|131:267|176:298|245:268|268:226|262:176|198:127|147:138|89:223|106:294|106:294|143:328|195:325,1,663.000012645722
411,255,64233,6,0,P|432:202|419:151,1,110.50000210762,0|0,0:0|0:0,0:0:0:0:
248,8,64423,2,0,P|227:61|240:112,1,110.50000210762,0|0,0:0|0:0,0:0:0:0:
449,51,64612,2,0,P|396:30|345:43,1,110.50000210762,0|0,0:0|0:0,0:0:0:0:
202,214,64802,2,0,P|255:235|306:222,1,110.50000210762,0|0,0:0|0:0,0:0:0:0:
224,19,64992,2,2,B|188:-4|130:3|100:39|100:39|100:83|112:139|156:151|208:119|197:69|148:47|69:71|50:114|66:176,1,442.000008430481
96,332,65562,5,8,0:0:0:0:
148,102,65752,1,0,0:0:0:0:
195,276,65942,5,8,0:0:0:0:
296,24,66132,1,0,0:0:0:0:
315,251,66321,5,8,0:3:0:0:
476,0,66511,1,0,0:3:0:0:
239,156,66701,6,2,B|276:152|299:118|299:118|274:222|314:251|314:251|239:222|181:247|153:299,1,390
104,224,67081,1,0,0:0:0:0:
88,204,67176,2,0,P|40:192|-24:224,1,110.50000210762,0|0,0:0|0:0,0:0:0:0:
99,344,67366,2,0,P|148:366|202:354,1,110.50000210762,0|0,0:0|0:0,0:0:0:0:
299,97,67555,2,0,P|250:75|197:87,1,110.50000210762,0|0,0:0|0:0,0:0:0:0:
243,225,67745,2,0,P|292:246|345:235,1,110.50000210762,0|0,0:0|0:0,0:0:0:0:
336,136,67935,5,0,0:0:0:0:
340,106,68030,1,8,0:0:0:0:
332,74,68125,1,0,0:0:0:0:
304,58,68220,6,2,P|228:48|180:168,1,221.000004215241
432,228,68505,1,0,0:0:0:0:
453,234,68600,2,2,B|432:168|463:72|463:72|441:101|394:107,1,221.000004215241
250,192,68885,1,0,0:0:0:0:
246,211,68979,2,2,P|182:247|94:151,1,221.000004215241
300,0,69359,2,0,P|327:51|325:110,1,110.50000210762,0|0,0:0|0:0,0:0:0:0:
170,374,69549,2,2,B|174:310|142:270|142:270|170:222|174:158,1,221.000004215241
344,236,69929,6,0,L|336:200,6,36.8333340358734
272,144,70214,1,0,0:0:0:0:
248,128,70309,2,0,P|228:73|250:12,1,110.50000210762,0|0,0:0|0:0,0:0:0:0:
356,73,70498,6,0,P|411:53|472:75,1,110.50000210762,0|0,0:0|0:0,0:0:0:0:
417,176,70688,2,0,P|437:231|415:292,1,110.50000210762,0|0,0:0|0:0,0:0:0:0:
301,240,70878,2,0,P|246:260|185:238,1,110.50000210762,0|0,0:0|0:0,0:0:0:0:
248,128,71068,2,0,P|228:73|250:12,1,110.50000210762,0|0,0:0|0:0,0:0:0:0:
436,168,71258,6,2,B|420:208|444:240|444:240|389:239|389:239|377:244|377:244|365:239|365:239|296:240,1,221.000004215241
224,144,71543,1,0,0:0:0:0:
200,136,71638,2,2,B|184:100|184:100|0:100,1,221.000004215241
80,232,71923,1,0,0:0:0:0:
97,248,72017,6,2,B|114:156|114:156|94:128|94:128|117:28,1,221.000004215241
224,144,72302,1,0,0:0:0:0:
241,167,72397,2,0,L|253:55,1,110.50000210762,0|0,0:0|0:0,0:0:0:0:
395,211,72587,2,2,B|378:119|378:119|398:91|398:91|375:-9,1,221.000004215241
280,328,72967,1,0,0:0:0:0:
102,113,73157,6,2,B|84:70|26:65|26:65|152:16|253:27|355:110,1,442.000008430481
418,162,73631,1,0,0:0:0:0:
412,177,73726,2,2,P|336:197|264:85,2,221.000004215241
462,21,74296,6,0,L|474:89,1,65,0|0,0:0|0:0,0:0:0:0:
440,61,74486,2,0,L|446:129,1,65,0|0,0:0|0:0,0:0:0:0:
417,97,74676,2,0,L|417:166,1,65,0|0,0:0|0:0,0:0:0:0:
380,124,74866,2,0,L|373:192,1,65,0|0,0:0|0:0,0:0:0:0:
261,134,75055,6,0,L|277:218,1,81.25,0|0,0:0|0:0,0:0:0:0:
206,107,75245,2,0,L|214:192,1,81.25,0|0,0:0|0:0,0:0:0:0:
155,76,75435,2,0,L|156:161,1,81.25,0|0,0:0|0:0,0:0:0:0:
106,51,75625,2,0,L|99:136,1,81.25,0|0,0:0|0:0,0:0:0:0:
369,27,75815,6,0,L|381:135,1,97.50000371933,0|0,0:0|0:0,0:0:0:0:
224,90,76005,2,0,L|212:198,1,97.50000371933,0|0,0:0|0:0,0:0:0:0:
474,165,76195,2,0,L|462:273,1,97.50000371933,0|0,0:0|0:0,0:0:0:0:
128,236,76385,2,0,L|140:344,1,97.50000371933,0|0,0:0|0:0,0:0:0:0:
358,137,76574,6,0,P|373:90|354:39,1,97.50000371933,0|0,0:0|0:0,0:0:0:0:
154,247,76764,2,0,P|141:294|151:344,1,97.50000371933,0|0,0:0|0:0,0:0:0:0:
201,90,76954,2,0,P|153:72|108:82,1,97.50000371933,0|0,0:0|0:0,0:0:0:0:
311,294,77144,2,0,P|358:310|406:301,1,97.50000371933
80,192,77334,5,8,0:0:0:0:
392,72,77524,1,0,0:0:0:0:
200,16,77714,1,0,0:0:0:0:
437,143,77904,1,0,0:0:0:0:
207,253,78093,5,8,0:0:0:0:
328,8,78283,1,0,0:0:0:0:
84,108,78473,1,0,0:0:0:0:
292,312,78663,1,0,0:0:0:0:
260,128,78853,5,8,0:0:0:0:
432,232,79043,1,0,0:0:0:0:
414,44,79233,5,8,0:0:0:0:
378,32,79328,1,0,0:0:0:0:
342,48,79423,1,8,0:0:0:0:
264,164,79612,5,8,0:0:0:0:
229,216,79706,1,0,0:0:0:0:
167,227,79801,1,8,0:0:0:0:
117,187,79896,1,0,0:0:0:0:
139,167,79992,1,8,0:0:0:0:
165,190,80086,1,0,0:0:0:0:
167,227,80181,1,8,0:0:0:0:
140,254,80276,1,0,0:0:0:0:
108,259,80372,6,0,P|55:225|99:117,1,195.00000743866,0|0,0:0|0:0,0:0:0:0:
147,44,80657,1,0,0:0:0:0:
163,46,80752,2,0,P|211:30|267:43,1,97.50000371933,0|0,0:0|0:0,0:0:0:0:
351,170,80942,2,0,P|262:191|259:36,1,292.50001115799,0|0,0:0|0:0,0:0:0:0:
376,85,81321,2,0,P|436:158|384:250,1,195.00000743866,0|0,0:0|0:0,0:0:0:0:
376,256,81606,1,0,0:0:0:0:
348,260,81701,1,8,0:0:0:0:
320,252,81796,1,0,0:0:0:0:
296,236,81891,6,0,P|216:208|148:288,1,195.00000743866,0|0,0:0|0:0,0:0:0:0:
165,356,82176,1,0,0:0:0:0:
150,357,82271,2,0,P|102:344|76:298,1,97.50000371933,0|0,0:0|0:0,0:0:0:0:
52,216,82461,2,0,B|44:128|44:128|59:109|59:109|52:13,1,195.00000743866,0|0,0:0|0:0,0:0:0:0:
224,248,82840,1,0,0:0:0:0:
304,8,83030,1,8,0:0:0:0:
188,232,83220,1,0,0:0:0:0:
287,26,83410,2,0,L|485:14,2,195.00000743866,0|0|0,0:0|0:0|0:0,0:0:0:0:
186,45,83979,5,8,0:0:0:0:
164,34,84074,1,0,0:0:0:0:
170,54,84169,5,8,0:0:0:0:
148,45,84264,1,0,0:0:0:0:
156,65,84359,5,8,0:0:0:0:
133,58,84454,1,0,0:0:0:0:
142,77,84549,5,8,0:0:0:0:
119,72,84644,1,0,0:0:0:0:
130,90,84739,5,8,0:0:0:0:
106,87,84834,1,0,0:0:0:0:
118,104,84929,5,8,0:0:0:0:
95,104,85024,1,0,0:0:0:0:
108,119,85119,5,8,0:0:0:0:
85,121,85214,1,0,0:0:0:0:
100,135,85309,5,8,0:0:0:0:
76,139,85404,1,0,0:0:0:0:
93,152,85498,5,8,0:0:0:0:
69,158,85593,1,0,0:0:0:0:
87,169,85688,5,8,0:0:0:0:
64,177,85783,1,0,0:0:0:0:
83,187,85878,5,8,0:0:0:0:
68,212,85973,1,0,0:0:0:0:
72,240,86068,1,0,0:0:0:0:
92,260,86163,1,0,0:0:0:0:
84,288,86258,1,0,0:0:0:0:
64,308,86353,1,0,0:0:0:0:
44,328,86448,6,0,P|104:368|188:292,1,195.00000743866
248,48,86828,1,8,0:0:0:0:
176,279,87017,1,0,0:0:0:0:
271,34,87207,2,0,P|322:36|367:165,1,195.00000743866,0|0,0:0|0:0,0:0:0:0:
316,240,87492,1,0,0:0:0:0:
340,240,87587,2,0,L|352:352,1,97.50000371933,0|0,0:0|0:0,0:0:0:0:
174,237,87777,2,0,L|184:140,1,97.50000371933,0|0,0:0|0:0,0:0:0:0:
328,344,87967,5,8,0:0:0:0:
140,48,88157,1,0,0:0:0:0:
104,336,88347,1,8,0:0:0:0:
304,36,88536,2,0,B|345:43|374:12|374:12|340:75|391:138,1,195.00000743866,0|0,0:0|0:0,0:0:0:0:
456,192,88821,1,0,0:0:0:0:
477,205,88916,2,0,P|494:250|477:305,1,97.50000371933,0|0,0:0|0:0,0:0:0:0:
264,348,89106,2,0,P|247:303|264:248,1,97.50000371933,0|0,0:0|0:0,0:0:0:0:
500,219,89296,2,0,P|517:264|500:319,1,97.50000371933,0|0,0:0|0:0,0:0:0:0:
234,253,89486,6,0,B|208:230|224:204|224:204|158:253|76:224,1,195.00000743866
33,101,89771,1,0,0:0:0:0:
37,77,89866,2,0,P|85:53|137:165,1,195.00000743866,0|0,0:0|0:0,0:0:0:0:
220,240,90245,5,8,0:0:0:0:
228,260,90340,1,0,0:0:0:0:
243,250,90435,5,8,0:0:0:0:
259,265,90530,1,0,0:0:0:0:
269,250,90625,5,8,0:0:0:0:
290,257,90720,1,0,0:0:0:0:
293,239,90815,5,8,0:0:0:0:
314,236,90910,1,0,0:0:0:0:
309,219,91005,5,8,0:0:0:0:
327,207,91100,1,0,0:0:0:0:
315,193,91195,5,8,0:0:0:0:
327,175,91290,1,0,0:0:0:0:
311,168,91385,5,8,0:0:0:0:
314,147,91480,1,0,0:0:0:0:
296,147,91574,5,8,0:0:0:0:
289,126,91669,1,0,0:0:0:0:
273,134,91764,5,8,0:0:0:0:
259,118,91859,1,0,0:0:0:0:
247,132,91954,5,8,0:0:0:0:
228,132,92049,1,0,0:0:0:0:
212,120,92144,1,0,0:0:0:0:
204,100,92239,1,0,0:0:0:0:
204,80,92334,1,0,0:0:0:0:
212,60,92429,1,0,0:0:0:0:
228,48,92524,6,0,P|240:80|136:64,1,195.00000743866,0|0,0:0|0:0,0:0:0:0:
84,24,92809,1,0,0:0:0:0:
72,8,92904,2,0,P|42:48|33:103,1,97.50000371933,0|0,0:0|0:0,0:0:0:0:
82,163,93093,2,0,B|98:187|98:187|86:352,1,195.00000743866,0|0,0:0|0:0,0:0:0:0:
184,232,93473,5,0,0:0:0:0:
192,240,93536,5,0,0:0:0:0:
204,244,93600,5,0,0:0:0:0:
216,240,93663,2,0,L|312:228,1,97.50000371933,0|0,0:0|0:0,0:0:0:0:
408,92,93853,2,0,L|312:80,1,97.50000371933,0|0,0:0|0:0,0:0:0:0:
384,362,94043,6,0,B|358:243|418:295|387:169,1,195.00000743866,0|0,0:0|0:0,0:0:0:0:
280,60,94423,1,0,0:0:0:0:
216,240,94612,2,0,B|199:205|199:205|172:220|137:206|137:206|119:215|119:215|80:196|42:219,1,195.00000743866,0|0,0:0|0:0,0:0:0:0:
224,354,94992,5,0,0:0:0:0:
418,223,95182,1,0,0:0:0:0:
287,29,95372,1,0,0:0:0:0:
93,160,95562,1,0,0:0:0:0:
224,354,95752,1,0,0:0:0:0:
86,64,95942,5,8,0:0:0:0:
110,356,96132,2,0,L|102:252,1,97.50000371933,0|0,0:0|0:0,0:0:0:0:
85,50,96322,1,0,0:0:0:0:
110,356,96512,1,0,0:0:0:0:
426,64,96701,5,8,0:0:0:0:
402,356,96891,2,0,L|410:252,1,97.50000371933,0|0,0:0|0:0,0:0:0:0:
427,50,97081,1,0,0:0:0:0:
402,356,97271,1,0,0:0:0:0:
86,64,97461,5,8,0:0:0:0:
110,356,97651,2,0,L|102:252,1,97.50000371933,0|0,0:0|0:0,0:0:0:0:
85,50,97841,1,0,0:0:0:0:
256,312,98031,5,0,0:0:0:0:
172,0,98220,1,0,0:0:0:0:
370,139,98410,2,0,L|362:239,1,97.50000371933,0|0,0:0|0:0,0:0:0:0:
232,312,98600,2,0,B|208:276|208:276|220:122,1,195.00000743866,0|0,0:0|0:0,0:0:0:0:
388,128,98885,1,0,0:0:0:0:
396,108,98979,2,0,P|324:64|248:132,1,195.00000743866,0|0,0:0|0:0,0:0:0:0:
291,267,99359,6,0,B|309:310|367:315|367:315|277:370|179:363|92:285,1,390.00001487732,0|0,0:0|0:0,0:0:0:0:
162,45,99929,2,0,B|200:48|226:13|226:13|194:229,1,292.50001115799,0|0,0:0|0:0,0:0:0:0:
125,161,100309,2,0,P|234:142|167:321,1,390.00001487732,0|0,0:0|0:0,0:0:0:0:
194,228,100783,1,0,0:0:0:0:
208,216,100878,2,0,P|252:204|304:232,1,97.50000371933,0|0,0:0|0:0,0:0:0:0:
448,324,101068,2,0,P|404:336|480:220,1,390.00001487732,0|0,0:0|0:0,0:0:0:0:
192,348,101638,2,0,P|132:240|400:276,1,585.00002231598,0|0,0:0|0:0,0:0:0:0:
216,332,102397,5,8,0:0:0:0:
100,56,102587,1,0,0:0:0:0:
68,384,102777,5,8,0:0:0:0:
264,0,102967,1,0,0:0:0:0:
216,332,103157,5,8,0:0:0:0:
153,320,103251,1,0,0:0:0:0:
116,268,103346,1,8,0:0:0:0:
125,205,103441,1,0,0:0:0:0:
175,166,103536,1,8,0:0:0:0:
238,172,103631,1,0,0:0:0:0:
280,220,103726,1,8,0:0:0:0:
296,376,103916,5,8,0:0:0:0:
176,36,104106,1,0,0:0:0:0:
409,147,104296,5,8,0:0:0:0:
69,267,104486,1,0,0:0:0:0:
349,96,104676,6,2,P|469:92|477:184,1,221.000004215241
364,276,104961,1,0,0:0:0:0:
360,292,105055,2,2,B|285:291|260:336|260:336|220:288|148:292,1,221.000004215241
80,168,105340,1,0,0:0:0:0:
61,175,105435,2,2,P|38:123|161:61,1,221.000004215241
179,183,105815,2,0,P|135:195|79:167,1,110.50000210762,0|0,0:0|0:0,0:0:0:0:
152,55,106005,2,2,P|259:69|306:166,1,221.000004215241
196,336,106385,1,0,0:0:0:0:
108,192,106574,5,8,0:0:0:0:
444,272,106764,1,0,0:0:0:0:
64,288,106954,5,8,0:0:0:0:
444,188,107144,1,0,0:0:0:0:
28,144,107334,5,8,0:0:0:0:
508,312,107524,1,0,0:0:0:0:
8,357,107714,6,2,B|0:189|0:189|36:129,1,221.000004215241
216,44,107998,1,0,0:0:0:0:
239,51,108093,2,2,P|171:99|63:23,1,221.000004215241
216,44,108378,1,0,0:0:0:0:
240,52,108473,6,2,P|280:124|188:224,1,221.000004215241
180,137,108853,2,0,P|224:137|276:177,1,110.50000210762,0|0,0:0|0:0,0:0:0:0:
171,302,109043,2,2,P|114:217|193:134,1,221.000004215241
432,92,109423,1,0,0:0:0:0:
152,144,109612,1,8,0:0:0:0:
336,360,109802,1,0,0:0:0:0:
256,60,109992,1,8,0:0:0:0:
236,56,110087,1,0,0:0:0:0:
216,60,110182,1,8,0:0:0:0:
196,68,110277,1,0,0:0:0:0:
172,68,110372,2,0,P|118:83|56:60,1,110.50000210762,0|0,0:0|0:0,0:0:0:0:
340,316,110562,2,0,P|394:301|456:324,1,110.50000210762,0|0,0:0|0:0,0:0:0:0:
195,375,110752,6,2,B|158:317|184:263|184:263|151:226|151:226|152:171,1,221.000004215241
284,204,111036,1,0,0:0:0:0:
300,196,111131,2,0,L|310:83,1,110.50000210762,0|0,0:0|0:0,0:0:0:0:
470,329,111321,2,2,B|450:158|450:158|410:123|410:123,1,221.000004215241
98,288,111701,2,2,P|77:179|127:60,1,221.000004215241
300,196,112081,6,2,B|318:121|382:109|382:109|305:43|218:43|152:106|120:199|146:260|203:358|311:366|409:280,1,663.000012645722
284,184,112745,1,0,0:0:0:0:
268,173,112840,2,0,L|144:165,1,110.50000210762,0|0,0:0|0:0,0:0:0:0:
166,56,113030,2,0,L|55:63,1,110.50000210762,0|0,0:0|0:0,0:0:0:0:
394,191,113220,2,0,L|283:183,1,110.50000210762,0|0,0:0|0:0,0:0:0:0:
221,282,113410,2,0,L|110:289,1,110.50000210762,0|0,0:0|0:0,0:0:0:0:
477,350,113600,2,0,L|367:343,1,110.50000210762,0|0,0:0|0:0,0:0:0:0:
160,88,113790,5,8,0:0:0:0:
356,200,113979,1,0,0:0:0:0:
88,140,114169,5,8,0:0:0:0:
400,24,114359,1,0,0:0:0:0:
120,252,114549,5,8,0:0:0:0:
488,300,114739,1,0,0:0:0:0:
64,168,114929,5,8,0:0:0:0:
480,96,115119,1,0,0:0:0:0:
224,328,115309,5,8,0:0:0:0:
148,4,115498,1,0,0:0:0:0:
348,384,115688,2,0,L|360:264,1,110.50000210762,0|0,0:0|0:0,0:0:0:0:
392,0,115878,2,0,L|381:109,1,110.50000210762,0|0,0:0|0:0,0:0:0:0:
360,256,116068,1,0,0:0:0:0:
244,124,116258,5,8,0:0:0:0:
202,89,116352,1,0,0:0:0:0:
148,88,116447,1,8,0:0:0:0:
105,121,116542,1,0,0:0:0:0:
92,173,116637,1,8,0:0:0:0:
114,222,116732,1,0,0:0:0:0:
163,247,116828,6,2,P|288:256|328:180,1,221.000004215241
232,180,117112,1,0,0:0:0:0:
219,188,117207,2,2,P|200:315|261:391,1,221.000004215241
406,249,117587,6,2,B|527:110|441:-5|441:-5|356:9|344:109,1,442.000008430481
106,249,118157,2,2,B|-15:110|71:-5|71:-5|156:9|168:109,1,442.000008430481
234,237,118631,1,0,0:0:0:0:
222,257,118726,6,0,P|182:277|110:257,1,110.50000210762,0|0,0:0|0:0,0:0:0:0:
113,162,118916,2,0,P|93:122|113:50,1,110.50000210762,0|0,0:0|0:0,0:0:0:0:
224,47,119106,2,0,P|264:27|336:47,1,110.50000210762,0|0,0:0|0:0,0:0:0:0:
329,151,119296,2,0,P|349:191|329:263,1,110.50000210762,0|0,0:0|0:0,0:0:0:0:
233,366,119486,6,0,L|221:254,1,110.50000210762,0|0,0:0|0:0,0:0:0:0:
101,271,119676,2,0,L|113:159,1,110.50000210762,0|0,0:0|0:0,0:0:0:0:
459,332,119866,6,2,B|475:276|475:276|451:108,1,221.000004215241
344,188,120150,1,0,0:0:0:0:
319,178,120245,2,0,L|307:62,1,110.50000210762,0|0,0:0|0:0,0:0:0:0:
184,288,120435,2,0,L|196:172,1,110.50000210762,0|0,0:0|0:0,0:0:0:0:
401,333,120625,6,2,B|522:194|436:79|436:79|351:93|339:193,1,442.000008430481
111,333,121195,2,2,B|-10:194|76:79|76:79|161:93|173:193,1,442.000008430481
479,233,121764,6,2,B|449:277|394:275|394:275|339:316|308:310|232:299|201:254|231:185|273:162|323:168|372:232|361:283|276:341|205:324|205:324|159:352|110:332,1,663.000012645722
56,256,122429,1,0,0:0:0:0:
40,240,122524,2,0,P|32:184|52:128,1,110.50000210762,0|0,0:0|0:0,0:0:0:0:
240,12,122714,2,0,P|248:68|228:124,1,110.50000210762,0|0,0:0|0:0,0:0:0:0:
136,256,122904,5,8,0:0:0:0:
396,184,123093,1,0,0:0:0:0:
184,124,123283,5,8,0:0:0:0:
452,248,123473,1,0,0:0:0:0:
108,232,123663,5,8,0:0:0:0:
408,320,123853,1,0,0:0:0:0:
48,384,124043,5,8,0:0:0:0:
452,248,124233,1,0,0:0:0:0:
76,152,124423,5,8,0:0:0:0:
408,320,124612,1,0,0:0:0:0:
128,328,124802,5,8,0:0:0:0:
496,176,124992,1,0,0:0:0:0:
40,248,125182,5,8,0:0:0:0:
408,320,125372,1,0,0:0:0:0:
56,104,125562,5,8,0:0:0:0:
512,24,125752,1,0,0:0:0:0:
124,280,125942,5,8,0:0:0:0:
316,4,126131,1,0,0:0:0:0:
272,324,126321,1,0,0:0:0:0:
168,56,126511,1,0,0:0:0:0:
284,336,126701,5,8,0:0:0:0:
404,116,126891,1,0,0:0:0:0:
168,272,127081,1,0,0:0:0:0:
512,188,127271,1,0,0:0:0:0:
308,224,127461,5,8,0:0:0:0:
265,190,127555,1,0,0:0:0:0:
259,136,127650,1,8,0:0:0:0:
293,94,127745,1,0,0:0:0:0:
346,88,127840,1,8,0:0:0:0:
388,122,127935,1,0,0:0:0:0:
394,175,128030,1,8,0:0:0:0:
280,364,128220,5,8,0:0:0:0:
160,40,128410,1,0,0:0:0:0:
85,384,128600,2,2,B|61:324|61:324|70:262|70:262|66:253|66:253|72:245|72:245|85:160,1,221.000004215241
160,40,128979,5,8,0:0:0:0:
204,8,129073,1,0,0:0:0:0:
259,7,129168,1,0,0:0:0:0:
306,37,129263,1,0,0:0:0:0:
327,87,129358,1,8,0:0:0:0:
318,141,129453,1,0,0:0:0:0:
279,180,129548,1,0,0:0:0:0:
226,192,129643,1,0,0:0:0:0:
173,183,129739,5,8,0:0:0:0:
120,195,129834,1,0,0:0:0:0:
81,234,129929,1,0,0:0:0:0:
72,288,130024,1,0,0:0:0:0:
93,338,130119,1,8,0:0:0:0:
140,368,130214,1,0,0:0:0:0:
195,367,130309,1,0,0:0:0:0:
240,336,130403,1,0,0:0:0:0:
261,286,130498,6,0,P|273:236|250:187,1,97.50000371933
104,56,130688,2,0,P|92:106|115:155,1,97.50000371933,0|0,0:0|0:0,0:0:0:0:
408,328,130878,2,0,P|420:278|397:229,1,97.50000371933,0|0,0:0|0:0,0:0:0:0:
269,0,131068,2,0,P|257:50|280:99,1,97.50000371933,0|0,0:0|0:0,0:0:0:0:
512,384,131258,6,0,P|524:334|501:285,1,97.50000371933,0|0,0:0|0:0,0:0:0:0:
38,109,131448,2,0,P|26:159|49:208,1,97.50000371933,0|0,0:0|0:0,0:0:0:0:
403,148,131638,2,0,P|415:98|392:49,1,97.50000371933,0|0,0:0|0:0,0:0:0:0:
187,239,131828,2,0,P|175:289|198:338,1,97.50000371933,0|0,0:0|0:0,0:0:0:0:
459,225,132017,5,8,0:0:0:0:
490,180,132111,1,0,0:0:0:0:
491,125,132206,1,0,0:0:0:0:
461,78,132301,1,0,0:0:0:0:
411,57,132396,1,8,0:0:0:0:
357,66,132491,1,0,0:0:0:0:
318,105,132586,1,0,0:0:0:0:
306,158,132681,1,0,0:0:0:0:
316,212,132777,5,8,0:0:0:0:
304,265,132872,1,0,0:0:0:0:
265,304,132967,1,0,0:0:0:0:
211,313,133062,1,0,0:0:0:0:
161,292,133157,1,8,0:0:0:0:
131,245,133252,1,0,0:0:0:0:
132,190,133347,1,0,0:0:0:0:
163,145,133441,1,0,0:0:0:0:
211,123,133536,6,0,P|256:116|304:136,1,97.50000371933,0|0,0:0|0:0,0:0:0:0:
161,292,133726,2,0,P|116:299|68:279,1,97.50000371933,0|0,0:0|0:0,0:0:0:0:
56,136,133916,2,0,P|49:91|69:43,1,97.50000371933,0|0,0:0|0:0,0:0:0:0:
304,292,134106,2,0,P|311:337|291:385,1,97.50000371933,0|0,0:0|0:0,0:0:0:0:
161,40,134296,6,0,P|206:33|254:53,1,97.50000371933,0|0,0:0|0:0,0:0:0:0:
232,329,134486,2,0,P|187:336|139:316,1,97.50000371933,0|0,0:0|0:0,0:0:0:0:
53,224,134676,2,0,P|46:179|66:131,1,97.50000371933,0|0,0:0|0:0,0:0:0:0:
342,153,134866,2,0,P|349:198|329:246,1,97.50000371933,0|0,0:0|0:0,0:0:0:0:
238,39,135055,5,8,0:0:0:0:
301,42,135149,1,0,0:0:0:0:
344,88,135244,1,0,0:0:0:0:
341,152,135339,1,0,0:0:0:0:
270,184,135435,5,8,0:0:0:0:
273,120,135529,1,0,0:0:0:0:
319,77,135624,1,0,0:0:0:0:
383,80,135719,1,0,0:0:0:0:
341,152,135815,5,8,0:0:0:0:
277,149,135909,1,0,0:0:0:0:
234,103,136004,1,0,0:0:0:0:
237,39,136099,1,0,0:0:0:0:
319,77,136195,5,8,0:0:0:0:
316,141,136289,1,0,0:0:0:0:
270,184,136384,1,0,0:0:0:0:
206,181,136479,1,0,0:0:0:0:
162,140,136574,6,0,P|112:134|72:162,3,97.50000371933,0|0|0|0,0:0|0:0|0:0|0:0,0:0:0:0:
270,184,136954,2,0,P|320:178|360:206,3,97.50000371933,0|0|0|0,0:0|0:0|0:0|0:0,0:0:0:0:
87,280,137334,2,0,P|37:274|-3:302,3,97.50000371933,0|0|0|0,0:0|0:0|0:0|0:0,0:0:0:0:
288,366,137714,2,0,P|338:360|378:388,3,97.50000371933,0|0|0|0,0:0|0:0|0:0|0:0,0:0:0:0:
200,297,138093,6,0,P|183:250|192:197,1,97.50000371933,0|0,0:0|0:0,0:0:0:0:
97,192,138283,2,0,P|118:146|162:115,1,97.50000371933,0|0,0:0|0:0,0:0:0:0:
312,297,138473,2,0,P|329:250|320:197,1,97.50000371933,0|0,0:0|0:0,0:0:0:0:
415,192,138663,2,0,P|393:146|349:115,1,97.50000371933,0|0,0:0|0:0,0:0:0:0:
9,157,138853,6,0,L|25:257,1,97.50000371933,0|0,0:0|0:0,0:0:0:0:
487,253,139043,2,0,L|503:157,1,97.50000371933,0|0,0:0|0:0,0:0:0:0:
141,224,139233,2,0,L|157:324,1,97.50000371933,0|0,0:0|0:0,0:0:0:0:
355,320,139423,2,0,L|371:224,1,97.50000371933,0|0,0:0|0:0,0:0:0:0:
187,109,139612,6,0,P|137:99|84:116,1,97.50000371933,0|0,0:0|0:0,0:0:0:0:
325,109,139802,2,0,P|375:99|428:116,1,97.50000371933,0|0,0:0|0:0,0:0:0:0:
94,26,139992,2,0,P|44:16|-9:33,1,97.50000371933,0|0,0:0|0:0,0:0:0:0:
418,26,140182,2,0,P|468:16|521:33,1,97.50000371933,0|0,0:0|0:0,0:0:0:0:
287,84,140372,5,8,0:0:0:0:
250,118,140466,1,0,0:0:0:0:
244,167,140561,1,8,0:0:0:0:
271,210,140656,1,0,0:0:0:0:
317,231,140752,1,8,0:0:0:0:
354,265,140846,1,0,0:0:0:0:
360,314,140941,1,8,0:0:0:0:
333,357,141036,1,0,0:0:0:0:
280,364,141131,6,2,B|240:352|213:384|213:384|168:320|103:330,1,195.00000743866
40,272,141416,1,0,0:0:0:0:
24,256,141511,2,0,L|12:152,1,97.50000371933
96,104,141701,6,0,P|106:58|115:104,1,130
126,86,141891,6,0,P|136:40|145:86,1,130
170,87,142081,6,0,P|180:41|189:87,1,130
203,70,142271,6,0,P|213:24|222:70,1,130
243,57,142461,6,0,P|253:11|262:57,1,130
286,59,142650,6,0,P|296:13|305:59,1,130
331,66,142840,6,0,P|341:20|350:66,1,130
452,212,143030,6,0,B|411:162|411:162|387:228,1,130
405,195,143220,6,0,B|364:145|364:145|340:211,1,130
364,216,143410,6,0,B|323:166|323:166|299:232,1,130
317,211,143600,6,0,B|276:161|276:161|252:227,1,130
275,228,143790,6,0,B|234:178|234:178|210:244,1,130
232,216,143980,6,0,B|191:166|191:166|167:232,1,130
80,264,144169,6,2,P|136:316|252:268,1,195.00000743866
312,200,144454,1,0,0:0:0:0:
312,180,144549,2,0,P|317:136|285:94,1,97.50000371933,0|0,0:0|0:0,0:0:0:0:
56,191,144739,6,0,P|55:144|74:187,1,130
82,166,144929,6,0,P|81:119|100:162,1,130
125,156,145119,6,0,P|124:109|143:152,1,130
151,131,145309,6,0,P|150:84|169:127,1,130
187,108,145499,6,0,P|186:61|205:104,1,130
512,260,145688,6,0,B|471:210|471:210|447:276,1,130
465,243,145878,6,0,B|424:193|424:193|400:259,1,130
424,264,146068,6,0,B|383:214|383:214|359:280,1,130
377,259,146258,6,0,B|336:209|336:209|312:275,1,130
335,276,146448,6,0,B|294:226|294:226|270:292,1,130
292,264,146638,6,0,B|251:214|251:214|227:280,1,130
252,299,146828,6,0,B|211:249|211:249|187:315,1,130
201,285,147017,6,0,B|160:235|160:235|136:301,1,130
48,280,147207,6,2,B|24:240|24:240|36:88,1,195.00000743866
148,44,147492,1,0,0:0:0:0:
184,43,147587,6,0,P|204:0|202:47,1,130
227,52,147776,6,0,P|247:9|245:56,1,130
263,75,147966,6,0,P|283:32|281:79,1,130
289,100,148156,6,0,P|309:57|307:104,1,130
331,109,148346,6,0,P|351:66|349:113,1,130
357,134,148536,6,0,P|377:91|375:138,1,130
382,163,148726,6,0,P|405:122|400:169,1,130
399,193,148916,6,0,P|426:154|416:200,1,130
363,276,149106,6,0,B|322:226|322:226|298:292,1,130
321,296,149296,6,0,B|280:246|280:246|256:312,1,130
274,279,149486,6,0,B|233:229|233:229|209:295,1,130
233,300,149676,6,0,B|192:250|192:250|168:316,1,130
186,295,149866,6,0,B|145:245|145:245|121:311,1,130
144,312,150056,6,0,B|103:262|103:262|79:328,1,130,0|0,0:1|0:1,0:1:0:0:
54,172,150245,5,8,0:0:0:0:
85,136,150339,1,0,0:0:0:0:
132,131,150434,1,0,0:0:0:0:
170,160,150529,1,0,0:0:0:0:
184,205,150625,1,8,0:0:0:0:
222,234,150720,1,0,0:0:0:0:
269,229,150815,1,0,0:0:0:0:
300,193,150909,1,0,0:0:0:0:
299,146,151005,5,8,0:0:0:0:
304,173,151099,1,0,0:0:0:0:
309,200,151194,1,0,0:0:0:0:
314,228,151289,1,0,0:0:0:0:
319,255,151384,1,8,0:0:0:0:
324,282,151479,1,0,0:0:0:0:
330,310,151574,1,0,0:0:0:0:
335,337,151669,1,0,0:0:0:0:
339,362,151764,5,8,0:0:0:0:
144,284,151954,5,8,0:0:0:0:
38,124,152144,5,8,0:0:0:0:
134,92,152239,1,0,0:0:0:0:
0,384,152524,5,8,0:0:0:0:
204,32,152714,5,8,0:0:0:0:
195,223,152904,5,8,0:0:0:0:
167,262,152998,1,0,0:0:0:0:
166,310,153093,1,8,0:0:0:0:
193,350,153188,1,0,0:0:0:0:
236,368,153283,6,2,P|300:356|316:232,1,195.00000743866
269,127,153568,1,0,0:0:0:0:
257,111,153663,2,0,P|265:61|310:25,1,97.50000371933,0|0,0:0|0:0,0:0:0:0:
195,223,153853,2,0,P|131:227|83:115,1,195.00000743866,0|0,0:0|0:0,0:0:0:0:
196,28,154233,1,0,0:0:0:0:
176,318,154423,2,0,L|196:212,1,97.50000371933,0|0,0:0|0:0,0:0:0:0:
324,0,154612,1,0,0:0:0:0:
328,20,154707,1,0,0:0:0:0:
332,40,154802,6,0,L|312:136,1,97.50000371933,0|0,0:0|0:0,0:0:0:0:
419,354,154992,2,0,L|399:258,1,97.50000371933,0|0,0:0|0:0,0:0:0:0:
252,72,155182,1,0,0:0:0:0:
94,290,155372,2,0,B|148:274|186:319|186:319|230:285|298:310,1,195.00000743866,0|0,0:0|0:0,0:0:0:0:
376,48,155752,1,0,0:0:0:0:
272,324,155942,1,0,0:0:0:0:
172,84,156131,1,0,0:0:0:0:
408,217,156321,6,0,B|441:121|441:121|396:29,1,195.00000743866,0|0,0:0|0:0,0:0:0:0:
280,32,156606,1,0,0:0:0:0:
256,12,156701,2,0,L|48:4,1,195.00000743866,0|0,0:0|0:0,0:0:0:0:
128,272,157081,5,8,0:0:0:0:
208,28,157271,1,0,0:0:0:0:
212,356,157461,5,8,0:0:0:0:
292,112,157651,1,0,0:0:0:0:
345,343,157840,5,8,0:0:0:0:
425,99,158030,1,0,0:0:0:0:
284,244,158220,5,8,0:0:0:0:
204,0,158410,1,0,0:0:0:0:
0,384,158600,1,0,0:0:0:0:
80,140,158790,6,0,L|64:36,1,97.50000371933,0|0,0:0|0:0,0:0:0:0:
173,194,158979,2,0,L|189:90,1,97.50000371933,0|0,0:0|0:0,0:0:0:0:
242,278,159169,2,0,L|294:190,1,97.50000371933,0|0,0:0|0:0,0:0:0:0:
460,65,159359,6,0,B|432:29|432:29|282:35,1,195.00000743866
62,77,159644,1,0,0:0:0:0:
38,97,159739,2,0,B|66:133|66:133|216:127,1,195.00000743866,0|0,0:0|0:0,0:0:0:0:
452,116,160119,1,8,0:0:0:0:
184,128,160309,1,0,0:0:0:0:
344,344,160498,1,8,0:0:0:0:
183,44,160688,1,0,0:0:0:0:
116,344,160878,6,0,P|95:300|108:236,1,97.50000371933,0|0,0:0|0:0,0:0:0:0:
245,187,161068,2,0,P|266:143|146:52,1,195.00000743866,0|0,0:0|0:0,0:0:0:0:
187,259,161448,2,0,B|309:303|255:223|387:263,1,195.00000743866,0|0,0:0|0:0,0:0:0:0:
135,322,161828,2,0,P|110:280|119:210,1,97.50000371933,0|0,0:0|0:0,0:0:0:0:
135,322,162018,2,0,P|110:280|119:210,1,97.50000371933,0|0,0:0|0:0,0:0:0:0:
326,162,162207,2,0,P|351:120|342:50,1,97.50000371933,0|0,0:0|0:0,0:0:0:0:
149,86,162397,6,0,P|77:154|141:246,1,195.00000743866,0|0,0:0|0:0,0:0:0:0:
212,276,162682,1,0,0:0:0:0:
227,295,162777,2,0,B|369:311|369:311|439:279,1,195.00000743866,0|0,0:0|0:0,0:0:0:0:
276,40,163157,1,8,0:0:0:0:
240,316,163347,1,0,0:0:0:0:
160,80,163536,1,8,0:0:0:0:
240,316,163726,1,0,0:0:0:0:
270,176,163916,6,2,P|165:254|165:78,1,390.00001487732
296,60,164866,5,0,0:0:0:0:
324,64,164961,1,0,0:0:0:0:
348,80,165055,2,0,L|368:184,1,97.50000371933,0|0,0:0|0:0,0:0:0:0:
224,340,165245,2,0,L|242:244,1,97.50000371933,0|0,0:0|0:0,0:0:0:0:
380,160,165435,6,0,P|448:224|404:300,1,195.00000743866,0|0,0:0|0:0,0:0:0:0:
220,256,165720,1,0,0:0:0:0:
200,248,165815,2,0,L|192:140,1,97.50000371933,0|0,0:0|0:0,0:0:0:0:
56,196,166005,2,0,L|76:-16,1,195.00000743866,0|0,0:0|0:0,0:0:0:0:
200,248,166385,6,0,L|190:353,1,97.50000371933,0|0,0:0|0:0,0:0:0:0:
338,163,166574,2,0,L|347:65,1,97.50000371933,0|0,0:0|0:0,0:0:0:0:
416,380,166764,1,0,0:0:0:0:
84,179,166954,2,0,B|56:147|56:147|208:155,1,195.00000743866,0|0,0:0|0:0,0:0:0:0:
218,269,167334,2,0,L|322:261,1,97.50000371933,0|0,0:0|0:0,0:0:0:0:
261,98,167524,2,0,P|146:110|145:194,1,195.00000743866,0|0,0:0|0:0,0:0:0:0:
214,345,167904,5,0,0:0:0:0:
409,233,168093,1,0,0:0:0:0:
297,38,168283,2,0,L|288:140,1,97.50000371933,0|0,0:0|0:0,0:0:0:0:
102,150,168473,2,0,B|76:0|76:0|52:68,1,195.00000743866,0|0,0:0|0:0,0:0:0:0:
468,92,168853,5,8,0:0:0:0:
444,384,169043,2,0,L|452:280,1,97.50000371933,0|0,0:0|0:0,0:0:0:0:
469,78,169233,1,0,0:0:0:0:
444,384,169423,1,0,0:0:0:0:
314,43,169612,5,8,0:0:0:0:
290,335,169802,2,0,L|298:231,1,97.50000371933,0|0,0:0|0:0,0:0:0:0:
315,29,169992,1,0,0:0:0:0:
290,335,170182,1,0,0:0:0:0:
157,83,170372,5,8,0:0:0:0:
133,375,170562,2,0,L|141:271,1,97.50000371933,0|0,0:0|0:0,0:0:0:0:
158,69,170752,1,0,0:0:0:0:
416,240,170942,5,8,0:0:0:0:
133,375,171131,1,8,0:0:0:0:
158,69,171321,1,0,0:0:0:0:
416,240,171511,6,0,B|260:272|260:272|216:264,1,195.00000743866,0|0,0:0|0:0,0:0:0:0:
152,192,171796,1,0,0:0:0:0:
128,184,171891,2,0,P|80:224|132:344,1,195.00000743866,0|0,0:0|0:0,0:0:0:0:
316,205,172271,6,0,P|322:157|296:109,1,97.50000371933,0|0,0:0|0:0,0:0:0:0:
237,256,172461,2,0,P|379:268|295:114,1,390.00001487732
161,221,173030,6,0,P|155:269|181:317,1,97.50000371933,0|0,0:0|0:0,0:0:0:0:
240,170,173220,2,0,P|98:158|182:312,1,390.00001487732,0|0,0:0|0:0,0:0:0:0:
337,351,173790,5,8,0:0:0:0:
415,110,173979,1,0,0:0:0:0:
174,32,174169,1,0,0:0:0:0:
96,273,174359,1,0,0:0:0:0:
415,110,174549,5,8,0:0:0:0:
174,32,174739,1,0,0:0:0:0:
337,351,174929,1,0,0:0:0:0:
96,273,175119,1,0,0:0:0:0:
447,114,175309,5,8,0:0:0:0:
178,0,175499,1,0,0:0:0:0:
333,383,175689,1,0,0:0:0:0:
63,269,175879,1,0,0:0:0:0:
447,114,176068,5,8,0:0:0:0:
487,139,176162,1,0,0:0:0:0:
500,185,176257,1,8,0:0:0:0:
479,228,176352,1,0,0:0:0:0:
435,246,176447,1,8,0:0:0:0:
390,230,176542,1,0,0:0:0:0:
367,188,176637,1,8,0:0:0:0:
252,64,176828,5,8,0:0:0:0:
191,42,176922,1,0,0:0:0:0:
132,64,177017,1,8,0:0:0:0:
100,120,177112,1,8,0:0:0:0:
112,182,177207,1,8,0:0:0:0:
161,223,177302,5,0,0:0:0:0:
188,236,177397,1,8,0:0:0:0:
196,264,177492,1,0,0:0:0:0:
180,292,177587,6,2,P|94:248|141:154,1,221.000004215241
312,132,177872,1,0,0:0:0:0:
331,148,177967,2,2,P|417:104|370:10,1,221.000004215241
224,96,178252,1,0,0:0:0:0:
229,114,178347,2,0,L|221:230,1,110.50000210762,0|0,0:0|0:0,0:0:0:0:
365,185,178536,2,0,L|373:301,1,110.50000210762,0|0,0:0|0:0,0:0:0:0:
87,240,178726,2,0,L|79:356,1,110.50000210762,0|0,0:0|0:0,0:0:0:0:
464,64,178916,2,2,B|468:154|468:154|495:177|495:177|500:294,1,221.000004215241
288,188,179296,1,0,0:0:0:0:
452,344,179486,5,8,0:0:0:0:
348,48,179676,1,0,0:0:0:0:
360,296,179866,1,8,0:0:0:0:
188,8,180055,1,0,0:0:0:0:
284,352,180245,1,8,0:0:0:0:
376,52,180435,1,0,0:0:0:0:
240,275,180625,6,2,B|204:311|204:311|28:303,1,221.000004215241
64,153,180910,1,0,0:0:0:0:
83,142,181005,2,2,P|123:210|41:325,1,221.000004215241
152,208,181290,1,0,0:0:0:0:
172,185,181385,2,2,L|408:201,1,221.000004215241
97,61,181764,2,0,L|209:49,1,110.50000210762,0|0,0:0|0:0,0:0:0:0:
341,284,181954,2,2,P|461:276|491:180,1,221.000004215241
232,52,182334,1,0,0:0:0:0:
328,312,182524,5,8,0:0:0:0:
452,44,182714,1,0,0:0:0:0:
216,64,182904,1,8,0:0:0:0:
352,330,183093,2,0,L|340:217,1,110.50000210762,0|0,0:0|0:0,0:0:0:0:
196,52,183283,2,0,L|184:161,1,110.50000210762,0|0,0:0|0:0,0:0:0:0:
160,384,183473,1,0,0:0:0:0:
372,224,183663,6,2,B|392:184|392:184|364:8,1,221.000004215241
176,44,183948,1,0,0:0:0:0:
152,56,184043,2,2,P|128:128|240:196,1,221.000004215241
352,8,184423,1,8,0:0:0:0:
248,344,184612,1,0,0:0:0:0:
163,40,184802,1,8,0:0:0:0:
268,368,184992,6,2,B|351:423|429:322|464:316|499:339|499:339|472:373|427:377|376:336|360:303|381:249,1,442.000008430481,2|2,0:3|0:3,0:3:0:0:
396,180,185467,1,0,0:0:0:0:
408,172,185562,2,2,P|424:120|296:64,1,221.000004215241
200,296,185942,1,8,0:0:0:0:
80,0,186131,1,0,0:0:0:0:
208,280,186321,1,8,0:0:0:0:
275,35,186511,2,0,L|259:151,1,110.50000210762,0|0,0:0|0:0,0:0:0:0:
216,376,186701,5,10,0:0:0:0:
144,136,186891,1,0,0:0:0:0:
208,355,187081,5,8,0:0:0:0:
136,115,187271,1,0,0:0:0:0:
345,301,187461,5,8,0:0:0:0:
417,61,187651,1,0,0:0:0:0:
353,280,187841,5,8,0:0:0:0:
425,40,188031,1,0,0:0:0:0:
209,53,188220,5,8,0:0:0:0:
147,56,188314,1,0,0:0:0:0:
86,59,188409,1,0,0:0:0:0:
25,62,188504,1,0,0:0:0:0:
56,80,188600,5,8,0:0:0:0:
74,111,188694,1,0,0:0:0:0:
77,148,188789,1,0,0:0:0:0:
64,182,188884,1,0,0:0:0:0:
44,194,188979,5,8,0:0:0:0:
31,215,189073,1,0,0:0:0:0:
29,241,189168,1,8,0:0:0:0:
38,265,189263,1,0,0:0:0:0:
44,275,189359,5,8,0:0:0:0:
48,287,189454,1,0,0:0:0:0:
47,300,189549,1,8,0:0:0:0:
41,310,189643,1,0,0:0:0:0:
26,321,189739,6,0,L|136:332,1,110.50000210762,0|0,0:0|0:0,0:0:0:0:
442,244,189929,2,0,L|332:255,1,110.50000210762,0|0,0:0|0:0,0:0:0:0:
104,167,190119,2,0,L|214:178,1,110.50000210762,0|0,0:0|0:0,0:0:0:0:
356,84,190309,2,0,L|246:95,1,110.50000210762,0|0,0:0|0:0,0:0:0:0:
332,254,190498,6,2,P|399:191|353:83,1,221.000004215241
256,223,190878,2,0,P|252:271|292:327,1,110.50000210762,0|0,0:0|0:0,0:0:0:0:
246,94,191068,2,2,P|146:46|74:118,1,221.000004215241
70,280,191448,6,0,L|81:225,3,55.2500010538101
55,211,191638,2,0,P|36:160|63:99,1,110.50000210762
254,324,191828,2,0,P|273:273|246:212,1,110.50000210762,0|0,0:0|0:0,0:0:0:0:
172,64,192017,1,8,0:0:0:0:
264,332,192207,1,0,0:0:0:0:
416,36,192397,1,8,0:0:0:0:
152,84,192587,1,0,0:0:0:0:
429,224,192777,6,2,P|465:140|385:36,1,221.000004215241
259,64,193062,1,0,0:0:0:0:
251,80,193157,2,2,B|149:114|149:114|43:72,1,221.000004215241
152,136,193442,1,0,0:0:0:0:
136,152,193536,6,2,B|111:313|111:313|141:378,1,221.000004215241
360,205,193916,2,0,L|340:93,1,110.50000210762,0|0,0:0|0:0,0:0:0:0:
287,244,194106,2,2,P|412:267|440:191,1,221.000004215241
216,32,194486,1,0,0:0:0:0:
80,164,194676,2,2,B|39:172|3:218|7:265|7:265|38:296|87:327|126:305|140:245|97:218|47:237|8:310|25:353|75:383,1,442.000008430481
363,306,195245,1,0,0:0:0:0:
288,20,195435,1,8,0:0:0:0:
0,98,195625,1,0,0:0:0:0:
160,308,195815,5,8,0:0:0:0:
96,44,196005,1,0,0:0:0:0:
240,340,196195,5,8,0:0:0:0:
204,88,196385,1,0,0:0:0:0:
316,304,196574,5,8,0:0:0:0:
304,132,196764,1,0,0:0:0:0:
204,344,196954,5,8,0:0:0:0:
192,56,197144,1,0,0:0:0:0:
96,384,197334,5,8,0:0:0:0:
40,0,197524,1,0,0:0:0:0:
416,384,197714,5,8,0:0:0:0:
472,0,197904,1,0,0:0:0:0:
56,192,198093,5,8,0:0:0:0:
440,136,198283,1,0,0:0:0:0:
36,193,198473,5,8,0:0:0:0:
284,376,198663,1,8,0:0:0:0:
292,344,198758,1,0,0:0:0:0:
300,312,198853,5,8,0:0:0:0:
380,32,199043,1,0,0:0:0:0:
292,344,199233,1,8,0:0:0:0:
480,136,199423,1,0,0:0:0:0:
212,312,199612,5,8,0:0:0:0:
132,32,199802,1,0,0:0:0:0:
220,344,199992,1,8,0:0:0:0:
32,136,200182,1,0,0:0:0:0:
220,344,200372,1,8,0:0:0:0:
172,160,200562,5,8,0:0:0:0:
159,107,200656,1,0,0:0:0:0:
188,62,200751,1,8,0:0:0:0:
240,52,200846,1,0,0:0:0:0:
282,87,200942,1,8,0:0:0:0:
334,90,201037,1,0,0:0:0:0:
374,54,201132,5,8,0:0:0:0:
376,0,201226,1,0,0:0:0:0:
321,0,201321,1,8,0:0:0:0:
294,47,201415,1,0,0:0:0:0:
311,98,201510,5,8,0:0:0:0:
358,121,201605,1,0,0:0:0:0:
408,98,201701,1,8,0:0:0:0:
459,109,201796,1,0,0:0:0:0:
488,154,201891,6,0,L|480:272,1,110.50000210762,0|0,0:0|0:0,0:0:0:0:
310,97,202081,2,0,L|318:208,1,110.50000210762,0|0,0:0|0:0,0:0:0:0:
150,384,202271,2,0,P|132:337|150:268,1,110.50000210762,0|0,0:0|0:0,0:0:0:0:
318,208,202461,2,0,P|336:255|318:324,1,110.50000210762,0|0,0:0|0:0,0:0:0:0:
59,82,202650,2,2,P|115:50|171:166,1,221.000004215241
283,42,203030,2,0,L|392:55,1,110.50000210762,0|0,0:0|0:0,0:0:0:0:
317,217,203220,2,2,P|197:233|181:145,1,221.000004215241
392,36,203600,1,0,0:0:0:0:
460,344,203790,5,8,0:0:0:0:
328,100,203979,1,0,0:0:0:0:
338,323,204169,5,8,0:0:0:0:
227,68,204358,1,0,0:0:0:0:
16,384,204549,5,8,0:0:0:0:
127,129,204738,1,0,0:0:0:0:
243,384,204929,2,2,B|255:200|255:200|223:152,1,221.000004215241
108,112,205214,1,0,0:0:0:0:
104,92,205309,2,2,P|194:21|312:44,1,221.000004215241
412,96,205593,1,0,0:0:0:0:
408,128,205688,2,2,P|323:143|299:26,1,221.000004215241
484,256,206068,2,0,P|440:308|396:308,1,110.50000210762,0|0,0:0|0:0,0:0:0:0:
328,264,206258,2,2,B|263:282|226:236|226:236|184:284|116:280,1,221.000004215241
154,309,206543,1,0,0:0:0:0:
187,314,206638,5,8,0:0:0:0:
183,277,206732,1,0,0:0:0:0:
179,240,206827,1,8,0:0:0:0:
175,204,206922,1,0,0:0:0:0:
170,173,207017,2,0,L|159:60,1,110.50000210762,0|0,0:0|0:0,0:0:0:0:
259,133,207207,2,0,L|267:19,1,110.50000210762,0|0,0:0|0:0,0:0:0:0:
357,107,207397,2,0,L|385:-2,1,110.50000210762,0|0,0:0|0:0,0:0:0:0:
390,325,207587,2,2,B|378:221|378:221|350:197|350:197|342:117,1,221.000004215241
252,152,207872,1,0,0:0:0:0:
240,168,207967,6,2,P|164:176|132:48,1,221.000004215241
226,80,208252,1,0,0:0:0:0:
243,72,208347,2,2,P|312:103|276:229,1,221.000004215241
168,280,208631,1,0,0:0:0:0:
172,304,208726,2,2,B|340:320|340:320|408:284,1,221.000004215241
88,144,209106,1,0,0:0:0:0:
416,101,209296,6,2,B|445:69|485:69|485:69|497:217|454:343|454:343|421:341|379:287,1,442.000008430481
316,188,209771,1,0,0:0:0:0:
288,176,209866,2,0,P|232:160|168:184,1,110.50000210762,0|0,0:0|0:0,0:0:0:0:
331,357,210055,2,0,P|387:373|451:349,1,110.50000210762,0|0,0:0|0:0,0:0:0:0:
379,225,210245,1,8,0:0:0:0:
393,181,210339,1,0,0:0:0:0:
376,139,210434,1,8,0:0:0:0:
336,118,210529,1,0,0:0:0:0:
294,134,210625,1,8,0:0:0:0:
253,112,210720,1,0,0:0:0:0:
237,70,210815,1,8,0:0:0:0:
252,27,210909,1,0,0:0:0:0:
295,12,211005,5,8,0:0:0:0:
504,84,211195,1,0,0:0:0:0:
132,106,211385,5,8,0:0:0:0:
406,140,211575,1,0,0:0:0:0:
16,276,211764,5,8,0:0:0:0:
394,244,211954,1,0,0:0:0:0:
0,0,212144,5,8,0:0:0:0:
512,88,212334,1,0,0:0:0:0:
255,384,212524,6,2,B|194:261|297:283|231:167,1,221.000004215241
144,144,212809,1,0,0:0:0:0:
124,128,212904,2,0,P|110:71|130:26,1,110.50000210762
394,244,213093,2,0,P|408:301|388:346,1,110.50000210762,0|0,0:0|0:0,0:0:0:0:
189,79,213283,1,8,0:0:0:0:
228,40,213377,1,0,0:0:0:0:
279,21,213472,1,8,0:0:0:0:
334,24,213567,1,0,0:0:0:0:
382,49,213662,1,8,0:0:0:0:
417,92,213757,1,0,0:0:0:0:
430,145,213852,1,8,0:0:0:0:
421,199,213947,1,0,0:0:0:0:
391,245,214043,6,0,P|342:265|280:260,1,110.50000210762,0|0,0:0|0:0,0:0:0:0:
207,331,214233,2,0,P|158:309|117:262,1,110.50000210762,0|0,0:0|0:0,0:0:0:0:
120,138,214423,2,0,P|170:119|232:124,1,110.50000210762,0|0,0:0|0:0,0:0:0:0:
305,53,214613,2,0,P|353:74|394:121,1,110.50000210762,0|0,0:0|0:0,0:0:0:0:
66,192,214802,2,2,P|43:140|166:78,1,221.000004215241
184,200,215182,2,0,P|140:212|84:184,1,110.50000210762,0|0,0:0|0:0,0:0:0:0:
157,72,215372,2,2,P|264:86|311:183,1,221.000004215241
256,300,215657,1,0,0:0:0:0:
232,308,215752,6,0,L|116:316,1,110.50000210762,0|0,0:0|0:0,0:0:0:0:
164,210,215942,2,0,L|53:202,1,110.50000210762,0|0,0:0|0:0,0:0:0:0:
311,179,216131,2,0,L|427:187,1,110.50000210762,0|0,0:0|0:0,0:0:0:0:
379,81,216321,2,0,L|489:73,1,110.50000210762,0|0,0:0|0:0,0:0:0:0:
96,8,216511,1,0,0:0:0:0:
452,184,216701,1,8,0:0:0:0:
0,320,216891,1,0,0:0:0:0:
322,87,217081,6,0,B|338:116|371:108|371:108|355:136|367:169|367:169|361:179|361:179|366:190|366:190|347:232|358:281,1,221.000004215241,2|0,0:0|0:0,0:0:0:0:
216,336,217366,1,0,0:0:0:0:
183,351,217461,2,2,B|157:310|157:310|174:136,1,221.000004215241
224,40,217745,1,0,0:0:0:0:
249,43,217840,6,2,P|289:115|197:215,1,221.000004215241
186,129,218220,2,0,P|231:122|287:162,1,110.50000210762,0|0,0:0|0:0,0:0:0:0:
178,295,218410,2,2,P|121:210|200:127,1,221.000004215241
340,352,218790,1,0,0:0:0:0:
369,40,218979,6,2,B|320:20|274:48|274:48|203:31|118:89|107:140|156:204|206:210|248:187|278:118|247:73|171:62|140:56|85:97|85:97|30:95|0:139,1,663.000012645722
56,252,219644,1,0,0:0:0:0:
76,276,219739,2,0,P|112:288|192:268,1,110.50000210762,0|0,0:0|0:0,0:0:0:0:
436,108,219929,2,0,P|400:96|320:116,1,110.50000210762,0|0,0:0|0:0,0:0:0:0:
216,284,220119,6,2,B|264:287|288:328|288:328|336:279|428:304,1,221.000004215241
486,178,220404,1,0,0:0:0:0:
506,168,220498,2,2,P|518:80|412:18,1,221.000004215241
90,103,220878,2,2,B|122:127|122:127|310:115,1,221.000004215241
60,73,221258,2,0,L|56:193,1,110.50000210762,0|0,0:0|0:0,0:0:0:0:
88,21,221448,2,2,L|81:277,1,221.000004215241
265,326,221828,2,2,B|274:221|274:221|293:205|293:205|302:111,1,221.000004215241
168,149,222207,2,2,B|69:137|55:52|55:52|170:-33|309:87,1,442.000008430481
442,324,222777,2,0,P|334:352|230:284,1,221.000004215241,0|0,0:0|0:0,0:0:0:0:
73,11,223157,5,8,0:0:0:0:
428,56,223347,1,0,0:0:0:0:
0,164,223536,5,8,0:0:0:0:
357,146,223726,1,0,0:0:0:0:
0,366,223916,5,8,0:0:0:0:
348,286,224106,1,0,0:0:0:0:
0,66,224296,5,8,0:0:0:0:
512,200,224486,1,0,0:0:0:0:
151,351,224676,6,2,B|107:111|107:111|143:23|143:23|187:39|187:39|163:103,1,442.000008430481
361,351,225435,2,2,B|405:111|405:111|369:23|369:23|325:39|325:39|349:103,1,442.000008430481
92,284,226195,54,2,B|54:138|190:45|190:45|201:101|252:163|392:177|360:416|59:388|52:170|226:133|225:128|273:49|273:49|338:104|384:190|361:249|337:308|337:308|432:226|385:42|385:42|428:66|455:148,1,1560.00005950928,6|2,0:0|0:0,0:0:0:0:
