osu file format v14

[General]
AudioFilename: hallo_freunde_0,9.mp3
AudioLeadIn: 0
PreviewTime: 5078
Countdown: 0
SampleSet: Soft
StackLeniency: 0.7
Mode: 3
LetterboxInBreaks: 0
SpecialStyle: 0
WidescreenStoryboard: 0

[Editor]
Bookmarks: 85883,86228
DistanceSpacing: 0.8
BeatDivisor: 4
GridSize: 4
TimelineZoom: 1.6

[Metadata]
Title:Hallo Freunde HAALLO!!!
TitleUnicode:Hallo Freunde HAALLO!!!
Artist:Slavko Avsenik
ArtistUnicode:Slavko Avsenik
Creator:Veracion
Version:cancerous austrian MX x0,9
Source:
Tags:fuck you retlom 4k dump jacks volksmusik german
BeatmapID:1321994
BeatmapSetID:627347

[Difficulty]
HPDrainRate:8.7
CircleSize:4
OverallDifficulty:6
ApproachRate:0
SliderMultiplier:1.4
SliderTickRate:1

[Events]
//Background and Video events
0,0,"slavko-avsenik.jpg",0,0
//Break Periods
//Storyboard Layer 0 (Background)
//Storyboard Layer 1 (Fail)
//Storyboard Layer 2 (Pass)
//Storyboard Layer 3 (Foreground)
//Storyboard Sound Samples

[TimingPoints]
5194,459.770114942529,4,2,0,10,1,0

[HitObjects]
51,192,5194,5,0,0:0:0:0:
192,192,5194,1,0,0:0:0:0:
320,192,5194,1,0,0:0:0:0:
448,192,5194,1,0,0:0:0:0:
320,192,5308,1,0,0:0:0:0:
192,192,5308,1,0,0:0:0:0:
448,192,5423,1,0,0:0:0:0:
448,192,5653,1,0,0:0:0:0:
448,192,5883,1,0,0:0:0:0:
64,192,6113,1,0,0:0:0:0:
448,192,6113,1,0,0:0:0:0:
192,192,6113,1,0,0:0:0:0:
64,192,6228,1,0,0:0:0:0:
320,192,6343,1,0,0:0:0:0:
448,192,6343,1,0,0:0:0:0:
320,192,6457,1,0,0:0:0:0:
448,192,6573,1,0,0:0:0:0:
448,192,6803,1,0,0:0:0:0:
64,192,7033,1,0,0:0:0:0:
448,192,7033,1,0,0:0:0:0:
192,192,7090,1,0,0:0:0:0:
320,192,7147,1,0,0:0:0:0:
192,192,7205,1,0,0:0:0:0:
448,192,7263,1,0,0:0:0:0:
320,192,7263,1,0,0:0:0:0:
64,192,7263,1,0,0:0:0:0:
192,192,7320,1,0,0:0:0:0:
64,192,7377,1,0,0:0:0:0:
448,192,7492,1,0,0:0:0:0:
448,192,7722,1,0,0:0:0:0:
448,192,7952,1,0,0:0:0:0:
320,192,7952,1,0,0:0:0:0:
320,192,8067,1,0,0:0:0:0:
64,192,8182,1,0,0:0:0:0:
448,192,8182,1,0,0:0:0:0:
64,192,8297,1,0,0:0:0:0:
192,192,8297,1,0,0:0:0:0:
448,192,8412,1,0,0:0:0:0:
448,192,8642,1,0,0:0:0:0:
64,192,8872,1,0,0:0:0:0:
192,192,8930,1,0,0:0:0:0:
320,192,8986,1,0,0:0:0:0:
192,192,9044,1,0,0:0:0:0:
320,192,9102,1,0,0:0:0:0:
448,192,9158,1,0,0:0:0:0:
64,192,9158,1,0,0:0:0:0:
192,192,9216,1,0,0:0:0:0:
320,192,9274,1,0,0:0:0:0:
64,192,9332,1,0,0:0:0:0:
448,192,9332,1,0,0:0:0:0:
192,192,9388,1,0,0:0:0:0:
448,192,9446,1,0,0:0:0:0:
64,192,9446,1,0,0:0:0:0:
320,192,9504,1,0,0:0:0:0:
192,192,9562,1,0,0:0:0:0:
64,192,9618,1,0,0:0:0:0:
448,192,9618,1,0,0:0:0:0:
320,192,9676,1,0,0:0:0:0:
192,192,9734,1,0,0:0:0:0:
64,192,9791,1,0,0:0:0:0:
448,192,9791,1,0,0:0:0:0:
448,192,10021,1,0,0:0:0:0:
192,192,10021,1,0,0:0:0:0:
64,192,10021,1,0,0:0:0:0:
320,192,10136,1,0,0:0:0:0:
192,192,10251,1,0,0:0:0:0:
320,192,10251,1,0,0:0:0:0:
64,192,10366,1,0,0:0:0:0:
448,192,10366,1,0,0:0:0:0:
192,192,10366,1,0,0:0:0:0:
320,192,10481,1,0,0:0:0:0:
64,192,10596,1,0,0:0:0:0:
192,192,10596,1,0,0:0:0:0:
320,192,10596,1,0,0:0:0:0:
64,192,10711,1,0,0:0:0:0:
448,192,10825,1,0,0:0:0:0:
448,192,10941,1,0,0:0:0:0:
448,192,11055,1,0,0:0:0:0:
320,192,11055,1,0,0:0:0:0:
192,192,11055,1,0,0:0:0:0:
64,192,11171,1,0,0:0:0:0:
64,192,11285,1,0,0:0:0:0:
192,192,11285,1,0,0:0:0:0:
320,192,11285,1,0,0:0:0:0:
448,192,11401,1,0,0:0:0:0:
192,192,11515,1,0,0:0:0:0:
448,192,11631,1,0,0:0:0:0:
192,192,11745,1,0,0:0:0:0:
448,192,11861,1,0,0:0:0:0:
192,192,11975,1,0,0:0:0:0:
448,192,12090,1,0,0:0:0:0:
64,192,12205,1,0,0:0:0:0:
192,192,12205,1,0,0:0:0:0:
320,192,12205,1,0,0:0:0:0:
192,192,12320,1,0,0:0:0:0:
448,192,12320,1,0,0:0:0:0:
448,192,12435,1,0,0:0:0:0:
320,192,12435,1,0,0:0:0:0:
64,192,12550,1,0,0:0:0:0:
192,192,12550,1,0,0:0:0:0:
64,192,12665,1,0,0:0:0:0:
320,192,12665,1,0,0:0:0:0:
448,192,12665,1,0,0:0:0:0:
192,192,12780,1,0,0:0:0:0:
192,192,12895,1,0,0:0:0:0:
320,192,12895,1,0,0:0:0:0:
448,192,12895,1,0,0:0:0:0:
64,192,13010,1,0,0:0:0:0:
448,192,13010,1,0,0:0:0:0:
64,192,13124,1,0,0:0:0:0:
192,192,13124,1,0,0:0:0:0:
320,192,13124,1,0,0:0:0:0:
64,192,13240,1,0,0:0:0:0:
320,192,13240,1,0,0:0:0:0:
448,192,13240,1,0,0:0:0:0:
192,192,13354,1,0,0:0:0:0:
320,192,13354,1,0,0:0:0:0:
64,192,13470,1,0,0:0:0:0:
192,192,13470,1,0,0:0:0:0:
448,192,13470,1,0,0:0:0:0:
448,192,13584,1,0,0:0:0:0:
320,192,13584,1,0,0:0:0:0:
64,192,13700,1,0,0:0:0:0:
320,192,13700,1,0,0:0:0:0:
448,192,13814,1,0,0:0:0:0:
320,192,13872,1,0,0:0:0:0:
64,192,13930,1,0,0:0:0:0:
192,192,13986,1,0,0:0:0:0:
448,192,14006,1,0,0:0:0:0:
320,192,14044,1,0,0:0:0:0:
64,192,14102,1,0,0:0:0:0:
448,192,14158,1,0,0:0:0:0:
192,192,14158,1,0,0:0:0:0:
320,192,14216,1,0,0:0:0:0:
192,192,14274,1,0,0:0:0:0:
64,192,14332,1,0,0:0:0:0:
320,192,14388,1,0,0:0:0:0:
448,192,14388,1,0,0:0:0:0:
320,192,14504,1,0,0:0:0:0:
64,192,14504,1,0,0:0:0:0:
192,192,14504,1,0,0:0:0:0:
192,192,14618,1,0,0:0:0:0:
448,192,14618,1,0,0:0:0:0:
64,192,14734,1,0,0:0:0:0:
320,192,14734,1,0,0:0:0:0:
192,192,14848,1,0,0:0:0:0:
320,192,14848,1,0,0:0:0:0:
448,192,14848,1,0,0:0:0:0:
64,192,14964,1,0,0:0:0:0:
448,192,14964,1,0,0:0:0:0:
320,192,15078,1,0,0:0:0:0:
192,192,15078,1,0,0:0:0:0:
64,192,15078,1,0,0:0:0:0:
64,192,15308,1,0,0:0:0:0:
192,192,15366,1,0,0:0:0:0:
448,192,15423,1,0,0:0:0:0:
320,192,15481,1,0,0:0:0:0:
192,192,15538,1,0,0:0:0:0:
64,192,15596,1,0,0:0:0:0:
448,192,15653,1,0,0:0:0:0:
448,192,15768,1,0,0:0:0:0:
64,192,15883,1,0,0:0:0:0:
192,192,15883,1,0,0:0:0:0:
320,192,15941,1,0,0:0:0:0:
448,192,15998,1,0,0:0:0:0:
64,192,15998,1,0,0:0:0:0:
192,192,16055,1,0,0:0:0:0:
320,192,16113,1,0,0:0:0:0:
448,192,16113,1,0,0:0:0:0:
192,192,16171,1,0,0:0:0:0:
64,192,16228,1,0,0:0:0:0:
320,192,16285,1,0,0:0:0:0:
192,192,16343,1,0,0:0:0:0:
64,192,16401,1,0,0:0:0:0:
448,192,16401,1,0,0:0:0:0:
320,192,16457,1,0,0:0:0:0:
192,192,16515,1,0,0:0:0:0:
64,192,16573,1,0,0:0:0:0:
448,192,16687,1,0,0:0:0:0:
192,192,16803,1,0,0:0:0:0:
320,192,16861,1,0,0:0:0:0:
64,192,16917,1,0,0:0:0:0:
192,192,16975,1,0,0:0:0:0:
448,192,16975,1,0,0:0:0:0:
320,192,17033,1,0,0:0:0:0:
448,192,17090,1,0,0:0:0:0:
64,192,17147,1,0,0:0:0:0:
192,192,17147,1,0,0:0:0:0:
320,192,17205,1,0,0:0:0:0:
448,192,17263,1,0,0:0:0:0:
192,192,17263,1,0,0:0:0:0:
64,192,17320,1,0,0:0:0:0:
320,192,17377,1,0,0:0:0:0:
448,192,17435,1,0,0:0:0:0:
64,192,17435,1,0,0:0:0:0:
192,192,17492,1,0,0:0:0:0:
320,192,17550,1,0,0:0:0:0:
448,192,17607,1,0,0:0:0:0:
448,192,17722,1,0,0:0:0:0:
64,192,17837,1,0,0:0:0:0:
192,192,17895,1,0,0:0:0:0:
320,192,17952,1,0,0:0:0:0:
448,192,18010,1,0,0:0:0:0:
64,192,18010,1,0,0:0:0:0:
192,192,18067,1,0,0:0:0:0:
320,192,18124,1,0,0:0:0:0:
64,192,18144,1,0,0:0:0:0:
448,192,18182,1,0,0:0:0:0:
320,192,18240,1,0,0:0:0:0:
64,192,18297,1,0,0:0:0:0:
192,192,18297,1,0,0:0:0:0:
448,192,18412,1,0,0:0:0:0:
192,192,18527,1,0,0:0:0:0:
448,192,18642,1,0,0:0:0:0:
192,192,18756,1,0,0:0:0:0:
448,192,18872,1,0,0:0:0:0:
320,192,18930,1,0,0:0:0:0:
192,192,18986,1,0,0:0:0:0:
64,192,19044,1,0,0:0:0:0:
320,192,19102,1,0,0:0:0:0:
448,192,19102,1,0,0:0:0:0:
192,192,19158,1,0,0:0:0:0:
320,192,19274,1,0,0:0:0:0:
64,192,19332,1,0,0:0:0:0:
192,192,19332,1,0,0:0:0:0:
320,192,19388,1,0,0:0:0:0:
448,192,19446,1,0,0:0:0:0:
64,192,19504,1,0,0:0:0:0:
192,192,19562,1,0,0:0:0:0:
320,192,19562,1,0,0:0:0:0:
448,192,19618,1,0,0:0:0:0:
64,192,19618,1,0,0:0:0:0:
320,192,19676,1,0,0:0:0:0:
192,192,19734,1,0,0:0:0:0:
448,192,19791,1,0,0:0:0:0:
64,192,19791,1,0,0:0:0:0:
320,192,19848,1,0,0:0:0:0:
192,192,19906,1,0,0:0:0:0:
320,192,19964,1,0,0:0:0:0:
448,192,20021,1,0,0:0:0:0:
64,192,20021,1,0,0:0:0:0:
192,192,20078,1,0,0:0:0:0:
320,192,20136,1,0,0:0:0:0:
64,192,20251,1,0,0:0:0:0:
192,192,20251,1,0,0:0:0:0:
448,192,20366,1,0,0:0:0:0:
320,192,20423,1,0,0:0:0:0:
192,192,20481,1,0,0:0:0:0:
64,192,20538,1,0,0:0:0:0:
448,192,20538,1,0,0:0:0:0:
320,192,20596,1,0,0:0:0:0:
64,192,20653,1,0,0:0:0:0:
192,192,20711,1,0,0:0:0:0:
320,192,20768,1,0,0:0:0:0:
448,192,20825,1,0,0:0:0:0:
192,192,20941,1,0,0:0:0:0:
192,192,21055,1,0,0:0:0:0:
64,192,21285,1,0,0:0:0:0:
192,192,21343,1,0,0:0:0:0:
320,192,21401,1,0,0:0:0:0:
448,192,21457,1,0,0:0:0:0:
192,192,21457,1,0,0:0:0:0:
320,192,21515,1,0,0:0:0:0:
64,192,21573,1,0,0:0:0:0:
192,192,21631,1,0,0:0:0:0:
448,192,21631,1,0,0:0:0:0:
320,192,21687,1,0,0:0:0:0:
64,192,21745,1,0,0:0:0:0:
192,192,21745,1,0,0:0:0:0:
64,192,21861,1,0,0:0:0:0:
448,192,21861,1,0,0:0:0:0:
320,192,21975,1,0,0:0:0:0:
448,192,21975,1,0,0:0:0:0:
64,192,22090,1,0,0:0:0:0:
192,192,22090,1,0,0:0:0:0:
448,192,22090,1,0,0:0:0:0:
192,192,22205,1,0,0:0:0:0:
320,192,22205,1,0,0:0:0:0:
448,192,22320,1,0,0:0:0:0:
320,192,22320,1,0,0:0:0:0:
64,192,22320,1,0,0:0:0:0:
448,192,22435,1,0,0:0:0:0:
192,192,22435,1,0,0:0:0:0:
64,192,22550,1,0,0:0:0:0:
192,192,22550,1,0,0:0:0:0:
192,192,22665,1,0,0:0:0:0:
448,192,22665,1,0,0:0:0:0:
320,192,22665,1,0,0:0:0:0:
448,192,22780,1,0,0:0:0:0:
192,192,22895,1,0,0:0:0:0:
64,192,22895,1,0,0:0:0:0:
448,192,22895,1,0,0:0:0:0:
64,192,23124,1,0,0:0:0:0:
192,192,23182,1,0,0:0:0:0:
320,192,23240,1,0,0:0:0:0:
64,192,23297,1,0,0:0:0:0:
448,192,23297,1,0,0:0:0:0:
192,192,23354,1,0,0:0:0:0:
320,192,23412,1,0,0:0:0:0:
448,192,23470,1,0,0:0:0:0:
64,192,23470,1,0,0:0:0:0:
192,192,23527,1,0,0:0:0:0:
320,192,23584,1,0,0:0:0:0:
448,192,23584,1,0,0:0:0:0:
192,192,23700,1,0,0:0:0:0:
448,192,23814,1,0,0:0:0:0:
192,192,23930,1,0,0:0:0:0:
320,192,24044,1,0,0:0:0:0:
448,192,24044,1,0,0:0:0:0:
320,192,24158,1,0,0:0:0:0:
64,192,24274,1,0,0:0:0:0:
64,192,24388,1,0,0:0:0:0:
192,192,24388,1,0,0:0:0:0:
448,192,24504,1,0,0:0:0:0:
192,192,24618,1,0,0:0:0:0:
448,192,24734,1,0,0:0:0:0:
192,192,24848,1,0,0:0:0:0:
320,192,24906,1,0,0:0:0:0:
448,192,24964,1,0,0:0:0:0:
64,192,24964,1,0,0:0:0:0:
192,192,25021,1,0,0:0:0:0:
320,192,25078,1,0,0:0:0:0:
448,192,25136,1,0,0:0:0:0:
64,192,25136,1,0,0:0:0:0:
320,192,25194,1,0,0:0:0:0:
192,192,25251,1,0,0:0:0:0:
448,192,25308,1,0,0:0:0:0:
64,192,25366,1,0,0:0:0:0:
320,192,25366,1,0,0:0:0:0:
192,192,25423,1,0,0:0:0:0:
320,192,25538,1,0,0:0:0:0:
64,192,25653,1,0,0:0:0:0:
320,192,25768,1,0,0:0:0:0:
64,192,25883,1,0,0:0:0:0:
192,192,25883,1,0,0:0:0:0:
64,192,25998,1,0,0:0:0:0:
448,192,26113,1,0,0:0:0:0:
320,192,26113,1,0,0:0:0:0:
192,192,26113,1,0,0:0:0:0:
320,192,26228,1,0,0:0:0:0:
64,192,26343,1,0,0:0:0:0:
320,192,26457,1,0,0:0:0:0:
64,192,26573,1,0,0:0:0:0:
320,192,26687,1,0,0:0:0:0:
64,192,26803,1,0,0:0:0:0:
192,192,26803,1,0,0:0:0:0:
320,192,26880,1,0,0:0:0:0:
448,192,26880,1,0,0:0:0:0:
64,192,26956,1,0,0:0:0:0:
192,192,26956,1,0,0:0:0:0:
320,192,27033,1,0,0:0:0:0:
448,192,27033,1,0,0:0:0:0:
64,192,27110,1,0,0:0:0:0:
192,192,27110,1,0,0:0:0:0:
320,192,27186,1,0,0:0:0:0:
448,192,27186,1,0,0:0:0:0:
192,192,27263,1,0,0:0:0:0:
64,192,27263,1,0,0:0:0:0:
320,192,27340,1,0,0:0:0:0:
448,192,27340,1,0,0:0:0:0:
192,192,27416,1,0,0:0:0:0:
448,192,27416,1,0,0:0:0:0:
64,192,27492,1,0,0:0:0:0:
320,192,27492,1,0,0:0:0:0:
192,192,27568,1,0,0:0:0:0:
448,192,27568,1,0,0:0:0:0:
64,192,27645,1,0,0:0:0:0:
320,192,27645,1,0,0:0:0:0:
192,192,27722,1,0,0:0:0:0:
64,192,27798,1,0,0:0:0:0:
448,192,27837,1,0,0:0:0:0:
320,192,27952,1,0,0:0:0:0:
448,192,27952,1,0,0:0:0:0:
320,192,28067,1,0,0:0:0:0:
64,192,28067,1,0,0:0:0:0:
64,192,28182,1,0,0:0:0:0:
192,192,28182,1,0,0:0:0:0:
320,192,28297,1,0,0:0:0:0:
448,192,28297,1,0,0:0:0:0:
192,192,28412,1,0,0:0:0:0:
320,192,28412,1,0,0:0:0:0:
64,192,28527,1,0,0:0:0:0:
448,192,28527,1,0,0:0:0:0:
192,192,28527,1,0,0:0:0:0:
64,192,28642,1,0,0:0:0:0:
448,192,28642,1,0,0:0:0:0:
320,192,28642,1,0,0:0:0:0:
320,192,28756,1,0,0:0:0:0:
64,192,28986,1,0,0:0:0:0:
192,192,28986,1,0,0:0:0:0:
320,192,28986,1,0,0:0:0:0:
64,192,29102,1,0,0:0:0:0:
320,192,29216,1,0,0:0:0:0:
448,192,29216,1,0,0:0:0:0:
192,192,29216,1,0,0:0:0:0:
64,192,29216,1,0,0:0:0:0:
448,192,29332,1,0,0:0:0:0:
448,192,29446,1,0,0:0:0:0:
192,192,29562,1,0,0:0:0:0:
64,192,29676,1,0,0:0:0:0:
320,192,29791,1,0,0:0:0:0:
448,192,29906,1,0,0:0:0:0:
64,192,30021,1,0,0:0:0:0:
320,192,30078,1,0,0:0:0:0:
192,192,30136,1,0,0:0:0:0:
320,192,30251,1,0,0:0:0:0:
64,192,30251,1,0,0:0:0:0:
448,192,30308,1,0,0:0:0:0:
192,192,30366,1,0,0:0:0:0:
64,192,30423,1,0,0:0:0:0:
448,192,30423,1,0,0:0:0:0:
320,192,30481,1,0,0:0:0:0:
192,192,30538,1,0,0:0:0:0:
64,192,30653,1,0,0:0:0:0:
192,192,30711,1,0,0:0:0:0:
320,192,30768,1,0,0:0:0:0:
448,192,30825,1,0,0:0:0:0:
64,192,30825,1,0,0:0:0:0:
192,192,30883,1,0,0:0:0:0:
320,192,30941,1,0,0:0:0:0:
448,192,30941,1,0,0:0:0:0:
192,192,31055,1,0,0:0:0:0:
64,192,31171,1,0,0:0:0:0:
320,192,31228,1,0,0:0:0:0:
448,192,31285,1,0,0:0:0:0:
192,192,31343,1,0,0:0:0:0:
64,192,31401,1,0,0:0:0:0:
64,192,31515,1,0,0:0:0:0:
448,192,31631,1,0,0:0:0:0:
320,192,31687,1,0,0:0:0:0:
192,192,31745,1,0,0:0:0:0:
64,192,31803,1,0,0:0:0:0:
320,192,31861,1,0,0:0:0:0:
448,192,31917,1,0,0:0:0:0:
192,192,31917,1,0,0:0:0:0:
320,192,31975,1,0,0:0:0:0:
64,192,32033,1,0,0:0:0:0:
448,192,32090,1,0,0:0:0:0:
192,192,32090,1,0,0:0:0:0:
320,192,32147,1,0,0:0:0:0:
192,192,32205,1,0,0:0:0:0:
64,192,32263,1,0,0:0:0:0:
320,192,32435,1,0,0:0:0:0:
448,192,32435,1,0,0:0:0:0:
320,192,32550,1,0,0:0:0:0:
64,192,32550,1,0,0:0:0:0:
192,192,32665,1,0,0:0:0:0:
448,192,32665,1,0,0:0:0:0:
64,192,32780,1,0,0:0:0:0:
192,192,32780,1,0,0:0:0:0:
320,192,32780,1,0,0:0:0:0:
448,192,32895,1,0,0:0:0:0:
64,192,32895,1,0,0:0:0:0:
448,192,33010,1,0,0:0:0:0:
320,192,33010,1,0,0:0:0:0:
192,192,33010,1,0,0:0:0:0:
64,192,33240,1,0,0:0:0:0:
64,192,33354,1,0,0:0:0:0:
448,192,33412,1,0,0:0:0:0:
320,192,33470,1,0,0:0:0:0:
192,192,33527,1,0,0:0:0:0:
64,192,33584,1,0,0:0:0:0:
448,192,33700,1,0,0:0:0:0:
448,192,33814,1,0,0:0:0:0:
64,192,33930,1,0,0:0:0:0:
192,192,33986,1,0,0:0:0:0:
448,192,34044,1,0,0:0:0:0:
320,192,34102,1,0,0:0:0:0:
64,192,34102,1,0,0:0:0:0:
192,192,34158,1,0,0:0:0:0:
320,192,34216,1,0,0:0:0:0:
448,192,34274,1,0,0:0:0:0:
64,192,34274,1,0,0:0:0:0:
320,192,34332,1,0,0:0:0:0:
192,192,34388,1,0,0:0:0:0:
64,192,34446,1,0,0:0:0:0:
448,192,34504,1,0,0:0:0:0:
320,192,34562,1,0,0:0:0:0:
64,192,34618,1,0,0:0:0:0:
192,192,34676,1,0,0:0:0:0:
448,192,34676,1,0,0:0:0:0:
320,192,34734,1,0,0:0:0:0:
64,192,34848,1,0,0:0:0:0:
192,192,34848,1,0,0:0:0:0:
192,192,34964,1,0,0:0:0:0:
64,192,35078,1,0,0:0:0:0:
448,192,35194,1,0,0:0:0:0:
320,192,35251,1,0,0:0:0:0:
192,192,35308,1,0,0:0:0:0:
64,192,35366,1,0,0:0:0:0:
448,192,35538,1,0,0:0:0:0:
192,192,35596,1,0,0:0:0:0:
64,192,35653,1,0,0:0:0:0:
320,192,35653,1,0,0:0:0:0:
320,192,35768,1,0,0:0:0:0:
192,192,35825,1,0,0:0:0:0:
448,192,35825,1,0,0:0:0:0:
64,192,35883,1,0,0:0:0:0:
192,192,35941,1,0,0:0:0:0:
320,192,35998,1,0,0:0:0:0:
64,192,36055,1,0,0:0:0:0:
192,192,36113,1,0,0:0:0:0:
448,192,36113,1,0,0:0:0:0:
320,192,36171,1,0,0:0:0:0:
192,192,36228,1,0,0:0:0:0:
64,192,36285,1,0,0:0:0:0:
448,192,36343,1,0,0:0:0:0:
192,192,36457,1,0,0:0:0:0:
448,192,36573,1,0,0:0:0:0:
192,192,36687,1,0,0:0:0:0:
448,192,36803,1,0,0:0:0:0:
64,192,36917,1,0,0:0:0:0:
192,192,36975,1,0,0:0:0:0:
320,192,37033,1,0,0:0:0:0:
64,192,37090,1,0,0:0:0:0:
448,192,37147,1,0,0:0:0:0:
192,192,37147,1,0,0:0:0:0:
320,192,37205,1,0,0:0:0:0:
192,192,37263,1,0,0:0:0:0:
320,192,37320,1,0,0:0:0:0:
64,192,37377,1,0,0:0:0:0:
448,192,37492,1,0,0:0:0:0:
320,192,37550,1,0,0:0:0:0:
192,192,37607,1,0,0:0:0:0:
64,192,37665,1,0,0:0:0:0:
192,192,37722,1,0,0:0:0:0:
448,192,37722,1,0,0:0:0:0:
320,192,37780,1,0,0:0:0:0:
64,192,37837,1,0,0:0:0:0:
448,192,37837,1,0,0:0:0:0:
192,192,37895,1,0,0:0:0:0:
320,192,37952,1,0,0:0:0:0:
448,192,38010,1,0,0:0:0:0:
192,192,38010,1,0,0:0:0:0:
320,192,38067,1,0,0:0:0:0:
448,192,38124,1,0,0:0:0:0:
64,192,38412,1,0,0:0:0:0:
448,192,38412,1,0,0:0:0:0:
192,192,38412,1,0,0:0:0:0:
64,192,38527,1,0,0:0:0:0:
64,192,38642,1,0,0:0:0:0:
320,192,38756,1,0,0:0:0:0:
64,192,38756,1,0,0:0:0:0:
448,192,38756,1,0,0:0:0:0:
320,192,38872,1,0,0:0:0:0:
320,192,38986,1,0,0:0:0:0:
320,192,39102,1,0,0:0:0:0:
64,192,39216,1,0,0:0:0:0:
320,192,39216,1,0,0:0:0:0:
192,192,39216,1,0,0:0:0:0:
448,192,39216,1,0,0:0:0:0:
64,192,39791,1,0,0:0:0:0:
192,192,39791,1,0,0:0:0:0:
320,192,39791,1,0,0:0:0:0:
64,192,40136,1,0,0:0:0:0:
320,192,40136,1,0,0:0:0:0:
448,192,40136,1,0,0:0:0:0:
192,192,40596,1,0,0:0:0:0:
320,192,40596,1,0,0:0:0:0:
64,192,41055,1,0,0:0:0:0:
192,192,41113,1,0,0:0:0:0:
320,192,41171,1,0,0:0:0:0:
448,192,41285,1,0,0:0:0:0:
320,192,41401,1,0,0:0:0:0:
448,192,41401,1,0,0:0:0:0:
192,192,41401,1,0,0:0:0:0:
64,192,41515,1,0,0:0:0:0:
192,192,41515,1,0,0:0:0:0:
320,192,41631,1,0,0:0:0:0:
448,192,41631,1,0,0:0:0:0:
64,192,41745,1,0,0:0:0:0:
320,192,41745,1,0,0:0:0:0:
448,192,41861,1,0,0:0:0:0:
192,192,41861,1,0,0:0:0:0:
64,192,41861,1,0,0:0:0:0:
448,192,41975,1,0,0:0:0:0:
320,192,41975,1,0,0:0:0:0:
64,192,42090,1,0,0:0:0:0:
192,192,42090,1,0,0:0:0:0:
320,192,42090,1,0,0:0:0:0:
448,192,42205,1,0,0:0:0:0:
192,192,42205,1,0,0:0:0:0:
64,192,42320,1,0,0:0:0:0:
192,192,42320,1,0,0:0:0:0:
320,192,42320,1,0,0:0:0:0:
448,192,42435,1,0,0:0:0:0:
64,192,42435,1,0,0:0:0:0:
192,192,42550,1,0,0:0:0:0:
320,192,42550,1,0,0:0:0:0:
320,192,42665,1,0,0:0:0:0:
448,192,42665,1,0,0:0:0:0:
64,192,42665,1,0,0:0:0:0:
192,192,42780,1,0,0:0:0:0:
192,192,42895,1,0,0:0:0:0:
64,192,42895,1,0,0:0:0:0:
320,192,42895,1,0,0:0:0:0:
192,192,43354,1,0,0:0:0:0:
448,192,43354,1,0,0:0:0:0:
320,192,43354,1,0,0:0:0:0:
192,192,43470,1,0,0:0:0:0:
192,192,43584,1,0,0:0:0:0:
192,192,43700,1,0,0:0:0:0:
448,192,43814,1,0,0:0:0:0:
192,192,43814,1,0,0:0:0:0:
64,192,43814,1,0,0:0:0:0:
448,192,43930,1,0,0:0:0:0:
448,192,44044,1,0,0:0:0:0:
448,192,44158,1,0,0:0:0:0:
320,192,44274,1,0,0:0:0:0:
64,192,44274,1,0,0:0:0:0:
448,192,44274,1,0,0:0:0:0:
64,192,44388,1,0,0:0:0:0:
64,192,44504,1,0,0:0:0:0:
64,192,44618,1,0,0:0:0:0:
64,192,44734,1,0,0:0:0:0:
320,192,44734,1,0,0:0:0:0:
192,192,44734,1,0,0:0:0:0:
448,192,44848,1,0,0:0:0:0:
320,192,44964,1,0,0:0:0:0:
192,192,44964,1,0,0:0:0:0:
448,192,44964,1,0,0:0:0:0:
64,192,45078,1,0,0:0:0:0:
320,192,45078,1,0,0:0:0:0:
64,192,45194,1,0,0:0:0:0:
192,192,45194,1,0,0:0:0:0:
448,192,45194,1,0,0:0:0:0:
448,192,45308,1,0,0:0:0:0:
320,192,45308,1,0,0:0:0:0:
192,192,45423,1,0,0:0:0:0:
64,192,45423,1,0,0:0:0:0:
64,192,45538,1,0,0:0:0:0:
320,192,45538,1,0,0:0:0:0:
320,192,45653,1,0,0:0:0:0:
192,192,45653,1,0,0:0:0:0:
448,192,45653,1,0,0:0:0:0:
64,192,45768,1,0,0:0:0:0:
192,192,45883,1,0,0:0:0:0:
64,192,45883,1,0,0:0:0:0:
448,192,45883,1,0,0:0:0:0:
448,192,45998,1,0,0:0:0:0:
320,192,45998,1,0,0:0:0:0:
64,192,46113,1,0,0:0:0:0:
320,192,46113,1,0,0:0:0:0:
192,192,46228,1,0,0:0:0:0:
448,192,46228,1,0,0:0:0:0:
64,192,46228,1,0,0:0:0:0:
192,192,46343,1,0,0:0:0:0:
320,192,46343,1,0,0:0:0:0:
64,192,46457,1,0,0:0:0:0:
320,192,46457,1,0,0:0:0:0:
448,192,46457,1,0,0:0:0:0:
64,192,47033,1,0,0:0:0:0:
448,192,47033,1,0,0:0:0:0:
320,192,47033,1,0,0:0:0:0:
320,192,47147,1,0,0:0:0:0:
320,192,47263,1,0,0:0:0:0:
320,192,47377,1,0,0:0:0:0:
192,192,47492,1,0,0:0:0:0:
320,192,47492,1,0,0:0:0:0:
64,192,47492,1,0,0:0:0:0:
64,192,47607,1,0,0:0:0:0:
64,192,47722,1,0,0:0:0:0:
64,192,47837,1,0,0:0:0:0:
64,192,47952,1,0,0:0:0:0:
448,192,47952,1,0,0:0:0:0:
320,192,47952,1,0,0:0:0:0:
320,192,48067,1,0,0:0:0:0:
320,192,48182,1,0,0:0:0:0:
64,192,48297,1,0,0:0:0:0:
192,192,48354,1,0,0:0:0:0:
448,192,48354,1,0,0:0:0:0:
320,192,48412,1,0,0:0:0:0:
64,192,48470,1,0,0:0:0:0:
192,192,48527,1,0,0:0:0:0:
448,192,48527,1,0,0:0:0:0:
320,192,48584,1,0,0:0:0:0:
192,192,48642,1,0,0:0:0:0:
64,192,48700,1,0,0:0:0:0:
448,192,48700,1,0,0:0:0:0:
320,192,48756,1,0,0:0:0:0:
192,192,48814,1,0,0:0:0:0:
64,192,48872,1,0,0:0:0:0:
448,192,48872,1,0,0:0:0:0:
320,192,48930,1,0,0:0:0:0:
192,192,48986,1,0,0:0:0:0:
448,192,49158,1,0,0:0:0:0:
320,192,49216,1,0,0:0:0:0:
64,192,49216,1,0,0:0:0:0:
192,192,49274,1,0,0:0:0:0:
448,192,49332,1,0,0:0:0:0:
320,192,49388,1,0,0:0:0:0:
448,192,49446,1,0,0:0:0:0:
192,192,49562,1,0,0:0:0:0:
320,192,49562,1,0,0:0:0:0:
64,192,49676,1,0,0:0:0:0:
192,192,49791,1,0,0:0:0:0:
320,192,49791,1,0,0:0:0:0:
64,192,49906,1,0,0:0:0:0:
448,192,50021,1,0,0:0:0:0:
64,192,50021,1,0,0:0:0:0:
320,192,50021,1,0,0:0:0:0:
192,192,50021,1,0,0:0:0:0:
192,192,50251,1,0,0:0:0:0:
320,192,50366,1,0,0:0:0:0:
192,192,50481,1,0,0:0:0:0:
320,192,50596,1,0,0:0:0:0:
64,192,50653,1,0,0:0:0:0:
192,192,50711,1,0,0:0:0:0:
320,192,50768,1,0,0:0:0:0:
64,192,50825,1,0,0:0:0:0:
448,192,50941,1,0,0:0:0:0:
320,192,50998,1,0,0:0:0:0:
192,192,51055,1,0,0:0:0:0:
320,192,51113,1,0,0:0:0:0:
448,192,51171,1,0,0:0:0:0:
192,192,51285,1,0,0:0:0:0:
64,192,51401,1,0,0:0:0:0:
192,192,51457,1,0,0:0:0:0:
448,192,51457,1,0,0:0:0:0:
320,192,51515,1,0,0:0:0:0:
64,192,51573,1,0,0:0:0:0:
192,192,51631,1,0,0:0:0:0:
448,192,51631,1,0,0:0:0:0:
320,192,51687,1,0,0:0:0:0:
64,192,51745,1,0,0:0:0:0:
192,192,51803,1,0,0:0:0:0:
448,192,51803,1,0,0:0:0:0:
320,192,51861,1,0,0:0:0:0:
64,192,51917,1,0,0:0:0:0:
320,192,51975,1,0,0:0:0:0:
448,192,52033,1,0,0:0:0:0:
192,192,52033,1,0,0:0:0:0:
64,192,52090,1,0,0:0:0:0:
320,192,52147,1,0,0:0:0:0:
448,192,52205,1,0,0:0:0:0:
192,192,52263,1,0,0:0:0:0:
320,192,52320,1,0,0:0:0:0:
64,192,52320,1,0,0:0:0:0:
448,192,52550,1,0,0:0:0:0:
448,192,52665,1,0,0:0:0:0:
64,192,52780,1,0,0:0:0:0:
192,192,52837,1,0,0:0:0:0:
320,192,52895,1,0,0:0:0:0:
192,192,52952,1,0,0:0:0:0:
64,192,53010,1,0,0:0:0:0:
448,192,53010,1,0,0:0:0:0:
448,192,53124,1,0,0:0:0:0:
320,192,53124,1,0,0:0:0:0:
192,192,53240,1,0,0:0:0:0:
64,192,53240,1,0,0:0:0:0:
192,192,53354,1,0,0:0:0:0:
448,192,53354,1,0,0:0:0:0:
320,192,53470,1,0,0:0:0:0:
448,192,53470,1,0,0:0:0:0:
64,192,53470,1,0,0:0:0:0:
192,192,53584,1,0,0:0:0:0:
64,192,53584,1,0,0:0:0:0:
192,192,53700,1,0,0:0:0:0:
320,192,53700,1,0,0:0:0:0:
448,192,53700,1,0,0:0:0:0:
64,192,54158,1,0,0:0:0:0:
192,192,54158,1,0,0:0:0:0:
320,192,54158,1,0,0:0:0:0:
64,192,54274,1,0,0:0:0:0:
64,192,54388,1,0,0:0:0:0:
64,192,54504,1,0,0:0:0:0:
320,192,54504,1,0,0:0:0:0:
448,192,54504,1,0,0:0:0:0:
320,192,54618,1,0,0:0:0:0:
320,192,54734,1,0,0:0:0:0:
320,192,54848,1,0,0:0:0:0:
320,192,54964,1,0,0:0:0:0:
64,192,54964,1,0,0:0:0:0:
192,192,54964,1,0,0:0:0:0:
192,192,55078,1,0,0:0:0:0:
192,192,55194,1,0,0:0:0:0:
192,192,55308,1,0,0:0:0:0:
192,192,55423,1,0,0:0:0:0:
448,192,55538,1,0,0:0:0:0:
320,192,55538,1,0,0:0:0:0:
192,192,55538,1,0,0:0:0:0:
448,192,55653,1,0,0:0:0:0:
64,192,55768,1,0,0:0:0:0:
192,192,55768,1,0,0:0:0:0:
320,192,55883,1,0,0:0:0:0:
448,192,55883,1,0,0:0:0:0:
64,192,55883,1,0,0:0:0:0:
192,192,55998,1,0,0:0:0:0:
64,192,56113,1,0,0:0:0:0:
192,192,56113,1,0,0:0:0:0:
448,192,56113,1,0,0:0:0:0:
320,192,56228,1,0,0:0:0:0:
448,192,56228,1,0,0:0:0:0:
320,192,56343,1,0,0:0:0:0:
64,192,56343,1,0,0:0:0:0:
64,192,56457,1,0,0:0:0:0:
192,192,56457,1,0,0:0:0:0:
192,192,56573,1,0,0:0:0:0:
448,192,56573,1,0,0:0:0:0:
448,192,56687,1,0,0:0:0:0:
64,192,56687,1,0,0:0:0:0:
192,192,56803,1,0,0:0:0:0:
320,192,56803,1,0,0:0:0:0:
64,192,56917,1,0,0:0:0:0:
448,192,56917,1,0,0:0:0:0:
192,192,57033,1,0,0:0:0:0:
320,192,57033,1,0,0:0:0:0:
448,192,57033,1,0,0:0:0:0:
192,192,57147,1,0,0:0:0:0:
320,192,57263,1,0,0:0:0:0:
448,192,57263,1,0,0:0:0:0:
64,192,57263,1,0,0:0:0:0:
64,192,57607,1,0,0:0:0:0:
192,192,57607,1,0,0:0:0:0:
448,192,57607,1,0,0:0:0:0:
320,192,57722,1,0,0:0:0:0:
448,192,57837,1,0,0:0:0:0:
320,192,57952,1,0,0:0:0:0:
448,192,58067,1,0,0:0:0:0:
192,192,58067,1,0,0:0:0:0:
64,192,58067,1,0,0:0:0:0:
320,192,58182,1,0,0:0:0:0:
192,192,58297,1,0,0:0:0:0:
320,192,58412,1,0,0:0:0:0:
192,192,58527,1,0,0:0:0:0:
448,192,58527,1,0,0:0:0:0:
64,192,58642,1,0,0:0:0:0:
192,192,58756,1,0,0:0:0:0:
64,192,58872,1,0,0:0:0:0:
448,192,58986,1,0,0:0:0:0:
320,192,58986,1,0,0:0:0:0:
192,192,58986,1,0,0:0:0:0:
448,192,59102,1,0,0:0:0:0:
64,192,59102,1,0,0:0:0:0:
192,192,59216,1,0,0:0:0:0:
320,192,59216,1,0,0:0:0:0:
64,192,59332,1,0,0:0:0:0:
192,192,59332,1,0,0:0:0:0:
448,192,59332,1,0,0:0:0:0:
320,192,59446,1,0,0:0:0:0:
448,192,59446,1,0,0:0:0:0:
64,192,59562,1,0,0:0:0:0:
320,192,59562,1,0,0:0:0:0:
192,192,59676,1,0,0:0:0:0:
448,192,59676,1,0,0:0:0:0:
64,192,59791,1,0,0:0:0:0:
192,192,59791,1,0,0:0:0:0:
320,192,59906,1,0,0:0:0:0:
448,192,59906,1,0,0:0:0:0:
64,192,60021,1,0,0:0:0:0:
448,192,60021,1,0,0:0:0:0:
192,192,60136,1,0,0:0:0:0:
320,192,60136,1,0,0:0:0:0:
64,192,60251,1,0,0:0:0:0:
192,192,60251,1,0,0:0:0:0:
320,192,60366,1,0,0:0:0:0:
448,192,60366,1,0,0:0:0:0:
448,192,60481,1,0,0:0:0:0:
192,192,60481,1,0,0:0:0:0:
64,192,60596,1,0,0:0:0:0:
320,192,60596,1,0,0:0:0:0:
192,192,60711,1,0,0:0:0:0:
448,192,60711,1,0,0:0:0:0:
64,192,60825,1,0,0:0:0:0:
448,192,60825,1,0,0:0:0:0:
320,192,60825,1,0,0:0:0:0:
320,192,61256,1,0,0:0:0:0:
448,192,61285,1,0,0:0:0:0:
192,192,61285,1,0,0:0:0:0:
64,192,61314,1,0,0:0:0:0:
320,192,61343,1,0,0:0:0:0:
320,192,61707,1,0,0:0:0:0:
448,192,61716,1,0,0:0:0:0:
64,192,61745,1,0,0:0:0:0:
192,192,61774,1,0,0:0:0:0:
448,192,61803,1,0,0:0:0:0:
320,192,61822,1,0,0:0:0:0:
448,192,62176,1,0,0:0:0:0:
64,192,62205,1,0,0:0:0:0:
320,192,62205,1,0,0:0:0:0:
192,192,62234,1,0,0:0:0:0:
448,192,62263,1,0,0:0:0:0:
64,192,62282,1,0,0:0:0:0:
64,192,62665,1,0,0:0:0:0:
192,192,62722,1,0,0:0:0:0:
448,192,62780,1,0,0:0:0:0:
320,192,62837,1,0,0:0:0:0:
448,192,62895,1,0,0:0:0:0:
64,192,62895,1,0,0:0:0:0:
192,192,62895,1,0,0:0:0:0:
320,192,62952,1,0,0:0:0:0:
192,192,63010,1,0,0:0:0:0:
64,192,63067,1,0,0:0:0:0:
448,192,63067,1,0,0:0:0:0:
320,192,63124,1,0,0:0:0:0:
64,192,63240,1,0,0:0:0:0:
192,192,63240,1,0,0:0:0:0:
448,192,63240,1,0,0:0:0:0:
320,192,63354,1,0,0:0:0:0:
448,192,63354,1,0,0:0:0:0:
192,192,63470,1,0,0:0:0:0:
64,192,63470,1,0,0:0:0:0:
320,192,63584,1,0,0:0:0:0:
448,192,63584,1,0,0:0:0:0:
192,192,63584,1,0,0:0:0:0:
320,192,63700,1,0,0:0:0:0:
192,192,63814,1,0,0:0:0:0:
64,192,63814,1,0,0:0:0:0:
448,192,63814,1,0,0:0:0:0:
192,192,63930,1,0,0:0:0:0:
320,192,64044,1,0,0:0:0:0:
448,192,64044,1,0,0:0:0:0:
64,192,64044,1,0,0:0:0:0:
320,192,64158,1,0,0:0:0:0:
64,192,64274,1,0,0:0:0:0:
192,192,64274,1,0,0:0:0:0:
448,192,64274,1,0,0:0:0:0:
192,192,64388,1,0,0:0:0:0:
320,192,64504,1,0,0:0:0:0:
448,192,64504,1,0,0:0:0:0:
64,192,64504,1,0,0:0:0:0:
192,192,64734,1,0,0:0:0:0:
320,192,64848,1,0,0:0:0:0:
192,192,64964,1,0,0:0:0:0:
320,192,65078,1,0,0:0:0:0:
64,192,65194,1,0,0:0:0:0:
192,192,65194,1,0,0:0:0:0:
448,192,65308,1,0,0:0:0:0:
64,192,65423,1,0,0:0:0:0:
192,192,65423,1,0,0:0:0:0:
448,192,65538,1,0,0:0:0:0:
64,192,65653,1,0,0:0:0:0:
448,192,65768,1,0,0:0:0:0:
320,192,65768,1,0,0:0:0:0:
192,192,65768,1,0,0:0:0:0:
448,192,66113,1,0,0:0:0:0:
320,192,66171,1,0,0:0:0:0:
64,192,66228,1,0,0:0:0:0:
192,192,66285,1,0,0:0:0:0:
448,192,66285,1,0,0:0:0:0:
320,192,66343,1,0,0:0:0:0:
64,192,66401,1,0,0:0:0:0:
192,192,66457,1,0,0:0:0:0:
448,192,66457,1,0,0:0:0:0:
320,192,66515,1,0,0:0:0:0:
64,192,66573,1,0,0:0:0:0:
448,192,66631,1,0,0:0:0:0:
192,192,66631,1,0,0:0:0:0:
320,192,66687,1,0,0:0:0:0:
448,192,66745,1,0,0:0:0:0:
64,192,66745,1,0,0:0:0:0:
320,192,66803,1,0,0:0:0:0:
192,192,66861,1,0,0:0:0:0:
448,192,66917,1,0,0:0:0:0:
64,192,66917,1,0,0:0:0:0:
320,192,66975,1,0,0:0:0:0:
192,192,67033,1,0,0:0:0:0:
448,192,67090,1,0,0:0:0:0:
64,192,67090,1,0,0:0:0:0:
320,192,67147,1,0,0:0:0:0:
192,192,67205,1,0,0:0:0:0:
64,192,67263,128,0,68584:0:0:0:0:
192,192,67952,128,0,68814:0:0:0:0:
320,192,68182,128,0,69044:0:0:0:0:
448,192,68412,128,0,69044:0:0:0:0:
64,192,68642,128,0,69388:0:0:0:0:
192,192,68872,128,0,69388:0:0:0:0:
320,192,69102,128,0,69388:0:0:0:0:
448,192,69102,128,0,69388:0:0:0:0:
64,192,69446,1,0,0:0:0:0:
192,192,69446,1,0,0:0:0:0:
320,192,69446,1,0,0:0:0:0:
448,192,69446,1,0,0:0:0:0:
64,192,69906,1,0,0:0:0:0:
192,192,69906,1,0,0:0:0:0:
448,192,69906,1,0,0:0:0:0:
320,192,69906,1,0,0:0:0:0:
192,192,70021,1,0,0:0:0:0:
320,192,70021,1,0,0:0:0:0:
64,192,70136,1,0,0:0:0:0:
64,192,70366,1,0,0:0:0:0:
64,192,70596,1,0,0:0:0:0:
320,192,70711,1,0,0:0:0:0:
448,192,70711,1,0,0:0:0:0:
448,192,70825,1,0,0:0:0:0:
64,192,70825,1,0,0:0:0:0:
192,192,70941,1,0,0:0:0:0:
192,192,71055,1,0,0:0:0:0:
64,192,71055,1,0,0:0:0:0:
64,192,71285,1,0,0:0:0:0:
64,192,71515,1,0,0:0:0:0:
320,192,71515,1,0,0:0:0:0:
192,192,71573,1,0,0:0:0:0:
448,192,71631,1,0,0:0:0:0:
64,192,71687,1,0,0:0:0:0:
320,192,71687,1,0,0:0:0:0:
192,192,71745,1,0,0:0:0:0:
320,192,71803,1,0,0:0:0:0:
448,192,71861,1,0,0:0:0:0:
64,192,71861,1,0,0:0:0:0:
192,192,71917,1,0,0:0:0:0:
320,192,71975,1,0,0:0:0:0:
448,192,71975,1,0,0:0:0:0:
64,192,71975,1,0,0:0:0:0:
64,192,72205,1,0,0:0:0:0:
64,192,72435,1,0,0:0:0:0:
320,192,72550,1,0,0:0:0:0:
448,192,72550,1,0,0:0:0:0:
320,192,72665,1,0,0:0:0:0:
192,192,72780,1,0,0:0:0:0:
64,192,72895,1,0,0:0:0:0:
192,192,72895,1,0,0:0:0:0:
64,192,73124,1,0,0:0:0:0:
64,192,73354,1,0,0:0:0:0:
448,192,73470,1,0,0:0:0:0:
320,192,73527,1,0,0:0:0:0:
64,192,73584,1,0,0:0:0:0:
192,192,73642,1,0,0:0:0:0:
448,192,73642,1,0,0:0:0:0:
320,192,73700,1,0,0:0:0:0:
64,192,73756,1,0,0:0:0:0:
192,192,73814,1,0,0:0:0:0:
448,192,73814,1,0,0:0:0:0:
320,192,73872,1,0,0:0:0:0:
192,192,73930,1,0,0:0:0:0:
320,192,73986,1,0,0:0:0:0:
448,192,74044,1,0,0:0:0:0:
64,192,74044,1,0,0:0:0:0:
192,192,74102,1,0,0:0:0:0:
448,192,74158,1,0,0:0:0:0:
320,192,74158,1,0,0:0:0:0:
64,192,74235,1,0,0:0:0:0:
192,192,74235,1,0,0:0:0:0:
320,192,74312,1,0,0:0:0:0:
448,192,74312,1,0,0:0:0:0:
64,192,74388,1,0,0:0:0:0:
192,192,74388,1,0,0:0:0:0:
320,192,74465,1,0,0:0:0:0:
448,192,74465,1,0,0:0:0:0:
64,192,74542,1,0,0:0:0:0:
192,192,74542,1,0,0:0:0:0:
448,192,74618,1,0,0:0:0:0:
320,192,74734,1,0,0:0:0:0:
448,192,74734,1,0,0:0:0:0:
64,192,74848,1,0,0:0:0:0:
192,192,74848,1,0,0:0:0:0:
192,192,74964,1,0,0:0:0:0:
448,192,74964,1,0,0:0:0:0:
64,192,75078,1,0,0:0:0:0:
320,192,75078,1,0,0:0:0:0:
192,192,75194,1,0,0:0:0:0:
320,192,75194,1,0,0:0:0:0:
448,192,75194,1,0,0:0:0:0:
448,192,75308,1,0,0:0:0:0:
448,192,75423,1,0,0:0:0:0:
448,192,75538,1,0,0:0:0:0:
64,192,75653,1,0,0:0:0:0:
192,192,75653,1,0,0:0:0:0:
448,192,75653,1,0,0:0:0:0:
64,192,75768,1,0,0:0:0:0:
64,192,75883,1,0,0:0:0:0:
320,192,75883,1,0,0:0:0:0:
448,192,75998,1,0,0:0:0:0:
320,192,76113,1,0,0:0:0:0:
64,192,76228,1,0,0:0:0:0:
192,192,76228,1,0,0:0:0:0:
320,192,76343,1,0,0:0:0:0:
448,192,76457,1,0,0:0:0:0:
320,192,76573,1,0,0:0:0:0:
64,192,76687,1,0,0:0:0:0:
448,192,76687,1,0,0:0:0:0:
192,192,76745,1,0,0:0:0:0:
320,192,76803,1,0,0:0:0:0:
448,192,76861,1,0,0:0:0:0:
64,192,76861,1,0,0:0:0:0:
192,192,76917,1,0,0:0:0:0:
320,192,77033,1,0,0:0:0:0:
192,192,77090,1,0,0:0:0:0:
448,192,77090,1,0,0:0:0:0:
64,192,77147,1,0,0:0:0:0:
192,192,77205,1,0,0:0:0:0:
64,192,77263,1,0,0:0:0:0:
448,192,77263,1,0,0:0:0:0:
320,192,77320,1,0,0:0:0:0:
192,192,77377,1,0,0:0:0:0:
64,192,77435,1,0,0:0:0:0:
320,192,77492,1,0,0:0:0:0:
448,192,77492,1,0,0:0:0:0:
192,192,77550,1,0,0:0:0:0:
320,192,77607,1,0,0:0:0:0:
448,192,77665,1,0,0:0:0:0:
64,192,77665,1,0,0:0:0:0:
192,192,77722,1,0,0:0:0:0:
320,192,77780,1,0,0:0:0:0:
192,192,77837,1,0,0:0:0:0:
320,192,77895,1,0,0:0:0:0:
448,192,77952,1,0,0:0:0:0:
448,192,78067,1,0,0:0:0:0:
64,192,78144,1,0,0:0:0:0:
192,192,78221,1,0,0:0:0:0:
320,192,78297,1,0,0:0:0:0:
448,192,78297,1,0,0:0:0:0:
64,192,78374,1,0,0:0:0:0:
192,192,78374,1,0,0:0:0:0:
448,192,78451,1,0,0:0:0:0:
320,192,78451,1,0,0:0:0:0:
64,192,78527,1,0,0:0:0:0:
192,192,78527,1,0,0:0:0:0:
448,192,78527,1,0,0:0:0:0:
320,192,78603,1,0,0:0:0:0:
192,192,78680,1,0,0:0:0:0:
448,192,78680,1,0,0:0:0:0:
64,192,78756,1,0,0:0:0:0:
320,192,78756,1,0,0:0:0:0:
192,192,78833,1,0,0:0:0:0:
448,192,78833,1,0,0:0:0:0:
64,192,78910,1,0,0:0:0:0:
320,192,78910,1,0,0:0:0:0:
192,192,78986,1,0,0:0:0:0:
64,192,79063,1,0,0:0:0:0:
448,192,79102,1,0,0:0:0:0:
448,192,79216,1,0,0:0:0:0:
320,192,79216,1,0,0:0:0:0:
64,192,79216,1,0,0:0:0:0:
320,192,79332,1,0,0:0:0:0:
192,192,79332,1,0,0:0:0:0:
64,192,79446,1,0,0:0:0:0:
192,192,79446,1,0,0:0:0:0:
448,192,79446,1,0,0:0:0:0:
320,192,79562,1,0,0:0:0:0:
448,192,79562,1,0,0:0:0:0:
64,192,79676,1,0,0:0:0:0:
192,192,79676,1,0,0:0:0:0:
320,192,79676,1,0,0:0:0:0:
448,192,79906,1,0,0:0:0:0:
320,192,79906,1,0,0:0:0:0:
64,192,80021,1,0,0:0:0:0:
64,192,80136,1,0,0:0:0:0:
192,192,80136,1,0,0:0:0:0:
320,192,80136,1,0,0:0:0:0:
448,192,80251,1,0,0:0:0:0:
192,192,80366,1,0,0:0:0:0:
320,192,80366,1,0,0:0:0:0:
448,192,80596,128,0,80970:0:0:0:0:
64,192,80596,128,0,80941:0:0:0:0:
192,192,80596,128,0,80970:0:0:0:0:
448,192,80998,128,0,81401:0:0:0:0:
320,192,80998,128,0,81430:0:0:0:0:
64,192,80998,128,0,81430:0:0:0:0:
192,192,81457,128,0,81774:0:0:0:0:
320,192,81457,128,0,81745:0:0:0:0:
448,192,81457,128,0,81774:0:0:0:0:
192,192,81803,128,0,82004:0:0:0:0:
320,192,81803,128,0,82118:0:0:0:0:
64,192,81803,128,0,82147:0:0:0:0:
192,192,82147,1,0,0:0:0:0:
448,192,82320,1,0,0:0:0:0:
320,192,82377,1,0,0:0:0:0:
192,192,82435,1,0,0:0:0:0:
64,192,82492,1,0,0:0:0:0:
448,192,82550,1,0,0:0:0:0:
320,192,82550,1,0,0:0:0:0:
320,192,82665,1,0,0:0:0:0:
448,192,82665,1,0,0:0:0:0:
448,192,82780,1,0,0:0:0:0:
64,192,82780,1,0,0:0:0:0:
64,192,82895,1,0,0:0:0:0:
64,192,83010,1,0,0:0:0:0:
320,192,83124,1,0,0:0:0:0:
320,192,83240,1,0,0:0:0:0:
448,192,83240,1,0,0:0:0:0:
192,192,83240,1,0,0:0:0:0:
64,192,83354,1,0,0:0:0:0:
64,192,83470,1,0,0:0:0:0:
192,192,83470,1,0,0:0:0:0:
320,192,83584,1,0,0:0:0:0:
320,192,83700,1,0,0:0:0:0:
192,192,83700,1,0,0:0:0:0:
448,192,83814,1,0,0:0:0:0:
192,192,83967,128,0,84044:0:0:0:0:
64,192,83967,128,0,84044:0:0:0:0:
320,192,84044,1,0,0:0:0:0:
448,192,84044,1,0,0:0:0:0:
64,192,84121,1,0,0:0:0:0:
192,192,84121,1,0,0:0:0:0:
320,192,84197,1,0,0:0:0:0:
448,192,84197,1,0,0:0:0:0:
64,192,84274,1,0,0:0:0:0:
192,192,84274,1,0,0:0:0:0:
448,192,84351,1,0,0:0:0:0:
320,192,84351,1,0,0:0:0:0:
64,192,84427,1,0,0:0:0:0:
192,192,84427,1,0,0:0:0:0:
320,192,84504,128,0,84581:0:0:0:0:
448,192,84504,128,0,84581:0:0:0:0:
64,192,84581,1,0,0:0:0:0:
192,192,84581,1,0,0:0:0:0:
320,192,84657,1,0,0:0:0:0:
448,192,84657,1,0,0:0:0:0:
64,192,84734,1,0,0:0:0:0:
192,192,84734,1,0,0:0:0:0:
320,192,84811,1,0,0:0:0:0:
448,192,84811,1,0,0:0:0:0:
192,192,84887,128,0,84964:0:0:0:0:
64,192,84887,128,0,84964:0:0:0:0:
320,192,84964,1,0,0:0:0:0:
448,192,84964,1,0,0:0:0:0:
64,192,85041,1,0,0:0:0:0:
192,192,85041,1,0,0:0:0:0:
448,192,85117,1,0,0:0:0:0:
320,192,85117,1,0,0:0:0:0:
192,192,85194,1,0,0:0:0:0:
64,192,85194,1,0,0:0:0:0:
320,192,85270,128,0,85346:0:0:0:0:
448,192,85270,128,0,85346:0:0:0:0:
192,192,85346,1,0,0:0:0:0:
64,192,85346,1,0,0:0:0:0:
320,192,85423,1,0,0:0:0:0:
448,192,85423,1,0,0:0:0:0:
64,192,85500,1,0,0:0:0:0:
192,192,85500,1,0,0:0:0:0:
320,192,85576,1,0,0:0:0:0:
448,192,85576,1,0,0:0:0:0:
64,192,85653,1,0,0:0:0:0:
192,192,85653,1,0,0:0:0:0:
448,192,85730,1,0,0:0:0:0:
64,192,85768,128,0,85797:0:0:0:0:
192,192,85768,128,0,85797:0:0:0:0:
320,192,85768,128,0,85797:0:0:0:0:
448,192,85768,128,0,85797:0:0:0:0:
