osu file format v14

[General]
AudioFilename: audio.mp3
AudioLeadIn: 0
PreviewTime: 68120
Countdown: 0
SampleSet: Soft
StackLeniency: 0.3
Mode: 0
LetterboxInBreaks: 0
WidescreenStoryboard: 1

[Editor]
Bookmarks: 3,11297,22591,45179,56473,79061,101650,112944,135532
DistanceSpacing: 0.1
BeatDivisor: 8
GridSize: 32
TimelineZoom: 2.659999

[Metadata]
Title:Gav-Gav
TitleUnicode:Гав-Гав
Artist:Slava KPSS feat. Lida
ArtistUnicode:Слава КПСС feat. Lida
Creator:piroshki
Version:Melancholy
Source:
Tags:russian electronic pop trance rave e4pi4mak daycore astrolis B2007 aishiteiru- ангельское angelskoye true соня мармеладова гнойный воровская лапа валентин дядька бутер бродский антихайп antihype
BeatmapID:3762985
BeatmapSetID:1832981

[Difficulty]
HPDrainRate:6
CircleSize:4.2
OverallDifficulty:9
ApproachRate:9.5
SliderMultiplier:1.6
SliderTickRate:1

[Events]
//Background and Video events
0,0,"92254611_p000.jpg",0,0
//Break Periods
2,101849,106772
//Storyboard Layer 0 (Background)
//Storyboard Layer 1 (Fail)
//Storyboard Layer 2 (Pass)
//Storyboard Layer 3 (Foreground)
//Storyboard Layer 4 (Overlay)
//Storyboard Sound Samples

[TimingPoints]
3,352.941176470588,4,2,1,60,1,0
11297,-55.5555555555556,4,2,1,90,0,0
11561,-55.5555555555556,4,2,1,5,0,0
11650,-43.4782608695652,4,2,1,90,0,0
11738,-43.4782608695652,4,2,1,5,0,0
11826,-71.4285714285714,4,2,1,90,0,0
11914,-43.4782608695652,4,2,1,5,0,0
12002,-38.4615384615385,4,2,1,90,0,0
12091,-43.4782608695652,4,2,1,5,0,0
12178,-71.4285714285714,4,2,1,90,0,0
12267,-43.4782608695652,4,2,1,5,0,0
12355,-43.4782608695652,4,2,1,90,0,0
12532,-45.4545454545455,4,2,1,90,0,0
12796,-45.4545454545455,4,2,1,5,0,0
12885,-62.5,4,2,1,90,0,0
13502,-43.4782608695652,4,2,1,5,0,0
13591,-38.4615384615385,4,2,1,90,0,0
13944,-43.4782608695652,4,2,1,5,0,0
14032,-38.4615384615385,4,2,1,90,0,0
14120,-55.5555555555556,4,2,1,90,0,0
14384,-55.5555555555556,4,2,1,5,0,0
14473,-43.4782608695652,4,2,1,90,0,0
14561,-43.4782608695652,4,2,1,5,0,0
14649,-71.4285714285714,4,2,1,90,0,0
14738,-43.4782608695652,4,2,1,5,0,0
14825,-38.4615384615385,4,2,1,90,0,0
14914,-43.4782608695652,4,2,1,5,0,0
15001,-71.4285714285714,4,2,1,90,0,0
15091,-43.4782608695652,4,2,1,5,0,0
15179,-71.4285714285714,4,2,1,90,0,0
15355,-38.4615384615385,4,2,1,90,0,0
15708,-43.4782608695652,4,2,1,5,0,0
15797,-38.4615384615385,4,2,1,90,0,0
15885,-45.4545454545455,4,2,1,90,0,0
16414,-47.6190476190476,4,2,1,90,0,0
16944,-55.5555555555556,4,2,1,90,0,0
17208,-55.5555555555556,4,2,1,5,0,0
17297,-43.4782608695652,4,2,1,90,0,0
17385,-43.4782608695652,4,2,1,5,0,0
17473,-71.4285714285714,4,2,1,90,0,0
17561,-43.4782608695652,4,2,1,5,0,0
17649,-38.4615384615385,4,2,1,90,0,0
17738,-43.4782608695652,4,2,1,5,0,0
17825,-71.4285714285714,4,2,1,90,0,0
17914,-43.4782608695652,4,2,1,5,0,0
18002,-71.4285714285714,4,2,1,90,0,0
18179,-45.4545454545455,4,2,1,90,0,0
18443,-45.4545454545455,4,2,1,5,0,0
18532,-62.5,4,2,1,90,0,0
19150,-43.4782608695652,4,2,1,5,0,0
19238,-38.4615384615385,4,2,1,90,0,0
19591,-43.4782608695652,4,2,1,5,0,0
19679,-38.4615384615385,4,2,1,90,0,0
19767,-55.5555555555556,4,2,1,90,0,0
20031,-55.5555555555556,4,2,1,5,0,0
20120,-43.4782608695652,4,2,1,90,0,0
20208,-43.4782608695652,4,2,1,5,0,0
20296,-71.4285714285714,4,2,1,90,0,0
20385,-43.4782608695652,4,2,1,5,0,0
20473,-43.4782608695652,4,2,1,90,0,0
20561,-43.4782608695652,4,2,1,5,0,0
20649,-71.4285714285714,4,2,1,90,0,0
20738,-43.4782608695652,4,2,1,5,0,0
20826,-71.4285714285714,4,2,1,90,0,0
20914,-43.4782608695652,4,2,1,5,0,0
21002,-38.4615384615385,4,2,1,90,0,0
22591,-55.5555555555556,4,2,1,78,0,0
23032,-55.5555555555556,4,2,1,5,0,0
23120,-55.5555555555556,4,2,1,78,0,0
23208,-55.5555555555556,4,2,1,5,0,0
23297,-55.5555555555556,4,2,1,78,0,0
24444,-55.5555555555556,4,2,1,5,0,0
24532,-55.5555555555556,4,2,1,78,0,0
24620,-55.5555555555556,4,2,1,5,0,0
24708,-55.5555555555556,4,2,1,78,0,0
25855,-55.5555555555556,4,2,1,5,0,0
25944,-55.5555555555556,4,2,1,78,0,0
26032,-55.5555555555556,4,2,1,5,0,0
26120,-55.5555555555556,4,2,1,78,0,0
27091,-55.5555555555556,4,2,1,5,0,0
27179,-55.5555555555556,4,2,1,78,0,0
27267,-55.5555555555556,4,2,1,5,0,0
27355,-55.5555555555556,4,2,1,78,0,0
27444,-55.5555555555556,4,2,1,5,0,0
27532,-55.5555555555556,4,2,1,78,0,0
27797,-41.6666666666667,4,2,1,78,0,0
28326,-55.5555555555556,4,2,1,5,0,0
28414,-55.5555555555556,4,2,1,78,0,0
30091,-55.5555555555556,4,2,1,5,0,0
30179,-55.5555555555556,4,2,1,78,0,0
30267,-55.5555555555556,4,2,1,5,0,0
30355,-55.5555555555556,4,2,1,78,0,0
32738,-55.5555555555556,4,2,1,5,0,0
32826,-55.5555555555556,4,2,1,78,0,0
33885,-41.6666666666667,4,2,1,78,0,0
34149,-41.6666666666667,4,2,1,5,0,0
34238,-47.6190476190476,4,2,1,78,0,0
34326,-55.5555555555556,4,2,1,5,0,0
34414,-47.6190476190476,4,2,1,78,0,0
35032,-55.5555555555556,4,2,1,5,0,0
35120,-47.6190476190476,4,2,1,78,0,0
37150,-55.5555555555556,4,2,1,5,0,0
37238,-47.6190476190476,4,2,1,78,0,0
37326,-55.5555555555556,4,2,1,5,0,0
37414,-47.6190476190476,4,2,1,78,0,0
38385,-55.5555555555556,4,2,1,5,0,0
38473,-47.6190476190476,4,2,1,78,0,0
38738,-55.5555555555556,4,2,1,5,0,0
38826,-47.6190476190476,4,2,1,78,0,0
39091,-55.5555555555556,4,2,1,5,0,0
39179,-47.6190476190476,4,2,1,78,0,0
39267,-55.5555555555556,4,2,1,5,0,0
39355,-47.6190476190476,4,2,1,78,0,0
39444,-55.5555555555556,4,2,1,5,0,0
39532,-41.6666666666667,4,2,1,78,0,0
39796,-41.6666666666667,4,2,1,5,0,0
39885,-47.6190476190476,4,2,1,78,0,0
39973,-55.5555555555556,4,2,1,5,0,0
40061,-47.6190476190476,4,2,1,78,0,0
40326,-55.5555555555556,4,2,1,5,0,0
40414,-47.6190476190476,4,2,1,78,0,0
41208,-55.5555555555556,4,2,1,5,0,0
41297,-47.6190476190476,4,2,1,78,0,0
41385,-55.5555555555556,4,2,1,5,0,0
41473,-47.6190476190476,4,2,1,78,0,0
41738,-55.5555555555556,4,2,1,5,0,0
41826,-47.6190476190476,4,2,1,78,0,0
42091,-47.6190476190476,4,2,1,5,0,0
42179,-47.6190476190476,4,2,1,78,0,0
43150,-55.5555555555556,4,2,1,5,0,0
43238,-47.6190476190476,4,2,1,78,0,0
43326,-55.5555555555556,4,2,1,5,0,0
43414,-47.6190476190476,4,2,1,78,0,0
43502,-55.5555555555556,4,2,1,5,0,0
43591,-47.6190476190476,4,2,1,78,0,0
44473,-58.8235294117647,4,2,1,78,0,0
45179,-83.3333333333333,4,2,1,60,0,0
47031,-83.3333333333333,4,2,1,5,0,0
47120,-83.3333333333333,4,2,1,60,0,0
52238,-71.4285714285714,4,2,1,60,0,0
54355,-31.25,4,2,1,60,0,0
56473,-55.5555555555556,4,2,1,90,0,1
56737,-55.5555555555556,4,2,1,5,0,1
56826,-43.4782608695652,4,2,1,90,0,1
56914,-43.4782608695652,4,2,1,5,0,1
57002,-71.4285714285714,4,2,1,90,0,1
57091,-43.4782608695652,4,2,1,5,0,1
57179,-38.4615384615385,4,2,1,90,0,1
57267,-43.4782608695652,4,2,1,5,0,1
57355,-71.4285714285714,4,2,1,90,0,1
57444,-43.4782608695652,4,2,1,5,0,1
57532,-71.4285714285714,4,2,1,90,0,1
57708,-45.4545454545455,4,2,1,90,0,1
57972,-45.4545454545455,4,2,1,5,0,1
58061,-62.5,4,2,1,90,0,1
58679,-43.4782608695652,4,2,1,5,0,1
58767,-38.4615384615385,4,2,1,90,0,1
59297,-55.5555555555556,4,2,1,90,0,1
59561,-55.5555555555556,4,2,1,5,0,1
59650,-43.4782608695652,4,2,1,90,0,1
59738,-43.4782608695652,4,2,1,5,0,1
59826,-71.4285714285714,4,2,1,90,0,1
59914,-43.4782608695652,4,2,1,5,0,1
60002,-38.4615384615385,4,2,1,90,0,1
60091,-43.4782608695652,4,2,1,5,0,1
60179,-71.4285714285714,4,2,1,90,0,1
60267,-43.4782608695652,4,2,1,5,0,1
60355,-71.4285714285714,4,2,1,90,0,1
60532,-38.4615384615385,4,2,1,90,0,1
61061,-45.4545454545455,4,2,1,90,0,1
61150,-43.4782608695652,4,2,1,5,0,1
61238,-45.4545454545455,4,2,1,90,0,1
61591,-47.6190476190476,4,2,1,90,0,1
62120,-55.5555555555556,4,2,1,90,0,1
62384,-55.5555555555556,4,2,1,5,0,1
62473,-43.4782608695652,4,2,1,90,0,1
62561,-43.4782608695652,4,2,1,5,0,1
62650,-71.4285714285714,4,2,1,90,0,1
62738,-43.4782608695652,4,2,1,5,0,1
62826,-38.4615384615385,4,2,1,90,0,1
62914,-43.4782608695652,4,2,1,5,0,1
63002,-71.4285714285714,4,2,1,90,0,1
63091,-43.4782608695652,4,2,1,5,0,1
63179,-71.4285714285714,4,2,1,90,0,1
63355,-45.4545454545455,4,2,1,90,0,1
63619,-45.4545454545455,4,2,1,5,0,1
63708,-62.5,4,2,1,90,0,1
64326,-43.4782608695652,4,2,1,5,0,1
64414,-38.4615384615385,4,2,1,90,0,1
64944,-55.5555555555556,4,2,1,90,0,1
65208,-55.5555555555556,4,2,1,5,0,1
65297,-43.4782608695652,4,2,1,90,0,1
65385,-43.4782608695652,4,2,1,5,0,1
65473,-71.4285714285714,4,2,1,90,0,1
65561,-43.4782608695652,4,2,1,5,0,1
65650,-43.4782608695652,4,2,1,90,0,1
65738,-43.4782608695652,4,2,1,5,0,1
65826,-71.4285714285714,4,2,1,90,0,1
65914,-43.4782608695652,4,2,1,5,0,1
66002,-71.4285714285714,4,2,1,90,0,1
66091,-43.4782608695652,4,2,1,5,0,1
66179,-38.4615384615385,4,2,1,90,0,0
67767,-55.5555555555556,4,2,1,90,0,1
68031,-55.5555555555556,4,2,1,5,0,1
68120,-43.4782608695652,4,2,1,90,0,1
68208,-43.4782608695652,4,2,1,5,0,1
68297,-71.4285714285714,4,2,1,90,0,1
68385,-43.4782608695652,4,2,1,5,0,1
68473,-38.4615384615385,4,2,1,90,0,1
68561,-43.4782608695652,4,2,1,5,0,1
68650,-71.4285714285714,4,2,1,90,0,1
68738,-43.4782608695652,4,2,1,5,0,1
68826,-71.4285714285714,4,2,1,90,0,1
69002,-45.4545454545455,4,2,1,90,0,1
69266,-45.4545454545455,4,2,1,5,0,1
69355,-62.5,4,2,1,90,0,1
69973,-62.5,4,2,1,5,0,1
70061,-38.4615384615385,4,2,1,90,0,1
70590,-55.5555555555556,4,2,1,90,0,1
70855,-55.5555555555556,4,2,1,5,0,1
70944,-43.4782608695652,4,2,1,90,0,1
71032,-62.5,4,2,1,5,0,1
71120,-71.4285714285714,4,2,1,90,0,1
71208,-62.5,4,2,1,5,0,1
71297,-38.4615384615385,4,2,1,90,0,1
71385,-62.5,4,2,1,5,0,1
71473,-71.4285714285714,4,2,1,90,0,1
71561,-62.5,4,2,1,5,0,1
71650,-71.4285714285714,4,2,1,90,0,1
71826,-38.4615384615385,4,2,1,90,0,1
72355,-45.4545454545455,4,2,1,90,0,1
72885,-47.6190476190476,4,2,1,90,0,1
73414,-55.5555555555556,4,2,1,90,0,1
73678,-55.5555555555556,4,2,1,5,0,1
73767,-43.4782608695652,4,2,1,90,0,1
73855,-62.5,4,2,1,5,0,1
73944,-71.4285714285714,4,2,1,90,0,1
74032,-62.5,4,2,1,5,0,1
74120,-38.4615384615385,4,2,1,90,0,1
74208,-62.5,4,2,1,5,0,1
74297,-71.4285714285714,4,2,1,90,0,1
74385,-62.5,4,2,1,5,0,1
74473,-71.4285714285714,4,2,1,90,0,1
74650,-45.4545454545455,4,2,1,90,0,1
74914,-45.4545454545455,4,2,1,5,0,1
75002,-62.5,4,2,1,90,0,1
75620,-62.5,4,2,1,5,0,1
75708,-38.4615384615385,4,2,1,90,0,1
76238,-55.5555555555556,4,2,1,90,0,1
76502,-55.5555555555556,4,2,1,5,0,1
76591,-43.4782608695652,4,2,1,90,0,1
76679,-62.5,4,2,1,5,0,1
76767,-71.4285714285714,4,2,1,90,0,1
76855,-62.5,4,2,1,5,0,1
76944,-43.4782608695652,4,2,1,90,0,1
77032,-62.5,4,2,1,5,0,1
77120,-71.4285714285714,4,2,1,90,0,1
77208,-62.5,4,2,1,5,0,1
77297,-71.4285714285714,4,2,1,90,0,1
77385,-62.5,4,2,1,5,0,1
77473,-38.4615384615385,4,2,1,90,0,0
78355,-52.6315789473684,4,2,1,90,0,0
79061,-50,4,2,1,78,0,0
81444,-50,4,2,1,5,0,0
81532,-50,4,2,1,78,0,0
84355,-41.6666666666667,4,2,1,78,0,0
84619,-41.6666666666667,4,2,1,5,0,0
84708,-50,4,2,1,78,0,0
85855,-50,4,2,1,5,0,0
85944,-50,4,2,1,78,0,0
86208,-50,4,2,1,5,0,0
86297,-50,4,2,1,78,0,0
90002,-41.6666666666667,4,2,1,78,0,0
90266,-41.6666666666667,4,2,1,5,0,0
90355,-41.6666666666667,4,2,1,78,0,0
91238,-50,4,2,1,78,0,0
91326,-50,4,2,1,5,0,0
91414,-50,4,2,1,78,0,0
91855,-50,4,2,1,5,0,0
91944,-50,4,2,1,78,0,0
92032,-50,4,2,1,5,0,0
92120,-50,4,2,1,78,0,0
92208,-50,4,2,1,5,0,0
92297,-50,4,2,1,78,0,0
92385,-50,4,2,1,5,0,0
92473,-50,4,2,1,78,0,0
93973,-50,4,2,1,5,0,0
94061,-50,4,2,1,78,0,0
94150,-50,4,2,1,5,0,0
94238,-50,4,2,1,78,0,0
94502,-50,4,2,1,5,0,0
94591,-50,4,2,1,78,0,0
95297,-43.4782608695652,4,2,1,78,0,0
95914,-43.4782608695652,4,2,1,5,0,0
96002,-50,4,2,1,78,0,0
96091,-50,4,2,1,5,0,0
96179,-50,4,2,1,78,0,0
96444,-50,4,2,1,5,0,0
96532,-50,4,2,1,78,0,0
96797,-50,4,2,1,5,0,0
96885,-50,4,2,1,78,0,0
98914,-50,4,2,1,5,0,0
99002,-50,4,2,1,78,0,0
99091,-50,4,2,1,5,0,0
99179,-50,4,2,1,78,0,0
99796,-50,4,2,1,5,0,0
99885,-50,4,2,1,78,0,0
100238,-62.5,4,2,1,78,0,0
101650,-62.5,4,2,1,60,0,0
110826,-25,4,2,1,60,0,0
112944,-55.5555555555556,4,2,1,90,0,1
113208,-55.5555555555556,4,2,1,5,0,1
113297,-43.4782608695652,4,2,1,90,0,1
113385,-43.4782608695652,4,2,1,5,0,1
113473,-71.4285714285714,4,2,1,90,0,1
113561,-43.4782608695652,4,2,1,5,0,1
113650,-38.4615384615385,4,2,1,90,0,1
113738,-43.4782608695652,4,2,1,5,0,1
113826,-71.4285714285714,4,2,1,90,0,1
113914,-43.4782608695652,4,2,1,5,0,1
114002,-71.4285714285714,4,2,1,90,0,1
114179,-45.4545454545455,4,2,1,90,0,1
114443,-45.4545454545455,4,2,1,5,0,1
114532,-62.5,4,2,1,90,0,1
115150,-43.4782608695652,4,2,1,5,0,1
115238,-38.4615384615385,4,2,1,90,0,1
115767,-55.5555555555556,4,2,1,90,0,1
116031,-55.5555555555556,4,2,1,5,0,1
116120,-43.4782608695652,4,2,1,90,0,1
116208,-43.4782608695652,4,2,1,5,0,1
116297,-71.4285714285714,4,2,1,90,0,1
116385,-43.4782608695652,4,2,1,5,0,1
116473,-38.4615384615385,4,2,1,90,0,1
116561,-43.4782608695652,4,2,1,5,0,1
116650,-71.4285714285714,4,2,1,90,0,1
116738,-43.4782608695652,4,2,1,5,0,1
116826,-71.4285714285714,4,2,1,90,0,1
117002,-38.4615384615385,4,2,1,90,0,1
117532,-45.4545454545455,4,2,1,90,0,1
117620,-43.4782608695652,4,2,1,5,0,1
117708,-45.4545454545455,4,2,1,90,0,1
118061,-47.6190476190476,4,2,1,90,0,1
118591,-55.5555555555556,4,2,1,90,0,1
118855,-55.5555555555556,4,2,1,5,0,1
118944,-43.4782608695652,4,2,1,90,0,1
119032,-43.4782608695652,4,2,1,5,0,1
119120,-71.4285714285714,4,2,1,90,0,1
119208,-43.4782608695652,4,2,1,5,0,1
119297,-38.4615384615385,4,2,1,90,0,1
119385,-43.4782608695652,4,2,1,5,0,1
119473,-71.4285714285714,4,2,1,90,0,1
119561,-43.4782608695652,4,2,1,5,0,1
119650,-71.4285714285714,4,2,1,90,0,1
119826,-45.4545454545455,4,2,1,90,0,1
120090,-45.4545454545455,4,2,1,5,0,1
120179,-62.5,4,2,1,90,0,1
120797,-43.4782608695652,4,2,1,5,0,1
120885,-38.4615384615385,4,2,1,90,0,1
121414,-55.5555555555556,4,2,1,90,0,1
121678,-55.5555555555556,4,2,1,5,0,1
121767,-43.4782608695652,4,2,1,90,0,1
121855,-43.4782608695652,4,2,1,5,0,1
121944,-71.4285714285714,4,2,1,90,0,1
122032,-43.4782608695652,4,2,1,5,0,1
122120,-43.4782608695652,4,2,1,90,0,1
122208,-43.4782608695652,4,2,1,5,0,1
122297,-71.4285714285714,4,2,1,90,0,1
122385,-43.4782608695652,4,2,1,5,0,1
122473,-71.4285714285714,4,2,1,90,0,1
122561,-43.4782608695652,4,2,1,5,0,1
122650,-38.4615384615385,4,2,1,90,0,0
124238,-55.5555555555556,4,2,1,90,0,1
124502,-55.5555555555556,4,2,1,5,0,1
124591,-43.4782608695652,4,2,1,90,0,1
124767,-71.4285714285714,4,2,1,90,0,1
124855,-43.4782608695652,4,2,1,5,0,1
124944,-38.4615384615385,4,2,1,90,0,1
125032,-43.4782608695652,4,2,1,5,0,1
125120,-71.4285714285714,4,2,1,90,0,1
125208,-43.4782608695652,4,2,1,5,0,1
125297,-71.4285714285714,4,2,1,90,0,1
125473,-45.4545454545455,4,2,1,90,0,1
125737,-45.4545454545455,4,2,1,5,0,1
125826,-62.5,4,2,1,90,0,1
126444,-43.4782608695652,4,2,1,5,0,1
126532,-38.4615384615385,4,2,1,90,0,1
127061,-55.5555555555556,4,2,1,90,0,1
127325,-55.5555555555556,4,2,1,5,0,1
127414,-43.4782608695652,4,2,1,90,0,1
127502,-43.4782608695652,4,2,1,5,0,1
127591,-71.4285714285714,4,2,1,90,0,1
127679,-43.4782608695652,4,2,1,5,0,1
127767,-38.4615384615385,4,2,1,90,0,1
127855,-43.4782608695652,4,2,1,5,0,1
127944,-71.4285714285714,4,2,1,90,0,1
128032,-43.4782608695652,4,2,1,5,0,1
128120,-71.4285714285714,4,2,1,90,0,1
128297,-38.4615384615385,4,2,1,90,0,1
128826,-45.4545454545455,4,2,1,90,0,1
128914,-43.4782608695652,4,2,1,5,0,1
129002,-45.4545454545455,4,2,1,90,0,1
129355,-47.6190476190476,4,2,1,90,0,1
129885,-55.5555555555556,4,2,1,90,0,1
130149,-55.5555555555556,4,2,1,5,0,1
130238,-43.4782608695652,4,2,1,90,0,1
130326,-43.4782608695652,4,2,1,5,0,1
130414,-71.4285714285714,4,2,1,90,0,1
130502,-43.4782608695652,4,2,1,5,0,1
130591,-38.4615384615385,4,2,1,90,0,1
130679,-43.4782608695652,4,2,1,5,0,1
130767,-71.4285714285714,4,2,1,90,0,1
130855,-43.4782608695652,4,2,1,5,0,1
130944,-71.4285714285714,4,2,1,90,0,1
131120,-45.4545454545455,4,2,1,90,0,1
131384,-45.4545454545455,4,2,1,5,0,1
131473,-62.5,4,2,1,90,0,1
132091,-62.5,4,2,1,5,0,1
132179,-38.4615384615385,4,2,1,90,0,1
132708,-55.5555555555556,4,2,1,90,0,1
132972,-55.5555555555556,4,2,1,5,0,1
133061,-43.4782608695652,4,2,1,90,0,1
133150,-62.5,4,2,1,5,0,1
133238,-71.4285714285714,4,2,1,90,0,1
133326,-62.5,4,2,1,5,0,1
133414,-43.4782608695652,4,2,1,90,0,1
133502,-62.5,4,2,1,5,0,1
133591,-71.4285714285714,4,2,1,90,0,1
133679,-62.5,4,2,1,5,0,1
133767,-71.4285714285714,4,2,1,90,0,1
133855,-62.5,4,2,1,5,0,1
133944,-52.6315789473684,4,2,1,90,0,0
135532,-52.6315789473684,4,2,1,45,0,0
136238,-142.857142857143,4,2,1,45,0,0
136944,-142.857142857143,4,2,1,5,0,0

[Colours]
Combo1 : 241,185,129
Combo2 : 149,218,255
Combo3 : 221,155,247
Combo4 : 255,125,125

[HitObjects]
256,194,10767,5,0,3:2:0:0:
110,264,10944,1,0,3:2:0:0:
276,38,11120,1,0,3:2:0:0:
370,379,11297,6,0,P|270:336|164:320,1,215.999993408203,4|0,2:1|2:0,0:0:0:0:
12,135,11650,6,0,P|42:102|88:97,1,92.0000017547608,10|0,3:2|0:0,0:0:0:0:
114,31,11826,2,0,P|137:43|154:66,1,55.9999982910157,2|0,0:0|0:0,0:0:0:0:
287,263,12002,6,0,P|333:240|383:226,1,103.999995239258,10|0,3:2|0:0,0:0:0:0:
384,226,12179,2,0,L|397:172,1,55.9999982910157,2|0,0:0|0:0,0:0:0:0:
454,367,12355,5,10,3:2:0:0:
461,363,12532,2,0,L|516:100,1,264.000008056641,2|0,0:0|2:0,0:0:0:0:
457,35,12885,2,0,B|450:-1|413:-2|413:-2|441:14|450:49,1,128,2|8,0:0|3:2,0:0:0:0:
455,206,13238,5,2,2:2:0:0:
416,205,13326,1,2,2:2:0:0:
384,227,13414,2,0,P|350:215|322:210,1,64,10|0,3:2|0:0,0:0:0:0:
41,106,13591,6,0,B|0:109|-35:61|11:-48|164:-25|166:138|87:159|87:159|129:119|97:64,1,415.999980957032,2|2,0:0|0:0,0:0:0:0:
2,219,14032,1,0,0:0:0:0:
10,224,14120,2,0,P|108:181|215:164,1,215.999993408203,6|0,2:2|2:0,0:0:0:0:
444,3,14473,6,0,P|401:14|378:53,1,92.0000017547608,10|0,3:2|0:0,0:0:0:0:
310,37,14650,2,0,P|306:64|320:93,1,55.9999982910157,2|0,0:0|0:0,0:0:0:0:
512,244,14826,6,0,P|475:280|449:325,1,103.999995239258,10|0,3:2|0:0,0:0:0:0:
449,325,15002,2,0,L|394:337,1,55.9999982910157,2|0,0:0|0:0,0:0:0:0:
287,161,15179,5,10,3:2:0:0:
293,163,15355,2,0,B|301:126|248:91|310:70|318:43|318:43|279:330,1,415.999980957032,2|2,0:0|0:0,0:0:0:0:
147,275,15797,1,0,0:0:0:0:
143,266,15885,2,0,P|169:231|210:217,1,88.000002685547,8|0,3:2|0:0,0:0:0:0:
195,365,16061,6,0,P|110:340|24:324,1,176.000005371094,2|10,2:2|3:2,0:0:0:0:
35,95,16414,2,0,P|115:118|197:134,1,167.999994873047,2|10,0:0|3:2,0:0:0:0:
400,268,16767,5,2,0:0:0:0:
428,250,16855,1,0,0:0:0:0:
460,247,16944,2,0,P|483:132|510:36,1,215.999993408203,6|0,2:2|2:0,0:0:0:0:
317,331,17297,6,0,P|361:337|398:365,1,92.0000017547608,10|0,3:2|0:0,0:0:0:0:
455,318,17473,2,0,P|468:342|473:369,1,55.9999982910157,2|0,0:0|0:0,0:0:0:0:
389,171,17650,6,0,P|336:154|288:145,1,103.999995239258,10|0,3:2|0:0,0:0:0:0:
288,145,17826,2,0,L|280:89,1,55.9999982910157,2|0,0:0|0:0,0:0:0:0:
185,372,18002,5,10,3:2:0:0:
194,375,18179,2,0,B|178:258|178:258|159:250|159:250|143:125,1,264.000008056641,2|0,0:0|2:0,0:0:0:0:
41,98,18532,6,0,B|1:81|-5:41|-5:41|10:64|32:74,1,128,2|8,0:0|3:2,0:0:0:0:
236,190,18885,5,2,2:2:0:0:
258,154,18973,1,2,2:2:0:0:
289,147,19061,2,0,P|279:177|245:198,1,64,10|0,3:2|0:0,0:0:0:0:
67,302,19238,6,0,B|49:233|3:266|-27:256|-27:256|26:282|53:322|53:322|149:293|239:274,1,415.999980957032,2|2,0:0|0:0,0:0:0:0:
444,185,19679,1,0,0:0:0:0:
454,193,19767,2,0,B|409:225|407:289|407:289|369:246|309:235,1,215.999993408203,6|0,2:2|2:0,0:0:0:0:
97,3,20120,6,0,P|63:34|54:78,1,92.0000017547608,10|0,3:2|0:0,0:0:0:0:
54,78,20297,2,0,P|26:87|-9:95,1,55.9999982910157,2|0,0:0|0:0,0:0:0:0:
273,329,20473,6,0,P|262:284|228:254,1,92.0000017547608,10|0,3:2|0:0,0:0:0:0:
229,255,20650,2,0,P|235:219|246:191,1,55.9999982910157,2|0,0:0|0:0,0:0:0:0:
0,301,20826,2,0,P|21:318|40:339,1,55.9999982910157,10|0,3:2|0:0,0:0:0:0:
353,113,21002,6,0,B|329:123|314:142|314:142|257:125|201:117|201:117|195:94|183:77,1,207.999990478516,2|10,0:0|3:2,0:0:0:0:
40,339,21355,2,0,B|63:328|78:309|78:309|136:327|191:334|191:334|197:357|209:374,1,207.999990478516,2|10,0:0|3:2,0:0:0:0:
219,371,21620,1,2,0:0:0:0:
228,367,21708,1,2,2:2:0:0:
386,180,21885,5,10,3:2:0:0:
13,270,22061,1,2,0:0:0:0:
330,258,22238,1,10,3:2:0:0:
79,197,22414,5,2,0:0:0:0:
72,205,22502,1,2,0:0:0:0:
78,213,22591,2,0,P|144:241|213:261,1,143.999995605469,6|2,2:2|0:0,0:0:0:0:
307,368,22855,5,2,0:0:0:0:
298,372,22944,2,0,P|274:345|271:310,1,71.9999978027344,10|0,3:2|0:0,0:0:0:0:
174,316,23120,2,0,P|185:282|214:261,1,71.9999978027344,2|0,0:0|0:0,0:0:0:0:
465,305,23297,6,0,P|398:277|329:257,1,143.999995605469,10|2,3:2|0:0,0:0:0:0:
259,45,23650,1,10,3:2:0:0:
268,41,23826,1,2,0:0:0:0:
79,197,24002,6,0,P|19:232|15:301,1,143.999995605469,10|2,3:2|0:0,0:0:0:0:
161,298,24267,1,2,0:0:0:0:
151,290,24355,2,0,P|115:288|89:310,1,71.9999978027344,8|0,3:2|0:0,0:0:0:0:
224,347,24532,2,0,P|243:316|236:283,1,71.9999978027344,2|2,2:2|2:2,0:0:0:0:
0,128,24708,6,0,P|71:117|140:99,1,143.999995605469,10|2,3:2|0:0,0:0:0:0:
161,298,24973,1,2,0:0:0:0:
157,309,25061,2,0,P|85:319|16:337,1,143.999995605469,10|2,3:2|0:0,0:0:0:0:
276,164,25414,6,0,P|337:198|354:266,1,143.999995605469,6|2,2:2|0:0,0:0:0:0:
238,363,25679,1,2,0:0:0:0:
246,354,25767,2,0,L|235:282,1,71.9999978027344,10|0,3:2|0:0,0:0:0:0:
203,27,25944,2,0,L|213:98,1,71.9999978027344,2|0,0:0|0:0,0:0:0:0:
423,296,26120,5,10,3:2:0:0:
437,290,26297,1,2,0:0:0:0:
312,87,26473,5,10,3:2:0:0:
276,164,26650,2,0,P|205:147|134:135,1,143.999995605469,2|10,0:0|3:2,0:0:0:0:
54,18,26914,5,2,0:0:0:0:
54,27,27002,2,0,P|21:40|6:71,1,71.9999978027344,2|0,0:0|0:0,0:0:0:0:
131,130,27179,2,0,P|136:95|115:66,1,71.9999978027344,8|0,3:2|0:0,0:0:0:0:
3,145,27355,2,0,P|30:166|65:163,1,71.9999978027344,2|2,2:2|2:2,0:0:0:0:
1,383,27532,6,0,P|67:356|138:346,1,143.999995605469,10|2,3:2|0:0,0:0:0:0:
324,276,27797,1,2,0:0:0:0:
333,281,27885,2,0,B|300:319|282:362|282:362|249:324|205:306,1,191.999994140625,10|2,3:2|0:0,0:0:0:0:
284,200,28238,6,0,B|267:218|256:240|256:240|239:223|218:213,1,95.9999970703126,6|0,3:2|0:0,0:0:0:0:
238,130,28414,1,2,0:0:0:0:
341,290,28591,6,0,P|408:309|476:338,1,143.999995605469,10|2,3:2|0:0,0:0:0:0:
467,58,28944,2,0,P|401:86|331:106,1,143.999995605469,10|2,3:2|0:0,0:0:0:0:
321,115,29208,1,2,0:0:0:0:
321,129,29297,1,10,3:2:0:0:
397,200,29473,1,2,0:0:0:0:
246,384,29650,6,0,P|269:318|334:292,1,143.999995605469,10|2,3:2|0:0,0:0:0:0:
453,252,29914,1,2,0:0:0:0:
444,252,30002,2,0,P|426:221|396:200,1,71.9999978027344,8|0,3:2|0:0,0:0:0:0:
330,374,30179,2,0,P|365:374|398:359,1,71.9999978027344,2|2,2:2|2:2,0:0:0:0:
245,198,30355,6,0,P|180:230|110:246,1,143.999995605469,10|2,3:2|0:0,0:0:0:0:
1,158,30620,1,2,0:0:0:0:
1,168,30708,2,0,P|135:218|256:295,1,287.999991210938,10|6,3:2|3:2,0:0:0:0:
453,252,31238,5,2,0:0:0:0:
479,239,31326,1,2,0:0:0:0:
484,209,31414,1,10,3:2:0:0:
411,191,31591,1,2,0:0:0:0:
418,343,31767,6,0,P|413:271|403:199,1,143.999995605469,10|2,3:2|0:0,0:0:0:0:
461,74,32032,1,2,0:0:0:0:
469,65,32120,2,0,P|473:136|483:208,1,143.999995605469,10|2,3:2|0:0,0:0:0:0:
324,247,32473,5,10,3:2:0:0:
418,343,32650,2,0,P|387:323|353:313,1,71.9999978027344,2|0,0:0|0:0,0:0:0:0:
248,232,32826,1,10,3:2:0:0:
249,202,32914,1,2,0:0:0:0:
273,185,33002,1,2,2:2:0:0:
273,309,33179,6,0,B|244:326|235:350|235:350|150:329,1,143.999995605469,10|2,3:2|0:0,0:0:0:0:
87,119,33532,1,10,3:2:0:0:
100,114,33708,1,2,0:0:0:0:
314,380,33885,6,0,P|333:237|353:94,1,287.999991210938,6|0,3:2|2:0,0:0:0:0:
205,264,34238,6,0,P|184:228|144:212,1,83.9999974365235,10|0,3:2|0:0,0:0:0:0:
72,131,34414,1,2,0:0:0:0:
87,119,34590,1,10,3:2:0:0:
105,118,34767,1,2,0:0:0:0:
282,300,34944,6,0,P|292:259|275:220,1,83.9999974365235,10|0,3:2|0:0,0:0:0:0:
352,94,35120,1,2,0:0:0:0:
371,97,35296,1,10,3:2:0:0:
384,109,35473,1,2,0:0:0:0:
211,345,35650,6,0,P|131:317|48:308,1,167.999994873047,8|2,3:2|2:2,0:0:0:0:
80,87,36002,5,10,3:2:0:0:
93,91,36179,1,2,0:0:0:0:
123,176,36355,1,10,3:2:0:0:
167,18,36532,1,2,0:0:0:0:
0,194,36708,6,0,B|32:183|32:183|54:107|54:107|107:95,1,167.999994873047,6|2,3:2|0:0,0:0:0:0:
194,205,36973,1,2,0:0:0:0:
194,216,37061,2,0,P|163:187|123:176,1,83.9999974365235,10|0,3:2|0:0,0:0:0:0:
80,251,37238,2,0,P|45:273|24:309,1,83.9999974365235,2|0,0:0|0:0,0:0:0:0:
279,384,37414,6,0,P|199:356|117:340,1,167.999994873047,10|2,3:2|0:0,0:0:0:0:
1,206,37679,1,2,0:0:0:0:
0,194,37767,2,0,P|82:177|161:150,1,167.999994873047,10|2,3:2|0:0,0:0:0:0:
194,216,38120,1,10,3:2:0:0:
434,9,38297,6,0,P|400:36|382:72,1,83.9999974365235,2|0,0:0|0:0,0:0:0:0:
310,55,38473,1,8,3:2:0:0:
433,211,38650,6,0,P|392:195|351:198,1,83.9999974365235,2|2,2:2|2:2,0:0:0:0:
331,126,38826,1,10,3:2:0:0:
325,128,39002,6,0,P|295:156|287:200,1,83.9999974365235,2|0,0:0|0:0,0:0:0:0:
475,286,39179,2,0,P|464:245|430:216,1,83.9999974365235,10|0,3:2|0:0,0:0:0:0:
269,342,39355,2,0,P|308:353|351:338,1,83.9999974365235,2|0,0:0|0:0,0:0:0:0:
478,140,39532,6,0,P|336:113|203:58,1,287.999991210938,6|0,3:2|2:0,0:0:0:0:
0,222,39885,6,0,P|30:194|45:155,1,83.9999974365235,10|0,3:2|0:0,0:0:0:0:
19,83,40061,1,2,0:0:0:0:
136,153,40238,6,0,P|127:112|101:79,1,83.9999974365235,10|0,3:2|0:0,0:0:0:0:
24,76,40414,1,2,0:0:0:0:
105,264,40591,6,0,P|186:282|263:316,1,167.999994873047,10|2,3:2|0:0,0:0:0:0:
270,312,40855,1,2,0:0:0:0:
277,308,40944,1,10,3:2:0:0:
512,168,41120,6,0,P|471:160|440:186,1,83.9999974365235,2|0,0:0|0:0,0:0:0:0:
380,150,41297,2,0,P|360:185|375:223,1,83.9999974365235,8|0,3:2|0:0,0:0:0:0:
475,346,41473,1,2,2:2:0:0:
490,344,41561,1,2,2:2:0:0:
492,330,41650,6,0,P|473:292|440:267,1,83.9999974365235,10|0,3:2|0:0,0:0:0:0:
254,232,41827,1,2,0:0:0:0:
60,384,42002,6,0,P|95:387|138:368,1,83.9999974365235,10|0,3:2|0:0,0:0:0:0:
263,226,42179,1,2,0:0:0:0:
214,55,42355,6,0,B|211:2|211:2|235:114,1,167.999994873047,6|2,3:2|0:0,0:0:0:0:
170,189,42708,1,10,3:2:0:0:
336,339,42885,5,2,0:0:0:0:
352,319,42973,1,2,0:0:0:0:
342,294,43061,2,0,P|308:322|269:331,1,83.9999974365235,10|0,3:2|0:0,0:0:0:0:
418,190,43238,2,0,P|425:232|414:272,1,83.9999974365235,2|0,0:0|0:0,0:0:0:0:
365,72,43414,2,0,P|405:86|434:116,1,83.9999974365235,10|0,3:2|0:0,0:0:0:0:
232,232,43591,5,2,0:0:0:0:
210,219,43679,1,2,0:0:0:0:
184,218,43767,1,10,3:2:0:0:
126,133,43944,1,2,0:0:0:0:
239,130,44120,5,8,3:2:0:0:
66,213,44297,1,2,2:2:0:0:
225,322,44473,1,10,3:2:0:0:
315,270,44650,5,2,0:0:0:0:
316,292,44738,1,2,0:0:0:0:
305,308,44826,1,10,3:2:0:0:
277,384,45002,1,2,0:0:0:0:
225,322,45179,1,0,3:2:0:0:
225,322,45532,5,2,2:2:0:0:
361,373,45708,1,2,2:2:0:0:
188,251,45885,5,10,2:2:0:0:
177,255,46061,1,2,2:2:0:0:
178,266,46238,2,0,L|162:362,1,95.9999970703126,2|2,2:2|2:2,0:0:0:0:
0,126,46591,5,2,2:2:0:0:
0,119,46767,2,0,P|68:136|114:190,1,143.999995605469,0|0,0:0|2:0,0:0:0:0:
114,191,47120,2,0,L|215:171,1,95.9999970703126,0|10,0:0|3:2,0:0:0:0:
262,54,47473,1,0,0:0:0:0:
255,47,47650,2,0,L|264:0,2,47.9999985351563,2|0|2,2:2|0:0|2:2,0:0:0:0:
224,242,48002,6,0,L|262:49,1,191.999994140625,0|2,3:2|2:2,0:0:0:0:
382,34,48532,1,2,2:2:0:0:
384,17,48708,1,10,2:2:0:0:
456,40,48885,5,2,2:2:0:0:
269,145,49061,1,2,2:2:0:0:
449,256,49238,1,2,2:2:0:0:
446,250,49414,6,0,B|385:266|385:266|373:338|373:338|320:355,1,191.999994140625,2|2,2:2|3:2,0:0:0:0:
228,309,49944,6,0,B|191:340|191:340|209:384,1,95.9999970703126,0|10,0:0|3:2,0:0:0:0:
301,241,50297,2,0,P|255:229|209:212,1,95.9999970703126,0|2,0:0|2:2,0:0:0:0:
200,216,50561,1,2,0:0:0:0:
193,223,50650,1,2,2:2:0:0:
46,363,50826,5,0,3:2:0:0:
34,359,51002,1,2,0:0:0:0:
94,297,51179,2,0,B|138:324|138:324|127:367,1,95.9999970703126,10|2,3:2|2:2,0:0:0:0:
20,286,51532,2,0,P|9:240|-3:193,1,95.9999970703126,2|2,2:2|2:2,0:0:0:0:
60,108,51885,1,2,2:2:0:0:
70,112,52061,1,2,2:2:0:0:
152,210,52238,6,0,B|178:191|187:166|187:166|209:184|239:189,1,111.999996582031,2|0,2:2|0:0,0:0:0:0:
162,8,52591,2,0,B|136:27|127:52|127:52|105:34|75:29,1,111.999996582031,2|0,3:2|0:0,0:0:0:0:
58,198,52944,5,10,3:2:0:0:
46,196,53120,1,0,0:0:0:0:
202,77,53297,5,2,2:2:0:0:
309,107,53473,1,2,2:2:0:0:
294,336,53650,5,2,2:2:0:0:
315,329,53738,1,2,2:2:0:0:
336,323,53826,1,2,2:2:0:0:
357,317,53914,1,2,2:2:0:0:
378,312,54002,1,2,2:2:0:0:
399,305,54090,1,2,2:2:0:0:
420,299,54178,1,2,2:2:0:0:
441,293,54266,1,2,2:2:0:0:
466,321,54355,6,0,L|458:385,16,64,2|0|0|0|0|0|0|0|0|0|0|0|0|0|0|0|2,2:2|0:0|0:0|0:0|0:0|0:0|0:0|0:0|0:0|0:0|0:0|0:0|0:0|0:0|0:0|0:0|2:2,0:0:0:0:
488,139,55238,1,2,2:2:0:0:
488,139,55591,1,2,2:2:0:0:
488,139,55944,5,2,2:2:0:0:
326,174,56120,1,2,2:2:0:0:
164,209,56297,1,2,2:2:0:0:
288,384,56473,6,0,L|317:170,1,215.999993408203,4|0,2:1|2:0,0:0:0:0:
87,12,56826,6,0,P|42:29|22:69,1,92.0000017547608,10|0,3:2|0:0,0:0:0:0:
60,133,57002,2,0,P|87:136|110:152,1,55.9999982910157,2|0,0:0|0:0,0:0:0:0:
39,300,57179,6,0,P|45:250|88:225,1,103.999995239258,10|0,3:2|0:0,0:0:0:0:
88,225,57355,2,0,P|72:248|68:275,1,55.9999982910157,2|0,0:0|0:0,0:0:0:0:
269,340,57532,5,10,3:2:0:0:
263,347,57708,2,0,P|130:362|1:384,1,264.000008056641,2|0,0:0|2:0,0:0:0:0:
312,278,58061,2,0,B|346:266|342:229|342:229|330:259|297:273,1,128,2|8,0:0|3:2,0:0:0:0:
162,118,58414,5,2,2:2:0:0:
189,143,58502,1,2,2:2:0:0:
194,181,58591,2,0,P|225:187|255:197,1,64,10|0,3:2|0:0,0:0:0:0:
399,14,58767,6,0,B|459:-20|470:38|521:34|521:34|373:52|244:98,1,415.999980957032,2|2,0:0|0:0,0:0:0:0:
165,38,59208,1,2,0:0:0:0:
156,46,59297,2,0,P|179:151|189:258,1,215.999993408203,6|0,2:2|2:0,0:0:0:0:
437,384,59650,6,0,P|410:347|366:335,1,92.0000017547608,10|0,3:2|0:0,0:0:0:0:
360,264,59826,2,0,P|332:270|310:287,1,55.9999982910157,2|0,0:0|0:0,0:0:0:0:
126,382,60002,6,0,P|75:369|23:364,1,103.999995239258,10|0,3:2|0:0,0:0:0:0:
24,365,60179,2,0,L|13:311,1,55.9999982910157,2|0,0:0|0:0,0:0:0:0:
179,112,60355,5,10,3:2:0:0:
171,115,60532,2,0,B|148:73|161:30|161:30|109:148|97:276|97:276|107:234|146:205,1,415.999980957032,2|2,0:0|0:0,0:0:0:0:
282,118,60973,5,2,0:0:0:0:
287,125,61061,2,0,P|256:168|199:182,1,88.000002685547,8|0,3:2|0:0,0:0:0:0:
366,335,61238,2,0,P|281:309|195:290,1,176.000005371094,2|10,2:2|3:2,0:0:0:0:
239,61,61591,2,0,P|319:85|401:104,1,167.999994873047,2|10,0:0|3:2,0:0:0:0:
430,291,61944,5,2,0:0:0:0:
448,321,62032,1,2,0:0:0:0:
447,348,62120,2,0,P|462:242|483:136,1,215.999993408203,6|0,2:2|2:0,0:0:0:0:
275,152,62473,6,0,P|232:166|210:205,1,92.0000017547608,10|0,3:2|0:0,0:0:0:0:
144,173,62650,2,0,P|134:199|137:226,1,55.9999982910157,2|0,0:0|0:0,0:0:0:0:
352,340,62826,6,0,P|313:301|257:300,1,103.999995239258,10|0,3:2|0:0,0:0:0:0:
267,297,63002,2,0,P|243:312|216:318,1,55.9999982910157,2|0,0:0|0:0,0:0:0:0:
36,384,63179,5,10,3:2:0:0:
29,379,63355,2,0,P|17:247|0:116,1,264.000008056641,2|0,0:0|2:0,0:0:0:0:
46,16,63708,2,0,B|84:22|83:62|83:62|67:32|34:26,1,128,2|8,0:0|3:2,0:0:0:0:
93,229,64061,5,2,2:2:0:0:
135,243,64150,1,2,2:2:0:0:
164,275,64238,2,0,P|192:259|224:255,1,64,10|0,3:2|0:0,0:0:0:0:
362,353,64414,6,0,B|457:333|451:376|491:385|491:385|208:338,1,415.999980957032,2|2,0:0|0:0,0:0:0:0:
93,145,64855,1,2,0:0:0:0:
102,154,64944,2,0,P|208:136|314:114,1,215.999993408203,6|0,2:2|2:0,0:0:0:0:
465,254,65297,6,0,P|496:221|500:176,1,92.0000017547608,10|0,3:2|0:0,0:0:0:0:
500,176,65473,2,0,P|470:167|447:155,1,55.9999982910157,2|0,0:0|0:0,0:0:0:0:
220,211,65650,6,0,P|231:254|268:280,1,92.0000017547608,10|0,3:2|0:0,0:0:0:0:
268,280,65826,2,0,P|290:258|311:244,1,55.9999982910157,2|0,0:0|0:0,0:0:0:0:
295,26,66002,2,0,L|283:89,1,55.9999982910157,10|0,3:2|0:0,0:0:0:0:
145,339,66179,6,0,P|248:352|348:378,1,207.999990478516,2|10,0:0|3:2,0:0:0:0:
498,65,66532,2,0,P|394:51|294:25,1,207.999990478516,2|8,0:0|3:2,0:0:0:0:
351,127,66885,1,2,2:2:0:0:
68,237,67061,6,0,B|-2:275|21:365|21:365|55:360|76:378,1,207.999990478516,10|2,3:2|0:0,0:0:0:0:
384,197,67414,2,0,B|411:186|423:156|423:156|513:180|511:261,1,207.999990478516,10|2,3:2|0:0,0:0:0:0:
0,84,67767,6,0,P|103:113|205:149,1,215.999993408203,4|0,2:1|2:0,0:0:0:0:
426,345,68120,6,0,P|420:300|384:272,1,92.0000017547608,10|0,3:2|0:0,0:0:0:0:
385,197,68297,2,0,P|357:199|332:212,1,55.9999982910157,2|0,0:0|0:0,0:0:0:0:
177,353,68473,6,0,P|122:363|76:378,1,103.999995239258,10|0,3:2|0:0,0:0:0:0:
76,378,68650,2,0,P|51:355|32:342,1,55.9999982910157,2|0,0:0|0:0,0:0:0:0:
159,191,68826,5,10,3:2:0:0:
159,200,69002,2,0,B|240:230|240:230|244:308|244:308|338:338,1,264.000008056641,2|0,0:0|2:0,0:0:0:0:
464,212,69355,2,0,B|490:189|523:200|523:200|487:210|468:232,1,128,2|8,0:0|3:2,0:0:0:0:
168,280,69708,5,2,2:2:0:0:
130,277,69796,1,2,2:2:0:0:
97,297,69885,2,0,P|61:286|34:281,1,64,10|0,3:2|0:0,0:0:0:0:
271,86,70061,6,0,B|213:81|210:-93|430:-39|381:104|333:129|253:104|219:143|219:143|243:152|255:177,1,415.999980957032,2|2,0:0|0:0,0:0:0:0:
401,277,70502,1,2,0:0:0:0:
400,264,70591,2,0,P|286:229|191:209,1,215.999993408203,6|0,2:2|2:0,0:0:0:0:
83,0,70944,6,0,P|47:26|47:70,1,92.0000017547608,10|0,3:2|0:0,0:0:0:0:
174,89,71120,2,0,P|151:72|125:64,1,55.9999982910157,2|0,0:0|0:0,0:0:0:0:
0,214,71297,6,0,P|49:198|100:189,1,103.999995239258,10|0,3:2|0:0,0:0:0:0:
100,189,71473,2,0,L|89:123,1,55.9999982910157,2|0,0:0|0:0,0:0:0:0:
202,379,71650,5,10,3:2:0:0:
209,371,71826,2,0,B|184:308|104:245|-5:262|-58:352|96:474|144:277,1,415.999980957032,2|2,0:0|0:0,0:0:0:0:
27,138,72267,1,2,0:0:0:0:
36,136,72355,2,0,P|59:172|99:188,1,88.000002685547,8|0,3:2|0:0,0:0:0:0:
386,161,72532,6,0,P|307:178|214:201,1,176.000005371094,2|10,2:2|3:2,0:0:0:0:
9,12,72885,2,0,P|86:33|110:110,1,167.999994873047,2|10,0:0|3:2,0:0:0:0:
268,297,73238,5,2,0:0:0:0:
297,280,73326,1,2,0:0:0:0:
304,252,73414,2,0,P|199:223|93:202,1,215.999993408203,6|0,2:2|2:0,0:0:0:0:
350,384,73767,6,0,P|360:339|393:309,1,92.0000017547608,10|0,3:2|0:0,0:0:0:0:
399,233,73944,2,0,P|426:237|450:251,1,55.9999982910157,2|0,0:0|0:0,0:0:0:0:
257,321,74120,6,0,P|207:308|155:297,1,103.999995239258,10|0,3:2|0:0,0:0:0:0:
156,297,74297,2,0,P|128:309|102:310,1,55.9999982910157,2|0,0:0|0:0,0:0:0:0:
34,100,74473,5,10,3:2:0:0:
41,105,74650,2,0,B|7:370,1,264.000008056641,2|0,0:0|2:0,0:0:0:0:
146,16,75002,2,0,B|106:21|88:44|88:44|116:65|117:101,1,128,2|8,0:0|3:2,0:0:0:0:
33,205,75355,5,2,2:2:0:0:
62,180,75444,1,2,2:2:0:0:
99,181,75532,2,0,P|70:195|51:219,1,64,10|0,3:2|0:0,0:0:0:0:
512,384,75708,6,0,P|324:294|121:250,1,415.999980957032,2|2,0:0|0:0,0:0:0:0:
21,9,76150,1,2,0:0:0:0:
29,3,76238,2,0,B|60:21|92:24|92:24|94:107|94:107|129:110|156:129,1,215.999993408203,6|0,2:2|2:0,0:0:0:0:
447,80,76591,6,0,P|402:90|365:124,1,92.0000017547608,10|0,3:2|0:0,0:0:0:0:
368,119,76767,2,0,P|338:109|313:104,1,55.9999982910157,2|0,0:0|0:0,0:0:0:0:
209,382,76944,6,0,P|222:338|211:289,1,92.0000017547608,10|0,3:2|0:0,0:0:0:0:
214,294,77120,2,0,P|237:274|253:254,1,55.9999982910157,2|0,0:0|0:0,0:0:0:0:
140,75,77297,2,0,P|144:102|155:128,1,55.9999982910157,10|0,3:2|0:0,0:0:0:0:
512,256,77473,6,0,P|415:218|314:193,1,207.999990478516,2|10,0:0|3:2,0:0:0:0:
74,0,77826,2,0,P|170:37|271:62,1,207.999990478516,2|8,0:0|3:2,0:0:0:0:
226,146,78179,1,2,2:2:0:0:
5,384,78355,6,0,P|44:319|118:296,1,151.999995941162,10|2,3:2|0:0,0:0:0:0:
86,207,78708,2,0,P|161:222|204:287,1,151.999995941162,10|2,3:2|0:0,0:0:0:0:
467,379,79061,5,6,2:2:0:0:
469,369,79238,1,2,0:0:0:0:
203,281,79414,5,10,3:2:0:0:
218,355,79591,1,2,0:0:0:0:
463,290,79767,5,10,3:2:0:0:
391,265,79944,1,2,0:0:0:0:
144,331,80120,6,0,B|86:296|86:296|106:200,1,160,10|2,3:2|0:0,0:0:0:0:
245,173,80473,2,0,B|303:208|303:208|283:304,1,160,10|2,3:2|0:0,0:0:0:0:
0,87,80826,6,0,P|76:109|156:116,1,160,8|2,3:2|2:2,0:0:0:0:
169,126,81091,1,2,2:2:0:0:
169,141,81179,1,10,3:2:0:0:
32,219,81355,2,0,P|67:201|105:189,1,80,2|0,0:0|0:0,0:0:0:0:
245,64,81532,5,10,3:2:0:0:
149,31,81708,1,2,0:0:0:0:
190,247,81885,6,0,B|246:236|246:236|279:261|279:261|339:248,1,160,6|2,2:2|0:0,0:0:0:0:
408,14,82238,1,10,3:2:0:0:
450,87,82414,1,2,0:0:0:0:
465,89,82502,1,2,0:0:0:0:
477,81,82591,2,0,P|453:157|434:235,1,160,10|2,3:2|0:0,0:0:0:0:
363,363,82944,5,10,3:2:0:0:
361,353,83120,1,2,0:0:0:0:
169,141,83297,6,0,P|99:176|74:250,1,160,10|2,3:2|0:0,0:0:0:0:
326,279,83650,2,0,P|250:252|171:240,1,160,8|2,3:2|2:2,0:0:0:0:
10,97,84002,2,0,P|85:123|164:135,1,160,10|2,3:2|0:0,0:0:0:0:
456,251,84355,6,0,B|470:214|530:197|530:197|464:198|420:223|420:223|390:261|397:313,1,287.999991210938,10|0,3:2|2:0,0:0:0:0:
473,329,84708,2,0,P|394:341|317:365,1,160,6|2,3:2|0:0,0:0:0:0:
73,290,85061,5,10,3:2:0:0:
60,260,85238,1,2,0:0:0:0:
179,127,85414,5,10,3:2:0:0:
153,243,85591,1,2,0:0:0:0:
40,118,85767,6,0,P|77:108|113:87,1,80,10|0,3:2|0:0,0:0:0:0:
179,127,85944,1,2,0:0:0:0:
152,329,86120,6,0,P|189:339|225:359,1,80,10|0,3:2|0:0,0:0:0:0:
291,320,86297,1,2,0:0:0:0:
112,169,86473,5,8,3:2:0:0:
115,178,86650,1,2,2:2:0:0:
381,235,86826,2,0,P|304:212|225:196,1,160,10|2,3:2|0:0,0:0:0:0:
68,23,87179,5,10,3:2:0:0:
93,3,87267,1,2,0:0:0:0:
124,6,87355,1,2,0:0:0:0:
119,89,87532,5,6,3:2:0:0:
352,57,87708,1,2,0:0:0:0:
417,5,87885,5,10,3:2:0:0:
389,122,88061,1,2,0:0:0:0:
201,106,88238,5,10,3:2:0:0:
229,223,88414,1,2,0:0:0:0:
413,316,88591,5,10,3:2:0:0:
408,339,88679,1,2,0:0:0:0:
403,362,88767,1,2,0:0:0:0:
330,282,88944,6,0,B|389:271|389:271|419:287|419:287|495:274,1,160,10|2,3:2|0:0,0:0:0:0:
167,177,89297,2,0,B|107:187|107:187|77:171|77:171|1:184,1,160,8|2,3:2|2:2,0:0:0:0:
12,190,89561,1,2,2:2:0:0:
10,197,89650,1,10,3:2:0:0:
65,254,89826,1,2,0:0:0:0:
265,99,90002,6,0,P|240:241|219:384,1,287.999991210938,10|0,3:2|2:0,0:0:0:0:
9,298,90355,5,6,3:2:0:0:
35,267,90444,1,0,0:0:0:0:
74,261,90532,1,2,0:0:0:0:
168,137,90708,5,10,3:2:0:0:
175,157,90797,1,0,0:0:0:0:
167,177,90885,1,2,0:0:0:0:
233,323,91061,5,10,3:2:0:0:
212,319,91150,1,0,0:0:0:0:
198,299,91238,2,0,P|227:277|247:239,1,80,2|0,0:0|0:0,0:0:0:0:
0,159,91414,6,0,P|79:171|158:186,1,160,10|2,3:2|0:0,0:0:0:0:
154,30,91679,1,2,0:0:0:0:
146,34,91767,2,0,P|123:65|132:103,1,80,10|0,3:2|0:0,0:0:0:0:
284,71,91944,2,0,P|247:58|214:79,1,80,2|0,0:0|0:0,0:0:0:0:
233,323,92120,6,0,P|269:311|284:275,1,80,8|0,3:2|0:0,0:0:0:0:
367,272,92297,2,0,P|367:233|337:208,1,80,2|2,2:2|2:2,0:0:0:0:
75,204,92473,6,0,P|60:289|43:360,1,160,10|2,3:2|0:0,0:0:0:0:
21,54,92826,1,10,3:2:0:0:
39,69,92914,1,2,0:0:0:0:
46,91,93002,1,2,0:0:0:0:
164,371,93179,6,0,P|242:354|321:345,1,160,6|2,3:2|0:0,0:0:0:0:
425,72,93532,1,10,3:2:0:0:
471,131,93708,1,2,0:0:0:0:
443,148,93797,1,2,0:0:0:0:
434,178,93885,2,0,P|469:198|489:231,1,80,10|0,3:2|0:0,0:0:0:0:
303,163,94061,2,0,P|332:135|370:126,1,80,2|0,0:0|0:0,0:0:0:0:
467,333,94238,6,0,P|361:277|245:244,1,240,10|0,3:2|2:0,0:0:0:0:
186,44,94591,1,10,3:2:0:0:
192,39,94679,1,2,0:0:0:0:
198,34,94767,1,2,0:0:0:0:
248,100,94944,5,8,3:2:0:0:
207,356,95120,1,2,2:2:0:0:
17,94,95297,6,0,B|77:81|77:81|107:137|107:137|174:122,1,184.000003509522,10|2,3:2|0:0,0:0:0:0:
302,241,95650,2,0,P|169:197|35:170,1,276.000005264282,10|0,3:2|2:0,0:0:0:0:
36,171,96002,6,0,P|27:130|16:93,1,80,6|0,3:2|0:0,0:0:0:0:
75,36,96179,1,2,0:0:0:0:
145,244,96355,6,0,P|153:203|164:166,1,80,10|0,3:2|0:0,0:0:0:0:
220,115,96532,1,2,0:0:0:0:
263,376,96708,6,0,P|254:335|243:298,1,80,10|0,3:2|0:0,0:0:0:0:
302,241,96885,1,2,0:0:0:0:
401,348,97061,5,10,3:2:0:0:
398,359,97238,1,2,0:0:0:0:
54,266,97414,6,0,P|70:338|145:341,1,160,10|2,3:2|0:0,0:0:0:0:
230,124,97679,1,2,0:0:0:0:
226,133,97767,2,0,P|154:111|115:174,1,160,8|2,3:2|2:2,0:0:0:0:
302,241,98032,5,2,2:2:0:0:
309,249,98120,2,0,P|385:224|463:207,1,160,10|2,3:2|0:0,0:0:0:0:
506,22,98473,1,10,3:2:0:0:
497,18,98650,1,2,0:0:0:0:
376,181,98826,6,0,P|345:155|331:118,1,80,6|0,3:2|0:0,0:0:0:0:
481,29,99002,2,0,P|473:67|448:98,1,80,2|0,0:0|0:0,0:0:0:0:
226,133,99179,5,10,3:2:0:0:
199,114,99267,1,2,0:0:0:0:
167,106,99355,1,2,0:0:0:0:
71,192,99532,2,0,P|184:154|301:128,1,240,10|0,3:2|2:0,0:0:0:0:
317,35,99885,1,10,3:2:0:0:
332,32,99973,1,2,0:0:0:0:
343,42,100061,1,2,0:0:0:0:
404,143,100238,6,0,P|355:185|346:257,1,128,10|2,3:2|0:0,0:0:0:0:
512,324,100591,2,0,P|493:264|441:227,1,128,8|2,3:2|2:2,0:0:0:0:
393,320,100944,6,0,P|266:338|140:363,2,256,10|10|0,3:2|3:2|3:2,0:0:0:0:
221,15,107297,5,8,3:2:0:0:
213,21,107473,1,0,0:0:0:0:
190,105,107650,1,10,3:2:0:0:
276,80,107826,1,2,2:2:0:0:
317,245,108002,5,2,2:2:0:0:
315,235,108178,1,2,2:2:0:0:
254,173,108355,1,2,2:2:0:0:
233,260,108531,1,2,2:2:0:0:
69,213,108708,5,2,2:2:0:0:
79,216,108884,1,0,0:0:0:0:
163,194,109061,1,2,3:2:0:0:
98,132,109237,1,0,0:0:0:0:
140,281,109414,5,10,3:2:0:0:
190,105,109591,1,0,0:0:0:0:
233,260,109767,1,2,2:2:0:0:
254,173,109943,1,2,2:2:0:0:
311,352,110120,5,2,2:2:0:0:
335,346,110208,1,2,2:2:0:0:
360,340,110297,1,2,2:2:0:0:
384,334,110385,1,2,2:2:0:0:
402,298,110473,5,2,2:2:0:0:
426,304,110561,1,2,2:2:0:0:
451,310,110650,1,2,2:2:0:0:
475,316,110738,1,2,2:2:0:0:
491,347,110826,6,0,L|413:325,16,80,2|0|0|0|0|0|0|0|0|0|0|0|0|0|0|0|2,2:2|0:0|0:0|0:0|0:0|0:0|0:0|0:0|0:0|0:0|0:0|0:0|0:0|0:0|0:0|0:0|2:2,0:0:0:0:
342,153,111885,5,2,2:2:0:0:
367,384,112061,1,2,2:2:0:0:
367,384,112414,5,2,2:2:0:0:
415,94,112591,1,2,2:2:0:0:
424,97,112767,1,2,2:2:0:0:
302,341,112944,6,0,P|206:290|102:264,1,215.999993408203,4|0,2:1|2:0,0:0:0:0:
0,125,113297,2,0,P|32:93|76:84,1,92.0000017547608,10|0,3:2|0:0,0:0:0:0:
89,10,113473,2,0,P|114:18|135:38,1,55.9999982910157,2|0,0:0|0:0,0:0:0:0:
333,191,113650,6,0,P|282:199|232:212,1,103.999995239258,10|0,3:2|0:0,0:0:0:0:
232,212,113826,2,0,L|224:153,1,55.9999982910157,2|0,0:0|0:0,0:0:0:0:
186,384,114002,5,10,3:2:0:0:
178,380,114179,2,0,L|143:112,1,264.000008056641,2|0,0:0|2:0,0:0:0:0:
76,84,114532,2,0,B|32:67|7:95|7:95|39:91|58:105,1,128,2|8,0:0|3:2,0:0:0:0:
202,296,114885,5,2,2:2:0:0:
239,305,114973,1,2,2:2:0:0:
260,336,115061,2,0,L|330:324,1,64,10|0,3:2|0:0,0:0:0:0:
449,102,115238,6,0,B|485:120|536:90|536:-28|386:-66|321:82|385:132|385:132|362:79|413:41,1,415.999980957032,2|2,0:0|0:0,0:0:0:0:
479,216,115679,1,2,0:0:0:0:
470,204,115767,2,0,P|368:166|263:143,1,215.999993408203,6|0,2:2|2:0,0:0:0:0:
55,379,116120,6,0,P|65:334|99:305,1,92.0000017547608,10|0,3:2|0:0,0:0:0:0:
66,241,116297,2,0,P|92:231|120:233,1,55.9999982910157,2|0,0:0|0:0,0:0:0:0:
309,350,116473,6,0,P|359:336|410:326,1,103.999995239258,10|0,3:2|0:0,0:0:0:0:
410,326,116650,2,0,L|424:271,1,55.9999982910157,2|0,0:0|0:0,0:0:0:0:
230,74,116826,5,10,3:2:0:0:
238,72,117002,2,0,B|199:53|183:22|183:22|169:167|241:285|241:285|245:247|268:213,1,415.999980957032,2|2,0:0|0:0,0:0:0:0:
377,113,117444,1,2,0:0:0:0:
373,123,117532,2,0,P|329:130|286:140,1,88.000002685547,8|0,3:2|0:0,0:0:0:0:
16,383,117708,6,0,B|30:349|21:322|21:322|131:293,1,176.000005371094,2|10,2:2|3:2,0:0:0:0:
326,290,118061,2,0,B|312:324|320:350|320:350|217:377,1,167.999994873047,2|10,0:0|3:2,0:0:0:0:
42,113,118414,5,2,0:0:0:0:
73,110,118502,1,2,0:0:0:0:
99,123,118591,2,0,B|108:178|108:178|180:194|262:222,1,215.999993408203,6|0,2:2|2:0,0:0:0:0:
512,21,118944,6,0,P|467:21|434:52,1,92.0000017547608,10|0,3:2|0:0,0:0:0:0:
365,30,119120,2,0,P|361:57|369:83,1,55.9999982910157,2|0,0:0|0:0,0:0:0:0:
512,260,119297,6,0,P|492:212|450:182,1,103.999995239258,10|0,3:2|0:0,0:0:0:0:
451,182,119473,2,0,P|431:201|406:213,1,55.9999982910157,2|0,0:0|0:0,0:0:0:0:
430,377,119650,5,10,3:2:0:0:
425,368,119826,2,0,P|294:346|163:329,1,264.000008056641,2|0,0:0|2:0,0:0:0:0:
91,245,120179,2,0,B|76:213|49:204|49:204|83:205|106:244,1,128,2|8,0:0|3:2,0:0:0:0:
293,80,120532,5,2,2:2:0:0:
264,45,120620,1,2,2:2:0:0:
220,54,120708,2,0,P|211:88|197:114,1,64,10|0,3:2|0:0,0:0:0:0:
271,296,120885,6,0,B|349:358|472:286|446:149|367:125|367:125|340:162|291:166,1,415.999980957032,2|2,0:0|0:0,0:0:0:0:
0,153,121326,1,2,0:0:0:0:
5,165,121414,2,0,P|112:172|216:201,1,215.999993408203,6|0,2:2|2:0,0:0:0:0:
464,384,121767,6,0,P|477:337|482:293,1,92.0000017547608,10|0,3:2|0:0,0:0:0:0:
482,294,121944,2,0,P|455:283|417:275,1,55.9999982910157,2|0,0:0|0:0,0:0:0:0:
162,272,122120,6,0,P|195:307|230:333,1,92.0000017547608,10|0,3:2|0:0,0:0:0:0:
230,333,122297,2,0,P|252:317|271:297,1,55.9999982910157,2|0,0:0|0:0,0:0:0:0:
321,96,122473,2,0,P|325:123|332:150,1,55.9999982910157,10|0,3:2|0:0,0:0:0:0:
105,344,122650,6,0,P|208:356|309:382,1,207.999990478516,2|10,0:0|3:2,0:0:0:0:
418,71,123002,2,0,P|314:58|214:33,1,207.999990478516,2|8,0:0|3:2,0:0:0:0:
156,92,123355,1,2,2:2:0:0:
434,283,123532,6,0,B|472:240|516:212|516:212|476:172|463:129,1,207.999990478516,10|2,3:2|0:0,0:0:0:0:
69,44,123885,2,0,B|57:99|33:145|33:145|88:161|120:191,1,207.999990478516,10|2,3:2|0:0,0:0:0:0:
396,201,124238,6,0,P|291:232|191:269,1,215.999993408203,4|0,2:1|2:0,0:0:0:0:
30,384,124591,6,0,P|23:339|49:303,1,92.0000017547608,10|0,3:2|0:0,0:0:0:0:
1,250,124767,2,0,P|23:233|51:229,1,55.9999982910157,2|0,0:0|0:0,0:0:0:0:
193,343,124944,6,0,P|241:362|288:383,1,103.999995239258,10|0,3:2|0:0,0:0:0:0:
289,383,125120,2,0,L|343:369,1,55.9999982910157,2|0,0:0|0:0,0:0:0:0:
446,129,125297,5,10,3:2:0:0:
453,124,125473,2,0,L|413:386,1,264.000008056641,2|0,0:0|2:0,0:0:0:0:
407,57,125826,2,0,B|373:45|377:8|377:8|389:38|422:52,1,128,2|8,0:0|3:2,0:0:0:0:
316,269,126179,5,2,2:2:0:0:
279,280,126267,1,2,2:2:0:0:
262,314,126355,2,0,P|229:319|199:325,1,64,10|0,3:2|0:0,0:0:0:0:
105,96,126532,6,0,B|45:62|34:120|-17:116|-17:116|131:134|260:180,1,415.999980957032,2|2,0:0|0:0,0:0:0:0:
400,27,126973,1,2,0:0:0:0:
389,20,127061,2,0,P|286:53|179:67,1,215.999993408203,6|0,2:2|2:0,0:0:0:0:
0,218,127414,6,0,P|15:175|49:144,1,92.0000017547608,10|0,3:2|0:0,0:0:0:0:
57,73,127591,2,0,P|90:80|107:101,1,55.9999982910157,2|0,0:0|0:0,0:0:0:0:
114,285,127767,6,0,P|165:293|211:316,1,103.999995239258,10|0,3:2|0:0,0:0:0:0:
212,316,127944,2,0,L|199:391,1,55.9999982910157,2|0,0:0|0:0,0:0:0:0:
260,95,128120,5,10,3:2:0:0:
268,100,128297,2,0,B|293:37|373:-26|482:-9|535:81|381:203|333:6,1,415.999980957032,2|2,0:0|0:0,0:0:0:0:
338,178,128738,1,2,0:0:0:0:
328,173,128826,2,0,P|285:181|252:210,1,88.000002685547,8|0,3:2|0:0,0:0:0:0:
462,367,129002,6,0,P|403:302|324:264,1,176.000005371094,2|10,2:2|3:2,0:0:0:0:
70,41,129355,2,0,P|128:105|207:143,1,167.999994873047,2|10,0:0|3:2,0:0:0:0:
221,384,129708,5,2,0:0:0:0:
254,357,129797,1,2,0:0:0:0:
289,359,129885,2,0,P|309:252|337:148,1,215.999993408203,6|0,2:2|2:0,0:0:0:0:
201,142,130238,6,0,P|174:105|179:60,1,92.0000017547608,10|0,3:2|0:0,0:0:0:0:
251,91,130414,2,0,P|264:66|286:50,1,55.9999982910157,2|0,0:0|0:0,0:0:0:0:
511,231,130591,6,0,P|462:213|411:200,1,103.999995239258,10|0,3:2|0:0,0:0:0:0:
412,201,130767,2,0,P|384:208|358:213,1,55.9999982910157,2|0,0:0|0:0,0:0:0:0:
133,384,130944,5,10,3:2:0:0:
123,379,131120,2,0,L|94:107,1,264.000008056641,2|0,0:0|2:0,0:0:0:0:
145,51,131473,2,0,B|156:26|198:19|198:19|171:40|164:71,1,128,2|8,0:0|3:2,0:0:0:0:
0,303,131826,5,2,2:2:0:0:
40,321,131914,1,2,2:2:0:0:
59,360,132002,2,0,P|90:367|119:377,1,64,10|0,3:2|0:0,0:0:0:0:
418,280,132179,6,0,B|436:211|482:244|512:234|512:234|459:260|432:300|432:300|336:271|246:252,1,415.999980957032,2|2,0:0|0:0,0:0:0:0:
176,151,132620,1,2,0:0:0:0:
169,144,132708,2,0,B|139:156|114:151|114:151|84:258|84:258|105:271|119:292,1,215.999993408203,6|0,2:2|2:0,0:0:0:0:
487,158,133061,6,0,P|467:117|428:95,1,92.0000017547608,10|0,3:2|0:0,0:0:0:0:
428,95,133238,2,0,P|439:120|442:147,1,55.9999982910157,2|0,0:0|0:0,0:0:0:0:
153,0,133414,6,0,P|127:37|128:82,1,92.0000017547608,10|0,3:2|0:0,0:0:0:0:
128,82,133591,2,0,P|143:59|166:43,1,55.9999982910157,2|0,0:0|0:0,0:0:0:0:
269,348,133767,2,0,P|241:345|215:333,1,55.9999982910157,10|0,3:2|0:0,0:0:0:0:
309,83,133944,6,0,P|290:153|274:231,1,151.999995941162,2|10,0:0|3:2,0:0:0:0:
28,165,134297,2,0,P|46:94|62:16,1,151.999995941162,2|8,0:0|3:2,0:0:0:0:
154,0,134650,1,2,2:2:0:0:
74,258,134826,6,0,B|100:316|100:316|144:301|185:292,1,151.999995941162,10|2,3:2|0:0,0:0:0:0:
420,117,135179,2,0,B|394:59|394:59|355:74|308:82,1,151.999995941162,10|2,3:2|0:0,0:0:0:0:
303,91,135444,1,2,0:0:0:0:
299,98,135532,1,2,0:0:0:0:
463,384,136238,6,0,P|475:329|497:277,2,111.999996582031,2|2|0,0:0|0:0|0:0,0:0:0:0:
