osu file format v14

[General]
AudioFilename: audio.mp3
AudioLeadIn: 0
PreviewTime: 68120
Countdown: 0
SampleSet: Soft
StackLeniency: 0.4
Mode: 0
LetterboxInBreaks: 0
WidescreenStoryboard: 1

[Editor]
Bookmarks: 3,11297,22591,45179,56473,79061,101650,112944,135532
DistanceSpacing: 1
BeatDivisor: 4
GridSize: 16
TimelineZoom: 1.66

[Metadata]
Title:Gav-Gav
TitleUnicode:Гав-Гав
Artist:Slava KPSS feat. Lida
ArtistUnicode:Слава КПСС feat. Lida
Creator:piroshki
Version:E4pi4mak's Normal
Source:
Tags:russian electronic pop trance rave e4pi4mak daycore astrolis B2007 aishiteiru- ангельское angelskoye true соня мармеладова гнойный воровская лапа валентин дядька бутер бродский антихайп antihype
BeatmapID:3762984
BeatmapSetID:1832981

[Difficulty]
HPDrainRate:3
CircleSize:3
OverallDifficulty:4
ApproachRate:4
SliderMultiplier:1
SliderTickRate:1

[Events]
//Background and Video events
0,0,"92254611_p000.jpg",0,0
//Break Periods
2,45379,49506
2,101850,105977
//Storyboard Layer 0 (Background)
//Storyboard Layer 1 (Fail)
//Storyboard Layer 2 (Pass)
//Storyboard Layer 3 (Foreground)
//Storyboard Layer 4 (Overlay)
//Storyboard Sound Samples

[TimingPoints]
3,352.941176470588,4,2,1,60,1,0
11297,-100,4,2,1,90,0,1
22591,-100,4,2,1,78,0,0
45179,-100,4,2,1,60,0,0
56473,-100,4,2,1,90,0,1
79061,-100,4,2,1,78,0,0
101650,-100,4,2,1,60,0,0
112944,-100,4,2,1,90,0,1
135532,-100,4,2,1,45,0,0

[Colours]
Combo1 : 241,185,129
Combo2 : 149,218,255
Combo3 : 221,155,247
Combo4 : 255,125,125

[HitObjects]
256,192,11297,5,4,2:1:0:0:
190,266,11650,2,0,L|80:247,1,100,10|10,3:2|3:2,0:0:0:0:
43,166,12355,1,10,3:2:0:0:
43,166,12532,2,0,P|65:126|62:56,1,100,2|2,0:0|0:0,0:0:0:0:
101,36,13061,1,8,3:2:0:0:
101,36,13238,2,0,P|141:24|249:60,1,150,2|10,2:2|3:2,0:0:0:0:
294,138,14120,1,6,2:2:0:0:
347,53,14473,6,0,B|390:34|390:34|455:49,1,100,10|10,3:2|3:2,0:0:0:0:
509,127,15179,1,10,3:2:0:0:
509,127,15355,2,0,B|477:194|477:194|496:271,1,150,2|8,0:0|3:2,0:0:0:0:
509,320,16061,1,2,2:2:0:0:
509,320,16238,2,0,L|398:304,1,100,10|10,3:2|3:2,0:0:0:0:
310,291,16944,1,6,2:2:0:0:
228,349,17297,6,0,P|181:352|128:378,2,100,10|10|10,3:2|3:2|3:2,0:0:0:0:
310,291,18355,2,0,L|295:193,1,100,10|8,3:2|3:2,0:0:0:0:
322,149,18885,1,2,2:2:0:0:
322,149,19061,2,0,P|369:146|422:120,1,100,10|10,3:2|3:2,0:0:0:0:
484,49,19767,1,6,2:2:0:0:
512,142,20120,6,0,L|500:250,1,100,10|10,3:2|3:2,0:0:0:0:
492,291,20650,1,2,0:0:0:0:
417,357,21002,2,0,B|388:351|371:335|371:335|345:346|318:341,1,100,2|2,0:0|0:0,0:0:0:0:
347,193,21885,2,0,B|375:198|392:214|392:214|418:203|445:208,1,100,10|10,3:2|3:2,0:0:0:0:
492,291,22591,5,6,2:2:0:0:
421,362,22944,1,10,3:2:0:0:
345,296,23297,2,0,P|307:276|241:287,1,100,10|10,3:2|3:2,0:0:0:0:
201,285,23826,1,2,0:0:0:0:
163,252,24002,2,0,B|185:206|185:206|170:137,1,100,10|8,3:2|3:2,0:0:0:0:
93,99,24708,1,10,3:2:0:0:
149,16,25061,1,10,3:2:0:0:
232,71,25414,6,0,B|279:66|279:66|284:68|284:68|338:62,1,100,6|10,2:2|3:2,0:0:0:0:
421,105,26120,2,0,B|444:163|401:208,1,100,10|10,3:2|3:2,0:0:0:0:
366,226,26650,1,2,0:0:0:0:
330,260,26826,2,0,P|320:320|345:366,1,100,10|8,3:2|3:2,0:0:0:0:
434,362,27532,2,0,P|449:314|442:265,1,100,10|10,3:2|3:2,0:0:0:0:
500,183,28238,6,0,B|473:142|473:142|403:131,1,100,2|10,3:2|3:2,0:0:0:0:
351,54,28944,2,0,L|250:87,1,100,10|10,3:2|3:2,0:0:0:0:
214,109,29473,1,2,0:0:0:0:
214,109,29650,2,0,B|183:166|228:214,1,100,10|8,3:2|3:2,0:0:0:0:
303,256,30355,1,10,3:2:0:0:
386,200,30708,1,10,3:2:0:0:
472,250,31061,6,0,P|469:315|431:347,1,100,2|10,3:2|3:2,0:0:0:0:
350,365,31767,2,0,L|245:346,1,100,10|10,3:2|3:2,0:0:0:0:
226,310,32297,1,2,0:0:0:0:
226,310,32473,2,0,P|215:278|192:256,1,50,10|2,3:2|0:0,0:0:0:0:
154,264,32826,2,0,P|120:246|92:250,1,50,8|2,3:2|2:2,0:0:0:0:
67,273,33179,2,0,P|22:310|31:359,1,100,10|10,3:2|3:2,0:0:0:0:
121,373,33885,5,6,3:2:0:0:
188,299,34238,2,0,P|242:298|306:279,1,100,10|10,3:2|3:2,0:0:0:0:
356,358,34944,2,0,P|409:356|462:371,1,100,10|10,3:2|3:2,0:0:0:0:
500,278,35650,2,0,P|483:246|456:226,1,50,8|2,3:2|2:2,0:0:0:0:
452,191,36002,2,0,P|424:180|384:185,1,50,10|2,3:2|0:0,0:0:0:0:
367,146,36355,2,0,P|331:155|311:151,1,50,10|2,3:2|0:0,0:0:0:0:
274,129,36708,5,2,3:2:0:0:
174,136,37061,2,0,P|153:160|147:233,1,100,10|10,3:2|3:2,0:0:0:0:
210,301,37767,2,0,L|316:277,1,100,10|10,3:2|3:2,0:0:0:0:
353,299,38297,1,2,0:0:0:0:
353,299,38473,2,0,P|388:307|413:322,1,50,8|2,3:2|2:2,0:0:0:0:
442,286,38826,2,0,P|450:251|465:226,1,50,10|2,3:2|0:0,0:0:0:0:
432,194,39179,2,0,P|397:186|372:171,1,50,10|2,3:2|0:0,0:0:0:0:
349,143,39532,5,2,3:2:0:0:
261,190,39885,2,0,P|224:196|165:155,1,100,10|10,3:2|3:2,0:0:0:0:
148,121,40414,1,2,0:0:0:0:
108,90,40591,2,0,P|59:86|18:113,1,100,10|10,3:2|3:2,0:0:0:0:
2,212,41297,6,0,L|32:314,1,100,8|10,3:2|3:2,0:0:0:0:
121,267,42002,2,0,L|223:292,1,100,10|2,3:2|3:2,0:0:0:0:
268,285,42532,1,2,0:0:0:0:
307,254,42708,2,0,P|336:250|375:260,1,50,10|2,3:2|0:0,0:0:0:0:
397,224,43061,2,0,P|419:242|440:276,1,50,10|2,3:2|0:0,0:0:0:0:
482,262,43414,2,0,P|500:297|495:325,1,50,10|2,3:2|0:0,0:0:0:0:
256,192,43767,12,0,45179,3:2:0:0:
256,192,50826,12,2,55061,2:2:0:0:
256,192,56473,5,4,2:1:0:0:
351,160,56826,2,0,P|373:138|376:65,1,100,10|10,3:2|3:2,0:0:0:0:
295,27,57532,1,10,3:2:0:0:
295,27,57708,2,0,P|245:62|203:57,1,100,2|2,0:0|0:0,0:0:0:0:
161,38,58238,1,8,3:2:0:0:
166,43,58414,2,0,P|137:106|142:199,1,150,2|10,2:2|3:2,0:0:0:0:
133,285,59297,1,6,2:2:0:0:
216,341,59650,6,0,L|317:319,1,100,10|10,3:2|3:2,0:0:0:0:
415,301,60356,1,10,3:2:0:0:
415,301,60532,2,0,B|435:225|435:225|391:166,1,150,2|8,0:0|3:2,0:0:0:0:
347,145,61238,1,2,2:2:0:0:
347,145,61414,2,0,B|336:97|336:97|363:52,1,100,10|10,3:2|3:2,0:0:0:0:
455,16,62120,1,6,2:2:0:0:
510,99,62473,6,0,L|494:207,2,100,10|10|10,3:2|3:2|3:2,0:0:0:0:
455,16,63532,2,0,P|422:48|362:40,1,100,10|8,3:2|3:2,0:0:0:0:
332,22,64061,1,2,2:2:0:0:
332,22,64238,2,0,P|290:47|226:32,1,100,10|10,3:2|3:2,0:0:0:0:
140,34,64944,1,6,2:2:0:0:
185,123,65297,6,0,L|177:232,1,100,10|10,3:2|3:2,0:0:0:0:
205,264,65826,1,2,0:0:0:0:
292,216,66179,2,0,B|313:211|339:222|339:222|356:206|385:200,1,100,2|2,0:0|0:0,0:0:0:0:
408,350,67062,2,0,B|385:354|359:343|359:343|342:359|314:364,1,100,10|10,3:2|3:2,0:0:0:0:
236,301,67767,5,4,2:1:0:0:
293,214,68120,2,0,P|309:170|297:118,1,100,10|10,3:2|3:2,0:0:0:0:
258,88,68650,2,0,P|235:98|209:99,1,50,2|10,0:0|3:2,0:0:0:0:
161,86,69002,1,2,0:0:0:0:
66,117,69355,1,2,0:0:0:0:
103,209,69708,1,2,2:2:0:0:
10,246,70061,2,0,P|27:287|40:350,1,100,2|2,0:0|0:0,0:0:0:0:
86,356,70591,1,6,2:2:0:0:
182,328,70944,6,0,P|217:305|242:252,1,100,10|10,3:2|3:2,0:0:0:0:
211,215,71473,2,0,P|205:191|207:165,1,50,2|10,0:0|3:2,0:0:0:0:
245,134,71826,2,0,P|253:88|168:45,1,150,2|8,0:0|3:2,0:0:0:0:
143,82,72532,1,2,2:2:0:0:
44,66,72885,2,0,P|52:108|53:175,1,100,2|2,0:0|0:0,0:0:0:0:
33,211,73414,1,6,2:2:0:0:
39,311,73767,6,0,P|86:324|151:322,1,100,10|10,3:2|3:2,0:0:0:0:
182,345,74297,2,0,P|209:321|234:314,1,50,2|10,0:0|3:2,0:0:0:0:
271,313,74650,1,2,0:0:0:0:
370,322,75002,1,2,0:0:0:0:
382,222,75355,1,2,2:2:0:0:
481,227,75708,2,0,P|487:174|498:125,1,100,2|2,0:0|0:0,0:0:0:0:
458,96,76238,2,0,P|432:74|408:71,1,50,6|0,2:2|0:0,0:0:0:0:
372,93,76591,6,0,P|292:95|261:84,1,100,10|10,3:2|3:2,0:0:0:0:
237,54,77120,1,2,0:0:0:0:
158,115,77473,2,0,B|153:136|164:162|164:162|148:179|142:208,1,100,2|2,0:0|0:0,0:0:0:0:
290,229,78355,2,0,B|294:207|284:181|284:181|299:164|305:135,1,100,10|10,3:2|3:2,0:0:0:0:
237,54,79061,5,6,2:2:0:0:
158,115,79414,1,10,3:2:0:0:
67,72,79767,2,0,P|45:113|30:182,1,100,10|10,3:2|3:2,0:0:0:0:
55,262,80473,1,10,3:2:0:0:
152,240,80826,2,0,P|207:240|269:222,1,100,8|10,3:2|3:2,0:0:0:0:
295,246,81355,2,0,P|319:259|343:295,1,50,2|10,0:0|3:2,0:0:0:0:
330,325,81708,5,2,0:0:0:0:
330,325,81885,2,0,P|342:361|416:377,1,100,6|10,2:2|3:2,0:0:0:0:
441,294,82591,2,0,L|454:180,1,100,10|10,3:2|3:2,0:0:0:0:
421,163,83120,1,2,0:0:0:0:
421,163,83297,2,0,L|411:112,1,50,10|2,3:2|0:0,0:0:0:0:
367,89,83650,2,0,P|317:94|265:62,1,100,8|10,3:2|3:2,0:0:0:0:
190,15,84355,1,10,3:2:0:0:
182,114,84708,6,0,P|179:160|160:227,1,100,2|10,3:2|3:2,0:0:0:0:
66,201,85414,2,0,P|69:155|88:88,1,100,10|10,3:2|3:2,0:0:0:0:
69,54,85944,1,2,0:0:0:0:
69,54,86120,2,0,L|81:1,1,50,10|2,3:2|0:0,0:0:0:0:
130,1,86473,2,0,P|165:10|182:11,1,50,8|2,3:2|2:2,0:0:0:0:
228,5,86826,1,10,3:2:0:0:
280,85,87179,6,0,P|251:125|245:146,1,50,10|2,3:2|0:0,0:0:0:0:
238,173,87532,1,2,3:2:0:0:
332,208,87885,2,0,P|355:155|388:113,1,100,10|10,3:2|3:2,0:0:0:0:
395,22,88591,2,0,P|426:29|451:26,1,50,10|2,3:2|0:0,0:0:0:0:
492,16,88944,2,0,P|478:57|491:124,1,100,10|8,3:2|3:2,0:0:0:0:
425,193,89650,2,0,P|406:214|398:298,1,100,10|10,3:2|3:2,0:0:0:0:
322,352,90355,5,6,3:2:0:0:
257,275,90708,2,0,L|145:253,1,100,10|10,3:2|3:2,0:0:0:0:
59,238,91414,2,0,P|43:218|45:188,1,50,10|2,3:2|0:0,0:0:0:0:
77,160,91767,2,0,P|83:132|99:119,1,50,10|2,3:2|0:0,0:0:0:0:
148,119,92120,2,0,P|202:103|263:90,1,100,8|10,3:2|3:2,0:0:0:0:
326,151,92826,6,0,B|337:176|337:176|340:208,1,50,10|2,3:2|0:0,0:0:0:0:
320,245,93179,1,2,3:2:0:0:
399,305,93532,1,10,3:2:0:0:
455,222,93885,2,0,B|462:192|462:192|482:173,1,50,10|2,3:2|0:0,0:0:0:0:
507,139,94238,2,0,P|493:85|468:37,1,100,10|10,3:2|3:2,0:0:0:0:
382,88,94944,2,0,P|328:102|280:127,1,100,8|10,3:2|3:2,0:0:0:0:
195,83,95650,1,10,3:2:0:0:
118,146,96002,6,0,B|105:195|105:195|135:245,1,100,2|10,3:2|3:2,0:0:0:0:
217,287,96708,2,0,B|261:277|261:277|272:280|272:280|331:266,1,100,10|10,3:2|3:2,0:0:0:0:
412,250,97414,1,10,3:2:0:0:
499,202,97767,2,0,P|511:250|502:298,2,100,8|10|10,3:2|3:2|3:2,0:0:0:0:
410,154,98826,1,2,3:2:0:0:
378,59,99179,2,0,B|335:48|335:48|324:51|324:51|280:41,2,100,10|10|10,3:2|3:2|3:2,0:0:0:0:
256,192,100238,12,0,101650,3:2:0:0:
256,192,107297,12,2,111532,2:2:0:0:
256,192,112944,5,4,2:1:0:0:
321,267,113297,2,0,P|370:278|432:307,1,100,10|10,3:2|3:2,0:0:0:0:
447,202,114002,1,10,3:2:0:0:
447,202,114179,2,0,P|398:192|336:162,1,100,2|2,0:0|0:0,0:0:0:0:
256,192,114885,1,2,2:2:0:0:
158,216,115238,2,0,P|138:261|128:310,1,100,2|2,0:0|0:0,0:0:0:0:
154,354,115767,2,0,P|182:357|211:371,1,50,6|0,2:2|0:0,0:0:0:0:
251,354,116120,6,0,B|297:364|297:364|369:342,1,100,10|10,3:2|3:2,0:0:0:0:
439,304,116826,1,10,3:2:0:0:
439,304,117002,2,0,P|451:240|400:162,1,150,2|8,0:0|3:2,0:0:0:0:
362,155,117708,1,2,2:2:0:0:
341,57,118061,2,0,P|289:57|233:31,1,100,2|2,0:0|0:0,0:0:0:0:
195,47,118591,1,6,2:2:0:0:
95,59,118944,6,0,B|75:119|75:119|82:160,1,100,10|10,3:2|3:2,0:0:0:0:
106,252,119650,1,10,3:2:0:0:
106,252,119826,2,0,P|148:235|206:220,1,100,2|2,0:0|0:0,0:0:0:0:
260,140,120532,1,2,2:2:0:0:
347,189,120885,2,0,P|359:227|371:297,1,100,2|2,0:0|0:0,0:0:0:0:
329,315,121414,2,0,P|287:327|267:338,1,50,6|0,2:2|0:0,0:0:0:0:
242,361,121767,6,0,L|133:331,1,100,10|10,3:2|3:2,0:0:0:0:
96,321,122297,1,2,0:0:0:0:
92,221,122650,2,0,B|113:216|139:227|139:227|156:211|185:205,1,100,2|2,0:0|0:0,0:0:0:0:
163,56,123532,2,0,B|142:61|116:50|116:50|99:66|70:72,1,100,10|10,3:2|3:2,0:0:0:0:
13,154,124238,5,4,2:1:0:0:
94,220,124591,2,0,P|75:296|73:339,1,100,10|10,3:2|3:2,0:0:0:0:
108,353,125120,2,0,P|129:362|171:362,1,50,2|10,0:0|3:2,0:0:0:0:
203,347,125473,1,2,0:0:0:0:
301,329,125826,1,2,0:0:0:0:
283,231,126179,1,2,2:2:0:0:
381,213,126532,2,0,P|368:153|368:105,1,100,2|2,0:0|0:0,0:0:0:0:
400,77,127061,1,6,2:2:0:0:
326,9,127414,6,0,P|280:-1|223:8,1,100,10|10,3:2|3:2,0:0:0:0:
207,52,127944,2,0,P|201:80|171:111,1,50,2|10,0:0|3:2,0:0:0:0:
141,112,128297,2,0,P|125:167|188:228,1,150,2|8,0:0|3:2,0:0:0:0:
231,209,129002,1,2,2:2:0:0:
326,240,129355,1,2,0:0:0:0:
326,240,129532,2,0,P|312:285|303:346,1,100,10|6,3:2|2:2,0:0:0:0:
209,372,130238,6,0,P|164:358|103:349,1,100,10|10,3:2|3:2,0:0:0:0:
74,315,130767,2,0,P|86:282|87:258,1,50,2|10,0:0|3:2,0:0:0:0:
64,222,131120,1,2,0:0:0:0:
29,128,131473,1,2,0:0:0:0:
101,58,131826,1,2,2:2:0:0:
196,86,132179,2,0,P|257:88|304:102,1,100,2|2,0:0|0:0,0:0:0:0:
340,77,132708,1,6,2:2:0:0:
420,135,133061,6,0,L|440:236,1,100,10|10,3:2|3:2,0:0:0:0:
449,282,133591,1,2,0:0:0:0:
356,319,133944,2,0,B|327:325|310:341|310:341|284:330|263:335,1,100,2|2,0:0|0:0,0:0:0:0:
241,186,134826,2,0,B|270:180|287:164|287:164|313:175|334:170,1,100,10|10,3:2|3:2,0:0:0:0:
449,282,136238,6,0,B|443:253|427:236|427:236|438:210|433:189,1,100,2|2,0:0|0:0,0:0:0:0:
