osu file format v14

[General]
AudioFilename: audio.mp3
AudioLeadIn: 0
PreviewTime: 68120
Countdown: 0
SampleSet: Soft
StackLeniency: 0.3
Mode: 0
LetterboxInBreaks: 0
WidescreenStoryboard: 1

[Editor]
Bookmarks: 3,11297,22591,45179,56473,79061,101650,112944,135532
DistanceSpacing: 1.2
BeatDivisor: 4
GridSize: 16
TimelineZoom: 2.659999

[Metadata]
Title:Gav-Gav
TitleUnicode:Гав-Гав
Artist:Slava KPSS feat. Lida
ArtistUnicode:Слава КПСС feat. Lida
Creator:piroshki
Version:Daycore's Hard
Source:
Tags:russian electronic pop trance rave e4pi4mak daycore astrolis B2007 aishiteiru- ангельское angelskoye true соня мармеладова гнойный воровская лапа валентин дядька бутер бродский антихайп antihype
BeatmapID:3773617
BeatmapSetID:1832981

[Difficulty]
HPDrainRate:4
CircleSize:3.5
OverallDifficulty:6
ApproachRate:7.5
SliderMultiplier:1.4
SliderTickRate:1

[Events]
//Background and Video events
0,0,"92254611_p000.jpg",0,0
//Break Periods
2,45379,50001
2,101850,106472
//Storyboard Layer 0 (Background)
//Storyboard Layer 1 (Fail)
//Storyboard Layer 2 (Pass)
//Storyboard Layer 3 (Foreground)
//Storyboard Layer 4 (Overlay)
//Storyboard Sound Samples

[TimingPoints]
3,352.941176470588,4,2,1,60,1,0
11297,-100,4,2,1,90,0,1
22591,-100,4,2,1,78,0,0
45179,-100,4,2,1,60,0,0
56473,-83.3333333333333,4,2,1,90,0,1
79061,-100,4,2,1,78,0,0
101650,-100,4,2,1,60,0,0
112944,-83.3333333333333,4,2,1,90,0,1
135532,-83.3333333333333,4,2,1,90,0,0

[Colours]
Combo1 : 241,185,129
Combo2 : 149,218,255
Combo3 : 221,155,247
Combo4 : 255,125,125

[HitObjects]
80,155,11297,5,4,2:1:0:0:
263,59,11650,2,0,P|210:51|173:40,1,70,10|2,3:2|2:0,2:0:0:0:
327,0,12002,2,0,P|380:8|417:19,1,70,10|2,3:2|2:0,2:0:0:0:
270,66,12355,1,10,3:2:0:0:
270,66,12532,2,0,P|209:58|128:29,1,140,2|2,2:0|2:0,2:0:0:0:
63,76,13061,1,8,3:2:0:0:
80,155,13238,2,0,P|145:131|214:121,1,140,2|2,2:0|2:0,2:0:0:0:
271,183,13767,2,0,P|253:237|219:240,1,70,0|2,2:0|2:0,2:0:0:0:
165,265,14120,5,6,2:0:0:0:
310,374,14473,2,0,L|298:293,1,70,10|2,3:2|2:0,2:0:0:0:
385,351,14826,2,0,L|373:270,1,70,10|2,3:2|2:0,2:0:0:0:
464,333,15179,1,10,3:2:0:0:
464,333,15355,2,0,L|439:167,1,140,2|2,2:0|2:0,2:0:0:0:
397,122,15885,1,8,3:2:0:0:
397,122,16061,2,0,P|429:108|472:113,1,70,2|10,2:0|3:2,2:0:0:0:
360,195,16414,2,0,B|303:185|303:185|289:166|289:166|220:155,1,140,2|2,2:0|2:0,2:0:0:0:
185,228,16944,5,6,2:0:0:0:
84,133,17297,2,0,P|83:112|135:80,1,70,10|2,3:2|2:0,2:0:0:0:
170,143,17650,2,0,P|189:135|236:175,1,70,10|2,3:2|2:0,2:0:0:0:
99,218,18002,1,10,3:2:0:0:
99,218,18179,2,0,P|62:178|-11:118,1,140,2|2,2:0|2:0,2:0:0:0:
13,205,18708,1,8,3:2:0:0:
45,282,18885,2,0,P|128:298|178:251,1,140,2|2,2:0|2:0,2:0:0:0:
223,203,19414,2,0,P|260:210|284:251,1,70,0|2,2:0|2:0,2:0:0:0:
274,317,19767,5,6,2:0:0:0:
452,271,20120,2,0,B|468:301|468:301|458:340,1,70,10|2,3:2|2:0,2:0:0:0:
379,314,20473,2,0,B|363:284|363:284|373:245,1,70,10|2,3:2|2:0,2:0:0:0:
412,175,20826,1,10,3:2:0:0:
412,175,21002,6,0,L|463:192,1,35,2|0,2:0|2:0,2:0:0:0:
322,113,21355,2,0,L|373:96,1,35,2|0,2:0|2:0,2:0:0:0:
135,211,21885,6,0,L|153:149,1,35,10|0,3:2|2:0,2:0:0:0:
214,72,22238,2,0,L|196:10,1,35,10|0,3:2|2:0,2:0:0:0:
40,14,22591,5,6,2:0:0:0:
40,14,22767,2,0,L|72:102,1,70,2|10,2:0|3:2,2:0:0:0:
23,153,23120,2,0,L|-9:241,1,70,2|10,2:0|3:2,2:0:0:0:
33,301,23473,1,2,2:0:0:0:
33,301,23650,2,0,P|68:315|118:297,1,70,10|2,3:2|2:0,2:0:0:0:
261,351,24179,5,2,2:0:0:0:
261,351,24355,2,0,P|240:315|250:256,1,70,8|2,3:2|2:0,2:0:0:0:
300,230,24708,2,0,P|321:266|311:325,1,70,10|2,3:2|2:0,2:0:0:0:
385,349,25061,2,0,P|455:343|460:264,1,140,10|6,3:2|2:0,2:0:0:0:
432,207,25591,6,0,P|443:153|472:140,1,70,2|10,2:0|3:2,2:0:0:0:
468,66,25944,1,2,2:0:0:0:
468,66,26120,2,0,P|415:83|389:64,1,70,10|2,3:2|2:0,2:0:0:0:
331,38,26473,2,0,B|319:68|319:68|341:134,1,70,10|2,3:2|2:0,2:0:0:0:
158,161,27002,5,2,2:0:0:0:
158,161,27179,2,0,P|160:121|193:102,1,70,8|2,3:2|2:0,2:0:0:0:
260,134,27532,1,10,3:2:0:0:
229,211,27708,1,2,2:0:0:0:
307,240,27885,2,0,B|285:289|285:289|183:304,1,140,10|6,3:2|3:2,2:0:0:0:
132,352,28414,6,0,P|116:315|121:270,1,70,2|10,2:0|3:2,2:0:0:0:
129,202,28767,1,2,2:0:0:0:
129,202,28944,2,0,L|36:222,1,70,10|2,3:2|2:0,2:0:0:0:
36,135,29297,2,0,P|75:153|93:194,1,70,10|2,3:2|2:0,2:0:0:0:
178,33,29826,5,2,2:0:0:0:
178,33,30002,2,0,P|139:51|121:92,1,70,8|2,3:2|2:0,2:0:0:0:
172,142,30355,1,10,3:2:0:0:
117,286,30708,1,10,3:2:0:0:
270,353,31061,5,6,3:2:0:0:
270,353,31238,1,2,2:0:0:0:
270,353,31414,2,0,P|310:353|342:318,1,70,10|2,3:2|2:0,2:0:0:0:
323,251,31767,2,0,L|307:171,2,70,10|2|10,3:2|2:0|3:2,2:0:0:0:
406,238,32297,1,2,2:0:0:0:
406,238,32473,6,0,L|390:158,1,70,10|2,3:2|2:0,2:0:0:0:
475,157,32826,6,0,L|488:225,1,70,10|2,3:2|2:0,2:0:0:0:
458,304,33179,1,10,3:2:0:0:
406,238,33355,1,2,2:0:0:0:
488,225,33532,2,0,L|472:145,1,70,10|2,3:2|2:0,2:0:0:0:
425,76,33885,6,0,B|401:122|401:122|281:114,1,140,6|10,3:2|3:2,2:0:0:0:
232,92,34414,2,0,P|248:60|296:31,1,70,2|10,2:0|3:2,2:0:0:0:
138,138,34944,2,0,P|102:116|45:120,1,70,10|2,3:2|2:0,2:0:0:0:
12,56,35297,6,0,L|44:204,1,140,10|8,3:2|3:2,2:0:0:0:
121,218,35826,1,2,2:0:0:0:
56,271,36002,2,0,L|37:353,1,70,10|2,3:2|2:0,2:0:0:0:
135,306,36355,2,0,L|116:388,1,70,10|2,3:2|2:0,2:0:0:0:
200,246,36708,5,6,3:2:0:0:
335,345,37061,2,0,P|310:300|324:261,1,70,10|2,3:2|2:0,2:0:0:0:
388,248,37414,2,0,P|413:293|399:332,1,70,10|2,3:2|2:0,2:0:0:0:
472,367,37767,2,0,P|359:352|319:339,1,140,10|10,3:2|3:2,2:0:0:0:
249,349,38297,5,2,2:0:0:0:
213,272,38473,2,0,P|214:219|229:202,1,70,8|2,3:2|2:0,2:0:0:0:
297,167,38826,1,10,3:2:0:0:
297,167,39002,2,0,L|318:81,2,70,2|10|2,2:0|3:2|2:0,2:0:0:0:
222,127,39532,5,6,3:2:0:0:
382,56,39885,2,0,P|370:41|300:20,1,70,10|2,3:2|2:0,2:0:0:0:
242,3,40238,2,0,P|230:18|160:39,1,70,10|2,3:2|2:0,2:0:0:0:
217,117,40591,1,10,3:2:0:0:
8,8,41120,5,2,2:0:0:0:
8,8,41297,2,0,P|22:58|15:88,1,70,8|2,3:2|2:0,2:0:0:0:
22,159,41650,2,0,P|20:193|33:226,1,70,10|2,3:2|2:0,2:0:0:0:
115,241,42002,1,10,3:2:0:0:
93,322,42179,1,2,2:0:0:0:
175,356,42355,5,6,3:2:0:0:
175,356,42532,2,0,L|267:337,1,70,2|10,2:0|3:2,2:0:0:0:
287,269,42885,2,0,L|195:250,1,70,2|10,2:0|3:2,2:0:0:0:
238,175,43238,1,2,2:0:0:0:
238,175,43326,2,0,L|306:189,1,70,0|0,2:0|2:0,2:0:0:0:
340,163,43591,6,0,P|395:183|389:275,4,140,2|2|2|2|2,2:0|2:0|2:0|2:0|2:0,2:0:0:0:
424,157,45179,5,0,3:2:0:0:
70,282,50826,5,0,3:2:0:0:
70,282,51179,2,0,P|71:240|81:203,1,70,10|2,3:2|2:0,2:0:0:0:
152,251,51532,2,0,P|159:216|159:181,1,70,2|2,2:0|2:0,2:0:0:0:
116,109,51885,2,0,P|168:93|208:116,1,70,2|2,2:0|2:0,2:0:0:0:
243,153,52238,1,2,2:0:0:0:
243,153,52414,2,0,P|239:100|284:13,2,140,0|0|0,2:0|2:0|2:0,2:0:0:0:
301,214,53297,2,0,P|329:161|283:88,1,140,2|2,2:0|2:0,2:0:0:0:
256,192,53826,12,2,55061,2:0:0:0:
36,344,56473,6,0,B|18:267|18:267|54:220,1,125.999996154785,4|0,2:1|2:0,2:0:0:0:
58,232,56826,2,0,L|160:250,1,83.9999974365235,10|2,3:2|2:0,2:0:0:0:
193,170,57179,2,0,L|110:155,1,83.9999974365235,10|2,3:2|2:0,2:0:0:0:
33,113,57532,1,10,3:2:0:0:
33,113,57708,6,0,P|79:123|166:29,2,167.999994873047,2|2|2,2:0|2:0|2:0,2:0:0:0:
74,29,58591,1,10,3:2:0:0:
74,29,58767,2,0,P|169:23|261:12,1,167.999994873047,2|2,2:0|2:0,2:0:0:0:
334,21,59297,6,0,P|359:63|334:109,1,83.9999974365235,6|0,2:0|2:0,2:0:0:0:
305,175,59650,1,10,3:2:0:0:
384,220,59826,1,2,2:0:0:0:
350,305,60002,2,0,L|262:288,1,83.9999974365235,10|2,3:2|2:0,2:0:0:0:
189,345,60355,1,10,3:2:0:0:
189,345,60532,6,0,P|259:315|373:307,1,167.999994873047,2|2,2:0|2:0,2:0:0:0:
428,352,61061,2,0,P|446:309|430:274,1,83.9999974365235,8|2,3:2|2:0,2:0:0:0:
412,96,61591,1,2,2:0:0:0:
412,96,61767,2,0,P|394:139|410:174,1,83.9999974365235,10|2,3:2|2:0,2:0:0:0:
493,207,62120,6,0,P|433:204|307:189,1,167.999994873047,6|10,2:0|3:2,2:0:0:0:
266,131,62650,1,2,2:0:0:0:
266,131,62826,2,0,P|204:148|198:189,1,83.9999974365235,10|2,3:2|2:0,2:0:0:0:
140,222,63179,1,10,3:2:0:0:
67,179,63355,6,0,P|5:162|-1:121,1,83.9999974365235,2|0,2:0|2:0,2:0:0:0:
57,88,63708,2,0,P|102:42|141:58,1,83.9999974365235,2|8,2:0|3:2,2:0:0:0:
200,73,64061,1,2,2:0:0:0:
200,73,64238,1,10,3:2:0:0:
260,15,64414,2,0,B|317:45|317:45|296:165,1,167.999994873047,2|2,2:0|2:0,2:0:0:0:
230,196,64944,6,0,B|302:184|302:184|332:200|332:200|412:187,1,167.999994873047,6|10,2:0|3:2,2:0:0:0:
455,134,65473,1,2,2:0:0:0:
400,197,65650,2,0,L|289:218,2,83.9999974365235,10|2|10,3:2|2:0|3:2,2:0:0:0:
403,281,66179,6,0,L|353:292,1,41.9999987182618,2|0,2:0|2:0,2:0:0:0:
286,358,66532,2,0,L|236:347,1,41.9999987182618,2|0,2:0|2:0,2:0:0:0:
255,153,67061,6,0,L|205:164,1,41.9999987182618,10|0,3:2|2:0,2:0:0:0:
116,242,67414,2,0,L|66:231,1,41.9999987182618,10|0,3:2|2:0,2:0:0:0:
37,112,67767,6,0,P|43:43|111:35,1,125.999996154785,4|0,2:1|2:0,2:0:0:0:
95,32,68120,2,0,P|140:49|197:20,1,83.9999974365235,10|2,3:2|2:0,2:0:0:0:
263,17,68473,1,10,3:2:0:0:
263,17,68650,1,2,2:0:0:0:
303,99,68826,1,10,3:2:0:0:
375,42,69002,6,0,P|394:102|379:145,1,83.9999974365235,2|0,2:0|2:0,2:0:0:0:
330,191,69355,2,0,P|327:232|345:270,1,83.9999974365235,2|8,2:0|3:2,2:0:0:0:
425,317,69708,1,2,2:0:0:0:
427,224,69885,1,10,3:2:0:0:
504,274,70061,2,0,B|513:196|513:196|512:189|512:189|525:95,1,167.999994873047,2|2,2:0|2:0,2:0:0:0:
466,33,70591,6,0,P|417:28|371:61,1,83.9999974365235,6|0,2:0|2:0,2:0:0:0:
309,94,70944,1,10,3:2:0:0:
309,94,71120,1,2,2:0:0:0:
225,52,71297,2,0,L|142:38,1,83.9999974365235,10|2,3:2|2:0,2:0:0:0:
65,90,71650,1,10,3:2:0:0:
133,153,71826,6,0,L|298:180,1,167.999994873047,2|2,2:0|2:0,2:0:0:0:
259,266,72355,1,8,3:2:0:0:
259,266,72532,2,0,P|216:224|207:189,1,83.9999974365235,2|10,2:0|3:2,2:0:0:0:
165,293,72885,2,0,L|330:320,1,167.999994873047,2|2,2:0|2:0,2:0:0:0:
421,337,73414,6,0,P|467:301|460:273,1,83.9999974365235,6|0,2:0|2:0,2:0:0:0:
405,211,73767,1,10,3:2:0:0:
467,142,73944,1,2,2:0:0:0:
410,69,74120,2,0,B|371:84|371:84|317:55,1,83.9999974365235,10|2,3:2|2:0,2:0:0:0:
254,111,74473,1,10,3:2:0:0:
176,59,74650,6,0,P|122:58|100:88,1,83.9999974365235,2|0,2:0|2:0,2:0:0:0:
24,32,75002,2,0,P|6:83|28:113,1,83.9999974365235,2|8,2:0|3:2,2:0:0:0:
75,179,75355,2,0,L|57:289,1,83.9999974365235,2|10,2:0|3:2,2:0:0:0:
9,339,75708,1,2,2:0:0:0:
9,339,75885,1,2,2:0:0:0:
62,261,76061,1,2,2:0:0:0:
135,318,76238,6,0,P|222:325|260:252,1,167.999994873047,6|10,2:0|3:2,2:0:0:0:
238,173,76767,1,2,2:0:0:0:
238,173,76944,2,0,L|214:64,2,83.9999974365235,10|2|10,3:2|2:0|3:2,2:0:0:0:
312,117,77473,5,2,2:0:0:0:
132,160,77826,1,2,2:0:0:0:
379,35,78355,5,10,3:2:0:0:
325,211,78708,1,10,3:2:0:0:
497,322,79061,6,0,L|507:239,3,70,6|2|10|2,2:0|2:0|3:2|2:0,2:0:0:0:
417,275,79767,2,0,L|407:364,1,70,10|2,3:2|2:0,2:0:0:0:
315,367,80120,2,0,L|324:283,1,70,10|2,3:2|2:0,2:0:0:0:
232,325,80473,6,0,L|241:241,1,70,10|2,3:2|2:0,2:0:0:0:
155,256,80826,1,8,3:2:0:0:
92,310,81002,1,2,2:0:0:0:
92,310,81179,2,0,L|252:326,1,140,10|10,3:2|3:2,2:0:0:0:
310,351,81708,1,2,2:0:0:0:
355,280,81885,6,0,P|363:220|395:203,1,70,6|2,2:0|2:0,2:0:0:0:
320,146,82238,2,0,P|264:169|233:149,1,70,10|2,3:2|2:0,2:0:0:0:
212,103,82591,1,10,3:2:0:0:
212,103,82767,1,2,2:0:0:0:
125,141,82944,2,0,L|22:134,1,70,10|2,3:2|2:0,2:0:0:0:
9,48,83297,6,0,B|-1:35|-1:35|51:36,1,70,10|2,3:2|2:0,2:0:0:0:
136,32,83650,2,0,B|163:28|163:28|163:25|163:25|218:15,1,70,8|2,3:2|2:0,2:0:0:0:
285,13,84002,2,0,B|320:24|320:24|304:91,1,105,10|0,3:2|2:0,2:0:0:0:
310,94,84355,2,0,L|335:-3,1,70,10|0,3:2|2:0,2:0:0:0:
411,21,84708,6,0,L|390:102,3,70,6|2|10|2,3:2|2:0|3:2|2:0,2:0:0:0:
310,94,85414,2,0,L|289:175,1,70,10|2,3:2|2:0,2:0:0:0:
342,229,85767,1,10,3:2:0:0:
342,229,85944,1,2,2:0:0:0:
292,298,86120,6,0,P|257:321|225:314,1,70,10|2,3:2|2:0,2:0:0:0:
168,260,86473,2,0,P|133:257|106:279,1,70,8|2,3:2|2:0,2:0:0:0:
26,303,86826,2,0,P|93:323|157:353,1,140,10|10,3:2|3:2,2:0:0:0:
231,317,87355,1,2,2:0:0:0:
300,364,87532,6,0,P|315:307|305:275,1,70,6|2,3:2|2:0,2:0:0:0:
262,230,87885,2,0,P|261:195|275:163,1,70,10|2,3:2|2:0,2:0:0:0:
333,102,88238,1,10,3:2:0:0:
333,102,88414,1,2,2:0:0:0:
366,26,88591,2,0,P|333:19|298:25,1,70,10|2,3:2|2:0,2:0:0:0:
224,64,88944,6,0,P|170:70|137:59,1,70,10|2,3:2|2:0,2:0:0:0:
82,24,89297,1,8,3:2:0:0:
82,24,89473,1,2,2:0:0:0:
82,24,89650,2,0,L|104:186,1,140,10|10,3:2|3:2,2:0:0:0:
42,101,90179,1,0,2:0:0:0:
91,168,90355,6,0,L|104:267,1,70,6|2,3:2|2:0,2:0:0:0:
16,226,90708,2,0,L|29:325,1,70,10|2,3:2|2:0,2:0:0:0:
113,315,91062,2,0,L|126:414,1,70,10|2,3:2|2:0,2:0:0:0:
196,345,91414,1,10,3:2:0:0:
240,273,91591,1,2,2:0:0:0:
310,318,91767,6,0,P|359:322|383:296,1,70,10|2,3:2|2:0,2:0:0:0:
436,254,92120,2,0,P|408:213|404:176,1,70,8|2,3:2|2:0,2:0:0:0:
374,114,92473,2,0,P|423:110|457:125,1,70,10|2,3:2|2:0,2:0:0:0:
507,62,92826,1,10,3:2:0:0:
507,62,93002,1,2,2:0:0:0:
429,28,93179,6,0,P|358:29|291:64,1,140,6|10,3:2|3:2,2:0:0:0:
266,137,93708,1,2,2:0:0:0:
187,105,93885,2,0,P|148:109|108:84,1,70,10|2,3:2|2:0,2:0:0:0:
55,43,94238,1,10,3:2:0:0:
135,13,94414,6,0,P|174:9|214:34,2,70,0|10|2,2:0|3:2|2:0,2:0:0:0:
55,43,94944,2,0,P|38:73|45:136,1,70,8|2,3:2|2:0,2:0:0:0:
82,177,95297,2,0,P|103:225|67:274,1,105,10|0,3:2|2:0,2:0:0:0:
74,273,95650,2,0,L|162:263,1,70,10|0,3:2|2:0,2:0:0:0:
168,346,96002,6,0,L|98:353,1,70,6|2,3:2|2:0,2:0:0:0:
235,348,96355,2,0,L|165:355,1,70,10|2,3:2|2:0,2:0:0:0:
302,350,96708,1,10,3:2:0:0:
408,220,97061,5,10,3:2:0:0:
457,288,97238,1,2,2:0:0:0:
390,338,97414,2,0,L|307:326,1,70,10|2,3:2|2:0,2:0:0:0:
299,246,97767,2,0,L|229:256,1,70,8|2,3:2|2:0,2:0:0:0:
155,295,98120,2,0,P|144:255|158:210,1,70,10|2,3:2|2:0,2:0:0:0:
197,159,98473,1,10,3:2:0:0:
197,159,98650,1,2,2:0:0:0:
123,119,98826,6,0,L|46:125,1,70,6|2,3:2|2:0,2:0:0:0:
88,41,99179,2,0,L|19:47,2,70,10|2|10,3:2|2:0|3:2,2:0:0:0:
172,46,99708,1,0,2:0:0:0:
246,7,99885,1,10,3:2:0:0:
246,90,100061,6,0,B|304:86|304:86|323:71|323:71|410:66,3,140,2|2|2|0,2:0|2:0|2:0|2:0,2:0:0:0:
361,150,101297,1,10,3:2:0:0:
442,130,101473,1,0,2:0:0:0:
421,211,101650,1,0,3:2:0:0:
436,376,107297,6,0,L|422:285,1,70,8|0,3:2|2:0,2:0:0:0:
348,342,107650,1,10,3:2:0:0:
180,337,108002,2,0,L|194:246,1,70,2|2,2:0|2:0,2:0:0:0:
268,303,108355,1,2,2:0:0:0:
432,289,108708,6,0,L|418:198,1,70,2|0,2:0|2:0,2:0:0:0:
344,255,109061,1,2,3:2:0:0:
176,250,109413,2,0,L|190:159,1,70,10|0,3:2|2:0,2:0:0:0:
264,216,109766,1,2,2:0:0:0:
372,150,110120,6,0,L|366:115,2,35,2|2|2,2:0|2:0|2:0,2:0:0:0:
275,128,110473,2,0,L|280:93,2,35,2|2|2,2:0|2:0|2:0,2:0:0:0:
370,27,110826,6,0,L|387:29,4,17.5,2|0|0|0|0,2:0|2:0|2:0|2:0|2:0,2:0:0:0:
290,12,111179,2,0,L|272:9,4,17.5,0|0|0|0|0,2:0|2:0|2:0|2:0|2:0,2:0:0:0:
256,192,111532,12,2,112591,2:0:0:0:
413,91,112944,6,0,P|347:71|308:125,1,125.999996154785,4|0,2:1|2:0,2:0:0:0:
313,115,113297,2,0,L|342:227,1,83.9999974365235,10|2,3:2|2:0,2:0:0:0:
264,256,113650,2,0,L|242:174,1,83.9999974365235,10|2,3:2|2:0,2:0:0:0:
166,122,114002,1,10,3:2:0:0:
168,215,114179,6,0,L|209:377,2,167.999994873047,2|2|2,2:0|2:0|2:0,2:0:0:0:
83,244,115061,2,0,P|157:303|171:302,1,83.9999974365235,10|2,3:2|2:0,2:0:0:0:
236,272,115414,1,0,0:0:0:0:
361,118,115767,6,0,B|338:152|338:152|352:218,1,83.9999974365235,6|0,2:0|2:0,2:0:0:0:
436,169,116121,1,10,3:2:0:0:
443,77,116297,1,2,2:0:0:0:
361,118,116473,2,0,L|273:101,1,83.9999974365235,10|2,3:2|2:0,2:0:0:0:
211,38,116826,1,10,3:2:0:0:
160,115,117002,6,0,P|89:126|41:43,1,167.999994873047,2|2,2:0|2:0,2:0:0:0:
41,147,117532,2,0,L|35:242,1,83.9999974365235,8|2,3:2|2:0,2:0:0:0:
176,358,118061,1,2,2:0:0:0:
176,358,118238,2,0,L|181:274,1,83.9999974365235,10|2,3:2|2:0,2:0:0:0:
234,198,118591,6,0,P|291:244|264:328,1,167.999994873047,6|10,2:0|3:2,2:0:0:0:
336,264,119120,1,2,2:0:0:0:
336,264,119297,2,0,P|390:243|436:236,1,83.9999974365235,10|2,3:2|2:0,2:0:0:0:
490,291,119650,1,10,3:2:0:0:
498,199,119826,6,0,P|464:154|434:158,1,83.9999974365235,2|0,2:0|2:0,2:0:0:0:
392,76,120179,2,0,P|347:103|293:108,1,83.9999974365235,2|8,2:0|3:2,2:0:0:0:
239,68,120532,1,2,2:0:0:0:
239,68,120709,1,10,3:2:0:0:
163,120,120885,2,0,B|113:153|113:153|145:41,1,167.999994873047,2|2,2:0|2:0,2:0:0:0:
52,69,121414,6,0,L|77:252,1,167.999994873047,6|10,2:0|3:2,2:0:0:0:
159,274,121944,1,2,2:0:0:0:
86,330,122120,2,0,P|23:358|-5:340,2,83.9999974365235,10|2|10,3:2|2:0|3:2,2:0:0:0:
159,274,122650,5,2,2:0:0:0:
332,337,123002,1,2,2:0:0:0:
510,124,123532,5,10,3:2:0:0:
337,188,123884,1,10,3:2:0:0:
455,330,124238,6,0,L|427:201,1,125.999996154785,4|0,2:1|2:0,2:0:0:0:
438,213,124591,2,0,L|420:121,1,83.9999974365235,10|2,3:2|2:0,2:0:0:0:
340,86,124944,1,10,3:2:0:0:
340,86,125120,1,2,2:0:0:0:
408,23,125297,1,10,3:2:0:0:
491,61,125473,6,0,L|506:150,1,83.9999974365235,2|0,2:0|2:0,2:0:0:0:
422,131,125826,2,0,L|319:115,1,83.9999974365235,2|8,2:0|3:2,2:0:0:0:
300,202,126179,1,2,2:0:0:0:
219,156,126356,1,10,3:2:0:0:
178,238,126532,2,0,P|170:149|123:64,1,167.999994873047,2|2,2:0|2:0,2:0:0:0:
42,79,127061,6,0,P|47:131|88:148,1,83.9999974365235,6|0,2:0|2:0,2:0:0:0:
140,84,127414,1,10,3:2:0:0:
140,84,127591,1,2,2:0:0:0:
208,145,127767,1,10,3:2:0:0:
254,65,127944,2,0,P|306:48|340:72,1,83.9999974365235,2|10,2:0|3:2,2:0:0:0:
374,140,128297,6,0,P|375:58|477:6,1,167.999994873047,2|2,2:0|2:0,2:0:0:0:
459,97,128826,1,8,3:2:0:0:
495,181,129002,2,0,P|450:213|421:257,1,83.9999974365235,2|10,2:0|3:2,2:0:0:0:
448,327,129356,2,0,B|390:304|390:304|353:314|353:314|278:288,1,167.999994873047,2|2,2:0|2:0,2:0:0:0:
240,213,129885,6,0,P|194:249|201:277,1,83.9999974365235,6|0,2:0|2:0,2:0:0:0:
219,357,130238,1,10,3:2:0:0:
126,368,130415,1,2,2:0:0:0:
75,290,130591,2,0,B|36:305|36:305|-18:276,1,83.9999974365235,10|2,3:2|2:0,2:0:0:0:
37,200,130944,1,10,3:2:0:0:
127,183,131120,6,0,L|210:176,1,83.9999974365235,2|0,2:0|2:0,2:0:0:0:
243,89,131473,2,0,L|159:82,1,83.9999974365235,2|8,2:0|3:2,2:0:0:0:
87,23,131826,2,0,B|63:58|63:58|69:133,1,83.9999974365235,2|10,2:0|3:2,2:0:0:0:
39,190,132179,1,2,2:0:0:0:
39,190,132356,1,0,2:0:0:0:
127,183,132532,1,2,2:0:0:0:
132,275,132709,6,0,P|219:282|257:209,1,167.999994873047,6|10,2:0|3:2,2:0:0:0:
335,279,133238,1,2,2:0:0:0:
335,279,133415,2,0,L|311:388,2,83.9999974365235,10|2|10,3:2|2:0|3:2,2:0:0:0:
416,322,133944,5,2,2:0:0:0:
257,220,134297,1,2,2:0:0:0:
508,104,134826,5,10,3:2:0:0:
349,4,135179,1,10,3:2:0:0:
256,192,135532,12,0,136944,2:0:0:0:
